osu file format v14

[General]
AudioFilename: audio.mp3
AudioLeadIn: 0
PreviewTime: 67480
Countdown: 0
SampleSet: Soft
StackLeniency: 0.7
Mode: 0
LetterboxInBreaks: 0
WidescreenStoryboard: 1

[Editor]
Bookmarks: 16880,29680,42480,55280,68080,93680,106285
DistanceSpacing: 0.7
BeatDivisor: 4
GridSize: 16
TimelineZoom: 2.599999

[Metadata]
Title:Audrey
TitleUnicode:オードリー
Artist:Osaka Shizuku (CV: Maeda Kaori)
ArtistUnicode:桜坂しずく (CV: 前田佳織里)
Creator:Ayucchi
Version:Kyairie's Hard
Source:ラブライブ!スクールアイドルフェスティバル ALL STARS
Tags:kyairie notabox mrgglock anime video game ver. pop japanese LoveLive! Love Live! School Idol Festival All Stars Nijigasaki High Club Gakuen Doukoukai Dokokai NijiGaku ラブライブ!虹ヶ咲学園スクールアイドル同好会 Love U my friends 2nd Album jpop j-pop version second video 月見草 Tsukimisou 菊池博人 Hiroto Kikuchi
BeatmapID:3057000
BeatmapSetID:1491341

[Difficulty]
HPDrainRate:5
CircleSize:4
OverallDifficulty:7
ApproachRate:8
SliderMultiplier:1.8
SliderTickRate:1

[Events]
//Background and Video events
0,0,"audrey.jpg",0,0
//Break Periods
//Storyboard Layer 0 (Background)
//Storyboard Layer 1 (Fail)
//Storyboard Layer 2 (Pass)
//Storyboard Layer 3 (Foreground)
//Storyboard Layer 4 (Overlay)
//Storyboard Sound Samples

[TimingPoints]
4080,400,4,2,1,30,1,0
4080,-166.666666666667,4,2,1,30,0,0
10480,-125,4,2,1,40,0,0
13680,-125,4,2,1,50,0,0
15080,-166.666666666666,4,2,1,50,0,0
16880,-100,4,2,1,65,0,0
29680,-142.857142857143,4,2,1,40,0,0
39280,-142.857142857143,4,2,1,50,0,0
40080,-125,4,2,1,50,0,0
55280,-142.857142857143,4,2,1,40,0,0
60080,-125,4,2,1,50,0,0
61680,-111.111111111111,4,2,1,50,0,0
66480,-111.111111111111,4,2,1,65,0,0
68080,-90.9090909090909,4,2,1,75,0,1
80280,-90.9090909090909,4,2,1,75,0,0
80880,-90.9090909090909,4,2,1,75,0,1
93680,-100,4,2,1,65,0,0
107280,-100,4,2,1,25,0,0
113280,-100,4,2,1,5,0,0

[Colours]
Combo1 : 169,229,255
Combo2 : 119,158,203
Combo3 : 255,209,229

[HitObjects]
455,324,4080,6,0,P|403:318|355:343,1,107.999996704102,2|0,0:2|0:2,0:0:0:0:
298,270,4680,2,0,P|246:275|198:250,2,107.999996704102,2|0|0,2:3|0:0|0:0,0:0:0:0:
328,183,5680,6,0,P|315:141|310:56,1,107.999996704102,2|0,0:2|0:2,0:0:0:0:
216,47,6280,2,0,P|212:100|197:152,1,107.999996704102,2|0,0:2|0:0,0:0:0:0:
118,203,6880,2,0,L|65:207,1,53.9999983520508,2|0,0:2|0:0,0:0:0:0:
27,297,7280,6,0,L|135:306,1,107.999996704102,2|2,0:2|0:2,0:0:0:0:
197,370,7880,2,0,L|305:360,2,107.999996704102,2|0|0,2:3|0:0|0:0,0:0:0:0:
135,306,8880,6,0,P|148:264|153:179,1,107.999996704102,2|2,0:2|0:2,0:0:0:0:
247,170,9480,2,0,P|252:223|267:275,1,107.999996704102,2|2,0:2|0:3,0:0:0:0:
356,259,10080,2,0,L|436:265,1,80.9999975280763,2|0,0:2|0:2,0:0:0:0:
466,267,10480,6,0,B|430:227|430:227|455:139,1,144,6|0,3:2|0:2,0:0:0:0:
402,61,11080,2,0,B|363:51|326:67|340:79|303:95|264:85,1,144,2|0,3:2|0:2,0:0:0:0:
182,42,11680,1,2,0:2:0:0:
182,42,11880,1,0,0:2:0:0:
116,104,12080,6,0,B|23:86|23:86|36:133,1,144,2|0,3:2|0:2,0:0:0:0:
96,205,12680,2,0,B|158:199|158:199|172:188|172:188|235:183,1,144,2|0,3:2|0:2,0:0:0:0:
320,219,13280,2,0,P|304:312|308:341,1,108,0|2,0:2|2:2,0:0:0:0:
320,344,13680,6,0,L|248:338,1,72,2|0,3:2|0:0,0:0:0:0:
167,378,14080,2,0,L|95:385,1,72,2|0,3:2|3:2,0:0:0:0:
4,338,14480,5,2,3:2:0:0:
4,338,14680,1,0,3:2:0:0:
31,247,14880,5,2,1:2:0:0:
31,247,15080,2,0,B|110:286|190:207|150:187|230:107|310:147,1,323.999990112305,6|0,1:2|0:0,0:0:0:0:
269,230,16480,1,2,3:2:0:0:
270,250,16580,1,2,3:2:0:0:
272,270,16680,1,2,3:2:0:0:
274,290,16780,1,2,3:2:0:0:
276,310,16880,6,0,P|358:299|437:358,1,180,6|0,3:2|1:2,0:0:0:0:
504,275,17480,1,0,0:2:0:0:
504,275,17680,2,0,L|513:185,1,90,0|0,3:2|3:2,0:0:0:0:
447,110,18080,1,0,1:2:0:0:
347,196,18280,1,2,0:2:0:0:
347,196,18380,1,2,0:2:0:0:
347,196,18480,6,0,B|311:165|311:116|311:116|294:162|250:179,1,180,2|0,3:2|1:2,0:0:0:0:
192,88,19080,1,0,3:2:0:0:
192,88,19280,2,0,P|193:43|180:0,1,90,2|2,0:2|0:2,0:0:0:0:
62,29,19680,2,0,P|49:71|50:116,1,90,2|2,1:2|0:2,0:0:0:0:
138,208,20080,6,0,B|203:214|203:214|246:191|246:191|312:197,1,180,6|0,3:2|1:2,0:0:0:0:
394,259,20680,2,0,L|402:348,1,90,2|0,0:2|3:2,0:0:0:0:
500,276,21080,2,0,L|509:180,1,90,2|0,3:2|1:2,0:0:0:0:
434,84,21480,6,0,B|388:68|343:99|358:114|313:144|268:129,1,180,6|0,3:2|3:2,0:0:0:0:
316,28,22080,1,4,1:2:0:0:
207,6,22280,1,0,3:0:0:0:
207,6,22380,1,0,0:2:0:0:
207,6,22480,2,0,L|96:15,1,90,0|0,3:2|3:2,0:0:0:0:
28,71,22880,1,2,1:2:0:0:
28,71,23080,1,2,3:2:0:0:
102,181,23280,6,0,B|165:186|165:186|153:330,1,180,6|0,3:2|1:2,0:0:0:0:
86,364,23880,2,0,P|164:317|279:316,1,180,2|0,0:2|3:2,0:0:0:0:
334,377,24480,1,0,1:2:0:0:
334,377,24680,1,0,3:2:0:0:
462,327,24880,6,0,L|453:231,1,90,6|2,3:2|0:2,0:0:0:0:
370,176,25280,1,2,1:2:0:0:
370,176,25480,2,0,B|324:160|279:191|294:206|249:236|204:221,1,180,6|0,1:2|3:2,0:0:0:0:
118,169,26080,2,0,L|126:80,1,90,2|0,1:2|3:2,0:0:0:0:
252,10,26480,5,6,3:2:0:0:
347,52,26680,1,0,3:0:0:0:
347,52,26780,1,0,3:2:0:0:
347,52,26880,2,0,L|458:43,1,90,0|0,1:2|3:2,0:0:0:0:
486,141,27280,5,2,1:2:0:0:
486,141,27480,1,2,3:2:0:0:
401,199,27680,5,2,1:2:0:0:
401,199,27880,2,0,B|365:230|365:279|365:279|348:233|304:216,1,180,6|0,1:2|3:2,0:0:0:0:
209,248,28480,1,0,1:2:0:0:
209,248,28680,6,0,B|214:181|214:181|244:143|244:143|250:77,1,180,6|2,3:2|3:2,0:0:0:0:
182,7,29280,1,2,1:2:0:0:
182,7,29480,1,2,3:2:0:0:
84,32,29680,5,4,0:2:0:0:
54,200,30280,1,2,0:0:0:0:
54,200,30480,2,0,P|46:153|43:106,2,94.499997116089,0|0|0,0:2|0:0|3:2,0:0:0:0:
126,250,31280,6,0,P|173:211|234:213,1,125.999996154785,2|0,3:2|0:2,0:0:0:0:
302,151,31880,2,0,P|349:190|411:187,1,125.999996154785,2|0,0:0|3:2,0:0:0:0:
479,245,32480,2,0,L|473:307,1,62.9999980773926,0|2,0:2|3:2,0:0:0:0:
391,346,32880,6,0,B|355:340|324:356|337:365|306:382|272:377,2,125.999996154785,2|2|0,3:2|0:2|0:2,0:0:0:0:
448,278,33880,2,0,L|442:216,1,62.9999980773926,2|0,0:0|0:2,0:0:0:0:
362,188,34280,5,0,3:2:0:0:
362,188,34480,1,2,3:2:0:0:
312,259,34680,1,2,0:2:0:0:
312,259,34780,1,2,0:0:0:0:
312,259,34880,2,0,B|256:253|256:253|243:260|243:260|188:255,1,125.999996154785,2|2,0:2|0:2,0:0:0:0:
116,216,35480,1,0,3:2:0:0:
116,216,35680,2,0,P|116:184|108:154,1,62.9999980773926,2|0,3:2|3:2,0:0:0:0:
27,129,36080,6,0,B|1:83|1:83|36:17,2,125.999996154785,6|0|0,3:2|0:2|0:2,0:0:0:0:
111,155,37080,1,2,0:2:0:0:
111,155,37280,1,2,0:2:0:0:
175,90,37480,6,0,B|211:84|242:100|229:109|260:126|294:121,1,125.999996154785,0|0,3:2|0:0,0:0:0:0:
358,60,38080,1,0,0:2:0:0:
358,60,38280,2,0,B|397:62|397:62|389:158,1,125.999996154785,2|2,0:2|3:2,0:0:0:0:
428,231,38880,1,2,0:2:0:0:
354,285,39080,1,2,3:2:0:0:
354,285,39180,1,0,3:0:0:0:
354,285,39280,6,0,P|304:248|223:256,1,125.999996154785,6|2,3:2|3:2,0:0:0:0:
179,309,39880,1,0,3:2:0:0:
179,309,40080,2,0,L|185:381,1,72,2|0,3:2|3:2,0:0:0:0:
83,351,40480,2,0,L|89:279,1,72,2|2,1:2|1:2,0:0:0:0:
31,205,40880,5,6,1:2:0:0:
91,128,41080,1,0,3:2:0:0:
91,128,41180,1,0,3:2:0:0:
91,128,41280,1,0,1:2:0:0:
182,154,41480,6,0,B|235:149|235:149|265:125|265:125|318:120,1,144,6|0,1:2|3:2,0:0:0:0:
391,186,42080,1,0,3:2:0:0:
418,188,42180,1,0,3:0:0:0:
445,190,42280,1,0,3:2:0:0:
472,193,42380,1,0,3:2:0:0:
499,195,42480,5,6,3:2:0:0:
394,321,42880,2,0,P|358:318|324:300,1,72,0|0,1:2|0:2,0:0:0:0:
302,208,43280,2,0,P|313:152|316:87,2,108,0|0|0,3:2|0:0|0:0,0:0:0:0:
233,271,44080,6,0,B|204:275|176:266|184:259|156:250|127:254,1,108,2|0,3:2|0:0,0:0:0:0:
107,269,44480,2,0,L|113:340,1,72,0|2,1:2|3:2,0:0:0:0:
16,313,44880,2,0,L|22:241,1,72,0|0,0:0|3:2,0:0:0:0:
1,149,45280,1,2,1:2:0:0:
74,90,45480,1,2,0:2:0:0:
74,90,45580,1,2,0:2:0:0:
74,90,45680,6,0,B|127:85|127:85|160:103|160:103|213:99,2,144,2|0|0,3:2|1:2|3:2,0:0:0:0:
108,178,46680,1,0,3:2:0:0:
108,178,46880,1,0,1:2:0:0:
49,247,47080,6,0,P|102:202|172:211,1,144,2|0,0:2|0:0,0:0:0:0:
257,179,47680,1,0,1:2:0:0:
257,179,47880,2,0,P|310:223|380:214,1,144,2|2,3:2|3:2,0:0:0:0:
368,128,48480,2,0,L|374:56,1,72,0|0,1:2|3:2,0:0:0:0:
443,7,48880,6,0,B|404:-3|367:13|381:25|344:41|304:32,1,144,6|0,3:2|1:2,0:0:0:0:
231,79,49480,1,0,0:2:0:0:
231,79,49680,2,0,P|199:66|157:68,1,72,0|0,3:2|3:2,0:0:0:0:
92,127,50080,1,0,1:2:0:0:
125,218,50280,1,2,0:2:0:0:
125,218,50380,1,2,0:2:0:0:
125,218,50480,6,0,L|119:289,1,72,2|0,3:2|0:0,0:0:0:0:
46,335,50880,1,0,1:2:0:0:
46,335,51080,2,0,B|99:330|99:330|129:306|129:306|182:301,1,144,2|2,3:2|3:2,0:0:0:0:
255,357,51680,1,0,1:2:0:0:
255,357,51880,1,0,0:2:0:0:
335,316,52080,6,0,L|343:220,1,72,2|0,3:2|0:0,0:0:0:0:
436,279,52480,2,0,L|427:183,1,72,2|0,1:2|0:0,0:0:0:0:
485,138,52880,1,2,3:2:0:0:
485,138,53080,1,0,3:2:0:0:
428,66,53280,2,0,P|387:68|349:85,1,72,0|2,1:2|3:2,0:0:0:0:
294,11,53680,5,6,3:2:0:0:
294,11,53880,1,2,0:2:0:0:
211,54,54080,5,2,1:2:0:0:
211,54,54280,2,0,B|226:81|255:97|255:97|233:179,1,144,2|2,3:2|3:2,0:0:0:0:
179,255,54880,1,2,3:2:0:0:
179,255,55080,1,2,3:2:0:0:
218,333,55280,6,0,B|265:348|312:317|297:301|344:269|391:285,1,188.999994232178,2|0,3:2|0:0,0:0:0:0:
441,352,56080,2,0,P|416:302|416:206,1,125.999996154785,0|0,0:2|0:2,0:0:0:0:
474,174,56680,1,0,3:2:0:0:
474,174,56880,6,0,P|412:188|349:193,1,125.999996154785,2|0,3:2|0:2,0:0:0:0:
303,123,57480,2,0,P|241:108|178:103,2,125.999996154785,2|0|2,0:0|3:2|3:2,0:0:0:0:
349,192,58480,6,0,P|323:122|400:33,1,188.999994232178,2|0,3:2|0:0,0:0:0:0:
456,89,59280,2,0,L|467:216,1,125.999996154785,0|0,0:2|0:2,0:0:0:0:
403,271,59880,1,0,3:2:0:0:
403,271,60080,6,0,L|396:350,1,72,2|2,3:2|3:2,0:0:0:0:
306,301,60480,1,2,1:2:0:0:
306,301,60680,2,0,B|265:291|227:307|241:319|203:336|163:326,1,144,6|2,1:2|3:2,0:0:0:0:
93,262,61280,1,2,3:2:0:0:
90,235,61380,1,0,3:2:0:0:
88,208,61480,1,2,3:2:0:0:
85,181,61580,1,0,3:2:0:0:
83,154,61680,6,0,B|143:159|143:159|177:186|177:186|237:191,1,161.999995056153,2|0,3:2|1:2,0:0:0:0:
302,115,62280,1,0,3:2:0:0:
302,115,62380,1,0,3:2:0:0:
302,115,62480,2,0,B|355:109|355:109|366:100|366:100|419:95,1,121.499996292114,0|0,3:2|0:0,0:0:0:0:
448,94,62880,2,0,P|474:144|469:191,1,80.9999975280763,0|2,1:2|0:2,0:0:0:0:
403,222,63280,6,0,P|472:218|504:296,1,161.999995056153,2|0,3:2|1:2,0:0:0:0:
424,348,63880,1,0,3:2:0:0:
424,348,63980,1,0,3:2:0:0:
424,348,64080,2,0,P|365:319|308:323,1,121.499996292114,2|0,3:2|0:0,0:0:0:0:
291,343,64480,2,0,L|284:263,1,80.9999975280763,0|2,1:2|0:2,0:0:0:0:
189,366,64880,5,6,3:2:0:0:
189,366,65080,2,0,L|195:286,1,80.9999975280763,0|2,3:2|1:2,0:0:0:0:
241,173,65480,6,0,B|201:159|161:186|174:199|134:226|93:213,1,161.999995056153,6|0,3:2|3:2,0:0:0:0:
73,198,65980,1,0,3:2:0:0:
73,198,66080,2,0,L|64:103,1,80.9999975280763,2|2,1:2|3:2,0:0:0:0:
149,41,66480,5,2,1:2:0:0:
149,41,66680,1,2,1:2:0:0:
225,134,66880,5,2,1:2:0:0:
225,134,67080,1,2,1:2:0:0:
281,16,67280,6,0,L|321:19,3,40.4999987640381,0|0|0|0,3:2|3:2|3:2|3:2,0:0:0:0:
349,48,67680,1,2,1:2:0:0:
389,44,67780,1,2,1:2:0:0:
429,40,67880,1,2,1:2:0:0:
470,37,67980,1,2,1:2:0:0:
510,33,68080,6,0,B|440:5|440:5|479:122,1,198.000006042481,6|0,3:2|1:2,0:0:0:0:
428,219,68680,1,0,3:2:0:0:
428,219,68780,1,0,3:2:0:0:
428,219,68880,2,0,P|378:193|320:201,1,99.0000030212403,0|0,3:2|3:2,0:0:0:0:
403,308,69280,2,0,P|451:308|494:283,1,99.0000030212403,2|0,1:2|0:2,0:0:0:0:
356,377,69680,6,0,B|283:383|283:383|243:350|243:350|170:356,1,198.000006042481,2|0,3:2|1:2,0:0:0:0:
316,292,70280,2,0,P|314:196|271:96,1,198.000006042481,2|0,3:2|3:2,0:0:0:0:
189,64,70880,1,0,1:2:0:0:
189,64,71080,1,2,0:2:0:0:
137,177,71280,6,0,B|89:159|71:108|71:108|71:162|31:196,1,198.000006042481,6|0,3:2|1:2,0:0:0:0:
103,278,71880,2,0,P|113:326|115:375,1,99.0000030212403,0|0,0:2|3:2,0:0:0:0:
209,310,72280,2,0,P|211:260|221:212,1,99.0000030212403,0|0,3:2|1:2,0:0:0:0:
369,153,72680,1,2,0:2:0:0:
369,153,72780,1,2,0:2:0:0:
369,153,72880,6,0,B|281:145|281:145|262:130|262:130|175:122,1,198.000006042481,2|2,3:2|1:2,0:0:0:0:
122,29,73480,2,0,L|220:20,1,99.0000030212403,2|0,3:2|0:2,0:0:0:0:
321,68,73880,1,2,3:2:0:0:
321,68,74080,2,0,P|362:41|428:43,1,99.0000030212403,2|2,1:2|3:2,0:0:0:0:
454,206,74480,6,0,B|404:222|355:189|371:173|322:140|272:156,1,198.000006042481,6|0,3:2|1:2,0:0:0:0:
204,269,75080,2,0,B|267:262|267:262|254:103,1,198.000006042481,2|2,3:2|3:2,0:0:0:0:
193,42,75680,1,2,1:2:0:0:
70,105,75880,1,2,3:2:0:0:
70,105,75980,1,0,3:2:0:0:
70,105,76080,6,0,B|63:177|63:177|96:217|96:217|90:290,1,198.000006042481,6|0,3:2|1:2,0:0:0:0:
156,146,76680,2,0,B|222:122|266:177|266:177|315:175|342:130,1,198.000006042481,2|2,3:2|3:2,0:0:0:0:
276,62,77280,1,0,1:2:0:0:
280,66,77480,1,2,3:2:0:0:
404,14,77680,6,0,P|452:19|497:40,1,99.0000030212403,6|0,3:2|0:0,0:0:0:0:
451,137,78080,2,0,P|402:142|357:163,1,99.0000030212403,0|2,1:2|0:2,0:0:0:0:
323,279,78480,5,0,3:2:0:0:
323,279,78680,1,0,3:2:0:0:
420,340,78880,5,2,1:2:0:0:
420,340,79080,2,0,B|370:356|321:323|337:307|288:274|238:290,1,198.000006042481,6|2,1:2|3:2,0:0:0:0:
141,363,79680,1,2,1:2:0:0:
141,363,79880,2,0,L|149:265,1,99.0000030212403,6|0,1:2|0:0,0:0:0:0:
207,159,80280,1,2,3:2:0:0:
175,155,80380,1,2,3:2:0:0:
142,165,80480,1,2,3:2:0:0:
117,183,80580,1,2,3:2:0:0:
90,202,80680,1,0,1:2:0:0:
57,213,80780,1,0,1:2:0:0:
25,209,80880,6,0,B|59:92|59:92|-23:119,1,198.000006042481,6|0,3:2|1:2,0:0:0:0:
67,65,81480,1,2,0:2:0:0:
67,65,81580,1,2,0:2:0:0:
67,65,81680,2,0,L|166:73,1,99.0000030212403,2|0,3:2|3:2,0:0:0:0:
249,147,82080,2,0,L|348:139,1,99.0000030212403,2|2,1:2|0:2,0:0:0:0:
453,43,82480,6,0,B|468:84|511:103|511:103|483:216,1,198.000006042481,2|0,3:2|1:2,0:0:0:0:
406,305,83080,2,0,B|366:271|366:217|366:217|348:268|300:286,1,198.000006042481,2|2,3:2|3:2,0:0:0:0:
220,225,83680,1,2,1:2:0:0:
220,225,83880,1,2,0:2:0:0:
144,351,84080,6,0,L|134:239,1,99.0000030212403,6|2,3:2|0:0,0:0:0:0:
133,221,84380,1,2,0:2:0:0:
133,221,84480,1,0,1:2:0:0:
22,256,84680,2,0,L|31:144,1,99.0000030212403,0|0,0:2|3:2,0:0:0:0:
112,73,85080,1,0,3:2:0:0:
112,73,85280,2,0,L|210:65,1,99.0000030212403,0|2,1:2|0:2,0:0:0:0:
319,153,85680,6,0,B|269:137|220:170|236:186|187:219|137:203,1,198.000006042481,2|0,3:2|1:2,0:0:0:0:
91,109,86280,2,0,L|100:10,1,99.0000030212403,2|2,3:2|0:2,0:0:0:0:
230,47,86680,1,2,3:2:0:0:
230,47,86880,2,0,L|239:146,1,99.0000030212403,2|2,1:2|3:2,0:0:0:0:
147,250,87280,6,0,P|92:231|4:323,1,198.000006042481,6|0,3:2|1:2,0:0:0:0:
92,371,87880,2,0,P|134:343|196:342,1,99.0000030212403,6|0,1:2|0:0,0:0:0:0:
278,283,88280,1,0,3:2:0:0:
278,283,88480,2,0,P|326:287|367:315,1,99.0000030212403,2|0,1:2|0:2,0:0:0:0:
461,224,88880,5,6,3:2:0:0:
461,224,89080,1,2,3:2:0:0:
389,122,89280,5,2,1:2:0:0:
389,122,89480,2,0,B|316:127|316:127|283:167|283:167|210:173,1,198.000006042481,6|0,3:2|3:2,0:0:0:0:
131,96,90080,1,0,1:2:0:0:
131,96,90280,1,2,3:2:0:0:
62,213,90480,6,0,L|52:324,1,99.0000030212403,6|0,3:2|0:0,0:0:0:0:
173,348,90880,2,0,L|164:249,1,99.0000030212403,0|0,1:2|0:2,0:0:0:0:
251,148,91280,5,0,3:2:0:0:
251,148,91480,1,0,3:2:0:0:
368,193,91680,5,2,1:2:0:0:
368,193,91880,2,0,P|306:190|256:167,1,99.0000030212403,6|0,3:2|0:0,0:0:0:0:
219,40,92280,5,2,1:2:0:0:
219,40,92480,1,2,1:2:0:0:
54,165,92880,1,0,3:2:0:0:
79,163,92980,1,0,3:2:0:0:
103,161,93080,1,0,3:2:0:0:
128,159,93180,1,0,3:2:0:0:
152,156,93280,2,0,L|263:146,1,99.0000030212403,2|2,1:2|1:2,0:0:0:0:
317,263,93680,6,0,B|362:277|406:247|392:233|436:203|481:217,1,180,6|0,3:2|1:2,0:0:0:0:
439,123,94280,1,0,0:2:0:0:
439,123,94480,2,0,L|448:33,1,90,0|0,3:2|3:2,0:0:0:0:
357,2,94880,1,0,1:2:0:0:
267,119,95080,5,2,0:2:0:0:
267,119,95180,1,2,0:2:0:0:
267,119,95280,2,0,B|200:126|200:126|164:95|164:95|98:101,1,180,2|0,3:2|1:2,0:0:0:0:
40,194,95880,1,0,3:2:0:0:
40,194,96080,2,0,P|56:236|62:280,1,90,2|2,0:2|3:2,0:0:0:0:
148,357,96480,2,0,P|155:313|171:271,1,90,2|2,1:2|0:2,0:0:0:0:
312,207,96880,6,0,B|233:200|233:200|216:186|216:186|137:179,1,180,6|0,3:2|1:2,0:0:0:0:
190,82,97480,2,0,P|234:87|272:109,1,90,2|0,0:2|3:2,0:0:0:0:
361,49,97880,2,0,P|382:88|385:132,1,90,2|0,3:2|1:2,0:0:0:0:
321,245,98280,6,0,B|367:261|412:230|397:215|442:185|487:200,1,180,6|0,3:2|3:2,0:0:0:0:
509,306,98880,1,0,1:2:0:0:
423,370,99080,1,0,3:0:0:0:
423,370,99180,1,0,3:2:0:0:
423,370,99280,2,0,L|334:361,1,90,0|0,3:2|3:2,0:0:0:0:
292,264,99680,1,2,1:2:0:0:
292,264,99880,1,2,3:2:0:0:
221,384,100080,6,0,P|146:335|57:335,1,180,6|0,3:2|1:2,0:0:0:0:
11,233,100680,2,0,P|99:233|174:184,1,180,2|0,0:2|3:2,0:0:0:0:
148,92,101280,1,0,1:2:0:0:
148,92,101480,1,0,3:2:0:0:
276,24,101680,6,0,L|372:33,1,90,6|2,3:2|0:2,0:0:0:0:
423,128,102080,1,2,1:2:0:0:
423,128,102280,2,0,B|377:112|332:143|347:158|302:188|257:173,1,180,2|0,1:2|3:2,0:0:0:0:
308,259,102880,2,0,L|299:348,1,90,2|0,1:2|3:2,0:0:0:0:
429,377,103280,5,6,3:2:0:0:
496,309,103480,1,0,3:0:0:0:
496,309,103580,1,0,3:2:0:0:
496,309,103680,2,0,L|487:198,1,90,0|0,1:2|3:2,0:0:0:0:
391,142,104080,5,2,1:2:0:0:
391,142,104280,1,2,3:2:0:0:
274,174,104480,5,2,1:2:0:0:
274,174,104680,2,0,B|231:190|214:236|214:236|214:187|178:156,1,180,6|0,1:2|3:2,0:0:0:0:
240,62,105280,1,0,1:2:0:0:
240,62,105480,6,0,B|305:56|305:56|341:87|341:87|408:80,1,180,6|2,3:2|3:2,0:0:0:0:
478,7,106080,1,2,1:2:0:0:
478,7,106280,1,2,3:2:0:0:
256,192,107280,12,0,113280,0:2:0:0:
