osu file format v14

[General]
AudioFilename: audio.mp3
AudioLeadIn: 0
PreviewTime: 67480
Countdown: 0
SampleSet: Soft
StackLeniency: 0.7
Mode: 0
LetterboxInBreaks: 0
WidescreenStoryboard: 0

[Editor]
Bookmarks: 113280
DistanceSpacing: 1.3
BeatDivisor: 4
GridSize: 8
TimelineZoom: 2

[Metadata]
Title:Audrey
TitleUnicode:オードリー
Artist:Osaka Shizuku (CV: Maeda Kaori)
ArtistUnicode:桜坂しずく (CV: 前田佳織里)
Creator:Ayucchi
Version:Facade
Source:ラブライブ!スクールアイドルフェスティバル ALL STARS
Tags:kyairie notabox mrgglock anime video game ver. pop japanese LoveLive! Love Live! School Idol Festival All Stars Nijigasaki High Club Gakuen Doukoukai Dokokai NijiGaku ラブライブ!虹ヶ咲学園スクールアイドル同好会 Love U my friends 2nd Album jpop j-pop version second video 月見草 Tsukimisou 菊池博人 Hiroto Kikuchi
BeatmapID:3056999
BeatmapSetID:1491341

[Difficulty]
HPDrainRate:6
CircleSize:4.5
OverallDifficulty:8
ApproachRate:9
SliderMultiplier:1.7
SliderTickRate:1

[Events]
//Background and Video events
0,0,"audrey.jpg",0,0
//Break Periods
//Storyboard Layer 0 (Background)
//Storyboard Layer 1 (Fail)
//Storyboard Layer 2 (Pass)
//Storyboard Layer 3 (Foreground)
//Storyboard Layer 4 (Overlay)
//Storyboard Sound Samples

[TimingPoints]
4080,400,4,2,1,30,1,0
4080,-142.857142857143,4,2,1,30,0,0
10480,-111.111111111111,4,2,1,40,0,0
13680,-100,4,2,1,50,0,0
16880,-100,4,2,1,65,0,0
29680,-142.857142857143,4,2,1,40,0,0
39280,-111.111111111111,4,2,1,50,0,0
53680,-100,4,2,1,50,0,0
55280,-125,4,2,1,40,0,0
60080,-125,4,2,1,50,0,0
60680,-100,4,2,1,50,0,0
66480,-100,4,2,1,65,0,0
68080,-83.3333333333333,4,2,1,75,0,1
92680,-83.3333333333333,4,2,1,75,0,0
92880,-100,4,2,1,75,0,0
93680,-100,4,2,1,65,0,0
107280,-100,4,2,1,25,0,0
113280,-100,4,2,1,5,0,0

[Colours]
Combo1 : 169,229,255
Combo2 : 119,158,203
Combo3 : 255,209,229

[HitObjects]
91,190,4080,6,0,B|159:188|129:143|206:145,1,118.999996368408,2|0,0:2|0:2,0:0:0:0:
196,144,4680,1,2,2:3:0:0:
247,207,4880,1,8,0:2:0:0:
354,71,5680,6,0,P|325:80|278:78,2,59.4999981842042,2|8|0,0:2|0:2|0:2,0:0:0:0:
354,71,6280,1,2,0:2:0:0:
401,12,6480,1,8,0:2:0:0:
474,193,6880,2,0,L|383:179,1,89.2499972763062,2|0,0:2|0:2,0:0:0:0:
385,179,7280,6,0,P|373:212|396:250,1,59.4999981842042,2|0,0:2|0:2,0:0:0:0:
456,273,7680,1,2,0:2:0:0:
456,273,7880,1,2,2:3:0:0:
403,330,8080,1,8,0:2:0:0:
166,316,8880,6,0,P|173:334|181:386,1,59.4999981842042,2|8,0:2|0:2,0:0:0:0:
239,287,9280,1,2,0:2:0:0:
186,230,9480,1,2,0:2:0:0:
186,230,9580,1,2,0:2:0:0:
186,230,9680,2,0,P|207:201|247:182,1,59.4999981842042,10|2,0:2|0:3,0:0:0:0:
39,99,10080,2,0,P|71:124|125:119,1,89.2499972763062,2|0,0:2|0:2,0:0:0:0:
129,116,10480,6,0,P|98:180|97:224,1,114.749996498108,6|0,3:2|0:2,0:0:0:0:
105,237,10880,1,0,0:2:0:0:
25,338,11080,2,0,P|13:299|36:259,1,76.4999976654053,2|0,3:2|0:2,0:0:0:0:
187,176,11480,1,0,0:2:0:0:
187,176,11680,2,0,P|217:186|281:190,1,76.4999976654053,2|0,0:2|0:2,0:0:0:0:
105,21,12080,6,0,B|169:21|145:67|221:63,1,114.749996498108,2|0,3:2|0:2,0:0:0:0:
218,72,12480,1,0,0:2:0:0:
339,20,12680,2,0,P|310:46|303:91,1,76.4999976654053,2|0,3:2|0:2,0:0:0:0:
334,226,13080,1,0,0:2:0:0:
334,226,13280,2,0,P|375:209|409:202,1,76.4999976654053,0|2,0:2|0:2,0:0:0:0:
475,180,13580,1,2,2:2:0:0:
481,188,13680,6,0,B|409:178|448:128|328:139,1,127.5,2|0,3:2|0:2,0:0:0:0:
298,160,14080,5,2,3:2:0:0:
486,104,14280,1,0,3:2:0:0:
301,81,14480,5,2,3:2:0:0:
470,260,14680,1,0,3:2:0:0:
397,31,14880,6,0,P|379:57|380:90,1,42.5,2|0,1:2|0:2,0:0:0:0:
460,333,15080,1,6,1:2:0:0:
256,192,15180,12,0,16380,0:2:0:0:
310,359,16480,5,2,3:2:0:0:
299,326,16580,1,2,3:2:0:0:
267,297,16680,1,2,3:2:0:0:
219,278,16780,1,2,3:2:0:0:
166,294,16880,6,0,B|217:274|217:274|232:248|232:248|298:228,1,127.5,6|0,3:2|0:2,0:0:0:0:
297,167,17280,2,0,B|309:161|309:161|255:167,1,42.5,0|0,1:2|0:2,0:0:0:0:
155,215,17480,1,0,0:2:0:0:
232,348,17680,5,0,3:2:0:0:
227,101,17880,1,0,3:2:0:0:
46,217,18080,2,0,P|83:244|73:303,1,85,0|2,1:2|0:2,0:0:0:0:
35,331,18380,1,2,0:2:0:0:
27,341,18480,6,0,B|11:260|60:293|43:189,1,127.5,2|0,3:2|0:2,0:0:0:0:
9,151,18880,2,0,L|68:141,1,42.5,0|0,1:2|0:2,0:0:0:0:
223,82,19080,1,0,3:2:0:0:
70,71,19280,2,0,L|56:27,2,42.5,2|2|2,0:2|0:2|0:2,0:0:0:0:
126,205,19680,1,2,1:2:0:0:
146,177,19780,1,2,0:2:0:0:
183,157,19880,1,2,0:2:0:0:
233,157,19980,1,2,0:2:0:0:
280,185,20080,6,0,B|352:180|328:248|416:227,1,127.5,6|0,3:2|0:2,0:0:0:0:
427,156,20480,2,0,B|415:148|415:148|360:162,1,42.5,0|0,1:2|0:2,0:0:0:0:
430,363,20680,6,0,P|441:312|467:256,1,85,2|0,0:2|3:2,0:0:0:0:
350,30,21080,2,0,P|339:81|313:137,1,85,2|0,3:2|1:2,0:0:0:0:
195,347,21480,6,0,P|210:290|302:275,1,127.5,6|0,3:2|0:2,0:0:0:0:
321,317,21880,1,0,3:2:0:0:
494,207,22080,6,0,B|451:197|451:197|433:166|433:166|379:153,1,127.5,4|0,1:2|0:2,0:0:0:0:
326,111,22480,1,0,3:2:0:0:
484,35,22680,1,0,3:2:0:0:
319,214,22880,6,0,P|307:202|302:166,1,42.5,2|0,1:2|0:2,0:0:0:0:
379,44,23080,2,0,P|403:56|439:64,1,42.5,2|0,3:2|0:2,0:0:0:0:
243,232,23280,6,0,B|177:231|209:185|127:189,1,127.5,6|0,3:2|0:2,0:0:0:0:
64,155,23680,2,0,P|55:184|69:214,1,42.5,0|0,1:2|0:2,0:0:0:0:
184,336,23880,2,0,P|173:295|118:278,1,85,2|0,0:2|3:2,0:0:0:0:
0,252,24280,1,0,3:2:0:0:
29,53,24480,2,0,P|66:72|126:86,1,85,0|0,1:2|3:2,0:0:0:0:
179,68,24780,1,0,3:2:0:0:
186,60,24880,6,0,L|169:13,1,42.5,6|0,3:2|0:2,0:0:0:0:
332,52,25080,2,0,P|343:66|346:98,1,42.5,2|0,0:2|0:2,0:0:0:0:
207,225,25280,2,0,P|226:212|260:202,1,42.5,2|0,1:2|0:2,0:0:0:0:
459,93,25480,6,0,B|428:104|428:104|395:141|437:205,1,127.5,6|0,1:2|0:2,0:0:0:0:
497,218,25880,1,0,3:2:0:0:
339,361,26080,2,0,P|331:294|320:259,1,85,2|0,1:2|3:2,0:0:0:0:
355,207,26380,1,0,3:2:0:0:
363,215,26480,6,0,B|293:220|326:279|243:274,1,127.5,6|0,3:2|0:2,0:0:0:0:
195,315,26880,6,0,B|181:300|181:300|185:274,1,42.5,0|0,1:2|0:2,0:0:0:0:
319,137,27080,1,0,3:2:0:0:
105,122,27280,5,2,1:2:0:0:
326,277,27480,1,2,3:2:0:0:
128,362,27680,1,2,1:2:0:0:
157,36,27880,6,0,B|204:51|204:51|220:78|220:78|268:93,1,127.5,6|0,1:2|0:2,0:0:0:0:
319,137,28280,1,0,3:2:0:0:
86,50,28480,1,0,1:2:0:0:
12,335,28680,6,0,B|85:332|54:281|149:283,1,127.5,6|0,3:2|0:2,0:0:0:0:
193,312,29080,2,0,P|200:288|192:260,1,42.5,2|0,3:2|0:2,0:0:0:0:
21,85,29280,6,0,L|34:147,1,42.5,2|2,1:2|0:2,0:0:0:0:
225,157,29480,2,0,L|238:219,1,42.5,2|2,3:2|0:2,0:0:0:0:
12,335,29680,5,4,0:2:0:0:
124,283,30080,1,0,0:2:0:0:
198,383,30480,1,0,0:2:0:0:
317,298,30880,1,0,0:2:0:0:
270,239,31080,1,0,3:2:0:0:
328,184,31280,6,0,P|368:206|449:219,2,118.999996368408,2|0|0,3:2|0:2|0:2,0:0:0:0:
310,112,32280,2,0,P|335:93|371:89,1,59.4999981842042,0|0,3:2|0:2,0:0:0:0:
419,137,32680,1,2,3:2:0:0:
270,239,32880,6,0,P|232:226|199:221,1,59.4999981842042,2|0,3:2|0:2,0:0:0:0:
187,150,33280,2,0,P|149:163|116:168,1,59.4999981842042,2|2,0:2|0:2,0:0:0:0:
73,321,33680,2,0,P|95:268|160:266,1,118.999996368408,0|0,0:2|0:2,0:0:0:0:
186,325,34280,1,0,3:2:0:0:
270,239,34480,6,0,P|279:203|298:177,1,59.4999981842042,2|0,3:2|0:2,0:0:0:0:
204,92,34880,2,0,P|219:117|225:146,1,59.4999981842042,2|0,0:2|0:2,0:0:0:0:
266,313,35280,2,0,P|296:317|326:302,1,59.4999981842042,2|0,0:2|3:2,0:0:0:0:
348,233,35680,1,2,3:2:0:0:
390,350,35880,1,0,3:2:0:0:
470,255,36080,6,0,B|457:195|505:211|484:129,1,118.999996368408,6|0,3:2|0:2,0:0:0:0:
486,140,36680,1,0,0:2:0:0:
411,160,36880,2,0,P|394:131|399:105,1,59.4999981842042,0|2,0:2|0:2,0:0:0:0:
458,50,37280,1,2,0:2:0:0:
381,27,37480,1,0,3:2:0:0:
381,27,37680,6,0,B|313:49|350:76|255:91,1,118.999996368408,0|0,3:2|0:2,0:0:0:0:
216,125,38280,1,2,0:2:0:0:
216,125,38480,2,0,P|228:162|232:197,1,59.4999981842042,0|2,0:2|3:2,0:0:0:0:
307,216,38880,2,0,P|312:186|322:158,1,59.4999981842042,2|2,0:2|3:2,0:0:0:0:
155,82,39280,6,0,B|111:101|111:101|101:123|101:123|53:143,1,114.749996498108,6|0,3:2|0:2,0:0:0:0:
8,199,39680,5,2,3:2:0:0:
185,11,39880,1,0,3:2:0:0:
216,125,40080,5,2,3:2:0:0:
0,44,40280,1,0,3:2:0:0:
47,272,40480,5,2,1:2:0:0:
109,16,40680,1,2,1:2:0:0:
347,91,40880,6,0,P|333:120|329:180,1,76.4999976654053,6|0,1:2|0:2,0:0:0:0:
256,222,41180,1,0,3:2:0:0:
248,215,41280,2,0,L|259:174,1,38.2499988327027,0|0,1:2|0:2,0:0:0:0:
456,205,41480,6,0,P|397:224|355:292,1,114.749996498108,6|0,1:2|0:2,0:0:0:0:
320,322,41880,2,0,P|303:308|298:279,2,38.2499988327027,0|0|0,3:2|3:2|3:2,0:0:0:0:
506,140,42280,1,0,3:2:0:0:
500,125,42380,1,0,3:2:0:0:
495,110,42480,6,0,P|449:106|397:94,1,76.4999976654053,6|0,3:2|0:2,0:0:0:0:
295,154,42880,2,0,P|272:105|290:69,1,76.4999976654053,0|0,1:2|0:2,0:0:0:0:
357,40,43280,1,0,3:2:0:0:
357,40,43480,1,0,3:2:0:0:
295,154,43680,2,0,P|266:139|173:123,1,114.749996498108,2|0,1:2|0:2,0:0:0:0:
119,96,44080,6,0,P|93:132|121:182,1,76.4999976654053,2|0,3:2|0:2,0:0:0:0:
215,200,44480,1,0,1:2:0:0:
67,325,44680,2,0,B|111:310|111:310|126:291|126:291|176:275,1,114.749996498108,2|0,3:2|0:2,0:0:0:0:
240,268,45080,1,0,3:2:0:0:
386,370,45280,2,0,P|399:327|380:297,1,76.4999976654053,2|2,1:2|0:2,0:0:0:0:
314,291,45580,1,2,0:2:0:0:
311,300,45680,6,0,L|443:281,1,114.749996498108,2|0,3:2|0:2,0:0:0:0:
492,245,46080,2,0,B|503:212|488:191|488:191|456:198,1,76.4999976654053,0|0,1:2|0:2,0:0:0:0:
293,218,46480,5,0,3:2:0:0:
326,33,46680,1,0,3:2:0:0:
474,123,46880,1,0,1:2:0:0:
274,99,47080,5,2,0:2:0:0:
269,89,47180,1,2,0:2:0:0:
264,79,47280,2,0,B|208:81|226:124|156:127,1,114.749996498108,2|0,3:2|0:2,0:0:0:0:
112,80,47680,1,0,1:2:0:0:
214,291,47880,2,0,P|226:251|197:212,1,76.4999976654053,2|2,3:2|3:2,0:0:0:0:
145,195,48180,1,2,3:2:0:0:
134,199,48280,5,2,3:2:0:0:
294,243,48480,1,0,1:2:0:0:
169,350,48680,1,0,3:2:0:0:
38,230,48880,6,0,B|41:160|0:189|6:107,1,114.749996498108,6|0,3:2|0:2,0:0:0:0:
38,61,49280,2,0,P|76:74|126:80,1,76.4999976654053,0|0,1:2|0:2,0:0:0:0:
239,28,49680,5,0,3:2:0:0:
107,156,49880,1,0,3:2:0:0:
233,277,50080,1,0,1:2:0:0:
341,138,50280,1,2,0:2:0:0:
337,127,50380,1,2,0:2:0:0:
333,114,50480,6,0,B|291:126|291:126|273:150|273:150|218:170,1,114.749996498108,2|0,3:2|0:2,0:0:0:0:
176,123,50880,1,0,1:2:0:0:
287,332,51080,2,0,P|326:338|358:307,1,76.4999976654053,2|2,3:2|3:2,0:0:0:0:
345,249,51380,1,2,3:2:0:0:
339,238,51480,5,2,3:2:0:0:
489,179,51680,1,0,1:2:0:0:
430,341,51880,1,0,0:2:0:0:
436,120,52080,6,0,B|368:118|400:77|315:76,1,114.749996498108,2|0,3:2|0:2,0:0:0:0:
270,34,52480,2,0,P|301:85|254:133,1,114.749996498108,2|0,1:2|0:2,0:0:0:0:
204,136,52880,5,2,3:2:0:0:
436,120,53080,1,0,3:2:0:0:
353,316,53280,5,0,1:2:0:0:
270,34,53480,1,2,3:2:0:0:
134,232,53680,6,0,L|245:247,1,85,6|2,3:2|0:2,0:0:0:0:
353,316,54080,1,2,1:2:0:0:
105,375,54280,6,0,P|56:313|91:257,1,127.5,2|0,3:2|0:2,0:0:0:0:
134,232,54680,1,2,3:2:0:0:
8,134,54880,1,2,3:2:0:0:
136,38,55080,1,2,3:2:0:0:
144,40,55180,1,2,3:2:0:0:
153,42,55280,6,0,B|199:55|199:55|219:88|219:88|273:101,3,136,2|0|0|0,3:2|0:2|0:2|0:2,0:0:0:0:
367,54,56680,1,0,3:2:0:0:
294,257,56880,6,0,P|324:223|410:182,2,136,2|0|0,3:2|0:2|0:2,0:0:0:0:
417,316,57880,2,0,P|428:273|403:239,1,68,0|0,3:2|0:2,0:0:0:0:
322,187,58280,1,2,3:2:0:0:
201,358,58480,6,0,B|136:344|161:297|75:291,3,136,2|0|0|0,3:2|0:2|0:2|0:2,0:0:0:0:
215,278,59880,1,0,3:2:0:0:
30,230,60080,5,2,3:2:0:0:
253,184,60280,1,2,3:2:0:0:
97,21,60480,1,2,1:2:0:0:
86,291,60680,6,0,P|110:213|56:151,1,170,6|2,1:2|3:2,0:0:0:0:
16,92,61180,1,2,3:2:0:0:
8,86,61280,2,0,L|83:72,1,42.5,2|0,3:2|0:2,0:0:0:0:
138,235,61480,2,0,L|213:249,1,42.5,2|0,3:2|0:2,0:0:0:0:
335,380,61680,6,0,B|382:362|382:362|398:336|398:336|470:311,1,127.5,2|0,3:2|0:2,0:0:0:0:
498,278,62080,2,0,P|498:239|454:213,1,85,0|0,1:2|3:2,0:0:0:0:
401,241,62380,1,0,3:2:0:0:
398,249,62480,1,0,3:2:0:0:
493,123,62680,1,0,3:2:0:0:
354,42,62880,2,0,P|292:62|270:67,1,85,0|2,1:2|0:2,0:0:0:0:
219,226,63280,6,0,P|265:217|316:272,1,127.5,2|0,3:2|0:2,0:0:0:0:
281,341,63680,2,0,P|221:328|184:329,1,85,0|0,1:2|0:2,0:0:0:0:
143,280,63980,1,0,3:2:0:0:
137,273,64080,2,0,L|151:208,2,42.5,2|0|0,3:2|3:2|3:2,0:0:0:0:
31,354,64480,1,0,1:2:0:0:
55,182,64680,5,2,0:2:0:0:
67,185,64780,1,2,0:2:0:0:
79,188,64880,1,6,3:2:0:0:
222,66,65080,1,0,3:2:0:0:
23,15,65280,1,2,1:2:0:0:
205,176,65480,6,0,B|273:173|243:118|336:126,1,127.5,6|0,3:2|0:2,0:0:0:0:
367,184,65880,1,0,3:2:0:0:
365,196,65980,1,0,3:2:0:0:
363,208,66080,2,0,L|311:202,1,42.5,2|0,1:2|0:2,0:0:0:0:
319,11,66280,2,0,L|267:17,1,42.5,2|0,3:2|0:2,0:0:0:0:
134,144,66480,5,2,1:2:0:0:
400,39,66680,1,2,1:2:0:0:
262,251,66880,1,2,1:2:0:0:
205,3,67080,1,2,1:2:0:0:
471,157,67280,5,0,3:2:0:0:
468,169,67380,1,0,3:2:0:0:
465,181,67480,1,0,3:2:0:0:
462,193,67580,1,0,3:2:0:0:
478,221,67680,5,2,1:2:0:0:
469,192,67780,1,2,1:2:0:0:
460,163,67880,1,2,1:2:0:0:
452,134,67980,1,2,1:2:0:0:
444,105,68080,6,0,B|392:120|392:120|371:155|371:155|300:175,1,152.999995330811,6|0,3:2|0:2,0:0:0:0:
251,210,68480,2,0,P|202:161|233:116,1,101.999996887207,0|0,1:2|3:2,0:0:0:0:
266,93,68780,1,0,3:2:0:0:
275,97,68880,1,0,3:2:0:0:
148,235,69080,1,0,3:2:0:0:
67,59,69280,2,0,P|145:79|173:81,1,101.999996887207,2|0,1:2|0:2,0:0:0:0:
85,337,69680,6,0,P|145:278|230:278,1,152.999995330811,2|0,3:2|0:2,0:0:0:0:
248,333,70080,1,0,1:2:0:0:
340,115,70280,2,0,P|359:169|327:225,1,101.999996887207,2|2,3:2|0:2,0:0:0:0:
286,254,70580,1,2,0:2:0:0:
276,249,70680,1,0,3:2:0:0:
457,171,70880,1,0,1:2:0:0:
471,365,71080,1,2,0:2:0:0:
462,370,71180,1,2,0:2:0:0:
453,375,71280,6,0,B|456:285|409:328|415:224,1,152.999995330811,6|0,3:2|0:2,0:0:0:0:
457,171,71680,2,0,B|462:157|462:157|393:172,1,50.9999984436036,0|0,1:2|0:2,0:0:0:0:
276,249,71880,2,0,P|218:222|167:214,1,101.999996887207,0|0,0:2|3:2,0:0:0:0:
247,57,72280,1,0,3:2:0:0:
343,208,72480,1,0,1:2:0:0:
209,343,72680,1,2,0:2:0:0:
204,352,72780,1,2,0:2:0:0:
199,361,72880,6,0,B|145:342|145:342|126:302|126:302|46:278,1,152.999995330811,2|0,3:2|0:2,0:0:0:0:
18,327,73280,1,2,1:2:0:0:
180,214,73480,2,0,P|199:166|157:117,1,101.999996887207,2|0,3:2|0:2,0:0:0:0:
13,178,73880,6,0,P|19:195|29:233,1,50.9999984436036,2|0,3:2|0:2,0:0:0:0:
110,91,74080,2,0,P|116:74|126:36,1,50.9999984436036,2|0,1:2|0:2,0:0:0:0:
282,246,74280,2,0,P|257:262|215:265,1,50.9999984436036,2|0,3:2|0:2,0:0:0:0:
220,66,74480,6,0,B|302:71|270:135|367:129,1,152.999995330811,6|0,3:2|0:2,0:0:0:0:
393,186,74880,2,0,P|372:199|338:196,1,50.9999984436036,0|0,1:2|0:2,0:0:0:0:
429,26,75080,6,0,P|476:24|510:89,1,101.999996887207,2|2,3:2|0:2,0:0:0:0:
482,124,75380,1,2,0:2:0:0:
472,128,75480,2,0,L|419:114,1,50.9999984436036,2|0,3:2|0:2,0:0:0:0:
220,66,75680,2,0,L|269:52,1,50.9999984436036,2|0,1:2|0:2,0:0:0:0:
393,186,75880,2,0,P|398:217|380:250,1,50.9999984436036,2|0,3:2|0:2,0:0:0:0:
212,289,76080,6,0,P|279:304|358:349,1,152.999995330811,6|0,3:2|0:2,0:0:0:0:
422,353,76480,2,0,P|415:308|368:290,1,50.9999984436036,0|0,1:2|0:2,0:0:0:0:
262,163,76680,6,0,P|224:204|162:209,1,101.999996887207,2|2,3:2|0:2,0:0:0:0:
137,156,76980,1,2,0:2:0:0:
140,146,77080,1,2,3:2:0:0:
23,248,77280,1,0,1:2:0:0:
199,100,77480,1,2,3:2:0:0:
23,48,77680,6,0,B|18:132|72:106|66:189,1,152.999995330811,6|0,3:2|0:2,0:0:0:0:
23,248,78080,2,0,P|82:227|124:281,1,101.999996887207,0|2,1:2|0:2,0:0:0:0:
199,100,78480,5,0,3:2:0:0:
111,322,78680,1,0,3:2:0:0:
0,121,78880,1,2,1:2:0:0:
189,243,79080,6,0,B|243:221|243:221|259:187|259:187|315:163,1,152.999995330811,6|0,1:2|0:2,0:0:0:0:
365,213,79480,1,2,3:2:0:0:
199,100,79680,2,0,L|189:162,1,50.9999984436036,2|0,1:2|0:2,0:0:0:0:
381,297,79880,6,0,P|442:250|417:155,1,152.999995330811,6|0,1:2|0:2,0:0:0:0:
387,129,80280,1,2,3:2:0:0:
378,123,80380,1,2,3:2:0:0:
369,117,80480,2,0,L|400:31,1,50.9999984436036,2|2,3:2|0:2,0:0:0:0:
304,310,80680,5,0,1:2:0:0:
306,319,80780,1,0,1:2:0:0:
308,328,80880,2,0,P|265:288|157:257,1,152.999995330811,6|0,3:2|0:2,0:0:0:0:
108,288,81280,2,0,B|76:245|76:245|113:189,1,101.999996887207,0|2,1:2|0:2,0:0:0:0:
169,181,81580,1,2,0:2:0:0:
178,185,81680,1,2,3:2:0:0:
0,231,81880,1,0,3:2:0:0:
155,347,82080,2,0,P|182:306|176:256,1,101.999996887207,2|2,1:2|0:2,0:0:0:0:
17,158,82480,6,0,P|6:95|98:55,1,152.999995330811,2|0,3:2|0:2,0:0:0:0:
125,99,82880,1,0,1:2:0:0:
8,306,83080,2,0,P|73:289|116:288,1,101.999996887207,2|0,3:2|3:2,0:0:0:0:
176,256,83380,1,2,3:2:0:0:
170,247,83480,1,2,3:2:0:0:
297,129,83680,1,2,1:2:0:0:
331,348,83880,1,2,0:2:0:0:
479,211,84080,6,0,B|397:213|430:260|329:267,1,152.999995330811,6|0,3:2|0:2,0:0:0:0:
273,244,84480,2,0,L|262:176,1,50.9999984436036,0|0,1:2|0:2,0:0:0:0:
433,45,84680,2,0,P|418:108|416:165,1,101.999996887207,0|0,0:2|3:2,0:0:0:0:
289,108,85080,1,0,3:2:0:0:
479,211,85280,1,0,1:2:0:0:
299,324,85480,1,2,0:2:0:0:
289,320,85580,1,2,0:2:0:0:
279,316,85680,6,0,B|225:335|225:335|201:369|201:369|133:390,1,152.999995330811,2|0,3:2|0:2,0:0:0:0:
85,351,86080,1,0,1:2:0:0:
163,173,86280,2,0,P|196:221|180:273,1,101.999996887207,2|2,3:2|0:2,0:0:0:0:
125,287,86580,1,2,0:2:0:0:
115,283,86680,6,0,L|57:265,1,50.9999984436036,2|0,3:2|0:2,0:0:0:0:
81,57,86880,2,0,P|68:90|85:118,1,50.9999984436036,2|0,1:2|0:2,0:0:0:0:
231,205,87080,2,0,P|242:198|296:187,1,50.9999984436036,2|0,3:2|0:2,0:0:0:0:
429,11,87280,6,0,P|473:68|431:159,1,152.999995330811,6|0,3:2|0:2,0:0:0:0:
385,154,87680,2,0,L|321:139,1,50.9999984436036,0|0,1:2|0:2,0:0:0:0:
506,366,87880,6,0,P|447:322|332:300,1,152.999995330811,6|0,1:2|0:2,0:0:0:0:
310,335,88280,1,0,3:2:0:0:
436,211,88480,2,0,P|470:270|450:315,1,101.999996887207,2|0,1:2|0:2,0:0:0:0:
249,382,88880,6,0,B|233:359|233:359|240:321,1,50.9999984436036,6|0,3:2|0:2,0:0:0:0:
378,103,89080,2,0,L|389:186,1,50.9999984436036,2|0,3:2|0:2,0:0:0:0:
184,153,89280,2,0,P|211:145|251:158,1,50.9999984436036,2|0,1:2|0:2,0:0:0:0:
166,384,89480,6,0,B|90:368|133:315|34:303,1,152.999995330811,6|0,3:2|0:2,0:0:0:0:
1,362,89880,1,0,3:2:0:0:
175,303,90080,1,0,1:2:0:0:
34,227,90280,1,2,3:2:0:0:
124,86,90480,6,0,B|116:176|173:121|157:248,1,152.999995330811,6|0,3:2|0:2,0:0:0:0:
250,194,90880,2,0,P|226:147|174:162,1,101.999996887207,0|0,1:2|0:2,0:0:0:0:
221,363,91280,1,0,3:2:0:0:
34,227,91480,1,0,3:2:0:0:
183,152,91680,1,2,1:2:0:0:
43,363,91880,6,0,B|95:352|95:352|124:314|124:314|193:299,1,152.999995330811,6|0,3:2|0:2,0:0:0:0:
221,363,92280,2,0,P|247:336|245:300,1,50.9999984436036,2|0,1:2|0:2,0:0:0:0:
127,99,92480,2,0,L|142:41,1,50.9999984436036,2|0,1:2|0:2,0:0:0:0:
393,45,92880,5,0,3:2:0:0:
383,47,92980,1,0,3:2:0:0:
373,49,93080,1,0,3:2:0:0:
363,51,93180,1,0,3:2:0:0:
336,72,93280,5,2,1:2:0:0:
322,103,93380,1,2,1:2:0:0:
328,145,93480,1,2,1:2:0:0:
365,179,93580,1,2,1:2:0:0:
420,183,93680,6,0,P|356:208|302:238,1,127.5,6|0,3:2|0:2,0:0:0:0:
239,267,94080,2,0,B|229:254|229:254|237:217,1,42.5,0|0,1:2|0:2,0:0:0:0:
322,103,94280,1,0,0:2:0:0:
299,318,94480,5,0,3:2:0:0:
186,161,94680,1,0,3:2:0:0:
27,308,94880,2,0,L|112:285,1,85,0|2,1:2|0:2,0:0:0:0:
179,311,95180,1,2,0:2:0:0:
174,322,95280,6,0,P|129:282|146:216,1,127.5,2|0,3:2|0:2,0:0:0:0:
186,161,95680,2,0,L|134:149,1,42.5,0|0,1:2|0:2,0:0:0:0:
17,216,95880,1,0,3:2:0:0:
86,51,96080,2,0,L|75:8,2,42.5,2|2|2,0:2|0:2|3:2,0:0:0:0:
245,215,96480,1,2,1:2:0:0:
261,185,96580,1,2,0:2:0:0:
268,143,96680,1,2,0:2:0:0:
253,94,96780,1,2,0:2:0:0:
214,54,96880,6,0,B|290:62|254:108|360:100,1,127.5,6|0,3:2|0:2,0:0:0:0:
361,30,97280,2,0,B|352:19|352:19|300:27,1,42.5,0|0,1:2|0:2,0:0:0:0:
160,228,97480,6,0,P|190:309|195:340,1,85,2|0,0:2|3:2,0:0:0:0:
437,173,97880,2,0,P|407:92|402:61,1,85,2|0,3:2|1:2,0:0:0:0:
245,359,98280,6,0,P|313:357|346:289,1,127.5,6|0,3:2|0:2,0:0:0:0:
313,250,98680,1,0,3:2:0:0:
186,82,98880,6,0,B|137:99|137:99|124:130|124:130|64:151,1,127.5,0|0,1:2|0:2,0:0:0:0:
18,120,99280,1,0,3:2:0:0:
201,166,99480,1,0,3:2:0:0:
35,242,99680,6,0,P|22:222|28:195,1,42.5,2|0,1:2|0:2,0:0:0:0:
73,55,99880,2,0,P|101:68|127:73,1,42.5,2|0,3:2|0:2,0:0:0:0:
72,331,100080,6,0,P|116:287|181:278,1,127.5,6|0,3:2|0:2,0:0:0:0:
228,329,100480,2,0,P|243:313|250:286,1,42.5,0|0,1:2|0:2,0:0:0:0:
263,42,100680,2,0,P|296:70|296:137,1,85,2|0,0:2|3:2,0:0:0:0:
201,166,101080,1,0,3:2:0:0:
324,288,101280,2,0,P|382:262|416:255,1,85,0|0,1:2|3:2,0:0:0:0:
463,300,101580,1,0,3:2:0:0:
472,294,101680,6,0,P|479:268|466:223,1,42.5,6|0,3:2|0:2,0:0:0:0:
406,48,101880,2,0,P|378:60|362:62,1,42.5,2|0,0:2|0:2,0:0:0:0:
239,252,102080,2,0,L|253:309,1,42.5,2|0,1:2|0:2,0:0:0:0:
482,168,102280,6,0,B|483:139|483:139|444:105|374:138,1,127.5,2|0,1:2|0:2,0:0:0:0:
351,190,102680,1,0,3:2:0:0:
226,4,102880,2,0,P|243:63|245:97,1,85,2|0,1:2|3:2,0:0:0:0:
281,153,103180,1,0,3:2:0:0:
288,142,103280,6,0,B|223:143|248:91|155:93,1,127.5,6|0,3:2|3:2,0:0:0:0:
101,83,103680,2,0,L|110:142,1,42.5,0|0,1:2|0:2,0:0:0:0:
249,293,103880,1,0,3:2:0:0:
40,270,104080,5,2,1:2:0:0:
288,142,104280,1,2,3:2:0:0:
35,40,104480,1,2,1:2:0:0:
142,350,104680,6,0,B|187:335|187:335|206:305|206:305|272:285,1,127.5,6|0,1:2|0:2,0:0:0:0:
310,333,105080,1,0,3:2:0:0:
102,179,105280,1,0,1:2:0:0:
364,45,105480,6,0,P|350:95|336:189,1,127.5,6|0,3:2|0:2,0:0:0:0:
387,222,105880,2,0,P|408:202|398:168,1,42.5,2|0,3:2|0:2,0:0:0:0:
232,191,106080,6,0,B|218:209|218:209|229:249,1,42.5,2|2,1:2|0:2,0:0:0:0:
444,303,106280,2,0,L|490:293,2,42.5,2|2|0,3:2|0:2|0:2,0:0:0:0:
256,192,107280,12,0,113280,0:2:0:0:
