osu file format v14

[General]
AudioFilename: audio.mp3
AudioLeadIn: 0
PreviewTime: 73457
Countdown: 0
SampleSet: Soft
StackLeniency: 0.7
Mode: 0
LetterboxInBreaks: 0
WidescreenStoryboard: 1

[Editor]
DistanceSpacing: 1.2
BeatDivisor: 4
GridSize: 32
TimelineZoom: 1.4

[Metadata]
Title:Anata no Risou no Heroine
TitleUnicode:あなたの理想のヒロイン
Artist:Osaka Shizuku (CV: Maeda Kaori)
ArtistUnicode:桜坂しずく (CV: 前田佳織里)
Creator:Ninjaking311
Version:Mrgglock's Normal
Source:ラブライブ!スクールアイドルフェスティバル ALL STARS
Tags:EnuHQ NotABox Kyairie Mrgglock Lulu- Japanese Pop J-Pop video game size ver. cut anime 月見草 Tsukimisou 遠藤ナオキ Naoki Endo LoveLive! Love Live! School idol festival sifas オールスターズ スクスタ sukusuta TOKIMEKI Runners 1st Album 虹ヶ咲学園スクールアイドル同好会 Nijigasaki High Club Gakuen Doukoukai Dokokai ニジガク NijiGaku
BeatmapID:4186480
BeatmapSetID:1944025

[Difficulty]
HPDrainRate:4
CircleSize:3
OverallDifficulty:4
ApproachRate:5
SliderMultiplier:2
SliderTickRate:1

[Events]
//Background and Video events
Video,-100,"Anata no Risou no Heroine.avi"
0,0,"fotor_2023-2-20_23_18_2.jpg",0,0
//Break Periods
//Storyboard Layer 0 (Background)
//Storyboard Layer 1 (Fail)
//Storyboard Layer 2 (Pass)
//Storyboard Layer 3 (Foreground)
//Storyboard Layer 4 (Overlay)
//Storyboard Sound Samples

[TimingPoints]
1407,674.157303370787,4,2,1,60,1,0
1407,-111.111111111111,4,2,1,50,0,0
3008,-111.111111111111,4,2,1,50,0,0
3092,-111.111111111111,4,2,1,50,0,0
3345,-111.111111111111,4,2,1,50,0,0
3429,-111.111111111111,4,2,1,50,0,0
4103,-111.111111111111,4,2,1,60,0,0
4356,-111.111111111111,4,2,1,5,0,0
4440,-111.111111111111,4,2,1,60,0,0
4693,-111.111111111111,4,2,1,5,0,0
4777,-111.111111111111,4,2,1,60,0,0
5030,-111.111111111111,4,2,1,5,0,0
5114,-111.111111111111,4,2,1,60,0,0
6378,-111.111111111111,4,2,1,5,0,0
6463,-111.111111111111,4,2,1,60,0,0
6715,-111.111111111111,4,2,1,5,0,0
6800,-111.111111111111,4,2,2,50,0,0
7390,-111.111111111111,4,2,2,5,0,0
7474,-111.111111111111,4,2,2,50,0,0
8064,-111.111111111111,4,2,2,5,0,0
8148,-111.111111111111,4,2,2,50,0,0
8738,-111.111111111111,4,2,2,5,0,0
8822,-111.111111111111,4,2,2,50,0,0
9075,-111.111111111111,4,2,2,5,0,0
9159,-111.111111111111,4,2,2,50,0,0
10760,-111.111111111111,4,2,2,5,0,0
10845,-111.111111111111,4,2,2,50,0,0
11435,-111.111111111111,4,2,2,5,0,0
11519,-111.111111111111,4,2,2,50,0,0
11772,-111.111111111111,4,2,2,5,0,0
11856,-111.111111111111,4,2,2,50,0,0
13457,-111.111111111111,4,2,2,5,0,0
13541,-111.111111111111,4,2,2,50,0,0
14131,-111.111111111111,4,2,2,5,0,0
14215,-111.111111111111,4,2,2,50,0,0
14468,-111.111111111111,4,2,2,5,0,0
14553,-111.111111111111,4,2,2,50,0,0
16154,-111.111111111111,4,2,2,5,0,0
16238,-111.111111111111,4,2,2,50,0,0
16828,-111.111111111111,4,2,2,5,0,0
16912,-111.111111111111,4,2,2,50,0,0
17165,-111.111111111111,4,2,2,5,0,0
17249,-111.111111111111,4,2,2,50,0,0
18850,-111.111111111111,4,2,2,5,0,0
18935,-111.111111111111,4,2,2,50,0,0
19524,-111.111111111111,4,2,2,5,0,0
19609,-111.111111111111,4,2,2,50,0,0
19862,-111.111111111111,4,2,2,5,0,0
19946,-111.111111111111,4,2,2,50,0,0
20536,-111.111111111111,4,2,2,5,0,0
20620,-111.111111111111,4,2,2,50,0,0
20873,-111.111111111111,4,2,2,5,0,0
20957,-111.111111111111,4,2,2,50,0,0
21210,-111.111111111111,4,2,2,5,0,0
21294,-111.111111111111,4,2,2,50,0,0
21884,-111.111111111111,4,2,2,5,0,0
21968,-111.111111111111,4,2,2,50,0,0
22221,-111.111111111111,4,2,2,5,0,0
22305,-111.111111111111,4,2,2,50,0,0
22558,-111.111111111111,4,2,2,5,0,0
22642,-111.111111111111,4,2,2,50,0,0
23232,-111.111111111111,4,2,2,5,0,0
23317,-111.111111111111,4,2,2,50,0,0
23569,-111.111111111111,4,2,2,5,0,0
23654,-111.111111111111,4,2,2,50,0,0
23907,-111.111111111111,4,2,2,5,0,0
23991,-111.111111111111,4,2,2,50,0,0
24244,-111.111111111111,4,2,2,5,0,0
24328,-111.111111111111,4,2,2,50,0,0
24918,-111.111111111111,4,2,2,5,0,0
25002,-111.111111111111,4,2,2,50,0,0
25592,-111.111111111111,4,2,2,5,0,0
25676,-111.111111111111,4,2,2,50,0,0
25929,-111.111111111111,4,2,2,5,0,0
26013,-111.111111111111,4,2,2,50,0,0
26266,-111.111111111111,4,2,2,5,0,0
26350,-111.111111111111,4,2,2,50,0,0
26687,-111.111111111111,4,2,1,50,0,0
27277,-111.111111111111,4,2,2,5,0,0
27362,-111.111111111111,4,2,2,50,0,0
27446,-111.111111111111,4,2,2,5,0,0
27530,-111.111111111111,4,2,1,25,0,0
27699,-111.111111111111,4,2,1,50,0,0
28289,-111.111111111111,4,2,1,5,0,0
28373,-111.111111111111,4,2,1,60,0,0
29637,-111.111111111111,4,2,1,5,0,0
29721,-111.111111111111,4,2,1,60,0,0
30311,-111.111111111111,4,2,1,5,0,0
30395,-111.111111111111,4,2,1,60,0,0
30648,-111.111111111111,4,2,1,5,0,0
30732,-111.111111111111,4,2,1,60,0,0
32333,-111.111111111111,4,2,1,5,0,0
32418,-111.111111111111,4,2,1,60,0,0
33008,-111.111111111111,4,2,1,5,0,0
33092,-111.111111111111,4,2,1,60,0,0
33345,-111.111111111111,4,2,1,5,0,0
33429,-111.111111111111,4,2,1,60,0,0
35030,-111.111111111111,4,2,1,5,0,0
35114,-111.111111111111,4,2,1,60,0,0
35704,-111.111111111111,4,2,1,5,0,0
35789,-111.111111111111,4,2,1,60,0,0
36041,-111.111111111111,4,2,1,5,0,0
36126,-111.111111111111,4,2,1,60,0,0
37727,-111.111111111111,4,2,1,5,0,0
37811,-111.111111111111,4,2,1,60,0,0
38401,-111.111111111111,4,2,1,5,0,0
38485,-111.111111111111,4,2,1,60,0,0
38738,-111.111111111111,4,2,1,5,0,0
38822,-111.111111111111,4,2,1,60,0,0
39412,-111.111111111111,4,2,1,5,0,0
39496,-111.111111111111,4,2,1,60,0,0
39749,-111.111111111111,4,2,1,5,0,0
39833,-111.111111111111,4,2,1,60,0,0
40086,-111.111111111111,4,2,1,5,0,0
40171,-111.111111111111,4,2,1,60,0,0
40760,-111.111111111111,4,2,1,5,0,0
40845,-111.111111111111,4,2,1,60,0,0
41098,-111.111111111111,4,2,1,5,0,0
41182,-111.111111111111,4,2,1,60,0,0
41435,-111.111111111111,4,2,1,5,0,0
41519,-111.111111111111,4,2,1,60,0,0
42109,-111.111111111111,4,2,1,5,0,0
42193,-111.111111111111,4,2,1,60,0,0
42446,-111.111111111111,4,2,1,5,0,0
42530,-111.111111111111,4,2,1,60,0,0
42783,-111.111111111111,4,2,1,5,0,0
42867,-111.111111111111,4,2,1,60,0,0
43457,-111.111111111111,4,2,1,5,0,0
43541,-111.111111111111,4,2,1,60,0,0
43794,-111.111111111111,4,2,1,5,0,0
43878,-111.111111111111,4,2,1,60,0,0
44131,-111.111111111111,4,2,1,5,0,0
44215,-111.111111111111,4,2,1,60,0,0
44468,-111.111111111111,4,2,1,5,0,0
44553,-111.111111111111,4,2,1,60,0,0
44805,-111.111111111111,4,2,1,5,0,0
44890,-111.111111111111,4,2,1,60,0,0
45142,-111.111111111111,4,2,1,5,0,0
45227,-111.111111111111,4,2,1,60,0,0
45480,-111.111111111111,4,2,1,5,0,0
45564,-111.111111111111,4,2,1,60,0,0
47839,-111.111111111111,4,2,1,5,0,0
47923,-111.111111111111,4,2,1,60,0,0
48176,-111.111111111111,4,2,1,5,0,0
48260,-111.111111111111,4,2,1,60,0,0
48513,-111.111111111111,4,2,1,5,0,0
48598,-111.111111111111,4,2,1,60,0,0
49187,-111.111111111111,4,2,1,5,0,0
49272,-111.111111111111,4,2,1,60,0,0
49862,-111.111111111111,4,2,1,5,0,0
49946,-100,4,2,1,80,0,0
50199,-100,4,2,1,5,0,0
50283,-100,4,2,1,80,0,0
50536,-100,4,2,1,5,0,0
50620,-100,4,2,1,80,0,0
50957,-100,4,2,1,60,0,0
51547,-100,4,2,1,5,0,0
51631,-100,4,2,1,60,0,0
51884,-100,4,2,1,5,0,0
51968,-100,4,2,1,60,0,0
52221,-100,4,2,1,5,0,0
52305,-100,4,2,1,60,0,0
52558,-100,4,2,1,5,0,0
52642,-100,4,2,1,80,0,0
52895,-100,4,2,1,5,0,0
52980,-100,4,2,1,80,0,0
53232,-100,4,2,1,5,0,0
53317,-100,4,2,1,80,0,0
53654,-100,4,2,1,60,0,0
54244,-100,4,2,1,5,0,0
54328,-100,4,2,1,60,0,0
55255,-100,4,2,1,5,0,0
55339,-100,4,2,1,80,0,0
56013,-100,4,2,1,60,0,0
56603,-100,4,2,1,5,0,0
56687,-100,4,2,1,60,0,0
56940,-100,4,2,1,5,0,0
57024,-100,4,2,1,60,0,0
57277,-100,4,2,1,5,0,0
57362,-100,4,2,1,60,0,0
57614,-100,4,2,1,5,0,0
57699,-100,4,2,1,60,0,0
57951,-100,4,2,1,5,0,0
58036,-100,4,2,1,60,0,0
58457,-100,4,2,1,5,0,0
58541,-100,4,2,1,60,0,0
58963,-100,4,2,1,5,0,0
59047,-100,4,2,1,60,0,0
59300,-100,4,2,1,5,0,0
59384,-100,4,2,1,70,0,0
60648,-100,4,2,1,5,0,0
60732,-100,4,2,1,80,0,0
60985,-100,4,2,1,5,0,0
61069,-100,4,2,1,80,0,0
61322,-100,4,2,1,5,0,0
61407,-100,4,2,1,80,0,0
61744,-100,4,2,1,60,0,0
62333,-100,4,2,1,5,0,0
62418,-100,4,2,1,60,0,0
62671,-100,4,2,1,5,0,0
62755,-100,4,2,1,60,0,0
63008,-100,4,2,1,5,0,0
63092,-100,4,2,1,60,0,0
63429,-100,4,2,1,80,0,0
63682,-100,4,2,1,5,0,0
63766,-100,4,2,1,80,0,0
64356,-100,4,2,1,5,0,0
64440,-100,4,2,1,60,0,0
64693,-100,4,2,1,5,0,0
64777,-100,4,2,1,60,0,0
65030,-100,4,2,1,5,0,0
65114,-100,4,2,1,60,0,0
65704,-100,4,2,1,5,0,0
65789,-100,4,2,1,60,0,0
66041,-100,4,2,1,5,0,0
66126,-100,4,2,1,60,0,0
66715,-100,4,2,1,5,0,0
66800,-100,4,2,1,60,0,0
67727,-100,4,2,1,5,0,0
67811,-100,4,2,1,60,0,0
68064,-100,4,2,1,5,0,0
68148,-100,4,2,1,60,0,0
68401,-100,4,2,1,5,0,0
68485,-100,4,2,1,60,0,0
69243,-100,4,2,1,5,0,0
69328,-100,4,2,1,60,0,0
69749,-100,4,2,1,5,0,0
69833,-100,4,2,1,60,0,0
70086,-100,4,2,1,5,0,0
70171,-100,4,2,1,60,0,0
70423,-100,4,2,1,5,0,0
70508,-100,4,2,1,70,0,0
70760,-100,4,2,1,5,0,0
70845,-100,4,2,1,80,0,0
71098,-100,4,2,1,5,0,0
71182,-100,4,2,1,90,0,0
71435,-100,4,2,1,5,0,0
71519,-100,4,2,1,60,0,0
73204,-100,4,2,1,5,0,0
73541,-100,4,2,1,60,0,0
74131,-100,4,2,1,5,0,0
74215,-90.9090909090909,4,2,12,80,0,0
74468,-90.9090909090909,4,2,12,5,0,0
74553,-90.9090909090909,4,2,12,80,0,0
74805,-90.9090909090909,4,2,12,5,0,0
74890,-90.9090909090909,4,2,12,80,0,0
75142,-90.9090909090909,4,2,12,5,0,0
75227,-90.9090909090909,4,2,12,80,0,0
75901,-90.9090909090909,4,2,11,80,0,0
76154,-90.9090909090909,4,2,11,5,0,0
76238,-90.9090909090909,4,2,10,80,0,0
76491,-90.9090909090909,4,2,10,5,0,0
76575,-90.9090909090909,4,2,11,80,0,0
76744,-90.9090909090909,4,2,10,80,0,0
77165,-90.9090909090909,4,2,10,5,0,0
77249,-90.9090909090909,4,2,13,80,0,0
77502,-90.9090909090909,4,2,13,5,0,0
77586,-90.9090909090909,4,2,13,80,0,0
78260,-90.9090909090909,4,2,1,80,0,0
78513,-90.9090909090909,4,2,13,5,0,0
78598,-90.9090909090909,4,2,13,80,0,0
79272,-90.9090909090909,4,2,10,80,0,0
79440,-90.9090909090909,4,2,11,80,0,0
79609,-90.9090909090909,4,2,12,80,0,0
79862,-90.9090909090909,4,2,12,5,0,0
79946,-90.9090909090909,4,2,12,80,0,0
81210,-90.9090909090909,4,2,12,5,0,0
81294,-90.9090909090909,4,2,11,80,0,0
81631,-90.9090909090909,4,2,10,80,0,0
81884,-90.9090909090909,4,2,10,5,0,0
81968,-90.9090909090909,4,2,13,80,0,0
82558,-90.9090909090909,4,2,13,5,0,0
82642,-90.9090909090909,4,2,14,80,0,0
82811,-90.9090909090909,4,2,10,80,0,0
83232,-90.9090909090909,4,2,10,5,0,0
83317,-90.9090909090909,4,2,10,80,0,0
83907,-90.9090909090909,4,2,10,5,0,0
83991,-90.9090909090909,4,2,10,80,0,0
84328,-90.9090909090909,4,2,15,80,0,0
84581,-90.9090909090909,4,2,15,5,0,0
84665,-90.9090909090909,4,2,16,80,0,0
84918,-90.9090909090909,4,2,16,5,0,0
85002,-90.9090909090909,4,2,14,80,0,0
85255,-90.9090909090909,4,2,14,5,0,0
85339,-90.9090909090909,4,2,16,80,0,0
85508,-90.9090909090909,4,2,14,80,0,0
86013,-90.9090909090909,4,2,17,80,0,0
86266,-90.9090909090909,4,2,17,5,0,0
86350,-90.9090909090909,4,2,14,80,0,0
86687,-90.9090909090909,4,2,16,80,0,0
86856,-90.9090909090909,4,2,14,80,0,0
87277,-90.9090909090909,4,2,14,5,0,0
87362,-90.9090909090909,4,2,13,80,0,0
87699,-90.9090909090909,4,2,10,80,0,0
88120,-90.9090909090909,4,2,10,5,0,0
88204,-90.9090909090909,4,2,12,80,0,0
88710,-90.9090909090909,4,2,10,80,0,0
89637,-90.9090909090909,4,2,10,5,0,0
89721,-90.9090909090909,4,2,10,80,0,0
90058,-90.9090909090909,4,2,11,80,0,0
90395,-90.9090909090909,4,2,10,80,0,0
90648,-90.9090909090909,4,2,10,5,0,0
90732,-90.9090909090909,4,2,13,80,0,0
91322,-90.9090909090909,4,2,13,5,0,0
91407,-90.9090909090909,4,2,15,80,0,0
91744,-90.9090909090909,4,2,10,80,0,0
91996,-90.9090909090909,4,2,10,5,0,0
92081,-90.9090909090909,4,2,13,80,0,0
92671,-90.9090909090909,4,2,13,5,0,0
92755,-90.9090909090909,4,2,15,80,0,0
93092,-90.9090909090909,4,2,10,80,0,0
93345,-90.9090909090909,4,2,10,5,0,0
93429,-90.9090909090909,4,2,13,80,0,0
93766,-90.9090909090909,4,2,10,80,0,0
94019,-90.9090909090909,4,2,10,5,0,0
94103,-90.9090909090909,4,2,11,80,0,0
94693,-90.9090909090909,4,2,11,5,0,0
94777,-90.9090909090909,4,2,11,80,0,0
95451,-90.9090909090909,4,2,10,80,0,0
95620,-90.9090909090909,4,2,11,80,0,0
95789,-90.9090909090909,4,2,12,80,0,0
96041,-90.9090909090909,4,2,12,5,0,0
96126,-90.9090909090909,4,2,12,80,0,0
96884,-90.9090909090909,4,2,12,5,0,0
96968,-90.9090909090909,4,2,12,80,0,0
97221,-90.9090909090909,4,2,12,5,0,0
97305,-90.9090909090909,4,2,12,80,0,0
97474,-90.9090909090909,4,2,11,80,0,0
97727,-90.9090909090909,4,2,11,5,0,0
97811,-90.9090909090909,4,2,10,80,0,0
98064,-90.9090909090909,4,2,10,5,0,0
98148,-90.9090909090909,4,2,11,80,0,0
98485,-90.9090909090909,4,2,10,80,0,0
98738,-90.9090909090909,4,2,10,5,0,0
98822,-90.9090909090909,4,2,13,80,0,0
99412,-90.9090909090909,4,2,13,5,0,0
99496,-90.9090909090909,4,2,1,80,0,0
99833,-90.9090909090909,4,2,13,80,0,0
100086,-90.9090909090909,4,2,13,5,0,0
100171,-90.9090909090909,4,2,13,80,0,0
100845,-90.9090909090909,4,2,10,80,0,0
101013,-90.9090909090909,4,2,11,80,0,0
101182,-90.9090909090909,4,2,12,80,0,0
101435,-90.9090909090909,4,2,12,5,0,0
101519,-90.9090909090909,4,2,12,80,0,0
102277,-90.9090909090909,4,2,12,5,0,0
102362,-90.9090909090909,4,2,12,80,0,0
102783,-90.9090909090909,4,2,12,5,0,0
102867,-90.9090909090909,4,2,11,80,0,0
103204,-90.9090909090909,4,2,10,80,0,0
103457,-90.9090909090909,4,2,10,5,0,0
103541,-90.9090909090909,4,2,13,80,0,0
104131,-90.9090909090909,4,2,13,5,0,0
104215,-90.9090909090909,4,2,14,80,0,0
104384,-90.9090909090909,4,2,10,80,0,0
104805,-90.9090909090909,4,2,10,5,0,0
104890,-90.9090909090909,4,2,10,80,0,0
105817,-90.9090909090909,4,2,10,5,0,0
105901,-90.9090909090909,4,2,10,80,0,0
106238,-90.9090909090909,4,2,11,80,0,0
106575,-90.9090909090909,4,2,10,80,0,0
106828,-90.9090909090909,4,2,10,5,0,0
106912,-90.9090909090909,4,2,13,80,0,0
107502,-90.9090909090909,4,2,13,5,0,0
107586,-90.9090909090909,4,2,15,80,0,0
107839,-90.9090909090909,4,2,15,5,0,0
107923,-90.9090909090909,4,2,10,80,0,0
108260,-90.9090909090909,4,2,13,80,0,0
108513,-90.9090909090909,4,2,13,5,0,0
108598,-90.9090909090909,4,2,13,80,0,0
108850,-90.9090909090909,4,2,13,5,0,0
108935,-90.9090909090909,4,2,13,80,0,0
109272,-90.9090909090909,4,2,10,80,0,0
109693,-90.9090909090909,4,2,10,5,0,0
109777,-90.9090909090909,4,2,12,80,0,0
110199,-90.9090909090909,4,2,12,5,0,0
110283,-90.9090909090909,4,2,10,80,0,0
111210,-90.9090909090909,4,2,10,5,0,0
111294,-90.9090909090909,4,2,10,80,0,0
111968,-90.9090909090909,4,2,11,80,0,0
112389,-90.9090909090909,4,2,11,5,0,0
112474,-90.9090909090909,4,2,12,80,0,0
112895,-90.9090909090909,4,2,12,5,0,0
112980,-90.9090909090909,4,2,18,80,0,0
113148,-90.9090909090909,4,2,1,80,0,0
113569,-90.9090909090909,4,2,1,5,0,0
113654,-90.9090909090909,4,2,11,80,0,0
113822,-90.9090909090909,4,2,1,80,0,0
113991,-90.9090909090909,4,2,10,80,0,0
114244,-90.9090909090909,4,2,10,5,0,0
114328,-90.9090909090909,4,2,11,80,0,0
114581,-90.9090909090909,4,2,11,5,0,0
114665,-90.9090909090909,4,2,11,80,0,0
115255,-90.9090909090909,4,2,11,5,0,0
115339,-90.9090909090909,4,2,10,80,0,0
115929,-90.9090909090909,4,2,10,5,0,0
116013,-90.9090909090909,4,2,13,80,0,0
116266,-90.9090909090909,4,2,13,5,0,0
116350,-90.9090909090909,4,2,13,80,0,0
116519,-90.9090909090909,4,2,1,80,0,0
116687,-90.9090909090909,4,2,14,80,0,0
116940,-90.9090909090909,4,2,14,5,0,0
117024,-90.9090909090909,4,2,14,80,0,0
117362,-90.9090909090909,4,2,2,80,0,0
120058,-90.9090909090909,4,2,2,5,0,0

[Colours]
Combo1 : 255,210,233
Combo2 : 0,128,255
Combo3 : 128,255,255
Combo4 : 255,255,21
Combo5 : 255,203,64
Combo6 : 255,128,192

[HitObjects]
512,267,2418,5,8,2:0:0:0:
472,91,3092,1,8,2:3:0:0:
398,39,3429,2,0,P|346:28|305:46,1,89.9999972534181,2|2,1:2|2:0,2:0:0:0:
258,112,4103,6,0,P|206:123|165:105,1,89.9999972534181,6|8,1:2|2:0,0:0:0:0:
105,50,4777,1,8,2:3:0:0:
29,99,5114,2,0,P|21:127|16:144,1,44.999998626709,2|2,2:0|2:0,0:0:0:0:
34,183,5451,2,0,B|19:250|19:250|45:286|45:286|30:363,1,179.999994506836,4|0,1:2|0:0,2:0:0:0:
119,373,6463,1,2,2:0:0:0:
174,301,6800,6,0,B|274:275|252:357|369:327,1,179.999994506836,4|0,1:2|2:0,2:0:0:0:
414,274,7811,1,2,1:2:0:0:
372,194,8148,1,2,1:2:0:0:
420,118,8485,1,2,2:0:0:0:
366,45,8822,2,0,P|321:28|250:59,1,89.9999972534181,8|2,2:0|2:0,2:0:0:0:
245,63,9328,6,0,P|236:142|222:196,1,134.999995880127,2|0,2:0|2:0,0:0:0:0:
232,285,10171,1,0,2:0:0:0:
171,351,10508,2,0,P|126:324|70:338,1,89.9999972534181,2|2,1:2|1:2,0:0:0:0:
29,261,11182,1,2,2:0:0:0:
61,177,11519,1,10,2:0:0:0:
8,103,11856,1,2,2:0:0:0:
44,20,12193,6,0,B|80:27|106:5|106:5|187:0|218:67,1,179.999994506836,0|0,1:2|2:0,2:0:0:0:
258,119,13204,2,0,P|245:163|238:206,1,89.9999972534181,2|2,1:2|1:2,0:0:0:0:
198,286,13878,1,2,2:0:0:0:
258,352,14215,2,0,P|298:318|365:313,1,89.9999972534181,10|2,2:0|2:0,2:0:0:0:
378,316,14721,6,0,P|414:281|411:165,1,134.999995880127,2|0,2:0|2:0,0:0:0:0:
467,119,15564,1,0,2:0:0:0:
422,40,15901,1,2,1:2:0:0:
333,56,16238,2,0,P|291:42|245:37,1,89.9999972534181,2|2,1:2|2:0,0:0:0:0:
172,88,16912,1,10,2:0:0:0:
88,54,17249,1,2,2:0:0:0:
21,114,17586,6,0,B|4:185|4:185|18:218|18:218|-1:294,1,179.999994506836,0|0,1:2|2:0,0:0:0:0:
69,344,18598,1,2,1:2:0:0:
152,311,18935,2,0,P|163:265|209:228,1,89.9999972534181,2|2,1:2|2:0,2:0:0:0:
267,185,19609,2,0,P|252:147|243:84,1,89.9999972534181,10|2,2:0|2:0,2:0:0:0:
309,37,20283,5,2,1:2:0:0:
397,53,20620,2,0,P|432:97|428:147,1,89.9999972534181,2|2,1:2|2:0,2:0:0:0:
494,194,21294,2,0,B|482:228|453:242|453:242|490:369,1,179.999994506836,2|0,1:2|1:0,2:0:0:0:
399,380,22305,1,10,2:0:0:0:
334,317,22642,1,2,2:0:0:0:
245,335,22980,6,0,P|233:249|209:155,1,179.999994506836,2|2,1:2|2:0,2:0:0:0:
295,129,23991,2,0,P|303:82|325:19,1,89.9999972534181,2|0,1:2|1:0,2:0:0:0:
236,0,24665,1,2,2:0:0:0:
166,57,25002,2,0,P|117:73|67:56,1,89.9999972534181,10|2,2:0|2:0,2:0:0:0:
9,119,25676,5,2,1:2:0:0:
55,195,26013,2,0,P|30:251|26:286,1,89.9999972534181,0|8,1:0|2:0,2:0:0:0:
61,361,26687,2,0,B|157:387|136:300|232:335,1,179.999994506836,6|0,1:2|1:0,2:0:0:0:
270,314,27530,1,8,2:0:0:0:
270,314,27699,2,0,P|274:285|288:248,1,44.999998626709,8|0,2:0|1:0,0:0:0:0:
299,230,28036,1,0,1:0:0:0:
227,175,28373,6,0,P|212:101|184:-5,1,179.999994506836,4|0,1:2|2:0,2:0:0:0:
275,4,29384,1,2,1:2:0:0:
345,60,29721,1,2,1:2:0:0:
433,45,30058,1,2,2:0:0:0:
498,106,30395,2,0,P|479:154|473:195,1,89.9999972534181,10|2,2:0|2:0,2:0:0:0:
495,237,30901,1,2,1:2:0:0:
495,237,31069,6,0,B|506:273|506:273|490:328,1,89.9999972534181,0|0,1:2|2:0,0:0:0:0:
402,313,31744,1,0,2:0:0:0:
334,371,32081,2,0,P|281:355|225:348,1,89.9999972534181,2|2,1:2|1:2,0:0:0:0:
162,381,32755,1,2,2:0:0:0:
127,298,33092,1,10,2:0:0:0:
40,321,33429,1,2,2:0:0:0:
8,236,33766,6,0,P|31:155|50:57,1,179.999994506836,0|2,1:2|2:0,2:0:0:0:
139,64,34777,2,0,P|182:99|190:144,1,89.9999972534181,2|2,1:2|1:2,2:0:0:0:
172,218,35451,1,2,2:0:0:0:
252,257,35788,2,0,P|298:242|345:235,1,89.9999972534181,10|2,2:0|2:0,2:0:0:0:
386,251,36294,1,2,1:2:0:0:
386,251,36463,6,0,P|433:242|455:196,1,89.9999972534181,0|0,1:2|2:0,0:0:0:0:
481,123,37137,1,0,2:0:0:0:
416,59,37474,1,2,1:2:0:0:
333,95,37811,2,0,P|292:82|240:76,1,89.9999972534181,2|2,1:2|2:0,2:0:0:0:
184,142,38485,1,10,2:0:0:0:
212,227,38822,1,2,2:0:0:0:
137,277,39159,6,0,P|90:264|35:260,1,89.9999972534181,4|2,1:2|2:0,2:0:0:0:
1,183,39833,1,2,2:0:0:0:
57,112,40171,1,2,1:2:0:0:
57,112,40339,2,0,P|53:69|37:5,1,89.9999972534181,2|0,2:0|0:0,0:0:0:0:
82,1,40845,1,2,2:0:0:0:
162,41,41182,2,0,P|216:53|268:39,1,89.9999972534181,10|2,2:0|2:0,2:0:0:0:
326,1,41856,5,2,1:2:0:0:
401,49,42193,2,0,P|410:102|423:145,1,89.9999972534181,2|2,1:2|2:0,2:0:0:0:
489,193,42867,2,0,P|466:276|456:370,1,179.999994506836,6|0,1:2|1:0,2:0:0:0:
372,337,43878,1,10,2:0:0:0:
292,379,44215,1,2,2:0:0:0:
215,330,44553,6,0,P|208:283|193:228,1,89.9999972534181,2|0,1:2|0:0,2:0:0:0:
266,184,45227,2,0,P|273:137|288:82,1,89.9999972534181,2|0,2:0|1:0,0:0:0:0:
226,26,45901,2,0,P|183:8|136:17,1,89.9999972534181,2|0,1:2|0:0,2:0:0:0:
116,52,46407,2,0,P|73:70|26:60,1,89.9999972534181,2|0,2:0|0:0,0:0:0:0:
0,147,47081,6,0,P|21:232|30:290,1,134.999995880127,2|0,0:0|0:0,0:0:0:0:
89,344,47923,2,0,P|125:299|174:291,1,89.9999972534181,0|0,2:0|1:0,2:0:0:0:
244,289,48598,1,4,1:2:0:0:
223,201,48935,2,0,P|235:159|247:80,1,89.9999972534181,8|8,2:0|2:0,2:0:0:0:
299,43,49609,1,2,1:2:0:0:
388,29,49946,6,0,P|423:40|448:73,1,50,6|0,1:2|0:0,2:0:0:0:
462,88,50283,2,0,P|469:124|454:162,1,50,6|0,1:2|0:0,2:0:0:0:
453,184,50620,1,10,2:0:0:0:
392,263,50957,2,0,B|355:277|317:248|317:248|272:268|272:268|244:244|192:251,1,200,6|0,1:2|1:0,2:0:0:0:
203,150,51968,1,0,1:0:0:0:
103,163,52305,1,2,1:2:0:0:
13,117,52642,6,0,P|2:144|-2:168,1,50,6|0,1:2|0:0,2:0:0:0:
4,214,52980,2,0,P|15:241|19:265,1,50,6|0,1:2|0:0,2:0:0:0:
12,311,53317,1,10,2:0:0:0:
88,375,53654,2,0,B|189:405|172:311|280:344,1,200,6|0,1:2|1:0,2:0:0:0:
323,358,54496,1,0,1:0:0:0:
323,358,54665,2,0,P|353:343|383:337,1,50,10|0,2:0|2:0,0:0:0:0:
418,332,55002,1,2,1:2:0:0:
507,287,55339,6,0,P|481:250|471:168,1,100,6|0,1:2|0:0,2:0:0:0:
381,148,56013,2,0,P|337:163|277:171,1,100,10|0,2:0|0:0,2:0:0:0:
200,225,56687,1,2,1:2:0:0:
100,238,57024,1,2,2:0:0:0:
30,166,57362,1,10,2:0:0:0:
40,66,57699,1,2,2:0:0:0:
118,4,58036,6,0,P|162:38|225:37,1,100,2|0,1:2|0:0,2:0:0:0:
249,20,58541,2,0,P|297:26|335:58,1,100,2|0,2:0|0:0,0:0:0:0:
349,107,59047,1,2,1:2:0:0:
437,154,59384,2,0,P|445:208|461:257,1,100,6|0,1:2|0:0,2:0:0:0:
486,292,59890,1,4,0:3:0:0:
486,292,60058,2,0,P|475:323|470:344,1,50,10|8,2:0|2:3,0:0:0:0:
444,382,60395,1,10,2:0:0:0:
352,341,60732,6,0,P|341:314|311:291,1,50,6|0,1:2|0:0,2:0:0:0:
295,259,61069,2,0,P|298:230|321:200,1,50,6|0,1:2|0:0,2:0:0:0:
339,172,61407,1,10,2:0:0:0:
306,77,61744,2,0,P|206:48|127:142,1,200,6|0,1:2|1:0,2:0:0:0:
51,156,62755,2,0,P|38:218|22:257,1,100,8|2,2:0|1:2,2:0:0:0:
1,296,63260,1,2,2:0:0:0:
1,296,63429,6,0,P|40:302|63:313,1,50,6|0,1:2|0:0,2:0:0:0:
88,337,63766,2,0,P|127:331|150:320,1,50,6|0,1:2|0:0,0:0:0:0:
180,303,64103,1,10,2:0:0:0:
279,316,64440,2,0,P|284:287|300:257,1,50,6|0,1:2|0:0,2:0:0:0:
321,227,64777,2,0,P|329:172|284:117,1,100,2|8,2:0|2:0,0:0:0:0:
266,107,65283,1,2,2:0:0:0:
266,107,65451,1,12,2:0:0:0:
299,12,65789,1,2,1:2:0:0:
398,6,66126,6,0,P|463:29|472:86,1,100,6|0,1:2|0:0,2:0:0:0:
509,146,66800,2,0,P|488:192|478:250,1,100,8|2,2:0|2:0,0:0:0:0:
485,294,67305,1,2,2:0:0:0:
485,294,67474,1,2,1:2:0:0:
407,356,67811,1,2,1:2:0:0:
320,305,68148,1,10,2:0:0:0:
243,369,68485,1,2,1:2:0:0:
157,317,68822,6,0,P|175:271|185:205,1,100,14|0,2:0|0:0,0:0:0:0:
185,171,69328,1,2,0:2:0:0:
185,171,69496,2,0,P|191:141|206:98,1,50,0|0,1:2|0:0,0:0:0:0:
212,74,69833,1,2,1:2:0:0:
137,6,70171,2,0,P|103:1|74:10,1,50,8|0,1:2|0:0,0:0:0:0:
43,26,70508,2,0,P|21:52|14:82,1,50,8|0,1:2|0:0,0:0:0:0:
16,117,70845,2,0,P|28:148|50:169,1,50,8|0,1:2|0:0,0:0:0:0:
80,187,71182,1,8,1:2:0:0:
487,342,73541,6,0,P|442:373|369:362,1,100,4|2,1:2|0:2,2:0:0:0:
353,350,74047,1,2,0:2:0:0:
353,350,74215,6,0,P|341:286|311:223,1,110.000003356934,6|2,1:2|2:0,2:0:0:0:
260,154,74890,2,0,P|273:128|286:81,1,55.0000016784668,10|0,2:0|0:0,2:0:0:0:
285,48,75227,1,2,1:2:0:0:
285,48,75395,2,0,P|230:60|175:39,1,110.000003356934,10|0,2:0|0:0,0:0:0:0:
145,0,75901,1,2,1:2:0:0:
46,47,76238,2,0,B|63:91|63:91|39:156,1,110.000003356934,10|2,2:0|1:2,2:0:0:0:
13,197,76744,6,0,P|28:268|34:318,1,110.000003356934,10|0,2:0|0:0,0:0:0:0:
31,359,77249,1,2,1:2:0:0:
138,382,77586,2,0,P|191:366|214:289,1,110.000003356934,8|0,2:0|1:2,2:0:0:0:
178,217,78260,1,2,1:2:0:0:
178,217,78429,2,0,P|201:167|213:105,1,110.000003356934,8|0,0:3|2:0,0:0:0:0:
213,58,78935,1,8,2:0:0:0:
311,9,79272,2,0,P|344:25|357:44,1,55.0000016784668,2|10,2:0|2:0,0:0:0:0:
391,79,79609,6,0,P|403:147|417:195,1,110.000003356934,6|2,1:2|2:0,2:0:0:0:
442,233,80114,1,2,2:0:0:0:
507,320,80451,2,0,P|493:350|490:374,1,55.0000016784668,2|0,2:0|1:2,2:0:0:0:
434,376,80789,2,0,P|400:342|318:348,1,110.000003356934,10|0,2:0|0:0,0:0:0:0:
296,370,81294,1,2,1:2:0:0:
224,286,81631,2,0,P|235:258|245:221,1,55.0000016784668,10|0,2:0|0:0,2:0:0:0:
225,181,81968,1,2,2:0:0:0:
319,124,82305,6,0,P|306:79|296:9,1,110.000003356934,6|2,1:2|2:0,2:0:0:0:
246,9,82811,1,2,2:0:0:0:
246,9,82980,1,8,2:0:0:0:
145,54,83317,2,0,P|119:49|90:52,1,55.0000016784668,0|8,1:0|2:0,0:0:0:0:
48,87,83654,2,0,P|38:155|17:204,1,110.000003356934,0|0,1:0|1:0,0:0:0:0:
5,301,84328,2,0,P|14:334|17:359,1,55.0000016784668,10|0,2:0|0:0,2:0:0:0:
65,379,84665,1,2,1:2:0:0:
140,299,85002,6,0,P|194:271|255:283,1,110.000003356934,6|2,1:2|2:0,2:0:0:0:
290,302,85508,2,0,P|301:244|324:179,1,110.000003356934,2|0,2:0|2:0,0:0:0:0:
285,150,86013,1,2,1:2:0:0:
261,42,86350,2,0,P|325:46|383:1,1,110.000003356934,2|2,1:2|1:2,2:0:0:0:
415,4,86856,2,0,P|451:7|469:13,1,55.0000016784668,2|8,2:0|2:0,0:0:0:0:
512,55,87193,1,0,1:2:0:0:
512,55,87362,1,2,2:0:0:0:
463,153,87699,6,0,P|482:215|489:263,1,110.000003356934,6|0,1:2|0:0,2:0:0:0:
484,314,88204,2,0,P|452:352|383:358,1,110.000003356934,2|0,2:0|0:0,0:0:0:0:
344,337,88710,1,2,1:2:0:0:
249,281,89047,2,0,B|270:237|270:237|252:168,1,110.000003356934,0|0,1:0|1:0,0:0:0:0:
235,131,89553,1,0,1:0:0:0:
235,131,89721,1,10,2:0:0:0:
252,22,90058,2,0,P|227:16|200:5,1,55.0000016784668,2|8,1:2|2:0,2:0:0:0:
146,20,90395,6,0,P|121:26|94:37,1,55.0000016784668,6|0,1:2|0:0,2:0:0:0:
39,31,90732,2,0,P|6:86|25:140,1,110.000003356934,2|8,2:0|2:0,0:0:0:0:
99,199,91407,2,0,P|128:186|157:183,1,55.0000016784668,2|0,1:2|0:0,0:0:0:0:
196,214,91744,2,0,B|238:233|238:233|316:215,1,110.000003356934,2|2,1:2|1:2,2:0:0:0:
346,188,92249,1,2,2:0:0:0:
346,188,92418,2,0,P|382:189|417:199,1,55.0000016784668,8|0,2:0|0:0,2:0:0:0:
441,229,92755,1,2,1:2:0:0:
507,316,93092,6,0,P|468:335|456:360,1,55.0000016784668,6|0,1:2|0:0,2:0:0:0:
420,379,93429,2,0,P|401:359|375:351,1,55.0000016784668,2|0,2:0|2:0,2:0:0:0:
320,357,93766,2,0,P|267:370|210:345,1,110.000003356934,10|2,2:0|1:2,2:0:0:0:
175,313,94272,1,2,2:0:0:0:
175,313,94440,1,8,2:0:0:0:
82,372,94777,2,0,P|54:364|27:362,1,55.0000016784668,0|8,1:0|2:0,0:0:0:0:
7,311,95114,1,8,2:0:0:0:
7,311,95283,2,0,P|40:275|26:198,1,110.000003356934,8|2,2:0|1:2,0:0:0:0:
3,174,95789,6,0,P|19:99|42:38,1,110.000003356934,6|2,1:2|2:0,2:0:0:0:
58,21,96294,1,2,2:0:0:0:
166,1,96631,2,0,P|206:5|236:32,1,55.0000016784668,2|0,2:0|0:0,2:0:0:0:
254,53,96968,2,0,B|270:98|270:98|253:162,1,110.000003356934,10|0,2:0|0:0,0:0:0:0:
237,210,97474,1,2,1:2:0:0:
236,319,97811,2,0,P|281:329|312:343,1,55.0000016784668,10|0,2:0|0:0,2:0:0:0:
332,366,98148,1,2,2:0:0:0:
438,340,98485,6,0,P|447:277|478:204,1,110.000003356934,6|2,1:2|2:0,2:0:0:0:
488,184,98991,2,0,P|479:121|448:48,1,110.000003356934,2|0,2:0|0:0,0:0:0:0:
429,34,99496,1,2,1:2:0:0:
324,19,99833,1,0,1:0:0:0:
324,19,100002,2,0,P|262:28|220:89,1,110.000003356934,0|0,1:2|2:0,0:0:0:0:
215,113,100508,1,8,2:0:0:0:
266,210,100845,2,0,P|278:240|282:265,1,55.0000016784668,2|10,1:2|2:0,0:0:0:0:
278,317,101182,6,0,B|235:337|235:337|168:314,1,110.000003356934,6|2,1:2|2:0,2:0:0:0:
127,291,101687,1,2,2:0:0:0:
34,232,102024,2,0,P|48:201|59:159,1,55.0000016784668,2|0,2:0|0:0,2:0:0:0:
26,132,102362,2,0,P|14:84|7:22,1,110.000003356934,10|0,2:0|0:0,0:0:0:0:
58,4,102867,1,2,1:2:0:0:
152,59,103204,2,0,P|188:71|225:61,1,55.0000016784668,10|0,2:0|0:0,2:0:0:0:
256,50,103541,1,2,1:2:0:0:
360,15,103878,6,0,P|431:31|460:88,1,110.000003356934,6|2,1:2|2:0,2:0:0:0:
468,115,104384,1,2,2:0:0:0:
468,115,104553,1,8,2:0:0:0:
499,220,104890,2,0,P|463:229|438:249,1,55.0000016784668,0|8,1:0|2:0,0:0:0:0:
394,226,105227,2,0,B|348:207|348:207|287:221,1,110.000003356934,0|0,1:0|1:0,0:0:0:0:
186,260,105901,1,10,2:0:0:0:
113,177,106238,2,0,P|128:150|137:114,1,55.0000016784668,10|8,2:0|2:0,0:0:0:0:
154,75,106575,6,0,P|127:33|37:30,1,110.000003356934,6|2,1:2|2:0,2:0:0:0:
17,30,107081,2,0,P|11:94|1:141,1,110.000003356934,2|0,2:0|0:0,0:0:0:0:
1,193,107586,1,2,1:2:0:0:
38,296,107923,2,0,P|51:328|54:356,1,55.0000016784668,2|8,1:2|2:0,2:0:0:0:
98,380,108260,2,0,P|135:363|183:356,1,55.0000016784668,2|0,1:2|0:0,0:0:0:0:
197,333,108598,2,0,B|180:291|180:291|208:207,1,110.000003356934,10|0,2:0|1:0,2:0:0:0:
303,190,109272,6,0,P|285:135|273:71,1,110.000003356934,6|0,1:2|0:0,2:0:0:0:
280,29,109777,2,0,P|340:1|409:41,1,110.000003356934,2|0,2:0|0:0,0:0:0:0:
420,48,110283,1,2,1:2:0:0:
503,119,110620,2,0,P|478:178|470:228,1,110.000003356934,0|0,1:0|1:0,0:0:0:0:
482,276,111126,1,0,1:2:0:0:
482,276,111294,2,0,P|397:303|388:361,1,110.000003356934,8|0,2:0|1:0,2:0:0:0:
304,383,111968,6,0,P|296:328|271:250,1,110.000003356934,6|0,1:2|0:0,2:0:0:0:
241,236,112474,2,0,P|186:244|108:269,1,110.000003356934,2|0,2:0|0:0,0:0:0:0:
92,295,112980,2,0,P|70:237|-3:211,1,110.000003356934,2|0,1:2|1:0,2:0:0:0:
3,106,113654,2,0,P|38:97|63:87,1,55.0000016784668,2|0,1:2|0:0,0:0:0:0:
101,60,113991,2,0,P|136:69|161:79,1,55.0000016784668,2|0,1:2|0:0,0:0:0:0:
198,108,114328,1,2,1:2:0:0:
306,90,114665,6,0,B|96:484|555:441|412:203,1,550.000016784668,4|8,1:2|2:0,2:0:0:0:
502,162,116687,1,2,1:2:0:0:
414,94,117024,1,10,2:0:0:0:
475,2,117362,5,4,1:2:0:0:
256,192,117699,12,0,120058,2:0:0:0:
