osu file format v14

[General]
AudioFilename: audio.mp3
AudioLeadIn: 0
PreviewTime: 73457
Countdown: 0
SampleSet: Soft
StackLeniency: 0.7
Mode: 0
LetterboxInBreaks: 0
WidescreenStoryboard: 1

[Editor]
Bookmarks: 6800,28373,49946,74215,114665
DistanceSpacing: 2.2
BeatDivisor: 4
GridSize: 32
TimelineZoom: 0.7999996

[Metadata]
Title:Anata no Risou no Heroine
TitleUnicode:あなたの理想のヒロイン
Artist:Osaka Shizuku (CV: Maeda Kaori)
ArtistUnicode:桜坂しずく (CV: 前田佳織里)
Creator:Ninjaking311
Version:Kyairie's Hard
Source:ラブライブ!スクールアイドルフェスティバル ALL STARS
Tags:EnuHQ NotABox Kyairie Mrgglock Lulu- Japanese Pop J-Pop video game size ver. cut anime 月見草 Tsukimisou 遠藤ナオキ Naoki Endo LoveLive! Love Live! School idol festival sifas オールスターズ スクスタ sukusuta TOKIMEKI Runners 1st Album 虹ヶ咲学園スクールアイドル同好会 Nijigasaki High Club Gakuen Doukoukai Dokokai ニジガク NijiGaku
BeatmapID:4199465
BeatmapSetID:1944025

[Difficulty]
HPDrainRate:4
CircleSize:3.8
OverallDifficulty:6
ApproachRate:7
SliderMultiplier:1.8
SliderTickRate:1

[Events]
//Background and Video events
Video,-100,"Anata no Risou no Heroine.avi"
0,0,"fotor_2023-2-20_23_18_2.jpg",0,0
//Break Periods
//Storyboard Layer 0 (Background)
//Storyboard Layer 1 (Fail)
//Storyboard Layer 2 (Pass)
//Storyboard Layer 3 (Foreground)
//Storyboard Layer 4 (Overlay)
//Storyboard Sound Samples

[TimingPoints]
1407,674.157303370787,4,2,1,60,1,0
2418,-111.111111111111,4,2,1,50,0,0
3008,-111.111111111111,4,2,1,50,0,0
3092,-111.111111111111,4,2,1,50,0,0
3345,-111.111111111111,4,2,1,50,0,0
3429,-111.111111111111,4,2,1,50,0,0
4103,-99.9999999999999,4,2,1,60,0,0
4356,-99.9999999999999,4,2,1,5,0,0
4440,-99.9999999999999,4,2,1,60,0,0
4693,-99.9999999999999,4,2,1,5,0,0
4777,-99.9999999999999,4,2,1,60,0,0
5030,-99.9999999999999,4,2,1,5,0,0
5114,-111.111111111111,4,2,1,60,0,0
6378,-111.111111111111,4,2,1,5,0,0
6463,-111.111111111111,4,2,1,60,0,0
6715,-111.111111111111,4,2,1,5,0,0
6800,-125,4,2,2,50,0,0
7390,-125,4,2,2,5,0,0
7474,-125,4,2,2,50,0,0
8064,-125,4,2,2,5,0,0
8148,-125,4,2,2,50,0,0
8738,-125,4,2,2,5,0,0
8822,-125,4,2,2,50,0,0
9075,-125,4,2,2,5,0,0
9159,-125,4,2,2,50,0,0
10760,-125,4,2,2,5,0,0
10845,-125,4,2,2,50,0,0
11435,-125,4,2,2,5,0,0
11519,-125,4,2,2,50,0,0
11772,-125,4,2,2,5,0,0
11856,-125,4,2,2,50,0,0
13457,-125,4,2,2,5,0,0
13541,-125,4,2,2,50,0,0
14131,-125,4,2,2,5,0,0
14215,-125,4,2,2,50,0,0
14468,-125,4,2,2,5,0,0
14553,-125,4,2,2,50,0,0
16154,-125,4,2,2,5,0,0
16238,-125,4,2,2,50,0,0
16828,-125,4,2,2,5,0,0
16912,-125,4,2,2,50,0,0
17165,-125,4,2,2,5,0,0
17249,-125,4,2,2,50,0,0
18850,-125,4,2,2,5,0,0
18935,-125,4,2,2,50,0,0
19524,-125,4,2,2,5,0,0
19609,-125,4,2,2,50,0,0
19862,-125,4,2,2,5,0,0
19946,-125,4,2,2,50,0,0
20536,-125,4,2,2,5,0,0
20620,-125,4,2,2,50,0,0
20873,-125,4,2,2,5,0,0
20957,-125,4,2,2,50,0,0
21210,-125,4,2,2,5,0,0
21294,-125,4,2,2,50,0,0
21884,-125,4,2,2,5,0,0
21968,-125,4,2,2,50,0,0
22221,-125,4,2,2,5,0,0
22305,-125,4,2,2,50,0,0
22558,-125,4,2,2,5,0,0
22642,-125,4,2,2,50,0,0
23232,-125,4,2,2,5,0,0
23317,-125,4,2,2,50,0,0
23569,-125,4,2,2,5,0,0
23654,-125,4,2,2,50,0,0
23907,-125,4,2,2,5,0,0
23991,-125,4,2,2,50,0,0
24244,-125,4,2,2,5,0,0
24328,-125,4,2,2,50,0,0
24918,-125,4,2,2,5,0,0
25002,-125,4,2,2,50,0,0
25592,-125,4,2,2,5,0,0
25676,-125,4,2,2,50,0,0
25929,-125,4,2,2,5,0,0
26013,-125,4,2,2,50,0,0
26266,-125,4,2,2,5,0,0
26350,-125,4,2,2,50,0,0
26687,-125,4,2,1,50,0,0
27277,-125,4,2,2,5,0,0
27362,-125,4,2,2,50,0,0
27446,-125,4,2,2,5,0,0
27530,-125,4,2,1,25,0,0
27699,-125,4,2,1,50,0,0
28289,-125,4,2,1,5,0,0
28373,-111.111111111111,4,2,1,60,0,0
29637,-111.111111111111,4,2,1,5,0,0
29721,-111.111111111111,4,2,1,60,0,0
30311,-111.111111111111,4,2,1,5,0,0
30395,-111.111111111111,4,2,1,60,0,0
30648,-111.111111111111,4,2,1,5,0,0
30732,-111.111111111111,4,2,1,60,0,0
32333,-111.111111111111,4,2,1,5,0,0
32418,-111.111111111111,4,2,1,60,0,0
33008,-111.111111111111,4,2,1,5,0,0
33092,-111.111111111111,4,2,1,60,0,0
33345,-111.111111111111,4,2,1,5,0,0
33429,-111.111111111111,4,2,1,60,0,0
35030,-111.111111111111,4,2,1,5,0,0
35114,-111.111111111111,4,2,1,60,0,0
35704,-111.111111111111,4,2,1,5,0,0
35789,-111.111111111111,4,2,1,60,0,0
36041,-111.111111111111,4,2,1,5,0,0
36126,-111.111111111111,4,2,1,60,0,0
37727,-111.111111111111,4,2,1,5,0,0
37811,-111.111111111111,4,2,1,60,0,0
38401,-111.111111111111,4,2,1,5,0,0
38485,-111.111111111111,4,2,1,60,0,0
38738,-111.111111111111,4,2,1,5,0,0
38822,-111.111111111111,4,2,1,60,0,0
39412,-111.111111111111,4,2,1,5,0,0
39496,-111.111111111111,4,2,1,60,0,0
39749,-111.111111111111,4,2,1,5,0,0
39833,-111.111111111111,4,2,1,60,0,0
40086,-111.111111111111,4,2,1,5,0,0
40171,-111.111111111111,4,2,1,60,0,0
40760,-111.111111111111,4,2,1,5,0,0
40845,-111.111111111111,4,2,1,60,0,0
41098,-111.111111111111,4,2,1,5,0,0
41182,-111.111111111111,4,2,1,60,0,0
41435,-111.111111111111,4,2,1,5,0,0
41519,-111.111111111111,4,2,1,60,0,0
42109,-111.111111111111,4,2,1,5,0,0
42193,-111.111111111111,4,2,1,60,0,0
42446,-111.111111111111,4,2,1,5,0,0
42530,-111.111111111111,4,2,1,60,0,0
42783,-111.111111111111,4,2,1,5,0,0
42867,-111.111111111111,4,2,1,60,0,0
43457,-111.111111111111,4,2,1,5,0,0
43541,-111.111111111111,4,2,1,60,0,0
43794,-111.111111111111,4,2,1,5,0,0
43878,-111.111111111111,4,2,1,60,0,0
44131,-111.111111111111,4,2,1,5,0,0
44215,-111.111111111111,4,2,1,60,0,0
44468,-111.111111111111,4,2,1,5,0,0
44553,-111.111111111111,4,2,1,60,0,0
44805,-111.111111111111,4,2,1,5,0,0
44890,-111.111111111111,4,2,1,60,0,0
45142,-111.111111111111,4,2,1,5,0,0
45227,-111.111111111111,4,2,1,60,0,0
45480,-111.111111111111,4,2,1,5,0,0
45564,-111.111111111111,4,2,1,60,0,0
47839,-111.111111111111,4,2,1,5,0,0
47923,-111.111111111111,4,2,1,60,0,0
48176,-111.111111111111,4,2,1,5,0,0
48260,-111.111111111111,4,2,1,60,0,0
48513,-111.111111111111,4,2,1,5,0,0
48598,-111.111111111111,4,2,1,60,0,0
49187,-111.111111111111,4,2,1,5,0,0
49272,-111.111111111111,4,2,1,60,0,0
49862,-111.111111111111,4,2,1,5,0,0
49946,-99.9999999999999,4,2,1,80,0,0
50199,-99.9999999999999,4,2,1,5,0,0
50283,-99.9999999999999,4,2,1,80,0,0
50536,-99.9999999999999,4,2,1,5,0,0
50620,-99.9999999999999,4,2,1,80,0,0
50957,-99.9999999999999,4,2,1,60,0,0
51547,-99.9999999999999,4,2,1,5,0,0
51631,-99.9999999999999,4,2,1,60,0,0
51884,-99.9999999999999,4,2,1,5,0,0
51968,-99.9999999999999,4,2,1,60,0,0
52221,-99.9999999999999,4,2,1,5,0,0
52305,-99.9999999999999,4,2,1,60,0,0
52558,-99.9999999999999,4,2,1,5,0,0
52642,-99.9999999999999,4,2,1,80,0,0
52895,-99.9999999999999,4,2,1,5,0,0
52980,-99.9999999999999,4,2,1,80,0,0
53232,-99.9999999999999,4,2,1,5,0,0
53317,-99.9999999999999,4,2,1,80,0,0
53654,-99.9999999999999,4,2,1,60,0,0
54244,-99.9999999999999,4,2,1,5,0,0
54328,-99.9999999999999,4,2,1,60,0,0
55255,-99.9999999999999,4,2,1,5,0,0
55339,-99.9999999999999,4,2,1,80,0,0
56013,-99.9999999999999,4,2,1,60,0,0
56603,-99.9999999999999,4,2,1,5,0,0
56687,-99.9999999999999,4,2,1,60,0,0
56940,-99.9999999999999,4,2,1,5,0,0
57024,-99.9999999999999,4,2,1,60,0,0
57277,-99.9999999999999,4,2,1,5,0,0
57362,-99.9999999999999,4,2,1,60,0,0
57614,-99.9999999999999,4,2,1,5,0,0
57699,-99.9999999999999,4,2,1,60,0,0
57951,-99.9999999999999,4,2,1,5,0,0
58036,-99.9999999999999,4,2,1,60,0,0
58457,-99.9999999999999,4,2,1,5,0,0
58541,-99.9999999999999,4,2,1,60,0,0
58963,-99.9999999999999,4,2,1,5,0,0
59047,-99.9999999999999,4,2,1,60,0,0
59300,-99.9999999999999,4,2,1,5,0,0
59384,-99.9999999999999,4,2,1,70,0,0
60648,-99.9999999999999,4,2,1,5,0,0
60732,-99.9999999999999,4,2,1,80,0,0
60985,-99.9999999999999,4,2,1,5,0,0
61069,-99.9999999999999,4,2,1,80,0,0
61322,-99.9999999999999,4,2,1,5,0,0
61407,-99.9999999999999,4,2,1,80,0,0
61744,-99.9999999999999,4,2,1,60,0,0
62333,-99.9999999999999,4,2,1,5,0,0
62418,-99.9999999999999,4,2,1,60,0,0
62671,-99.9999999999999,4,2,1,5,0,0
62755,-99.9999999999999,4,2,1,60,0,0
63008,-99.9999999999999,4,2,1,5,0,0
63092,-99.9999999999999,4,2,1,60,0,0
63429,-99.9999999999999,4,2,1,80,0,0
63682,-99.9999999999999,4,2,1,5,0,0
63766,-99.9999999999999,4,2,1,80,0,0
64356,-99.9999999999999,4,2,1,5,0,0
64440,-99.9999999999999,4,2,1,60,0,0
64693,-99.9999999999999,4,2,1,5,0,0
64777,-99.9999999999999,4,2,1,60,0,0
65030,-99.9999999999999,4,2,1,5,0,0
65114,-99.9999999999999,4,2,1,60,0,0
65704,-99.9999999999999,4,2,1,5,0,0
65789,-99.9999999999999,4,2,1,60,0,0
66041,-99.9999999999999,4,2,1,5,0,0
66126,-99.9999999999999,4,2,1,60,0,0
66715,-99.9999999999999,4,2,1,5,0,0
66800,-99.9999999999999,4,2,1,60,0,0
67727,-99.9999999999999,4,2,1,5,0,0
67811,-99.9999999999999,4,2,1,60,0,0
68064,-99.9999999999999,4,2,1,5,0,0
68148,-99.9999999999999,4,2,1,60,0,0
68401,-99.9999999999999,4,2,1,5,0,0
68485,-99.9999999999999,4,2,1,60,0,0
69243,-99.9999999999999,4,2,1,5,0,0
69328,-99.9999999999999,4,2,1,60,0,0
69749,-99.9999999999999,4,2,1,5,0,0
69833,-99.9999999999999,4,2,1,60,0,0
70086,-99.9999999999999,4,2,1,5,0,0
70171,-99.9999999999999,4,2,1,60,0,0
70423,-99.9999999999999,4,2,1,5,0,0
70508,-99.9999999999999,4,2,1,70,0,0
70760,-99.9999999999999,4,2,1,5,0,0
70845,-99.9999999999999,4,2,1,80,0,0
71098,-99.9999999999999,4,2,1,5,0,0
71182,-99.9999999999999,4,2,1,90,0,0
71435,-99.9999999999999,4,2,1,5,0,0
71519,-99.9999999999999,4,2,1,60,0,0
73204,-99.9999999999999,4,2,1,5,0,0
73541,-90.9090909090909,4,2,1,60,0,0
74131,-90.9090909090909,4,2,1,5,0,0
74215,-83.3333333333333,4,2,12,80,0,1
74468,-83.3333333333333,4,2,12,5,0,1
74553,-83.3333333333333,4,2,12,80,0,1
74805,-83.3333333333333,4,2,12,5,0,1
74890,-83.3333333333333,4,2,12,80,0,1
75142,-83.3333333333333,4,2,12,5,0,1
75227,-83.3333333333333,4,2,12,80,0,1
75901,-83.3333333333333,4,2,11,80,0,1
76154,-83.3333333333333,4,2,11,5,0,1
76238,-83.3333333333333,4,2,10,80,0,1
76491,-83.3333333333333,4,2,10,5,0,1
76575,-83.3333333333333,4,2,11,80,0,1
76744,-83.3333333333333,4,2,10,80,0,1
77165,-83.3333333333333,4,2,10,5,0,1
77249,-83.3333333333333,4,2,13,80,0,1
77502,-83.3333333333333,4,2,13,5,0,1
77586,-83.3333333333333,4,2,13,80,0,1
78260,-83.3333333333333,4,2,1,80,0,1
78513,-83.3333333333333,4,2,13,5,0,1
78598,-83.3333333333333,4,2,13,80,0,1
79272,-83.3333333333333,4,2,10,80,0,1
79440,-83.3333333333333,4,2,11,80,0,1
79609,-83.3333333333333,4,2,12,80,0,1
79862,-83.3333333333333,4,2,12,5,0,1
79946,-83.3333333333333,4,2,12,80,0,1
81210,-83.3333333333333,4,2,12,5,0,1
81294,-83.3333333333333,4,2,11,80,0,1
81631,-83.3333333333333,4,2,10,80,0,1
81884,-83.3333333333333,4,2,10,5,0,1
81968,-83.3333333333333,4,2,13,80,0,1
82558,-83.3333333333333,4,2,13,5,0,1
82642,-83.3333333333333,4,2,14,80,0,1
82811,-83.3333333333333,4,2,10,80,0,1
83232,-83.3333333333333,4,2,10,5,0,1
83317,-83.3333333333333,4,2,10,80,0,1
83907,-83.3333333333333,4,2,10,5,0,1
83991,-83.3333333333333,4,2,10,80,0,1
84328,-83.3333333333333,4,2,15,80,0,1
84581,-83.3333333333333,4,2,15,5,0,1
84665,-83.3333333333333,4,2,16,80,0,1
84918,-83.3333333333333,4,2,16,5,0,1
85002,-83.3333333333333,4,2,14,80,0,1
85255,-83.3333333333333,4,2,14,5,0,1
85339,-83.3333333333333,4,2,16,80,0,1
85508,-83.3333333333333,4,2,14,80,0,1
86013,-83.3333333333333,4,2,17,80,0,1
86266,-83.3333333333333,4,2,17,5,0,1
86350,-83.3333333333333,4,2,14,80,0,1
86687,-83.3333333333333,4,2,16,80,0,1
86856,-83.3333333333333,4,2,14,80,0,1
87277,-83.3333333333333,4,2,14,5,0,1
87362,-83.3333333333333,4,2,13,80,0,1
87699,-83.3333333333333,4,2,10,80,0,1
88120,-83.3333333333333,4,2,10,5,0,1
88204,-83.3333333333333,4,2,12,80,0,1
88710,-83.3333333333333,4,2,10,80,0,1
89637,-83.3333333333333,4,2,10,5,0,1
89721,-83.3333333333333,4,2,10,80,0,1
90058,-83.3333333333333,4,2,11,80,0,1
90395,-83.3333333333333,4,2,10,80,0,1
90648,-83.3333333333333,4,2,10,5,0,1
90732,-83.3333333333333,4,2,13,80,0,1
91322,-83.3333333333333,4,2,13,5,0,1
91407,-83.3333333333333,4,2,15,80,0,1
91744,-83.3333333333333,4,2,10,80,0,1
91996,-83.3333333333333,4,2,10,5,0,1
92081,-83.3333333333333,4,2,13,80,0,1
92671,-83.3333333333333,4,2,13,5,0,1
92755,-83.3333333333333,4,2,15,80,0,1
93092,-83.3333333333333,4,2,10,80,0,1
93345,-83.3333333333333,4,2,10,5,0,1
93429,-83.3333333333333,4,2,13,80,0,1
93766,-83.3333333333333,4,2,10,80,0,1
94019,-83.3333333333333,4,2,10,5,0,1
94103,-83.3333333333333,4,2,11,80,0,1
94440,-83.3333333333333,4,2,11,80,0,0
94693,-83.3333333333333,4,2,11,5,0,0
94777,-83.3333333333333,4,2,11,80,0,0
95451,-83.3333333333333,4,2,10,80,0,0
95620,-83.3333333333333,4,2,11,80,0,0
95789,-83.3333333333333,4,2,12,80,0,1
96041,-83.3333333333333,4,2,12,5,0,1
96126,-83.3333333333333,4,2,12,80,0,1
96884,-83.3333333333333,4,2,12,5,0,1
96968,-83.3333333333333,4,2,12,80,0,1
97221,-83.3333333333333,4,2,12,5,0,1
97305,-83.3333333333333,4,2,12,80,0,1
97474,-83.3333333333333,4,2,11,80,0,1
97727,-83.3333333333333,4,2,11,5,0,1
97811,-83.3333333333333,4,2,10,80,0,1
98064,-83.3333333333333,4,2,10,5,0,1
98148,-83.3333333333333,4,2,11,80,0,1
98485,-83.3333333333333,4,2,10,80,0,1
98738,-83.3333333333333,4,2,10,5,0,1
98822,-83.3333333333333,4,2,13,80,0,1
99412,-83.3333333333333,4,2,13,5,0,1
99496,-83.3333333333333,4,2,1,80,0,1
99833,-83.3333333333333,4,2,13,80,0,1
100086,-83.3333333333333,4,2,13,5,0,1
100171,-83.3333333333333,4,2,13,80,0,1
100845,-83.3333333333333,4,2,10,80,0,1
101013,-83.3333333333333,4,2,11,80,0,1
101182,-83.3333333333333,4,2,12,80,0,1
101435,-83.3333333333333,4,2,12,5,0,1
101519,-83.3333333333333,4,2,12,80,0,1
102277,-83.3333333333333,4,2,12,5,0,1
102362,-83.3333333333333,4,2,12,80,0,1
102783,-83.3333333333333,4,2,12,5,0,1
102867,-83.3333333333333,4,2,11,80,0,1
103204,-83.3333333333333,4,2,10,80,0,1
103457,-83.3333333333333,4,2,10,5,0,1
103541,-83.3333333333333,4,2,13,80,0,1
104131,-83.3333333333333,4,2,13,5,0,1
104215,-83.3333333333333,4,2,14,80,0,1
104384,-83.3333333333333,4,2,10,80,0,1
104805,-83.3333333333333,4,2,10,5,0,1
104890,-83.3333333333333,4,2,10,80,0,1
105817,-83.3333333333333,4,2,10,5,0,1
105901,-83.3333333333333,4,2,10,80,0,1
106238,-83.3333333333333,4,2,11,80,0,1
106575,-83.3333333333333,4,2,10,80,0,1
106828,-83.3333333333333,4,2,10,5,0,1
106912,-83.3333333333333,4,2,13,80,0,1
107502,-83.3333333333333,4,2,13,5,0,1
107586,-83.3333333333333,4,2,15,80,0,1
107839,-83.3333333333333,4,2,15,5,0,1
107923,-83.3333333333333,4,2,10,80,0,1
108260,-83.3333333333333,4,2,13,80,0,1
108513,-83.3333333333333,4,2,13,5,0,1
108598,-83.3333333333333,4,2,13,80,0,1
108850,-83.3333333333333,4,2,13,5,0,1
108935,-83.3333333333333,4,2,13,80,0,1
109272,-83.3333333333333,4,2,10,80,0,1
109693,-83.3333333333333,4,2,10,5,0,1
109777,-83.3333333333333,4,2,12,80,0,1
110199,-83.3333333333333,4,2,12,5,0,1
110283,-83.3333333333333,4,2,10,80,0,1
111210,-83.3333333333333,4,2,10,5,0,1
111294,-83.3333333333333,4,2,10,80,0,1
111968,-83.3333333333333,4,2,11,80,0,1
112389,-83.3333333333333,4,2,11,5,0,1
112474,-83.3333333333333,4,2,12,80,0,1
112895,-83.3333333333333,4,2,12,5,0,1
112980,-83.3333333333333,4,2,18,80,0,1
113148,-83.3333333333333,4,2,1,80,0,1
113569,-83.3333333333333,4,2,1,5,0,1
113654,-83.3333333333333,4,2,11,80,0,1
113822,-83.3333333333333,4,2,1,80,0,1
113991,-83.3333333333333,4,2,10,80,0,1
114244,-83.3333333333333,4,2,10,5,0,1
114328,-83.3333333333333,4,2,11,80,0,1
114581,-83.3333333333333,4,2,11,5,0,1
114665,-111.111111111111,4,2,11,80,0,0
115255,-111.111111111111,4,2,11,5,0,0
115339,-111.111111111111,4,2,10,80,0,0
115929,-111.111111111111,4,2,10,5,0,0
116013,-111.111111111111,4,2,13,80,0,0
116266,-111.111111111111,4,2,13,5,0,0
116350,-111.111111111111,4,2,13,80,0,0
116519,-111.111111111111,4,2,1,80,0,0
116687,-111.111111111111,4,2,14,80,0,0
116940,-111.111111111111,4,2,14,5,0,0
117024,-111.111111111111,4,2,14,80,0,0
117362,-111.111111111111,4,2,2,80,0,0
120058,-111.111111111111,4,2,2,5,0,0

[Colours]
Combo1 : 255,210,233
Combo2 : 0,128,255
Combo3 : 128,255,255
Combo4 : 255,255,21
Combo5 : 255,203,64
Combo6 : 255,128,192

[HitObjects]
508,105,2418,6,0,B|466:93|421:137|460:128|411:177|365:162,1,161.999995056153,8|8,2:0|2:3,2:0:0:0:
250,2,3429,2,0,P|299:12|373:47,1,121.499996292114,2|0,1:2|0:0,2:0:0:0:
426,102,4103,5,6,1:2:0:0:
304,175,4440,2,0,P|274:141|276:96,1,90,8|8,2:0|2:3,2:0:0:0:
508,237,5114,5,2,2:0:0:0:
508,237,5283,1,2,2:0:0:0:
465,306,5451,2,0,P|346:328|239:385,1,242.999992584229,4|2,1:2|2:0,2:0:0:0:
111,332,6800,6,0,P|100:260|156:211,1,144,4|0,1:2|2:0,2:0:0:0:
278,132,7811,1,2,1:2:0:0:
152,73,8148,2,0,P|134:41|123:3,1,72,2|2,1:2|2:0,2:0:0:0:
38,161,8822,2,0,P|56:193|67:231,1,72,8|2,2:0|2:0,2:0:0:0:
6,284,9328,1,2,2:0:0:0:
6,284,9496,6,0,P|75:275|129:333,1,144,0|0,1:2|2:0,2:0:0:0:
267,375,10508,1,2,1:2:0:0:
372,265,10845,2,0,P|407:272|439:287,1,72,2|2,1:2|2:0,2:0:0:0:
285,215,11519,1,10,2:0:0:0:
376,358,11856,1,2,2:0:0:0:
444,165,12193,6,0,P|374:150|309:120,1,144,0|0,1:2|2:0,2:0:0:0:
211,13,13204,1,2,1:2:0:0:
158,168,13541,2,0,P|165:203|180:235,1,72,2|2,1:2|2:0,2:0:0:0:
20,93,14215,2,0,P|35:125|42:160,1,72,10|2,2:0|2:0,2:0:0:0:
6,243,14721,1,2,2:0:0:0:
6,243,14890,6,0,B|47:234|78:278|54:271|82:313|127:304,1,144,0|0,1:2|2:0,2:0:0:0:
267,251,15901,1,2,1:2:0:0:
385,365,16238,2,0,P|417:352|453:344,1,72,2|2,1:2|2:0,0:0:0:0:
501,196,16912,1,10,2:0:0:0:
348,286,17249,1,2,2:0:0:0:
217,147,17586,6,0,P|287:132|354:105,1,144,0|0,1:2|2:0,0:0:0:0:
497,22,18598,1,2,1:2:0:0:
423,165,18935,2,0,P|412:198|408:234,1,72,2|2,1:2|2:0,2:0:0:0:
255,290,19609,2,0,P|266:256|269:220,1,72,10|2,2:0|2:0,2:0:0:0:
150,88,20283,5,2,1:2:0:0:
150,88,20620,2,0,P|128:119|132:157,1,72,2|2,1:2|2:0,2:0:0:0:
34,273,21294,2,0,P|107:261|161:309,1,144,2|0,1:2|1:0,2:0:0:0:
307,376,22305,1,10,2:0:0:0:
379,226,22642,1,2,2:0:0:0:
249,299,22980,6,0,P|234:266|226:230,1,72,2|0,1:2|0:0,2:0:0:0:
277,71,23654,1,2,2:0:0:0:
143,180,23991,2,0,P|126:109|97:44,1,144,2|2,1:2|2:0,2:0:0:0:
20,191,25002,2,0,P|27:226|42:258,1,72,10|2,2:0|2:0,2:0:0:0:
146,373,25676,5,2,1:2:0:0:
297,287,26013,2,0,P|268:267|231:265,1,72,0|8,1:0|2:0,2:0:0:0:
113,161,26687,2,0,P|80:133|74:70,1,108,6|0,1:2|0:0,2:0:0:0:
150,34,27362,1,0,1:0:0:0:
150,34,27530,1,8,2:0:0:0:
219,81,27699,2,0,P|237:88|257:92,1,36,8|0,2:0|1:0,2:0:0:0:
331,58,28036,1,0,1:0:0:0:
350,208,28373,6,0,P|420:181|513:160,1,161.999995056153,4|0,1:2|2:0,2:0:0:0:
336,74,29384,1,2,1:2:0:0:
260,257,29721,2,0,P|245:295|239:335,1,80.9999975280763,2|2,1:2|2:0,2:0:0:0:
62,286,30395,2,0,P|76:247|82:207,1,80.9999975280763,10|2,2:0|2:0,2:0:0:0:
161,165,30901,1,2,2:0:0:0:
161,165,31069,6,0,P|83:173|33:111,1,161.999995056153,0|0,1:2|2:0,2:0:0:0:
179,28,32081,1,2,1:2:0:0:
254,188,32418,2,0,P|268:225|274:265,1,80.9999975280763,2|2,1:2|2:0,2:0:0:0:
389,125,33092,1,10,2:0:0:0:
181,249,33429,1,2,2:0:0:0:
402,374,33766,6,0,P|373:298|360:218,1,161.999995056153,0|2,1:2|2:0,2:0:0:0:
457,64,34777,1,2,1:2:0:0:
297,152,35114,2,0,P|257:142|220:125,1,80.9999975280763,2|2,1:2|2:0,2:0:0:0:
109,275,35789,2,0,P|149:284|186:301,1,80.9999975280763,10|2,2:0|2:0,2:0:0:0:
257,370,36294,1,2,2:0:0:0:
257,370,36463,6,0,B|247:324|296:289|289:316|335:285|325:235,1,161.999995056153,0|0,1:2|2:0,2:0:0:0:
262,50,37474,1,2,1:2:0:0:
146,181,37811,2,0,P|134:142|128:103,1,80.9999975280763,2|2,1:2|2:0,2:0:0:0:
80,310,38485,1,10,2:0:0:0:
242,228,38822,1,2,2:0:0:0:
25,163,39159,6,0,P|18:122|3:84,1,80.9999975280763,4|2,1:2|2:0,2:0:0:0:
149,18,39833,2,0,P|203:21|230:53,1,80.9999975280763,2|2,2:0|1:2,0:0:0:0:
168,104,40339,1,2,2:0:0:0:
168,104,40508,1,2,1:2:0:0:
319,197,40845,1,2,2:0:0:0:
427,62,41182,2,0,P|459:39|499:42,1,80.9999975280763,10|2,2:0|2:0,2:0:0:0:
266,120,41856,5,2,1:2:0:0:
406,224,42193,2,0,P|419:261|424:304,1,80.9999975280763,2|2,1:2|2:0,2:0:0:0:
210,378,42867,2,0,P|184:304|174:218,1,161.999995056153,6|0,1:2|1:0,2:0:0:0:
299,86,43878,1,10,2:0:0:0:
103,168,44215,1,2,2:0:0:0:
268,277,44553,6,0,P|311:304|355:294,1,80.9999975280763,2|0,1:2|0:0,2:0:0:0:
490,213,45227,2,0,P|495:172|509:135,1,80.9999975280763,2|0,2:0|1:0,0:0:0:0:
402,4,45901,2,0,P|396:44|382:81,1,80.9999975280763,2|0,1:2|0:0,2:0:0:0:
310,127,46407,1,2,2:0:0:0:
310,127,46575,2,0,P|266:98|227:106,1,80.9999975280763,8|2,2:0|2:0,2:0:0:0:
177,49,47081,1,2,0:0:0:0:
177,49,47249,5,0,1:0:0:0:
70,212,47586,2,0,P|26:241|-13:233,1,80.9999975280763,0|0,0:0|2:0,0:0:0:0:
104,112,48260,1,0,1:0:0:0:
145,294,48598,5,4,1:2:0:0:
145,294,48766,1,0,1:0:0:0:
224,319,48935,1,8,2:0:0:0:
288,202,49272,5,8,2:0:0:0:
288,202,49440,1,0,1:0:0:0:
367,177,49609,2,0,P|389:180|410:187,1,40.4999987640381,2|0,1:2|0:0,0:0:0:0:
467,244,49946,5,6,1:2:0:0:
386,366,50283,2,0,P|353:320|363:281,1,90,6|10,1:2|2:0,2:0:0:0:
498,114,50957,2,0,P|424:103|321:72,1,180,6|0,1:2|1:0,2:0:0:0:
272,2,51800,1,8,0:3:0:0:
272,2,51968,1,0,1:0:0:0:
108,67,52305,1,2,1:2:0:0:
189,255,52642,5,6,1:2:0:0:
25,190,52980,2,0,P|-4:238|6:279,1,90,6|10,1:2|2:0,2:0:0:0:
123,373,53654,2,0,P|208:346|297:331,1,180,6|0,1:2|1:0,2:0:0:0:
480,210,54665,1,10,2:0:0:0:
480,210,54833,1,0,2:0:0:0:
411,261,55002,2,0,P|389:267|367:271,1,45,2|0,1:2|0:0,2:0:0:0:
293,217,55339,6,0,P|336:180|392:198,1,90,6|0,1:2|0:0,2:0:0:0:
215,90,56013,2,0,P|172:53|116:71,1,90,10|0,2:0|0:0,2:0:0:0:
77,110,56519,1,8,0:3:0:0:
77,110,56687,1,2,1:2:0:0:
151,240,57024,1,2,2:0:0:0:
43,365,57362,2,0,P|25:322|19:279,1,90,10|2,2:0|2:0,2:0:0:0:
176,123,58036,6,0,P|169:78|152:37,1,90,2|0,1:2|0:0,2:0:0:0:
233,4,58541,1,2,2:0:0:0:
233,4,58710,2,0,P|256:11|284:16,1,45,8|0,2:0|0:0,2:0:0:0:
336,73,59047,2,0,P|359:66|387:61,1,45,2|0,1:2|0:0,2:0:0:0:
433,2,59384,1,6,1:2:0:0:
509,134,59721,1,4,0:3:0:0:
509,134,59890,1,0,1:2:0:0:
440,185,60058,2,0,P|434:207|431:230,1,45,10|8,2:0|2:3,0:0:0:0:
475,301,60395,1,10,2:0:0:0:
306,244,60732,5,6,1:2:0:0:
192,364,61069,2,0,P|147:370|103:385,1,90,6|10,1:2|2:0,2:0:0:0:
12,204,61744,2,0,P|101:191|190:162,1,180,6|0,1:2|1:0,2:0:0:0:
304,48,62755,1,8,2:0:0:0:
420,200,63092,1,2,1:2:0:0:
420,200,63260,1,2,2:0:0:0:
333,180,63429,5,6,1:2:0:0:
276,322,63766,2,0,P|247:288|261:228,1,90,6|10,1:2|2:0,0:0:0:0:
389,105,64440,2,0,P|301:87|217:57,1,180,6|8,1:2|2:0,2:0:0:0:
150,4,65283,1,2,2:0:0:0:
150,4,65451,1,12,2:0:0:0:
223,150,65789,1,2,1:2:0:0:
98,247,66126,6,0,P|114:291|122:333,1,90,6|0,1:2|0:0,2:0:0:0:
26,184,66800,1,8,2:0:0:0:
208,275,67137,1,2,2:0:0:0:
208,275,67305,1,2,2:0:0:0:
279,225,67474,2,0,P|280:180|253:146,1,90,2|2,1:2|1:2,2:0:0:0:
85,80,68148,1,10,2:0:0:0:
295,2,68485,1,2,1:2:0:0:
186,210,68822,6,0,P|170:167|161:123,1,90,14|0,2:0|1:2,0:0:0:0:
213,53,69328,1,2,0:0:0:0:
213,53,69496,1,0,1:2:0:0:
88,184,69833,1,2,1:2:0:0:
323,249,70171,5,8,1:2:0:0:
149,112,70508,1,8,1:2:0:0:
96,331,70845,5,8,1:2:0:0:
263,152,71182,1,8,1:2:0:0:
258,384,73541,6,0,P|244:300|223:257,1,99.0000030212403,4|2,1:2|0:0,2:0:0:0:
155,267,74047,1,2,0:0:0:0:
155,267,74215,6,0,P|139:245|131:215,1,53.9999983520508,6|0,1:2|0:0,2:0:0:0:
44,208,74553,2,0,P|50:182|66:160,1,53.9999983520508,2|0,2:0|0:0,0:0:0:0:
156,103,74890,2,0,P|203:96|275:62,1,107.999996704102,10|2,2:0|1:2,2:0:0:0:
301,0,75395,1,10,2:0:0:0:
301,0,75564,5,0,1:2:0:0:
392,117,75901,2,0,P|402:93|407:66,1,53.9999983520508,2|0,1:2|0:0,2:0:0:0:
507,63,76238,2,0,P|485:113|475:166,1,107.999996704102,10|2,2:0|1:2,2:0:0:0:
411,238,76744,1,10,2:0:0:0:
411,238,76912,6,0,P|342:201|298:217,1,107.999996704102,4|2,1:2|1:2,2:0:0:0:
193,285,77586,1,8,2:0:0:0:
193,285,77755,1,8,0:3:0:0:
135,352,77923,2,0,P|113:369|86:375,1,53.9999983520508,0|8,1:2|2:0,0:0:0:0:
46,299,78260,6,0,P|19:290|-1:272,1,53.9999983520508,2|8,1:2|0:3,2:0:0:0:
71,211,78598,2,0,P|115:165|100:95,1,107.999996704102,0|8,1:2|2:0,2:0:0:0:
231,15,79272,1,2,2:0:0:0:
231,15,79440,1,10,2:0:0:0:
310,51,79609,6,0,P|333:118|341:168,1,107.999996704102,6|2,1:2|2:0,2:0:0:0:
269,206,80114,2,0,P|251:226|244:253,1,53.9999983520508,2|8,2:0|2:0,0:0:0:0:
159,274,80451,2,0,P|166:299|184:321,1,53.9999983520508,2|0,2:0|1:2,2:0:0:0:
301,360,80789,1,10,2:0:0:0:
301,360,80957,6,0,P|357:353|408:407,1,107.999996704102,0|2,1:2|1:2,2:0:0:0:
478,338,81463,1,0,1:2:0:0:
478,338,81631,2,0,P|490:314|491:287,1,53.9999983520508,10|0,2:0|0:0,2:0:0:0:
422,235,81968,2,0,P|409:211|387:195,1,53.9999983520508,2|0,2:0|2:0,2:0:0:0:
263,264,82305,6,0,P|219:293|167:285,1,107.999996704102,6|2,1:2|2:0,2:0:0:0:
200,202,82811,1,2,2:0:0:0:
200,202,82980,2,0,P|194:148|178:97,1,107.999996704102,8|0,2:0|1:0,2:0:0:0:
350,17,83654,5,0,1:0:0:0:
350,17,83822,1,8,0:0:0:0:
310,93,83991,2,0,P|314:119|322:145,1,53.9999983520508,0|0,1:0|2:0,2:0:0:0:
401,181,84328,2,0,P|453:179|492:215,1,107.999996704102,10|2,2:0|1:2,2:0:0:0:
411,293,84833,1,0,1:2:0:0:
411,293,85002,6,0,P|341:309|282:338,1,107.999996704102,6|2,1:2|2:0,2:0:0:0:
241,381,85508,1,2,2:0:0:0:
241,381,85676,2,0,P|222:361|217:334,1,53.9999983520508,8|0,2:0|2:0,2:0:0:0:
131,317,86013,2,0,P|136:291|155:270,1,53.9999983520508,2|0,1:2|0:0,2:0:0:0:
276,220,86350,6,0,P|301:150|308:88,1,107.999996704102,2|2,1:2|1:2,2:0:0:0:
254,48,86856,1,2,1:2:0:0:
254,48,87024,2,0,P|218:71|181:70,1,53.9999983520508,8|0,2:0|0:0,2:0:0:0:
184,159,87362,2,0,P|144:142|124:111,1,53.9999983520508,2|8,2:0|2:0,2:0:0:0:
5,104,87699,6,0,P|24:154|36:206,1,107.999996704102,6|0,1:2|0:0,2:0:0:0:
0,287,88204,1,2,2:0:0:0:
0,287,88373,2,0,P|5:313|15:338,1,53.9999983520508,8|0,2:0|0:0,2:0:0:0:
95,377,88710,6,0,P|133:318|113:269,1,107.999996704102,2|0,0:0|1:2,0:0:0:0:
211,250,89215,1,8,0:0:0:0:
211,250,89384,1,0,0:0:0:0:
320,144,89721,2,0,P|342:157|369:160,1,53.9999983520508,10|0,0:0|0:0,0:0:0:0:
440,216,90058,2,2,P|464:205|482:184,1,53.9999983520508,2|10,0:0|0:0,0:0:0:0:
512,103,90395,5,6,1:2:0:0:
357,9,90732,2,0,P|305:25|252:33,1,107.999996704102,2|8,2:0|2:0,0:0:0:0:
193,100,91238,1,4,0:3:0:0:
193,100,91407,2,0,P|166:94|146:77,1,53.9999983520508,2|0,1:2|1:2,0:0:0:0:
52,20,91744,6,0,P|6:67|21:127,1,107.999996704102,2|2,1:2|1:2,2:0:0:0:
49,185,92249,1,2,1:2:0:0:
49,185,92418,1,8,2:0:0:0:
180,273,92755,2,0,P|171:298|166:325,1,53.9999983520508,2|8,1:2|2:0,0:0:0:0:
244,365,93092,6,0,P|288:329|343:336,1,107.999996704102,6|2,1:2|2:0,2:0:0:0:
462,192,93766,2,0,P|410:195|370:161,1,107.999996704102,10|2,2:0|1:2,2:0:0:0:
446,105,94272,1,10,2:0:0:0:
446,105,94440,5,12,2:0:0:0:
225,23,94777,1,0,1:0:0:0:
225,23,94945,1,8,2:0:0:0:
271,100,95114,1,8,2:0:0:0:
271,100,95282,1,8,2:0:0:0:
284,185,95451,2,0,P|280:229|273:255,1,53.9999983520508,2|2,1:2|1:2,0:0:0:0:
176,311,95789,6,0,P|137:276|138:222,1,107.999996704102,6|2,1:2|2:0,2:0:0:0:
197,158,96294,2,0,P|157:134|120:138,1,53.9999983520508,2|8,2:0|2:0,0:0:0:0:
132,49,96631,2,0,P|89:68|71:100,1,53.9999983520508,2|0,2:0|0:0,2:0:0:0:
11,156,96968,1,10,2:0:0:0:
11,156,97137,6,0,P|40:244|44:279,1,107.999996704102,0|2,1:2|1:2,0:0:0:0:
91,335,97642,1,0,1:2:0:0:
91,335,97811,2,0,P|137:344|160:371,1,53.9999983520508,10|0,2:0|0:0,2:0:0:0:
213,291,98148,2,0,P|231:334|223:369,1,53.9999983520508,2|8,2:0|2:0,2:0:0:0:
355,367,98485,6,0,P|401:317|384:263,1,107.999996704102,6|2,1:2|2:0,2:0:0:0:
468,227,98991,1,2,2:0:0:0:
468,227,99159,2,0,P|437:197|401:193,1,53.9999983520508,8|0,2:0|0:0,2:0:0:0:
347,115,99496,6,0,P|324:46|317:-13,1,107.999996704102,2|0,1:2|1:0,0:0:0:0:
132,69,100171,2,0,P|140:93|145:120,1,53.9999983520508,0|0,1:0|2:0,2:0:0:0:
208,179,100508,2,0,P|179:206|147:207,1,53.9999983520508,8|0,2:0|0:0,2:0:0:0:
97,259,100845,1,2,1:2:0:0:
97,259,101013,1,10,2:0:0:0:
141,335,101182,6,0,P|227:351|265:371,1,107.999996704102,6|2,1:2|2:0,2:0:0:0:
335,366,101687,2,0,P|327:321|304:299,1,53.9999983520508,2|8,2:0|2:0,0:0:0:0:
378,247,102024,2,0,P|337:227|305:233,1,53.9999983520508,2|0,2:0|0:0,2:0:0:0:
222,172,102362,1,10,2:0:0:0:
222,172,102530,6,0,P|175:112|186:66,1,107.999996704102,0|2,1:2|1:2,2:0:0:0:
247,30,103036,1,0,1:2:0:0:
247,30,103204,2,0,P|272:40|306:47,1,53.9999983520508,10|0,2:0|0:0,2:0:0:0:
344,118,103541,2,0,P|370:124|395:134,1,53.9999983520508,2|8,1:2|2:0,2:0:0:0:
492,63,103878,6,0,P|506:114|512:168,1,107.999996704102,6|2,1:2|2:0,2:0:0:0:
468,248,104384,1,2,2:0:0:0:
468,248,104553,2,8,P|408:244|364:297,1,107.999996704102,8|0,2:0|1:0,2:0:0:0:
243,347,105227,5,0,1:0:0:0:
243,347,105395,1,8,2:0:0:0:
159,380,105564,2,0,P|138:354|132:322,1,53.9999983520508,0|0,1:0|0:0,2:0:0:0:
44,322,105901,2,0,P|53:289|76:266,1,53.9999983520508,10|0,2:0|0:0,2:0:0:0:
153,245,106238,1,10,2:0:0:0:
153,245,106407,1,8,2:0:0:0:
217,183,106575,6,0,P|244:121|248:57,1,107.999996704102,6|2,1:2|2:0,2:0:0:0:
222,2,107081,1,2,2:0:0:0:
222,2,107249,1,8,2:0:0:0:
87,63,107586,2,0,P|75:87|70:113,1,53.9999983520508,2|0,1:2|0:0,2:0:0:0:
3,179,107923,6,0,P|26:200|71:200,1,53.9999983520508,2|8,1:2|2:0,2:0:0:0:
62,294,108260,2,0,P|92:287|118:250,1,53.9999983520508,2|0,1:2|0:0,0:0:0:0:
137,184,108598,2,0,P|216:159|275:154,1,107.999996704102,10|0,2:0|1:0,2:0:0:0:
317,87,109103,1,8,2:0:0:0:
317,87,109272,6,0,P|354:129|348:180,1,107.999996704102,6|0,1:2|0:0,2:0:0:0:
279,236,109777,1,2,2:0:0:0:
279,236,109946,2,0,P|269:261|265:287,1,53.9999983520508,8|0,2:0|0:0,2:0:0:0:
279,371,110283,1,2,1:2:0:0:
448,342,110620,5,0,1:0:0:0:
448,342,110789,1,8,2:0:0:0:
493,269,110957,2,0,P|502:243|506:217,1,53.9999983520508,0|0,1:0|0:0,2:0:0:0:
447,151,111294,2,0,P|410:109|416:58,1,107.999996704102,8|0,2:0|1:0,2:0:0:0:
258,5,111968,6,0,P|200:26|143:32,1,107.999996704102,6|0,1:2|0:0,2:0:0:0:
94,106,112474,1,2,2:0:0:0:
94,106,112642,2,0,P|116:121|142:124,1,53.9999983520508,8|0,2:0|0:0,2:0:0:0:
182,207,112980,2,0,P|207:197|224:177,1,53.9999983520508,2|8,1:2|2:0,2:0:0:0:
304,86,113317,6,0,P|351:142|336:187,1,107.999996704102,0|2,1:0|1:2,0:0:0:0:
301,248,113822,1,4,0:3:0:0:
301,248,113991,2,0,P|312:281|316:321,1,53.9999983520508,2|0,1:2|0:0,0:0:0:0:
397,332,114328,1,2,1:2:0:0:
226,379,114665,6,0,B|184:391|139:347|179:355|126:309|83:322,1,161.999995056153,4|2,1:2|2:0,2:0:0:0:
13,192,116013,2,0,P|69:182|101:169,1,80.9999975280763,2|8,2:0|2:0,0:0:0:0:
151,111,116519,1,8,0:3:0:0:
151,111,116687,1,2,1:2:0:0:
234,221,117024,1,10,2:0:0:0:
369,176,117362,1,4,1:2:0:0:
256,192,117530,12,0,120058,2:0:0:0:
