osu file format v14

[General]
AudioFilename: audio.mp3
AudioLeadIn: 0
PreviewTime: 73457
Countdown: 0
SampleSet: Soft
StackLeniency: 0.7
Mode: 0
LetterboxInBreaks: 0
WidescreenStoryboard: 1

[Editor]
DistanceSpacing: 1.2
BeatDivisor: 4
GridSize: 32
TimelineZoom: 1.6

[Metadata]
Title:Anata no Risou no Heroine
TitleUnicode:あなたの理想のヒロイン
Artist:Osaka Shizuku (CV: Maeda Kaori)
ArtistUnicode:桜坂しずく (CV: 前田佳織里)
Creator:Ninjaking311
Version:Enu's Insane
Source:ラブライブ!スクールアイドルフェスティバル ALL STARS
Tags:EnuHQ NotABox Kyairie Mrgglock Lulu- Japanese Pop J-Pop video game size ver. cut anime 月見草 Tsukimisou 遠藤ナオキ Naoki Endo LoveLive! Love Live! School idol festival sifas オールスターズ スクスタ sukusuta TOKIMEKI Runners 1st Album 虹ヶ咲学園スクールアイドル同好会 Nijigasaki High Club Gakuen Doukoukai Dokokai ニジガク NijiGaku
BeatmapID:4184700
BeatmapSetID:1944025

[Difficulty]
HPDrainRate:4.8
CircleSize:3.8
OverallDifficulty:7.4
ApproachRate:7.8
SliderMultiplier:2.64
SliderTickRate:1

[Events]
//Background and Video events
0,0,"fotor_2023-2-20_23_18_2.jpg",0,0
Video,-100,"Anata no Risou no Heroine.avi"
//Break Periods
2,71519,72762
//Storyboard Layer 0 (Background)
//Storyboard Layer 1 (Fail)
//Storyboard Layer 2 (Pass)
//Storyboard Layer 3 (Foreground)
//Storyboard Layer 4 (Overlay)
//Storyboard Sound Samples

[TimingPoints]
1407,674.157303370787,4,2,1,60,1,0
2418,-156.25,4,2,1,50,0,0
3429,-96.1538461538461,4,2,1,50,0,0
4103,-96.1538461538461,4,2,1,60,0,0
4440,-106.382978723404,4,2,1,60,0,0
5451,-185.185185185184,4,2,1,60,0,0
6800,-128.205128205128,4,2,2,50,0,0
25676,-102.040816326531,4,2,2,50,0,0
26687,-102.040816326531,4,2,1,50,0,0
27530,-102.040816326531,4,2,1,25,0,0
27698,-102.040816326531,4,2,1,50,0,0
28373,-113.636363636364,4,2,1,60,0,0
42867,-102.040816326531,4,2,1,60,0,0
43878,-113.636363636364,4,2,1,60,0,0
49946,-102.040816326531,4,2,1,80,0,0
50198,-102.040816326531,4,2,1,5,0,0
50283,-102.040816326531,4,2,1,80,0,0
50535,-102.040816326531,4,2,1,5,0,0
50620,-102.040816326531,4,2,1,80,0,0
50957,-102.040816326531,4,2,1,60,0,0
52642,-102.040816326531,4,2,1,80,0,0
52894,-102.040816326531,4,2,1,5,0,0
52980,-102.040816326531,4,2,1,80,0,0
53232,-102.040816326531,4,2,1,5,0,0
53317,-102.040816326531,4,2,1,80,0,0
53654,-102.040816326531,4,2,1,60,0,0
55339,-113.636363636364,4,2,1,80,0,0
56013,-113.636363636364,4,2,1,60,0,0
59384,-113.636363636364,4,2,1,70,0,0
60732,-102.040816326531,4,2,1,80,0,0
60984,-102.040816326531,4,2,1,5,0,0
61069,-102.040816326531,4,2,1,80,0,0
61321,-102.040816326531,4,2,1,5,0,0
61407,-102.040816326531,4,2,1,80,0,0
61744,-102.040816326531,4,2,1,60,0,0
63429,-102.040816326531,4,2,1,80,0,0
63681,-102.040816326531,4,2,1,5,0,0
63766,-102.040816326531,4,2,1,80,0,0
64440,-102.040816326531,4,2,1,60,0,0
66126,-113.636363636364,4,2,1,60,0,0
68822,-102.040816326531,4,2,1,60,0,0
70508,-102.040816326531,4,2,1,70,0,0
70845,-102.040816326531,4,2,1,80,0,0
71182,-102.040816326531,4,2,1,90,0,0
73541,-80.6451612903226,4,2,1,60,0,0
74215,-80.6451612903226,4,2,12,80,0,0
75901,-80.6451612903226,4,2,11,80,0,0
76238,-80.6451612903226,4,2,10,80,0,0
76575,-80.6451612903226,4,2,11,80,0,0
76744,-80.6451612903226,4,2,10,80,0,0
77249,-80.6451612903226,4,2,13,80,0,0
78260,-80.6451612903226,4,2,1,80,0,0
79272,-80.6451612903226,4,2,10,80,0,0
79440,-80.6451612903226,4,2,11,80,0,0
79609,-80.6451612903226,4,2,12,80,0,0
81209,-80.6451612903226,4,2,12,5,0,0
81294,-80.6451612903226,4,2,11,80,0,0
81631,-80.6451612903226,4,2,10,80,0,0
81968,-80.6451612903226,4,2,13,80,0,0
82642,-80.6451612903226,4,2,14,80,0,0
82811,-80.6451612903226,4,2,10,80,0,0
84328,-80.6451612903226,4,2,15,80,0,0
84665,-80.6451612903226,4,2,16,80,0,0
85002,-80.6451612903226,4,2,14,80,0,0
85339,-80.6451612903226,4,2,16,80,0,0
85508,-80.6451612903226,4,2,14,80,0,0
86013,-80.6451612903226,4,2,17,80,0,0
86350,-80.6451612903226,4,2,14,80,0,0
86687,-80.6451612903226,4,2,16,80,0,0
86856,-80.6451612903226,4,2,14,80,0,0
87276,-80.6451612903226,4,2,14,5,0,0
87362,-80.6451612903226,4,2,13,80,0,0
87699,-80.6451612903226,4,2,10,80,0,0
88204,-80.6451612903226,4,2,12,80,0,0
88710,-80.6451612903226,4,2,10,80,0,0
90058,-80.6451612903226,4,2,11,80,0,0
90395,-80.6451612903226,4,2,10,80,0,0
90732,-80.6451612903226,4,2,13,80,0,0
91407,-80.6451612903226,4,2,15,80,0,0
91744,-80.6451612903226,4,2,10,80,0,0
92081,-80.6451612903226,4,2,13,80,0,0
92755,-80.6451612903226,4,2,15,80,0,0
93092,-80.6451612903226,4,2,10,80,0,0
93344,-80.6451612903226,4,2,10,5,0,0
93429,-80.6451612903226,4,2,13,80,0,0
93766,-80.6451612903226,4,2,10,80,0,0
94018,-80.6451612903226,4,2,10,5,0,0
94103,-80.6451612903226,4,2,11,80,0,0
95451,-80.6451612903226,4,2,10,80,0,0
95620,-80.6451612903226,4,2,11,80,0,0
95789,-80.6451612903226,4,2,12,80,0,0
97474,-80.6451612903226,4,2,11,80,0,0
97811,-80.6451612903226,4,2,10,80,0,0
98148,-80.6451612903226,4,2,11,80,0,0
98485,-80.6451612903226,4,2,10,80,0,0
98822,-80.6451612903226,4,2,13,80,0,0
99496,-80.6451612903226,4,2,1,80,0,0
100845,-80.6451612903226,4,2,10,80,0,0
101013,-80.6451612903226,4,2,11,80,0,0
101182,-80.6451612903226,4,2,12,80,0,0
102782,-80.6451612903226,4,2,12,5,0,0
102867,-80.6451612903226,4,2,11,80,0,0
103204,-80.6451612903226,4,2,10,80,0,0
103541,-80.6451612903226,4,2,13,80,0,0
104215,-80.6451612903226,4,2,14,80,0,0
104384,-80.6451612903226,4,2,10,80,0,0
106238,-80.6451612903226,4,2,11,80,0,0
106575,-80.6451612903226,4,2,10,80,0,0
106912,-80.6451612903226,4,2,13,80,0,0
107586,-80.6451612903226,4,2,15,80,0,0
107923,-80.6451612903226,4,2,10,80,0,0
108260,-80.6451612903226,4,2,13,80,0,0
109272,-80.6451612903226,4,2,10,80,0,0
109777,-80.6451612903226,4,2,12,80,0,0
110283,-80.6451612903226,4,2,10,80,0,0
111968,-80.6451612903226,4,2,11,80,0,0
112474,-80.6451612903226,4,2,12,80,0,0
112980,-80.6451612903226,4,2,18,80,0,0
113148,-80.6451612903226,4,2,1,80,0,0
113654,-80.6451612903226,4,2,11,80,0,0
113991,-80.6451612903226,4,2,10,80,0,0
114328,-80.6451612903226,4,2,11,80,0,0
114665,-185.185185185185,4,2,11,80,0,0
116687,-185.185185185185,4,2,14,80,0,0
117024,-96.1538461538461,4,2,14,80,0,0
117362,-96.1538461538461,4,2,2,80,0,0
120058,-96.1538461538461,4,2,2,5,0,0

[Colours]
Combo1 : 255,210,233
Combo2 : 0,128,255
Combo3 : 128,255,255
Combo4 : 255,255,21
Combo5 : 255,203,64
Combo6 : 255,128,192

[HitObjects]
393,355,2418,6,0,P|417:274|454:198,1,168.96,8|8,2:0|2:3,2:0:0:0:
239,265,3429,2,0,P|218:254|196:247,2,45.76,2|0|0,1:2|2:0|2:0,2:0:0:0:
228,166,3766,2,0,P|248:175|270:183,2,45.76,2|0|0,2:0|2:0|2:0,2:0:0:0:
321,253,4103,5,6,1:2:0:0:
445,152,4440,2,0,P|466:95|439:41,1,124.08,8|8,2:0|2:3,2:0:0:0:
344,129,5114,1,2,2:0:0:0:
217,23,5451,6,0,B|89:38|139:90|18:103,1,213.840000000001,4|2,1:2|2:0,2:0:0:0:
157,249,6800,6,0,P|170:204|194:153,1,102.96,4|0,1:2|2:0,2:0:0:0:
299,234,7474,1,4,2:3:0:0:
415,160,7811,1,2,1:2:0:0:
329,345,8148,2,0,P|282:322|233:308,1,102.96,2|2,1:2|2:0,2:0:0:0:
107,384,8822,2,0,P|118:360|126:336,1,51.4800000000001,8|0,2:0|2:0,2:0:0:0:
0,253,9159,2,0,P|11:276|19:300,1,51.4800000000001,2|2,2:0|2:0,2:0:0:0:
103,210,9496,6,0,P|81:163|66:113,2,102.96,0|0|0,1:2|2:0|2:0,2:0:0:0:
215,106,10508,1,2,1:2:0:0:
215,106,10845,2,0,P|264:107|303:141,1,102.96,2|2,1:2|2:0,2:0:0:0:
477,50,11519,2,0,P|466:73|458:97,1,51.4800000000001,10|0,2:0|2:0,2:0:0:0:
375,68,11856,2,0,P|386:45|394:21,1,51.4800000000001,2|0,2:0|2:0,2:0:0:0:
502,169,12193,6,0,P|453:184|406:207,1,102.96,0|0,1:2|2:0,2:0:0:0:
304,307,12867,1,4,0:3:0:0:
208,204,13204,1,2,1:2:0:0:
111,312,13541,2,0,P|63:327|16:309,1,102.96,2|2,1:2|2:0,2:0:0:0:
87,198,14215,2,0,P|64:151|49:102,1,102.96,10|2,2:0|2:0,2:0:0:0:
118,20,14721,5,2,2:0:0:0:
118,20,14890,2,0,P|133:69|155:115,1,102.96,0|0,1:2|2:0,2:0:0:0:
300,59,15564,1,4,2:3:0:0:
219,188,15901,2,0,P|194:196|171:207,1,51.4800000000001,2|0,1:2|2:0,2:0:0:0:
100,242,16238,1,2,1:2:0:0:
179,101,16575,1,2,2:0:0:0:
310,215,16912,2,0,P|287:261|272:310,1,102.96,10|2,2:0|2:0,2:0:0:0:
403,362,17586,6,0,P|414:338|422:314,1,51.4800000000001,0|0,1:2|2:0,2:0:0:0:
463,247,17923,2,0,P|471:222|482:199,1,51.4800000000001,8|0,0:3|2:0,2:0:0:0:
448,129,18260,1,4,0:3:0:0:
512,11,18598,1,2,1:2:0:0:
361,89,18935,2,0,P|315:66|266:51,1,102.96,2|2,1:2|2:0,2:0:0:0:
213,174,19609,2,0,P|259:197|308:212,1,102.96,10|2,2:0|2:0,2:0:0:0:
448,342,20283,6,0,P|440:317|429:294,1,51.4800000000001,2|0,1:2|2:0,2:0:0:0:
463,224,20620,1,2,1:2:0:0:
342,342,20957,1,2,2:0:0:0:
208,234,21294,6,0,B|80:249|130:301|9:314,1,205.92,2|0,1:2|1:0,2:0:0:0:
91,164,22305,2,0,P|84:139|74:115,1,51.4800017281495,10|2,2:0|2:0,2:0:0:0:
42,44,22642,1,2,0:2:0:0:
203,10,22980,6,0,P|218:59|241:105,1,102.96,2|0,1:2|2:0,2:0:0:0:
355,188,23654,1,2,2:0:0:0:
448,71,23991,2,0,P|423:63|400:52,1,51.4800000000001,2|0,1:2|2:0,2:0:0:0:
329,86,24328,1,0,1:0:0:0:
437,209,24665,1,2,2:0:0:0:
340,316,25002,2,0,P|316:304|292:297,1,51.4800000000001,10|0,2:0|2:0,2:0:0:0:
225,336,25339,1,2,2:0:0:0:
68,191,25676,6,0,P|49:255|19:310,1,129.36,2|0,1:2|1:0,2:0:0:0:
154,212,26350,1,8,2:0:0:0:
42,60,26687,2,0,B|199:47|145:121|291:112,1,258.719999999999,6|0,1:2|1:0,2:0:0:0:
357,50,27530,2,0,L|342:13,2,32.3399999999999,8|8|8,2:0|2:0|2:0,2:0:0:0:
387,121,27867,1,0,1:0:0:0:
437,215,28036,1,0,1:0:0:0:
437,215,28373,6,0,P|377:229|331:259,1,116.16,4|0,1:2|2:0,2:0:0:0:
229,384,29047,1,4,2:3:0:0:
126,267,29384,2,0,P|139:241|147:213,1,58.0799999999998,2|0,1:2|2:0,2:0:0:0:
50,142,29721,2,0,P|23:193|5:248,1,116.16,2|2,1:2|2:0,2:0:0:0:
159,110,30395,2,0,P|207:140|264:153,1,116.16,10|2,2:0|2:0,2:0:0:0:
457,76,31069,6,0,P|449:104|436:130,1,58.0799999999998,0|0,1:2|2:0,2:0:0:0:
354,197,31407,2,0,P|363:225|376:251,1,58.0799999999998,8|0,2:3|2:0,2:0:0:0:
419,329,31744,1,4,2:3:0:0:
263,280,32081,1,2,1:2:0:0:
153,384,32418,2,0,P|102:357|47:339,1,116.16,2|2,1:2|2:0,2:0:0:0:
133,230,33092,2,0,P|125:202|112:176,1,58.0799999999998,10|0,2:0|2:0,2:0:0:0:
30,109,33429,2,0,P|39:81|52:55,1,58.0799999999998,2|0,2:0|2:0,2:0:0:0:
115,0,33766,5,0,1:2:0:0:
228,81,34103,1,4,2:3:0:0:
361,0,34440,1,2,2:0:0:0:
238,106,34777,2,0,P|250:131|258:159,1,58.0799999999998,2|0,1:2|2:0,2:0:0:0:
285,233,35114,1,2,1:2:0:0:
408,322,35451,1,2,2:0:0:0:
512,213,35789,2,0,P|485:162|467:107,1,116.16,10|2,2:0|2:0,2:0:0:0:
358,49,36294,5,2,2:0:0:0:
482,0,36463,2,0,P|431:27|376:45,1,116.16,0|0,1:2|2:0,2:0:0:0:
252,117,37137,1,4,2:3:0:0:
161,0,37474,2,0,P|149:25|141:53,1,58.0799999999998,2|0,1:2|2:0,2:0:0:0:
22,30,37811,2,0,P|49:81|67:136,1,116.16,2|2,1:2|2:0,2:0:0:0:
0,258,38485,2,0,P|28:266|54:279,1,58.0799999999998,10|0,2:0|2:0,2:0:0:0:
131,319,38822,2,0,P|156:331|184:340,1,58.0799999999998,2|0,2:0|2:0,2:0:0:0:
249,292,39159,5,4,1:2:0:0:
359,384,39496,1,2,2:0:0:0:
467,295,39833,1,2,2:0:0:0:
375,157,40171,2,0,P|366:184|354:211,1,58.0799999999998,2|2,1:2|2:0,2:0:0:0:
490,182,40508,2,0,P|463:131|445:76,1,116.16,0|2,1:2|2:0,2:0:0:0:
286,150,41182,2,0,P|261:138|233:130,1,58.0799999999998,10|0,2:0|2:0,2:0:0:0:
156,148,41519,5,2,2:0:0:0:
288,280,41856,1,2,1:2:0:0:
419,148,42193,1,2,1:2:0:0:
288,17,42530,1,2,2:0:0:0:
512,168,42867,6,0,P|419:197|333:241,1,194.039999999999,6|0,1:2|2:0,2:0:0:0:
288,305,43541,1,0,1:0:0:0:
153,204,43878,2,0,P|165:179|173:151,1,58.0799999999998,10|0,2:0|2:0,2:0:0:0:
145,74,44215,1,2,2:0:0:0:
0,181,44553,6,0,P|36:255|66:342,1,174.239999999999,2|0,1:2|2:0,2:0:0:0:
134,381,45227,1,2,2:0:0:0:
236,301,45564,1,0,1:0:0:0:
371,384,45901,2,0,P|412:344|424:288,1,116.16,2|0,1:2|2:0,2:0:0:0:
364,233,46407,1,2,2:0:0:0:
512,258,46575,2,0,P|485:207|467:152,1,116.16,8|2,2:0|2:0,2:0:0:0:
417,93,47081,1,2,2:0:0:0:
472,19,47249,5,0,1:0:0:0:
331,113,47586,1,4,2:3:0:0:
175,12,47923,1,8,2:3:0:0:
53,133,48260,2,0,P|65:158|73:186,1,58.0799999999998,0|0,1:0|2:0,2:0:0:0:
28,261,48598,1,4,1:2:0:0:
188,156,48935,2,0,P|213:168|241:176,1,58.0799999999998,8|0,2:0|2:0,2:0:0:0:
293,238,49272,1,8,2:0:0:0:
378,149,49440,1,0,1:0:0:0:
288,65,49609,1,2,1:2:0:0:
488,139,49946,6,0,P|466:182|451:228,1,97.0199999999996,6|0,1:2|2:0,2:0:0:0:
396,287,50283,2,0,P|417:330|432:376,1,97.0199999999996,6|0,1:2|2:0,2:0:0:0:
345,366,50620,1,10,2:0:0:0:
202,266,50957,2,0,P|116:310|22:337,1,194.039999999999,6|0,1:2|2:0,2:0:0:0:
74,217,51631,6,0,P|43:207|13:193,1,64.6799999999998,0|0,1:0|2:0,2:0:0:0:
156,157,51968,2,0,P|125:147|95:133,1,64.6799999999998,0|0,1:0|2:0,2:0:0:0:
236,94,52305,2,0,P|205:84|175:70,1,64.6799999999998,2|0,1:2|2:0,2:0:0:0:
343,0,52642,6,0,P|321:42|333:87,1,97.0199999999996,6|0,1:2|2:0,2:0:0:0:
395,138,52980,2,0,P|416:180|404:225,1,97.0199999999996,6|0,1:2|2:0,2:0:0:0:
357,291,53317,1,10,2:0:0:0:
140,149,53654,2,0,B|261:170|225:208|319:222,1,194.039999999999,6|0,1:2|2:0,2:0:0:0:
357,291,54328,1,0,1:0:0:0:
475,206,54496,5,0,1:0:0:0:
475,206,54581,1,0,1:2:0:0:
475,206,54665,2,0,P|460:174|450:146,1,64.6799999999998,10|8,2:0|2:0,2:0:0:0:
372,54,55002,2,0,P|361:84|347:113,1,64.6799999999998,2|0,1:2|2:0,2:0:0:0:
233,29,55339,6,0,P|180:55|125:72,1,116.16,6|0,1:2|2:0,2:0:0:0:
0,172,56013,2,0,P|55:189|107:215,1,116.16,10|0,2:0|2:0,2:0:0:0:
155,282,56519,1,8,2:3:0:0:
242,204,56687,6,0,P|229:177|219:150,1,58.0799999999998,2|0,1:2|2:0,2:0:0:0:
274,92,57024,1,2,2:0:0:0:
96,2,57362,2,0,P|108:28|118:55,1,58.0799999999998,10|0,2:0|2:0,2:0:0:0:
66,119,57699,1,2,2:0:0:0:
251,0,58036,6,0,P|309:15|357:45,1,116.16,2|0,1:2|2:0,2:0:0:0:
461,119,58541,1,2,2:0:0:0:
470,45,58710,2,0,P|458:71|448:98,1,58.0799999999998,8|0,2:0|2:0,2:0:0:0:
380,172,59047,2,0,P|392:198|402:225,1,58.0799999999998,2|0,1:2|2:0,2:0:0:0:
512,384,59384,6,0,P|458:321|366:318,1,174.239999999999,6|0,1:2|2:0,2:0:0:0:
321,379,60058,1,10,2:0:0:0:
226,320,60227,1,8,2:3:0:0:
95,384,60395,1,10,2:0:0:0:
95,384,60564,1,4,2:3:0:0:
149,225,60732,6,0,P|126:181|111:135,1,97.0199999999996,6|0,1:2|2:0,2:0:0:0:
25,71,61069,2,0,P|71:56|114:33,1,97.0199999999996,6|0,1:2|2:0,2:0:0:0:
186,0,61407,1,10,2:0:0:0:
352,163,61744,2,0,P|385:76|332:0,1,194.039999999999,6|0,1:2|2:0,2:0:0:0:
224,141,62418,6,0,P|252:196|271:261,1,129.36,0|8,1:0|2:0,2:0:0:0:
467,382,63092,1,2,1:2:0:0:
387,272,63260,1,2,2:0:0:0:
489,178,63429,6,0,P|503:132|482:90,1,97.0199999999996,6|0,1:2|2:0,2:0:0:0:
409,126,63766,2,0,P|394:80|415:38,1,97.0199999999996,6|0,1:2|2:0,2:0:0:0:
488,13,64103,1,10,2:0:0:0:
298,124,64440,1,6,1:2:0:0:
298,124,64777,6,0,P|256:102|179:78,1,129.36,2|8,2:0|2:0,2:0:0:0:
69,1,65283,1,2,2:0:0:0:
60,75,65451,2,0,P|72:49|82:22,1,64.6799999999998,12|0,2:0|2:0,2:0:0:0:
33,154,65789,1,2,1:2:0:0:
143,270,66126,6,0,P|87:287|35:313,2,116.16,6|0|8,1:2|2:0|2:0,2:0:0:0:
253,359,67137,2,0,P|279:345|307:337,1,58.0799999999998,2|2,2:0|2:0,2:0:0:0:
392,384,67474,2,0,P|399:356|412:330,1,58.0799999999998,2|0,1:2|2:0,2:0:0:0:
492,283,67811,1,2,1:2:0:0:
369,152,68148,2,0,P|419:126|476:107,1,116.16,10|2,2:0|1:2,2:0:0:0:
380,248,68654,5,0,1:2:0:0:
380,248,68738,1,0,1:2:0:0:
380,248,68822,2,0,P|313:214|239:189,1,129.36,14|0,2:0|1:2,2:0:0:0:
163,53,69496,5,0,1:2:0:0:
56,172,69833,1,2,1:2:0:0:
158,41,70171,5,8,1:2:0:0:
210,226,70508,1,8,1:2:0:0:
176,27,70845,5,8,1:2:0:0:
388,211,71182,1,8,1:2:0:0:
443,50,73541,6,0,P|451:22|463:0,2,54.56,4|0|0,1:2|2:0|2:0,2:0:0:0:
495,117,73878,1,2,2:0:0:0:
495,117,74047,1,2,2:0:0:0:
399,219,74215,6,0,B|364:210|329:196|329:196|282:211|262:258,1,163.68,6|2,1:2|2:0,2:0:0:0:
154,348,74721,1,0,2:0:0:0:
248,364,74890,2,0,P|210:344|172:333,1,81.84,10|0,2:0|2:0,2:0:0:0:
6,384,75227,2,0,P|25:346|36:308,1,81.84,2|10,1:2|2:0,2:0:0:0:
136,197,75564,6,0,P|76:185|38:139,1,122.76,0|0,1:2|2:0,2:0:0:0:
28,111,75901,2,0,P|47:73|58:35,1,81.84,2|0,1:2|2:0,2:0:0:0:
171,91,76238,2,0,P|209:72|247:61,1,81.84,10|0,2:0|2:0,2:0:0:0:
313,135,76575,1,2,1:2:0:0:
423,44,76744,1,10,2:0:0:0:
512,209,76912,6,0,P|479:284|451:360,2,163.68,4|2|8,1:2|1:2|2:0,2:0:0:0:
317,336,77923,1,0,1:2:0:0:
227,293,78092,5,8,2:0:0:0:
227,293,78176,1,8,2:0:0:0:
227,293,78260,2,0,P|213:334|229:373,1,81.84,2|8,1:2|2:0,2:0:0:0:
128,301,78598,1,0,1:2:0:0:
245,208,78766,1,4,2:3:0:0:
154,119,78935,2,0,B|57:127|82:159|-3:167,1,163.68,8|2,2:0|2:0,2:0:0:0:
78,234,79440,1,10,2:0:0:0:
248,126,79609,6,0,P|221:51|147:21,1,163.68,6|2,1:2|2:0,2:0:0:0:
336,75,80114,2,0,P|349:34|367:-1,1,81.84,2|8,2:0|2:0,2:0:0:0:
461,105,80451,2,0,P|448:146|430:181,1,81.84,2|0,2:0|1:2,2:0:0:0:
512,305,80789,5,10,2:0:0:0:
512,305,80873,1,8,2:0:0:0:
512,305,80957,2,8,P|453:316|398:350,1,122.76,0|8,1:2|2:0,2:0:0:0:
374,366,81294,2,0,P|334:353|298:335,1,81.84,2|0,1:2|2:0,2:0:0:0:
170,383,81631,2,0,P|188:346|200:307,1,81.84,10|0,2:0|2:0,2:0:0:0:
314,234,81968,2,0,P|295:197|283:158,1,81.84,2|0,2:0|2:0,2:0:0:0:
94,93,82305,6,0,P|116:168|197:200,1,163.68,6|2,1:2|2:0,2:0:0:0:
290,43,82811,1,2,2:0:0:0:
222,0,82980,2,0,P|256:77|283:151,1,163.68,8|0,2:0|1:0,2:0:0:0:
409,54,83485,5,8,2:0:0:0:
409,54,83569,1,8,2:0:0:0:
409,54,83654,1,0,1:0:0:0:
497,160,83822,1,8,2:0:0:0:
408,272,83991,2,0,P|395:232|377:196,1,81.84,0|0,1:0|2:0,2:0:0:0:
327,384,84328,2,0,P|301:302|262:227,1,163.68,10|2,2:0|1:2,2:0:0:0:
195,199,84833,1,4,0:3:0:0:
294,58,85002,6,0,P|331:76|370:87,1,81.84,6|0,1:2|2:0,2:0:0:0:
299,153,85339,1,2,2:0:0:0:
170,24,85508,2,0,B|103:43|103:43|83:68|83:68|19:87,1,163.68,2|0,2:0|2:0,2:0:0:0:
169,206,86013,2,0,P|181:167|167:130,1,81.84,2|0,1:2|2:0,2:0:0:0:
18,261,86350,6,0,P|35:224|47:184,1,81.84,2|8,1:2|2:0,2:0:0:0:
129,299,86687,1,2,1:2:0:0:
22,378,86856,1,2,2:0:0:0:
129,299,87024,2,0,P|188:310|243:344,1,122.76,8|0,2:0|2:0,2:0:0:0:
266,366,87362,2,0,P|306:353|342:335,1,81.84,2|8,2:0|2:0,2:0:0:0:
512,384,87699,6,0,P|458:350|447:233,1,163.68,6|0,1:2|2:0,2:0:0:0:
512,162,88204,1,2,2:0:0:0:
418,146,88373,2,0,P|456:166|494:177,1,81.84,8|0,2:0|2:0,2:0:0:0:
406,51,88710,2,0,P|369:70|330:81,1,81.84,2|8,1:2|2:0,2:0:0:0:
305,96,88963,1,8,2:0:0:0:
305,96,89047,1,0,1:0:0:0:
192,44,89215,1,8,2:0:0:0:
305,184,89384,2,0,P|263:197|229:214,1,81.84,0|0,1:0|2:0,2:0:0:0:
79,134,89721,6,0,P|103:188|76:241,1,122.76,10|0,2:0|2:0,2:0:0:0:
60,270,90058,2,0,P|102:283|135:300,1,81.84,2|8,1:2|2:0,2:0:0:0:
296,384,90395,6,0,B|258:306|258:306|298:240,1,163.68,6|2,1:2|2:0,2:0:0:0:
484,97,91069,2,0,P|442:84|409:67,1,81.84,8|0,2:0|2:0,2:0:0:0:
277,0,91407,2,0,P|295:36|307:75,1,81.84,2|0,1:2|2:0,2:0:0:0:
174,103,91744,6,0,P|162:63|143:27,1,81.84,2|0,1:2|2:0,2:0:0:0:
62,117,92081,1,2,1:2:0:0:
143,213,92249,1,2,2:0:0:0:
56,322,92418,2,0,P|135:349|207:384,1,163.68,8|2,2:0|1:2,2:0:0:0:
271,336,92923,1,8,2:0:0:0:
435,384,93092,6,0,P|459:330|432:277,1,122.76,6|0,1:2|2:0,2:0:0:0:
412,249,93429,2,0,P|430:212|442:173,1,81.84,2|0,2:0|2:0,2:0:0:0:
512,42,93766,2,0,P|453:62|397:87,1,122.76,10|0,2:0|2:0,2:0:0:0:
380,96,94103,1,2,1:2:0:0:
278,7,94272,1,10,2:0:0:0:
278,7,94356,1,8,2:0:0:0:
278,7,94440,1,12,2:0:0:0:
278,7,94777,6,0,P|260:43|248:83,1,81.84,0|8,1:0|2:0,2:0:0:0:
301,166,95114,1,8,2:0:0:0:
181,260,95283,1,8,2:0:0:0:
85,135,95451,1,2,1:2:0:0:
193,274,95620,1,2,1:2:0:0:
77,123,95789,6,0,P|52:196|15:274,1,163.68,6|2,1:2|2:0,2:0:0:0:
133,355,96294,2,0,P|93:366|57:384,1,81.84,2|8,2:0|2:0,2:0:0:0:
166,244,96631,2,0,P|202:262|241:273,1,81.84,2|0,2:0|2:0,2:0:0:0:
295,217,96968,1,10,2:0:0:0:
418,384,97137,6,0,P|380:339|389:280,1,122.76,0|0,1:3|3:3,2:3:0:0:
406,258,97474,2,0,P|388:221|377:182,1,81.84,2|0,1:2|2:0,2:0:0:0:
481,75,97811,2,0,P|492:35|510:-1,1,81.84,10|0,2:0|2:0,2:0:0:0:
389,96,98148,1,2,2:0:0:0:
299,12,98317,1,8,2:0:0:0:
147,92,98485,6,0,P|70:70|34:0,1,163.68,6|2,1:2|2:0,2:0:0:0:
247,92,98991,1,2,2:0:0:0:
247,92,99159,2,0,P|211:165|184:243,1,163.68,8|2,2:0|1:2,2:0:0:0:
355,162,99665,5,8,2:0:0:0:
355,162,99749,1,8,2:0:0:0:
355,162,99833,2,0,P|337:199|326:238,1,81.84,0|0,1:0|2:0,2:0:0:0:
440,344,100171,2,0,P|458:307|469:268,1,81.84,0|0,1:0|2:0,2:0:0:0:
307,359,100508,2,0,B|243:344|243:344|220:314|220:314|156:296,1,163.68,8|2,2:0|1:2,2:0:0:0:
93,360,101013,1,10,2:0:0:0:
215,216,101182,6,0,P|210:136|147:88,1,163.68,6|2,1:2|2:0,2:0:0:0:
0,0,101687,2,0,P|18:36|29:75,1,81.84,2|8,2:0|2:0,2:0:0:0:
77,193,102024,2,0,P|88:232|106:268,1,81.84,2|0,2:0|2:0,2:0:0:0:
40,370,102362,1,10,2:0:0:0:
204,271,102530,6,0,P|263:281|302:327,1,122.76,0|0,1:2|2:0,2:0:0:0:
316,347,102867,2,0,P|352:328|391:317,1,81.84,2|0,1:2|2:0,2:0:0:0:
512,240,103204,2,0,P|472:228|436:209,1,81.84,10|0,2:0|2:0,2:0:0:0:
337,131,103541,2,0,P|376:119|412:100,1,81.84,2|8,1:2|2:0,2:0:0:0:
197,181,103878,6,0,B|234:137|233:86|233:86|195:41,1,163.68,6|2,1:2|2:0,2:0:0:0:
121,72,104384,1,2,2:0:0:0:
286,195,104553,2,8,P|208:221|135:257,1,163.68,8|0,2:0|1:0,2:0:0:0:
16,384,105058,5,8,2:0:0:0:
0,290,105227,2,0,P|20:328|31:366,1,81.84,0|8,1:0|2:0,2:0:0:0:
135,256,105564,2,0,P|115:218|104:180,1,81.84,0|0,1:0|2:0,2:0:0:0:
0,25,105901,2,0,P|54:81|143:80,1,163.68,10|10,2:0|2:0,2:0:0:0:
232,1,106407,1,8,2:0:0:0:
359,118,106575,6,0,P|370:78|389:42,1,81.84,6|0,1:2|2:0,2:0:0:0:
268,122,106912,1,2,2:0:0:0:
407,217,107081,2,0,P|329:243|256:279,1,163.68,2|0,2:0|2:0,2:0:0:0:
128,384,107586,2,0,P|141:346|125:308,1,81.84,2|0,1:2|2:0,2:0:0:0:
0,232,107923,6,0,P|40:221|76:202,1,81.84,2|8,1:2|2:0,2:0:0:0:
177,106,108260,2,0,P|137:95|101:76,1,81.84,2|0,1:2|2:0,2:0:0:0:
237,233,108598,2,0,B|245:136|277:161|285:76,1,163.68,10|0,2:0|1:0,2:0:0:0:
346,24,109103,1,8,2:0:0:0:
512,124,109272,6,0,B|445:143|445:143|425:168|425:168|361:187,1,163.68,6|0,1:2|2:0,2:0:0:0:
462,366,109777,1,2,2:0:0:0:
478,272,109946,2,0,P|458:310|447:348,1,81.84,8|0,2:0|2:0,2:0:0:0:
336,284,110283,2,0,P|299:303|260:314,1,81.84,2|8,1:2|2:0,2:0:0:0:
197,361,110536,5,8,2:0:0:0:
197,361,110620,2,0,P|160:342|121:331,1,81.84,0|8,1:0|2:0,2:0:0:0:
0,217,110957,2,0,P|15:254|2:292,1,81.84,0|0,1:0|2:0,2:0:0:0:
154,182,111294,2,0,P|117:108|92:31,1,163.68,8|0,2:0|1:0,2:0:0:0:
20,116,111800,1,8,2:0:0:0:
199,26,111968,6,0,B|290:28|271:66|356:74,1,163.68,6|0,1:2|2:0,2:0:0:0:
484,6,112474,1,2,2:0:0:0:
377,170,112642,2,0,P|365:130|347:94,1,81.84,8|0,2:0|2:0,2:0:0:0:
497,206,112980,2,0,P|485:245|467:281,1,81.84,2|8,1:2|2:0,2:0:0:0:
409,335,113232,5,8,2:0:0:0:
409,335,113317,2,0,P|372:316|333:304,1,81.84,0|0,1:0|2:0,2:0:0:0:
193,384,113654,2,0,P|211:347|223:308,1,81.84,2|0,1:2|2:0,2:0:0:0:
310,133,113991,2,0,P|328:169|340:208,1,81.84,2|0,1:2|2:0,2:0:0:0:
207,153,114328,1,10,2:0:0:0:
300,41,114496,1,4,2:3:0:0:
83,146,114665,6,0,P|250:207|411:282,1,356.4,4|8,1:2|2:0,2:0:0:0:
482,248,116519,1,8,2:3:0:0:
425,177,116687,1,2,1:2:0:0:
512,38,117024,2,0,P|466:25|416:0,1,102.96,10|0,2:0|2:0,2:0:0:0:
390,17,117362,5,4,1:2:0:0:
256,192,117446,12,0,120058,2:0:0:0:
