osu file format v14

[General]
AudioFilename: audio.mp3
AudioLeadIn: 0
PreviewTime: 71519
Countdown: 0
SampleSet: Soft
StackLeniency: 0.2
Mode: 0
LetterboxInBreaks: 0
WidescreenStoryboard: 1

[Editor]
Bookmarks: 6800,28373,49946,74216,95789,117362
DistanceSpacing: 0.6
BeatDivisor: 8
GridSize: 4
TimelineZoom: 2

[Metadata]
Title:Anata no Risou no Heroine
TitleUnicode:あなたの理想のヒロイン
Artist:Osaka Shizuku (CV: Maeda Kaori)
ArtistUnicode:桜坂しずく (CV: 前田佳織里)
Creator:Lulu-
Version:Vicky's Insane
Source:ラブライブ!スクールアイドルフェスティバル ALL STARS
Tags:Victorica Miriko Jennifer Jennglebells Japanese Pop J-Pop video game size ver. cut anime 月見草 Tsukimisou 遠藤ナオキ Naoki Endo LoveLive! Love Live! School idol festival sifas オールスターズ スクスタ sukusuta TOKIMEKI Runners 1st Album 虹ヶ咲学園スクールアイドル同好会 Nijigasaki High Club Gakuen Doukoukai Dokokai ニジガク NijiGaku
BeatmapID:2644020
BeatmapSetID:1151644

[Difficulty]
HPDrainRate:6
CircleSize:4.3
OverallDifficulty:8
ApproachRate:8.6
SliderMultiplier:1.9
SliderTickRate:1

[Events]
//Background and Video events
Video,0,"Anata no Risou no Heroine.avi"
0,0,"shizucute.jpg",0,0
//Break Periods
//Storyboard Layer 0 (Background)
//Storyboard Layer 1 (Fail)
//Storyboard Layer 2 (Pass)
//Storyboard Layer 3 (Foreground)
//Storyboard Layer 4 (Overlay)
//Storyboard Sound Samples

[TimingPoints]
1407,674.157303370787,4,2,1,60,1,0
6800,-100,4,2,2,50,0,0
21210,-100,4,2,2,5,0,0
21294,-200,4,2,2,50,0,0
21547,-200,4,2,2,5,0,0
21631,-200,4,2,2,50,0,0
22305,-100,4,2,2,50,0,0
23570,-100,4,2,2,5,0,0
23654,-100,4,2,2,50,0,0
23907,-100,4,2,2,5,0,0
23991,-100,4,2,2,50,0,0
26687,-66.6666666666667,4,2,1,50,0,0
27277,-66.6666666666667,4,2,2,5,0,0
27362,-66.6666666666667,4,2,2,50,0,0
27530,-66.6666666666667,4,2,1,25,0,0
27699,-66.6666666666667,4,2,1,50,0,0
28373,-66.6666666666667,4,2,1,60,0,0
39412,-66.6666666666667,4,2,1,5,0,0
39496,-66.6666666666667,4,2,1,60,0,0
40255,-66.6666666666667,4,2,1,5,0,0
40339,-66.6666666666667,4,2,1,60,0,0
40423,-66.6666666666667,4,2,1,5,0,0
40508,-66.6666666666667,4,2,1,60,0,0
40761,-66.6666666666667,4,2,1,5,0,0
40845,-66.6666666666667,4,2,1,60,0,0
41856,-52.6315789473684,4,2,1,60,0,0
42193,-62.5,4,2,1,60,0,0
42530,-100,4,2,1,60,0,0
42867,-200,4,2,1,60,0,0
43457,-200,4,2,1,5,0,0
43541,-200,4,2,1,60,0,0
43878,-66.6666666666667,4,2,1,60,0,0
44553,-200,4,2,1,60,0,0
45143,-200,4,2,1,5,0,0
45227,-66.6666666666667,4,2,1,60,0,0
46322,-66.6666666666667,4,2,1,5,0,0
46407,-66.6666666666667,4,2,1,60,0,0
47249,-133.333333333333,4,2,1,60,0,0
49862,-133.333333333333,4,2,1,5,0,0
49946,-66.6666666666667,4,2,1,80,0,1
50199,-66.6666666666667,4,2,1,5,0,0
50283,-66.6666666666667,4,2,1,80,0,1
50536,-66.6666666666667,4,2,1,5,0,0
50620,-66.6666666666667,4,2,1,80,0,0
50957,-285.714285714284,4,2,1,60,0,0
51968,-100,4,2,1,60,0,0
52305,-133.333333333333,4,2,1,60,0,0
52558,-133.333333333333,4,2,1,5,0,0
52642,-66.6666666666667,4,2,1,80,0,1
52895,-66.6666666666667,4,2,1,5,0,0
52980,-66.6666666666667,4,2,1,80,0,1
53232,-66.6666666666667,4,2,1,5,0,0
53317,-66.6666666666667,4,2,1,80,0,0
53654,-285.714285714286,4,2,1,60,0,0
55339,-133.333333333333,4,2,1,80,0,0
56013,-66.6666666666667,4,2,1,60,0,0
58457,-66.6666666666667,4,2,1,5,0,0
58541,-66.6666666666667,4,2,1,60,0,0
58962,-66.6666666666667,4,2,1,5,0,0
59047,-50,4,2,1,60,0,0
59299,-50,4,2,1,5,0,0
59384,-50,4,2,1,70,0,0
60395,-133.333333333333,4,2,1,70,0,0
60648,-133.333333333333,4,2,1,5,0,0
60732,-66.6666666666667,4,2,1,80,0,1
60985,-66.6666666666667,4,2,1,5,0,0
61069,-66.6666666666667,4,2,1,80,0,1
61322,-66.6666666666667,4,2,1,5,0,0
61407,-66.6666666666667,4,2,1,80,0,0
61744,-285.714285714286,4,2,1,60,0,0
62755,-100,4,2,1,60,0,0
63429,-66.6666666666667,4,2,1,80,0,1
63682,-66.6666666666667,4,2,1,5,0,0
63766,-66.6666666666667,4,2,1,80,0,1
64019,-66.6666666666667,4,2,1,5,0,0
64103,-66.6666666666667,4,2,1,80,0,0
64440,-66.6666666666667,4,2,1,60,0,0
64693,-66.6666666666667,4,2,1,5,0,0
64777,-66.6666666666667,4,2,1,60,0,0
65030,-66.6666666666667,4,2,1,5,0,0
65114,-66.6666666666667,4,2,1,60,0,0
65789,-133.333333333333,4,2,1,60,0,0
66042,-133.333333333333,4,2,1,5,0,0
66126,-66.6666666666667,4,2,1,60,0,0
67474,-133.333333333333,4,2,1,60,0,0
68148,-66.6666666666667,4,2,1,60,0,0
68822,-200,4,2,1,60,0,0
69496,-100,4,2,1,60,0,0
70171,-66.6666666666667,4,2,1,60,0,0
70508,-66.6666666666667,4,2,1,70,0,0
70845,-50,4,2,1,80,0,0
71182,-50,4,2,1,90,0,0
73541,-50,4,2,1,60,0,0
73878,-50,4,2,10,60,0,0
74047,-50,4,2,11,60,0,0
74215,-66.6666666666667,4,2,12,80,0,1
74468,-66.6666666666667,4,2,12,5,0,1
74553,-66.6666666666667,4,2,12,80,0,1
74806,-66.6666666666667,4,2,12,5,0,1
74890,-66.6666666666667,4,2,12,80,0,1
75901,-66.6666666666667,4,2,11,80,0,1
76238,-66.6666666666667,4,2,10,80,0,1
76575,-66.6666666666667,4,2,11,80,0,1
76744,-66.6666666666667,4,2,10,80,0,1
77249,-66.6666666666667,4,2,13,80,0,1
78260,-66.6666666666667,4,2,1,80,0,1
78429,-66.6666666666667,4,2,13,80,0,1
79272,-66.6666666666667,4,2,10,80,0,1
79440,-66.6666666666667,4,2,11,80,0,1
79609,-66.6666666666667,4,2,12,80,0,1
81294,-66.6666666666667,4,2,11,80,0,1
81631,-66.6666666666667,4,2,10,80,0,1
81968,-66.6666666666667,4,2,13,80,0,1
82642,-66.6666666666667,4,2,14,80,0,1
82811,-66.6666666666667,4,2,10,80,0,1
84244,-66.6666666666667,4,2,10,5,0,1
84328,-100,4,2,15,80,0,1
84581,-100,4,2,15,5,0,1
84665,-100,4,2,16,80,0,1
84918,-100,4,2,16,5,0,1
85002,-66.6666666666667,4,2,14,80,0,1
85255,-66.6666666666667,4,2,14,5,0,1
85339,-66.6666666666667,4,2,16,80,0,1
85508,-66.6666666666667,4,2,14,80,0,1
86013,-66.6666666666667,4,2,17,80,0,1
86182,-66.6666666666667,4,2,1,80,0,1
86350,-66.6666666666667,4,2,14,80,0,1
86603,-66.6666666666667,4,2,14,5,0,1
86687,-66.6666666666667,4,2,16,80,0,1
86856,-66.6666666666667,4,2,14,80,0,1
87362,-66.6666666666667,4,2,13,80,0,1
87699,-66.6666666666667,4,2,10,80,0,1
88120,-66.6666666666667,4,2,10,5,0,1
88204,-66.6666666666667,4,2,12,80,0,1
88710,-66.6666666666667,4,2,10,80,0,1
89974,-66.6666666666667,4,2,10,5,0,1
90058,-66.6666666666667,4,2,11,80,0,1
90311,-66.6666666666667,4,2,11,5,0,1
90395,-66.6666666666667,4,2,10,80,0,1
90732,-66.6666666666667,4,2,13,80,0,1
91407,-100,4,2,15,80,0,1
91660,-100,4,2,15,5,0,1
91744,-66.6666666666667,4,2,10,80,0,1
92081,-66.6666666666667,4,2,13,80,0,1
92755,-100,4,2,15,80,0,1
93008,-100,4,2,15,5,0,1
93092,-90.9090909090909,4,2,10,80,0,1
93429,-90.9090909090909,4,2,13,80,0,1
93766,-83.3333333333333,4,2,10,80,0,1
94103,-83.3333333333333,4,2,11,80,0,1
94440,-76.9230769230769,4,2,11,80,0,0
95451,-76.9230769230769,4,2,10,80,0,0
95620,-76.9230769230769,4,2,11,80,0,0
95789,-66.6666666666667,4,2,12,80,0,1
96042,-66.6666666666667,4,2,12,5,0,1
96126,-66.6666666666667,4,2,12,80,0,1
97474,-66.6666666666667,4,2,11,80,0,1
97811,-66.6666666666667,4,2,10,80,0,1
98148,-66.6666666666667,4,2,11,80,0,1
98485,-66.6666666666667,4,2,10,80,0,1
98738,-66.6666666666667,4,2,10,5,0,1
98822,-66.6666666666667,4,2,13,80,0,1
100761,-66.6666666666667,4,2,13,5,0,1
100845,-66.6666666666667,4,2,10,80,0,1
101014,-66.6666666666667,4,2,11,80,0,1
101182,-66.6666666666667,4,2,12,80,0,1
102867,-66.6666666666667,4,2,11,80,0,1
103204,-66.6666666666667,4,2,10,80,0,1
103541,-66.6666666666667,4,2,13,80,0,1
104215,-66.6666666666667,4,2,14,80,0,1
104384,-66.6666666666667,4,2,10,80,0,1
105817,-66.6666666666667,4,2,10,5,0,1
105901,-100,4,2,10,80,0,1
106154,-100,4,2,10,5,0,1
106238,-100,4,2,11,80,0,1
106575,-66.6666666666667,4,2,10,80,0,1
106828,-66.6666666666667,4,2,10,5,0,1
106912,-66.6666666666667,4,2,13,80,0,1
107586,-66.6666666666667,4,2,15,80,0,1
107923,-66.6666666666667,4,2,10,80,0,1
108176,-66.6666666666667,4,2,10,5,0,1
108260,-66.6666666666667,4,2,13,80,0,1
108851,-66.6666666666667,4,2,13,5,0,1
108935,-66.6666666666667,4,2,13,80,0,1
109272,-66.6666666666667,4,2,10,80,0,1
109693,-66.6666666666667,4,2,10,5,0,1
109777,-66.6666666666667,4,2,12,80,0,1
110283,-66.6666666666667,4,2,10,80,0,1
111968,-66.6666666666667,4,2,11,80,0,1
112474,-66.6666666666667,4,2,12,80,0,1
112980,-66.6666666666667,4,2,18,80,0,1
113149,-66.6666666666667,4,2,1,80,0,1
113654,-66.6666666666667,4,2,11,80,0,1
113822,-66.6666666666667,4,2,1,80,0,1
113991,-66.6666666666667,4,2,10,80,0,1
114328,-66.6666666666667,4,2,11,80,0,1
114580,-66.6666666666667,4,2,11,5,0,1
114665,-100,4,2,11,80,0,0
115339,-222.222222222221,4,2,10,80,0,0
116013,-222.222222222221,4,2,13,80,0,0
116350,-133.333333333333,4,2,13,80,0,0
116518,-133.333333333333,4,2,1,80,0,0
116687,-133.333333333333,4,2,14,80,0,0
117362,-133.333333333333,4,2,2,80,0,0
120058,-133.333333333333,4,2,2,5,0,0

[Colours]
Combo1 : 255,149,202
Combo2 : 0,128,255
Combo3 : 128,255,255
Combo4 : 255,255,21
Combo5 : 255,203,64
Combo6 : 255,128,192

[HitObjects]
385,186,2418,6,0,P|466:138|489:44,1,190.044333333333,8|8,2:0|2:3,2:0:0:0:
488,44,3176,1,8,2:3:0:0:
282,38,3429,6,0,P|331:41|369:76,1,95.0221666666667,2|2,1:2|2:0,2:0:0:0:
467,189,4103,1,6,1:2:0:0:
467,189,4440,70,0,P|458:214|437:236,1,47.652,8|0,2:0|2:0,2:0:0:0:
337,345,4777,2,0,P|354:303|341:251,1,95.0221666666667,8|2,2:3|2:0,2:0:0:0:
276,197,5283,1,2,2:0:0:0:
151,243,5451,6,0,P|217:242|281:190,1,142.674166666667,4|0,1:2|2:0,2:0:0:0:
301,119,6126,1,0,2:0:0:0:
60,112,6463,69,2,2:0:0:0:
63,119,6800,2,0,P|106:138|158:131,2,95.0221666666667,4|0|0,1:2|2:0|2:0,2:0:0:0:
68,124,7811,6,0,L|59:181,1,47.652,2|0,1:2|2:0,2:0:0:0:
132,268,8148,2,0,L|142:219,1,47.652,2|0,1:2|2:0,2:0:0:0:
9,286,8485,2,0,L|24:345,1,47.652,2|0,2:0|2:0,2:0:0:0:
132,268,8822,2,0,P|167:281|205:282,1,71.478,8|0,2:0|2:0,2:0:0:0:
268,256,9159,2,0,L|258:194,1,47.652,2|2,2:0|2:0,2:0:0:0:
248,136,9496,69,0,1:2:0:0:
251,328,9833,1,0,2:0:0:0:
184,184,10171,5,0,2:0:0:0:
327,345,10508,2,0,P|372:335|421:344,2,95.0221666666667,2|2|2,1:2|1:2|2:0,2:0:0:0:
328,352,11519,1,10,2:0:0:0:
328,360,11856,2,0,L|312:304,1,47.5,2|0,2:0|2:0,2:0:0:0:
265,257,12193,69,0,1:2:0:0:
479,302,12530,1,0,2:0:0:0:
264,234,12867,1,0,2:0:0:0:
474,175,13204,6,0,L|483:120,1,47.652,2|0,1:2|2:0,2:0:0:0:
320,56,13541,2,0,L|330:103,1,47.652,2|0,1:2|2:0,2:0:0:0:
476,136,13878,2,0,L|467:191,1,47.652,2|0,2:0|2:0,2:0:0:0:
332,245,14215,2,0,P|300:232|258:235,1,71.478,10|0,2:0|2:0,2:0:0:0:
197,264,14553,2,0,L|212:318,1,47.5,2|2,2:0|2:0,2:0:0:0:
278,343,14890,69,0,1:2:0:0:
87,282,15227,1,0,2:0:0:0:
165,379,15564,5,0,2:0:0:0:
203,188,15901,2,0,L|163:99,2,95.0221666666667,2|2|2,1:2|1:2|2:0,2:0:0:0:
208,192,16912,1,10,2:0:0:0:
212,196,17249,2,0,L|263:185,1,47.652,2|0,2:0|2:0,2:0:0:0:
448,120,17586,69,0,1:2:0:0:
239,54,17923,1,0,2:0:0:0:
452,116,18260,1,0,2:0:0:0:
240,60,18598,6,0,L|188:70,1,47.5,2|0,1:2|2:0,2:0:0:0:
57,23,18935,2,0,L|107:31,1,47.5,2|0,1:2|2:0,2:0:0:0:
224,153,19272,2,0,L|214:203,1,47.5,2|0,2:0|2:0,2:0:0:0:
91,234,19609,2,0,L|75:178,1,47.5,10|0,2:0|2:0,2:0:0:0:
55,109,19946,1,2,2:0:0:0:
52,100,20283,69,2,1:2:0:0:
25,271,20620,1,2,1:2:0:0:
48,92,20957,6,0,L|63:168,1,71.478,2|0,2:0|2:0,2:0:0:0:
25,271,21294,70,0,L|14:310,1,35.739,2|0,1:2|2:0,2:0:0:0:
24,264,21631,5,0,2:0:0:0:
197,320,21968,1,0,1:0:0:0:
0,344,22305,70,0,L|51:356,1,47.652,10|0,2:0|2:0,2:0:0:0:
199,206,22642,2,0,L|148:216,1,47.652,2|0,2:0|2:0,2:0:0:0:
123,353,22980,2,0,P|203:323|281:344,1,166.25,2|0,1:2|2:0,2:0:0:0:
341,375,23654,2,0,P|377:382|425:378,1,71.478,2|0,2:0|2:0,2:0:0:0:
481,357,23991,5,2,1:2:0:0:
399,168,24328,1,0,1:0:0:0:
384,244,24665,69,2,2:0:0:0:
356,40,25002,1,10,2:0:0:0:
460,224,25339,1,2,2:0:0:0:
491,24,25676,5,2,1:2:0:0:
491,32,26013,2,0,P|458:48|348:36,1,142.674166666667,0|0,1:0|2:0,2:0:0:0:
168,33,26687,2,0,P|82:75|176:108,1,249.750259512902,6|0,1:2|2:0,2:0:0:0:
242,66,27362,69,0,1:0:0:0:
274,166,27530,1,8,2:0:0:0:
260,154,27614,1,8,2:0:0:0:
246,143,27699,1,8,2:0:0:0:
419,86,27867,1,0,1:0:0:0:
333,221,28036,5,0,1:0:0:0:
409,251,28204,1,0,2:0:0:0:
250,327,28373,70,0,P|192:363|120:347,2,142.533255435944,4|0|0,1:2|2:0|2:0,2:0:0:0:
174,264,29215,1,0,2:0:0:0:
174,264,29384,2,0,L|162:191,1,71.4780027179719,2|0,1:2|2:0,2:0:0:0:
42,102,29721,2,0,L|33:177,1,71.4780027179719,2|0,1:2|2:0,2:0:0:0:
185,159,30058,2,0,L|196:229,1,71.4780027179719,2|0,2:0|2:0,2:0:0:0:
138,46,30395,1,10,2:0:0:0:
138,46,30732,2,0,P|171:62|212:58,1,71.4780027179719,2|2,2:0|2:0,2:0:0:0:
286,33,31069,6,0,P|354:14|428:41,2,142.533255435944,0|0|0,1:2|2:0|2:0,2:0:0:0:
268,112,31912,1,0,2:0:0:0:
269,120,32081,2,0,P|295:144|337:160,1,71.2500027179719,2|0,1:2|2:0,2:0:0:0:
459,187,32418,2,0,P|425:197|390:225,1,71.2500027179719,2|0,1:2|2:0,2:0:0:0:
314,310,32755,2,0,P|321:275|314:231,1,71.2500027179719,2|0,2:0|2:0,2:0:0:0:
484,344,33092,1,10,2:0:0:0:
484,344,33429,2,0,P|452:331|404:331,1,71.4780027179719,2|0,2:0|2:0,2:0:0:0:
333,350,33766,70,0,P|264:368|194:341,2,142.533255435944,0|0|2,1:2|2:0|2:0,2:0:0:0:
388,271,34609,1,0,2:0:0:0:
388,271,34777,2,0,L|366:196,1,71.4780027179719,2|0,1:2|2:0,2:0:0:0:
500,115,35114,2,0,L|484:185,1,71.4780027179719,2|0,1:2|2:0,2:0:0:0:
277,172,35451,2,0,P|295:141|329:118,1,71.4780027179719,2|0,2:0|2:0,2:0:0:0:
465,28,35789,1,10,2:0:0:0:
465,28,36126,2,0,P|431:40|381:38,1,71.2500027179719,2|2,2:0|2:0,2:0:0:0:
306,16,36463,6,0,P|237:4|181:44,2,142.533255435944,0|0|0,1:2|2:0|2:0,2:0:0:0:
255,90,37305,1,0,2:0:0:0:
255,90,37474,2,0,P|244:124|214:153,1,71.2500027179719,2|0,1:2|2:0,2:0:0:0:
252,229,37811,2,0,P|217:236|176:224,1,71.4780027179719,2|0,1:2|2:0,2:0:0:0:
129,298,38148,2,0,P|105:271|94:230,1,71.4780027179719,2|0,2:0|2:0,2:0:0:0:
135,160,38485,1,10,2:0:0:0:
218,314,38822,2,0,P|207:348|177:377,1,71.4780027179719,2|0,2:0|2:0,2:0:0:0:
208,370,39159,70,0,P|259:349|319:360,1,107.217004076958,4|0,1:2|2:0,2:0:0:0:
450,345,39496,2,0,P|415:349|374:377,1,71.4780027179719,2|0,2:0|2:0,2:0:0:0:
279,262,39833,2,0,P|314:258|355:230,1,71.4780027179719,2|0,2:0|2:0,2:0:0:0:
361,77,40171,1,2,1:2:0:0:
330,154,40339,1,2,2:0:0:0:
297,17,40508,6,0,P|245:9|189:33,1,106.875004076958,2|0,1:2|2:0,2:0:0:0:
188,107,40845,2,0,P|154:93|129:61,1,71.2500027179719,2|0,2:0|2:0,2:0:0:0:
46,93,41182,2,0,P|50:128|35:166,1,71.2500027179719,10|0,2:0|2:0,2:0:0:0:
106,222,41519,2,0,P|134:199|175:194,1,71.2500027179719,2|0,2:0|2:0,2:0:0:0:
248,309,41856,70,0,P|203:298|169:268,1,90.2499975900651,2|0,1:2|2:0,2:0:0:0:
241,230,42193,6,0,P|279:237|320:224,1,76.2432,2|0,1:2|2:0,2:0:0:0:
276,159,42530,70,0,P|252:152|226:134,1,47.652,2|0,2:0|2:0,2:0:0:0:
281,82,42867,6,0,P|322:90|365:75,1,83.2500833333334,6|0,1:2|2:0,2:0:0:0:
384,60,43541,1,0,1:0:0:0:
384,60,43878,70,0,L|395:134,1,71.4780027179719,10|0,2:0|2:0,2:0:0:0:
500,272,44215,2,0,L|488:202,1,71.4780027179719,2|0,2:0|2:0,2:0:0:0:
324,312,44553,6,0,P|364:306|400:326,1,83.125,2|0,1:2|2:0,2:0:0:0:
251,340,45227,70,0,P|254:269|321:232,1,142.533255435944,2|0,2:0|1:0,2:0:0:0:
456,48,45901,2,0,P|429:117|335:115,1,178.27225679493,2|0,1:2|2:0,2:0:0:0:
280,68,46407,1,2,2:0:0:0:
120,16,46575,5,8,2:0:0:0:
120,16,46912,2,0,L|138:96,1,71.4780027179719,2|2,2:0|2:0,2:0:0:0:
72,220,47249,70,0,L|51:298,1,71.2666277179719,0|0,1:0|2:0,2:0:0:0:
279,250,47923,5,0,2:0:0:0:
130,171,48260,1,0,1:0:0:0:
196,306,48598,69,4,1:2:0:0:
379,241,48935,1,8,2:0:0:0:
262,152,49272,5,8,2:0:0:0:
355,369,49609,2,0,L|368:305,1,53.6085020384789,2|0,1:2|2:0,2:0:0:0:
470,202,49946,6,0,P|433:236|375:240,1,107.217004076958,6|0,1:2|2:0,2:0:0:0:
216,155,50283,2,0,P|253:121|311:117,1,107.217004076958,6|0,1:2|2:0,2:0:0:0:
338,182,50620,1,10,2:0:0:0:
483,95,50957,54,0,L|470:27,1,66.5155146372478,6|0,1:2|1:0,2:0:0:0:
314,69,51968,2,0,L|306:123,1,47.652,0|0,1:0|2:0,2:0:0:0:
222,298,52305,6,0,L|204:241,1,53.6085020384789,2|0,1:2|2:0,2:0:0:0:
167,187,52642,6,0,L|142:300,1,107.217004076958,6|0,1:2|2:0,2:0:0:0:
44,179,52980,2,0,L|30:70,1,106.875004076958,6|0,1:2|2:0,2:0:0:0:
22,0,53317,1,10,2:0:0:0:
22,0,53654,54,0,L|77:3,1,49.8749984779358,6|0,1:2|2:0,2:0:0:0:
152,13,54328,1,0,1:0:0:0:
227,159,54665,5,10,2:0:0:0:
257,83,54833,1,0,2:0:0:0:
383,35,55002,69,2,1:2:0:0:
433,97,55171,1,0,2:0:0:0:
326,229,55339,6,0,P|326:193|342:151,1,71.2666277179719,6|0,1:2|2:0,2:0:0:0:
311,326,56013,70,0,P|248:292|228:228,1,142.533255435944,10|0,2:0|2:0,2:0:0:0:
326,229,56519,1,0,2:0:0:0:
326,229,56687,6,0,L|401:237,1,71.4780027179719,2|0,1:2|2:0,2:0:0:0:
290,85,57024,2,0,L|216:97,1,71.4780027179719,2|0,2:0|2:0,2:0:0:0:
145,214,57362,2,0,P|145:250|168:290,1,71.2500027179719,10|0,2:0|2:0,2:0:0:0:
27,159,57699,2,0,P|27:123|4:83,1,71.2500027179719,2|0,2:0|2:0,2:0:0:0:
1,237,58036,70,0,P|90:213|107:138,1,178.27225679493,2|0,1:2|2:0,2:0:0:0:
79,311,58541,2,0,P|139:369|219:344,1,178.27225679493,2|0,2:0|2:0,2:0:0:0:
257,136,59047,2,0,P|200:181|201:247,1,142.5,2|0,1:2|2:0,2:0:0:0:
371,355,59384,2,0,P|432:255|313:253,1,285,6|0,1:2|2:0,2:0:0:0:
308,264,59974,1,0,2:0:0:0:
302,278,60058,5,10,2:0:0:0:
208,57,60395,2,0,L|201:1,1,53.6085020384789,10|0,2:0|2:0,2:0:0:0:
85,106,60732,6,0,P|129:130|193:124,1,107.217004076958,6|0,1:2|2:0,2:0:0:0:
297,186,61069,2,0,P|244:182|197:207,1,107.217004076958,6|0,1:2|2:0,2:0:0:0:
159,272,61407,1,10,2:0:0:0:
159,272,61744,54,0,L|174:344,1,66.5155146372478,6|0,1:2|1:0,2:0:0:0:
15,384,62755,2,0,L|25:337,1,47.5,8|0,2:0|2:0,2:0:0:0:
18,196,63092,5,2,1:2:0:0:
91,227,63260,1,2,2:0:0:0:
172,337,63429,6,0,P|223:320|283:324,1,107.217004076958,6|0,1:2|2:0,2:0:0:0:
449,370,63766,2,0,P|395:372|345:355,1,107.217004076958,6|0,1:2|2:0,2:0:0:0:
275,322,64103,1,10,2:0:0:0:
300,182,64440,54,0,P|334:222|342:283,1,107.217004076958,6|0,1:2|2:0,2:0:0:0:
388,143,64777,2,0,P|384:84|408:46,1,107.217004076958,2|0,2:0|2:0,2:0:0:0:
458,190,65114,5,8,2:0:0:0:
388,143,65283,1,2,2:0:0:0:
462,107,65451,1,12,2:0:0:0:
304,88,65789,70,0,L|291:29,1,53.4375020384789,2|0,1:2|2:0,2:0:0:0:
265,20,66126,6,0,P|203:50|135:29,1,142.533255435944,6|0,1:2|2:0,2:0:0:0:
119,10,66800,1,8,2:0:0:0:
31,135,67137,69,2,2:0:0:0:
112,112,67305,1,2,2:0:0:0:
31,135,67474,2,0,L|26:178,1,35.625001358986,2|0,1:2|2:0,2:0:0:0:
152,213,67811,2,0,L|159:257,1,35.739001358986,2|0,1:2|2:0,2:0:0:0:
0,361,68148,6,0,P|66:338|148:362,1,142.533255435944,10|2,2:0|1:2,2:0:0:0:
213,370,68654,1,0,2:0:0:0:
223,366,68738,1,0,2:0:0:0:
234,362,68822,70,0,L|226:335,1,23.826,14|0,2:0|2:0,2:0:0:0:
390,326,69159,2,0,L|394:300,1,23.826,0|2,2:0|2:0,2:0:0:0:
180,285,69496,6,0,L|196:237,1,47.652,0|0,1:2|2:0,2:0:0:0:
452,259,69833,2,0,L|435:210,1,47.652,2|0,1:2|2:0,2:0:0:0:
236,182,70171,70,0,L|213:112,1,71.2500027179719,8|0,1:2|2:0,2:0:0:0:
463,146,70508,2,0,L|486:76,1,71.2500027179719,8|0,1:2|2:0,2:0:0:0:
332,16,70845,6,0,L|347:109,1,95,8|0,1:2|2:0,2:0:0:0:
388,336,71182,1,8,1:2:0:0:
256,192,71519,12,4,73541,1:2:0:0:
0,36,73878,5,2,2:0:0:0:
4,40,74047,5,2,2:0:0:0:
8,44,74215,70,0,P|56:56|112:44,1,107.217004076958,6|0,1:2|2:0,2:0:0:0:
288,76,74553,2,0,P|240:64|184:76,1,106.875004076958,2|0,2:0|2:0,2:0:0:0:
120,120,74890,1,10,2:0:0:0:
120,120,75227,1,2,1:2:0:0:
120,120,75395,6,0,P|112:196|148:256,1,142.533255435944,10|8,2:0|2:0,2:0:0:0:
148,256,75901,1,2,1:2:0:0:
288,216,76238,2,0,L|212:208,1,71.4780027179719,10|0,2:0|2:0,2:0:0:0:
104,328,76575,2,0,L|174:335,1,71.4780027179719,2|10,1:2|2:0,2:0:0:0:
348,264,76912,70,0,P|360:192|316:144,1,142.533255435944,4|2,1:2|1:2,2:0:0:0:
296,328,77586,2,0,P|364:344|420:304,1,142.533255435944,8|0,2:0|1:2,2:0:0:0:
316,144,78092,1,8,2:0:0:0:
316,144,78260,6,0,P|284:159|256:184,1,71.4780027179719,2|8,1:2|2:0,2:0:0:0:
368,76,78598,2,0,P|334:64|297:62,1,71.2500027179719,0|0,1:2|2:0,2:0:0:0:
456,60,78935,2,0,P|440:28|415:0,1,71.2500027179719,8|0,2:0|1:2,2:0:0:0:
422,152,79272,1,2,2:0:0:0:
422,152,79440,1,10,2:0:0:0:
422,152,79609,70,0,L|416:264,1,107.217004076958,6|0,1:2|2:0,2:0:0:0:
416,258,79946,1,2,2:0:0:0:
272,324,80114,1,2,2:0:0:0:
272,324,80283,6,0,L|344:328,1,71.2500027179719,8|2,2:0|2:0,2:0:0:0:
288,176,80620,1,0,1:2:0:0:
288,176,80789,2,0,L|216:180,1,71.2500027179719,10|0,2:0|1:2,2:0:0:0:
272,324,81126,2,0,L|344:328,2,71.2666277179719,8|2|0,2:0|1:2|2:0,2:0:0:0:
156,228,81631,2,0,P|140:160|184:108,1,142.533255435944,10|2,2:0|2:0,2:0:0:0:
343,143,82305,70,0,P|287:183|215:179,1,142.533255435944,6|2,1:2|2:0,2:0:0:0:
72,28,82811,1,2,2:0:0:0:
72,28,82980,2,0,L|80:100,1,71.2500027179719,8|0,2:0|2:0,2:0:0:0:
216,179,83317,2,0,L|223:108,1,71.2500027179719,0|8,1:0|2:0,2:0:0:0:
16,140,83654,2,0,P|40:164|76:172,1,71.2500027179719,0|8,1:0|2:0,2:0:0:0:
224,108,83991,2,0,P|272:84|328:84,1,107.217004076958,0|0,1:0|2:0,2:0:0:0:
332,84,84328,6,0,P|364:96|404:96,1,71.478,10|0,2:0|2:0,2:0:0:0:
488,188,84665,2,0,P|452:188|419:200,1,71.478,2|0,1:2|2:0,2:0:0:0:
412,204,85002,70,0,P|368:224|308:220,1,107.217004076958,6|0,1:2|2:0,2:0:0:0:
304,220,85339,1,2,2:0:0:0:
208,160,85508,1,2,2:0:0:0:
204,156,85676,2,0,L|212:80,1,71.4780027179719,8|0,2:0|2:0,2:0:0:0:
308,144,86013,2,0,L|300:214,1,71.4780027179719,2|8,1:2|2:0,2:0:0:0:
196,264,86350,6,0,P|148:284|92:284,1,107.217004076958,2|0,1:2|2:0,2:0:0:0:
88,284,86687,1,2,1:2:0:0:
296,332,86856,1,2,2:0:0:0:
296,332,87024,2,0,P|332:320|380:324,1,71.4780027179719,8|0,2:0|2:0,2:0:0:0:
440,348,87362,1,2,2:0:0:0:
440,348,87530,1,8,2:0:0:0:
426,112,87699,70,0,P|391:191|432:268,1,178.27225679493,6|0,1:2|2:0,2:0:0:0:
504,136,88204,1,2,2:0:0:0:
504,136,88373,2,0,P|504:100|492:68,1,71.2500027179719,8|0,2:0|2:0,2:0:0:0:
284,96,88710,6,0,L|428:112,1,142.533255435944,2|0,1:2|1:0,2:0:0:0:
502,275,89215,1,8,2:0:0:0:
502,275,89384,2,0,L|430:267,1,71.4780027179719,0|0,1:0|2:0,2:0:0:0:
264,272,89721,70,0,P|244:220|264:172,1,107.217004076958,10|0,2:0|2:0,2:0:0:0:
324,220,90058,2,0,P|344:272|324:320,1,107.217004076958,2|0,1:2|2:0,2:0:0:0:
256,348,90395,5,6,1:2:0:0:
336,144,90732,1,2,2:0:0:0:
120,188,91069,1,8,2:0:0:0:
120,188,91407,2,0,P|100:160|92:120,1,71.25,2|0,1:2|2:0,2:0:0:0:
96,120,91744,70,0,P|100:192|64:252,1,142.533255435944,2|2,1:2|1:2,2:0:0:0:
0,376,92249,1,2,2:0:0:0:
0,376,92418,2,0,P|32:364|76:364,1,71.2500027179719,8|0,2:0|2:0,2:0:0:0:
236,312,92755,2,0,P|200:312|164:304,1,71.478,2|0,1:2|2:0,2:0:0:0:
160,300,93092,6,0,L|152:236,1,52.2500015945435,6|0,1:2|2:0,2:0:0:0:
352,300,93429,2,0,L|360:236,1,52.4172015945435,2|0,2:0|2:0,2:0:0:0:
156,188,93766,70,0,L|148:252,1,57.1823982604981,10|0,2:0|2:0,2:0:0:0:
356,188,94103,2,0,L|364:252,1,57.1823982604981,2|2,1:2|2:0,2:0:0:0:
152,184,94440,6,0,L|140:120,1,61.9475971733095,8|0,2:0|2:0,2:0:0:0:
360,184,94777,2,0,L|372:120,1,61.9475971733095,0|8,1:0|2:0,2:0:0:0:
148,44,95114,69,8,2:0:0:0:
136,120,95283,1,8,2:0:0:0:
364,44,95451,1,2,1:2:0:0:
376,120,95620,1,2,1:2:0:0:
264,208,95789,6,0,L|256:96,1,106.875004076958,6|0,1:2|2:0,2:0:0:0:
360,220,96126,2,0,P|360:256|348:292,1,71.2500027179719,2|2,2:0|2:0,2:0:0:0:
180,292,96463,2,0,P|169:258|169:222,1,71.2500027179719,8|2,2:0|2:0,2:0:0:0:
264,340,96800,1,0,2:0:0:0:
264,340,96968,70,0,P|208:384|140:380,1,142.533255435944,10|8,2:0|2:0,2:0:0:0:
40,284,97474,2,0,L|32:208,1,71.2500027179719,2|0,1:2|2:0,2:0:0:0:
176,151,97811,2,0,L|168:221,1,71.4780027179719,10|0,2:0|2:0,2:0:0:0:
76,92,98148,1,2,2:0:0:0:
72,88,98317,1,8,2:0:0:0:
68,84,98485,6,0,P|112:60|168:60,1,107.217004076958,6|0,1:2|2:0,2:0:0:0:
172,64,98822,2,0,P|208:72|244:64,1,71.4780027179719,2|2,2:0|2:0,2:0:0:0:
280,148,99159,2,0,P|311:128|330:97,1,71.4780027179719,8|0,2:0|2:0,2:0:0:0:
420,136,99496,2,0,P|428:100|420:64,1,71.4780027179719,0|8,1:0|2:0,2:0:0:0:
328,24,99833,2,0,P|320:59|328:96,1,71.4780027179719,0|8,1:0|2:0,2:0:0:0:
420,224,100171,69,0,1:0:0:0:
348,260,100339,1,0,2:0:0:0:
424,360,100508,2,0,P|376:348|320:356,1,106.875004076958,8|0,2:0|2:0,2:0:0:0:
316,360,100845,2,0,P|284:376|240:372,1,71.2500027179719,2|10,1:2|2:0,2:0:0:0:
104,304,101182,6,0,L|116:184,1,107.217004076958,6|0,1:2|2:0,2:0:0:0:
116,192,101519,1,2,2:0:0:0:
236,116,101687,1,2,2:0:0:0:
236,116,101856,70,0,L|244:188,1,71.2500027179719,8|2,2:0|2:0,2:0:0:0:
40,108,102193,1,0,2:0:0:0:
40,108,102362,2,0,L|48:32,1,71.2500027179719,10|0,2:0|1:2,2:0:0:0:
236,116,102699,2,0,L|244:188,2,71.2666277179719,8|2|0,2:0|1:2|2:0,2:0:0:0:
168,232,103204,2,0,P|224:272|296:256,1,142.533255435944,10|2,2:0|1:2,2:0:0:0:
500,68,103878,6,0,P|444:28|372:44,1,142.533255435944,6|2,1:2|2:0,2:0:0:0:
468,216,104384,1,2,2:0:0:0:
468,216,104553,2,0,L|472:140,1,71.2500027179719,8|0,2:0|2:0,2:0:0:0:
332,108,104890,2,0,L|328:184,1,71.2500027179719,0|8,1:0|2:0,2:0:0:0:
356,320,105227,2,0,P|388:336|428:336,1,71.2500027179719,0|8,1:0|2:0,2:0:0:0:
300,256,105564,2,0,P|248:244|196:256,1,107.217004076958,0|0,1:0|2:0,2:0:0:0:
192,260,105901,70,0,P|160:272|120:272,1,71.478,10|0,2:0|2:0,2:0:0:0:
58,319,106238,2,0,P|46:291|46:272,1,47.5,10|8,2:0|0:0,2:0:0:0:
176,137,106575,6,0,P|228:149|288:137,1,107.217004076958,6|0,1:2|2:0,2:0:0:0:
280,140,106912,1,2,2:0:0:0:
376,36,107081,1,2,2:0:0:0:
376,36,107249,70,0,L|388:108,1,71.4780027179719,8|0,2:0|2:0,2:0:0:0:
272,211,107586,2,0,L|280:139,1,71.4780027179719,2|8,1:2|2:0,2:0:0:0:
472,184,107923,2,0,P|428:212|372:212,1,107.217004076958,2|0,1:2|2:0,2:0:0:0:
368,208,108260,1,2,1:2:0:0:
20,76,108598,2,0,P|68:56|128:56,1,106.875004076958,10|0,2:0|2:0,2:0:0:0:
128,56,108935,2,0,P|160:68|196:64,1,71.2500027179719,0|8,1:0|2:0,2:0:0:0:
424,36,109272,6,0,P|368:100|372:192,1,178.27225679493,6|0,1:2|2:0,2:0:0:0:
492,256,109777,1,2,2:0:0:0:
492,256,109946,2,0,P|488:220|472:188,1,71.2500027179719,8|0,2:0|2:0,2:0:0:0:
232,336,110283,70,0,L|376:316,1,142.533255435944,2|0,1:2|1:0,2:0:0:0:
492,256,110789,1,8,2:0:0:0:
492,256,110957,2,0,L|508:328,1,71.4780027179719,0|0,1:0|2:0,2:0:0:0:
376,192,111294,2,0,P|372:156|380:116,2,71.2666277179719,8|0|0,2:0|2:0|1:0,2:0:0:0:
373,316,111800,1,8,2:0:0:0:
373,316,111968,6,0,P|296:316|244:272,1,142.533255435944,6|0,1:2|2:0,2:0:0:0:
240,140,112474,1,2,2:0:0:0:
240,140,112642,2,0,P|267:165|276:200,1,71.4780027179719,8|0,2:0|2:0,2:0:0:0:
164,272,112980,2,0,P|172:235|197:209,1,71.2500027179719,2|8,1:2|2:0,2:0:0:0:
314,273,113317,2,0,P|277:284|243:274,1,71.2500027179719,0|8,1:0|2:0,2:0:0:0:
100,196,113654,1,2,1:2:0:0:
96,178,113738,1,0,1:0:0:0:
93,161,113822,1,8,2:3:0:0:
247,69,113991,70,0,L|239:149,1,71.2500027179719,2|0,1:2|2:0,2:0:0:0:
156,104,114328,2,0,L|148:34,1,71.2500027179719,2|0,2:0|0:0,2:0:0:0:
312,12,114665,5,4,1:2:0:0:
312,12,115339,2,0,P|348:32|392:28,1,85.5199473907472,2|2,2:0|2:0,2:0:0:0:
440,160,116350,70,0,L|436:208,2,35.633313858986,8|8|2,2:0|2:3|1:2,2:0:0:0:
304,208,116856,2,0,L|316:252,1,35.625001358986,0|10,2:0|2:0,2:0:0:0:
420,320,117193,5,0,2:0:0:0:
420,320,117362,1,4,1:2:0:0:
256,192,117530,12,0,120058,2:0:0:0:
