osu file format v14

[General]
AudioFilename: audio.mp3
AudioLeadIn: 0
PreviewTime: 71519
Countdown: 0
SampleSet: Soft
StackLeniency: 0.6
Mode: 0
LetterboxInBreaks: 0
WidescreenStoryboard: 1

[Editor]
Bookmarks: 6800,28373,49946,74216,95789,117362
DistanceSpacing: 1.3
BeatDivisor: 16
GridSize: 16
TimelineZoom: 2

[Metadata]
Title:Anata no Risou no Heroine
TitleUnicode:あなたの理想のヒロイン
Artist:Osaka Shizuku (CV: Maeda Kaori)
ArtistUnicode:桜坂しずく (CV: 前田佳織里)
Creator:Lulu-
Version:Normal
Source:ラブライブ!スクールアイドルフェスティバル ALL STARS
Tags:Victorica Miriko Jennifer Jennglebells Japanese Pop J-Pop video game size ver. cut anime 月見草 Tsukimisou 遠藤ナオキ Naoki Endo LoveLive! Love Live! School idol festival sifas オールスターズ スクスタ sukusuta TOKIMEKI Runners 1st Album 虹ヶ咲学園スクールアイドル同好会 Nijigasaki High Club Gakuen Doukoukai Dokokai ニジガク NijiGaku
BeatmapID:2492932
BeatmapSetID:1151644

[Difficulty]
HPDrainRate:3
CircleSize:3
OverallDifficulty:4
ApproachRate:5
SliderMultiplier:1.3
SliderTickRate:1

[Events]
//Background and Video events
Video,0,"Anata no Risou no Heroine.avi"
0,0,"shizucute.jpg",0,0
//Break Periods
//Storyboard Layer 0 (Background)
//Storyboard Layer 1 (Fail)
//Storyboard Layer 2 (Pass)
//Storyboard Layer 3 (Foreground)
//Storyboard Layer 4 (Overlay)
//Storyboard Sound Samples

[TimingPoints]
1407,674.157303370787,4,2,1,60,1,0
6800,-100,4,2,2,50,0,0
26687,-100,4,2,1,50,0,0
27698,-100,4,2,1,50,0,0
28373,-100,4,2,1,60,0,0
49946,-100,4,2,1,80,0,1
50957,-100,4,2,1,60,0,0
52642,-100,4,2,1,80,0,1
53654,-100,4,2,1,60,0,0
55339,-100,4,2,1,80,0,0
56013,-100,4,2,1,60,0,0
59384,-100,4,2,1,70,0,0
60732,-100,4,2,1,80,0,1
61744,-100,4,2,1,60,0,0
63429,-100,4,2,1,80,0,1
64440,-100,4,2,1,60,0,0
70508,-100,4,2,1,70,0,0
70845,-100,4,2,1,80,0,0
71182,-100,4,2,1,90,0,0
71519,-100,4,2,1,60,0,1
73204,-100,4,2,1,60,0,0
74215,-83.3333333333333,4,2,12,80,0,1
75901,-83.3333333333333,4,2,11,80,0,1
76238,-83.3333333333333,4,2,10,80,0,1
76575,-83.3333333333333,4,2,11,80,0,1
76744,-83.3333333333333,4,2,10,80,0,1
77249,-83.3333333333333,4,2,13,80,0,1
78260,-83.3333333333333,4,2,1,80,0,1
78598,-83.3333333333333,4,2,13,80,0,1
79272,-83.3333333333333,4,2,10,80,0,1
79441,-83.3333333333333,4,2,11,80,0,1
79609,-83.3333333333333,4,2,12,80,0,1
81295,-83.3333333333333,4,2,11,80,0,1
81631,-83.3333333333333,4,2,10,80,0,1
81968,-83.3333333333333,4,2,13,80,0,1
82642,-83.3333333333333,4,2,14,80,0,1
82811,-83.3333333333333,4,2,10,80,0,1
84328,-83.3333333333333,4,2,15,80,0,1
84665,-83.3333333333333,4,2,16,80,0,1
85002,-83.3333333333333,4,2,14,80,0,1
85339,-83.3333333333333,4,2,16,80,0,1
85508,-83.3333333333333,4,2,14,80,0,1
86013,-83.3333333333333,4,2,17,80,0,1
86350,-83.3333333333333,4,2,14,80,0,1
86687,-83.3333333333333,4,2,16,80,0,1
86856,-83.3333333333333,4,2,14,80,0,1
87362,-83.3333333333333,4,2,13,80,0,1
87699,-83.3333333333333,4,2,10,80,0,1
88205,-83.3333333333333,4,2,12,80,0,1
88710,-83.3333333333333,4,2,10,80,0,1
90058,-83.3333333333333,4,2,11,80,0,1
90395,-83.3333333333333,4,2,10,80,0,1
90732,-83.3333333333333,4,2,13,80,0,1
91407,-83.3333333333333,4,2,15,80,0,1
91744,-83.3333333333333,4,2,10,80,0,1
92081,-83.3333333333333,4,2,13,80,0,1
92755,-83.3333333333333,4,2,15,80,0,1
93092,-83.3333333333333,4,2,10,80,0,1
93429,-83.3333333333333,4,2,13,80,0,1
93766,-83.3333333333333,4,2,10,80,0,1
94103,-83.3333333333333,4,2,11,80,0,1
95451,-83.3333333333333,4,2,10,80,0,1
95620,-83.3333333333333,4,2,11,80,0,1
95789,-83.3333333333333,4,2,12,80,0,1
97474,-83.3333333333333,4,2,11,80,0,1
97811,-83.3333333333333,4,2,10,80,0,1
98148,-83.3333333333333,4,2,11,80,0,1
98485,-83.3333333333333,4,2,10,80,0,1
98822,-83.3333333333333,4,2,13,80,0,1
100845,-83.3333333333333,4,2,10,80,0,1
101014,-83.3333333333333,4,2,11,80,0,1
101182,-83.3333333333333,4,2,12,80,0,1
102868,-83.3333333333333,4,2,11,80,0,1
103204,-83.3333333333333,4,2,10,80,0,1
103541,-83.3333333333333,4,2,13,80,0,1
104215,-83.3333333333333,4,2,14,80,0,1
104384,-83.3333333333333,4,2,10,80,0,1
106238,-83.3333333333333,4,2,11,80,0,1
106575,-83.3333333333333,4,2,10,80,0,1
106912,-83.3333333333333,4,2,13,80,0,1
107586,-83.3333333333333,4,2,15,80,0,1
107923,-83.3333333333333,4,2,10,80,0,1
108260,-83.3333333333333,4,2,13,80,0,1
109272,-83.3333333333333,4,2,10,80,0,1
109778,-83.3333333333333,4,2,12,80,0,1
110283,-83.3333333333333,4,2,10,80,0,1
111968,-83.3333333333333,4,2,11,80,0,1
112474,-83.3333333333333,4,2,12,80,0,1
112980,-83.3333333333333,4,2,18,80,0,1
113654,-83.3333333333333,4,2,11,80,0,1
113991,-83.3333333333333,4,2,10,80,0,1
114328,-83.3333333333333,4,2,11,80,0,1
115339,-83.3333333333333,4,2,10,80,0,1
116013,-83.3333333333333,4,2,13,80,0,1
116687,-83.3333333333333,4,2,14,80,0,1
117362,-100,4,2,2,80,0,0
120058,-100,4,2,2,5,0,0

[Colours]
Combo1 : 255,149,202
Combo2 : 0,128,255
Combo3 : 128,255,255
Combo4 : 255,255,21
Combo5 : 255,203,64
Combo6 : 255,128,192

[HitObjects]
0,192,2418,5,8,2:0:0:0:
48,353,3092,1,8,2:3:0:0:
123,315,3429,2,0,P|168:299|214:311,1,97.6191666666666,2|2,1:2|2:0,2:0:0:0:
244,341,4103,6,0,B|345:361|321:272|422:293,1,195.0455,6|2,1:2|2:0,2:0:0:0:
482,233,5451,2,0,P|514:142|490:50,1,195.0455,4|2,1:2|2:0,2:0:0:0:
419,1,6800,69,4,1:2:0:0:
419,1,7811,1,2,1:2:0:0:
359,60,8148,2,0,L|294:65,2,65.0151666666667,2|2|8,1:2|2:0|2:0,2:0:0:0:
418,119,9159,1,2,2:0:0:0:
477,59,9496,2,0,P|510:110|486:168,1,130.030333333333,0|0,1:2|2:0,2:0:0:0:
425,228,10508,1,2,1:2:0:0:
356,277,10845,2,0,L|291:282,1,65.0151666666667,2|2,1:2|2:0,2:0:0:0:
222,330,11519,2,0,L|157:335,1,65.0151666666667,10|2,2:0|2:0,2:0:0:0:
88,383,12193,5,0,1:2:0:0:
88,383,13204,1,2,1:2:0:0:
60,303,13541,2,0,P|28:300|-1:314,2,65.0151666666667,2|2|10,1:2|2:0|2:0,2:0:0:0:
143,318,14553,2,0,L|141:285,1,32.5,2|2,2:0|2:0,2:0:0:0:
170,255,14890,2,0,L|177:125,1,130.030333333333,0|0,1:2|2:0,2:0:0:0:
236,65,15901,1,2,1:2:0:0:
153,43,16238,2,0,P|120:40|92:55,1,65.0151666666667,2|2,1:2|2:0,2:0:0:0:
92,139,16912,2,0,P|74:165|71:197,1,65.0151666666667,10|2,2:0|2:0,2:0:0:0:
144,239,17586,69,0,1:2:0:0:
144,239,18598,1,2,1:2:0:0:
203,298,18935,2,0,L|280:303,1,65.0151666666667,2|2,1:2|2:0,2:0:0:0:
327,242,19609,2,0,L|332:165,1,65.0151666666667,10|2,2:0|2:0,2:0:0:0:
271,117,20283,2,0,L|194:122,2,65.0151666666667,2|2|2,1:2|1:2|2:0,2:0:0:0:
330,57,21294,2,0,B|397:43|381:102|448:88,1,130.030333333333,2|0,1:2|1:0,2:0:0:0:
509,147,22305,2,0,P|513:178|502:208,1,65.0151666666667,10|2,2:0|2:0,2:0:0:0:
441,268,22980,5,2,1:2:0:0:
282,325,23654,1,2,2:0:0:0:
222,384,23991,2,0,P|169:350|112:374,1,130.030333333333,2|2,1:2|2:0,2:0:0:0:
52,314,25002,2,0,P|40:284|44:252,1,65.0151666666667,10|2,2:0|2:0,2:0:0:0:
105,192,25676,2,0,P|17:201|6:113,2,195.0455,2|6|8,1:2|1:2|2:0,2:0:0:0:
224,72,28373,69,4,1:2:0:0:
224,72,29384,1,2,1:2:0:0:
283,12,29721,2,0,L|348:17,1,65.0151666666667,2|2,1:2|2:0,2:0:0:0:
385,92,30395,2,0,L|450:97,1,65.0151666666667,10|2,2:0|2:0,2:0:0:0:
483,131,30901,1,2,2:0:0:0:
483,131,31069,2,0,P|507:188|473:240,1,130.030333333333,0|0,1:2|2:0,2:0:0:0:
399,197,32081,1,2,1:2:0:0:
325,153,32418,2,0,P|313:183|317:215,1,65.0151666666667,2|2,1:2|2:0,2:0:0:0:
373,277,33092,2,0,P|385:307|381:339,1,65.0151666666667,10|2,2:0|2:0,2:0:0:0:
309,383,33766,5,0,1:2:0:0:
309,383,34777,1,2,1:2:0:0:
249,323,35114,2,0,L|184:328,1,65.0151666666667,2|2,1:2|2:0,2:0:0:0:
124,268,35789,2,0,L|59:273,1,65.0151666666667,10|2,2:0|2:0,2:0:0:0:
21,281,36294,1,2,2:0:0:0:
21,281,36463,2,0,P|-4:223|29:170,1,130.030333333333,0|0,1:2|2:0,2:0:0:0:
93,111,37474,1,2,1:2:0:0:
152,51,37811,2,0,P|185:48|213:63,1,65.0151666666667,2|2,1:2|2:0,2:0:0:0:
297,61,38485,2,0,P|316:88|318:120,1,65.0151666666667,10|2,2:0|2:0,2:0:0:0:
357,193,39159,69,4,1:2:0:0:
297,252,39496,1,2,2:0:0:0:
356,311,39833,2,0,L|420:316,2,65.0151666666667,2|2|2,2:0|1:2|1:2,2:0:0:0:
297,252,40845,1,2,2:0:0:0:
237,192,41182,2,0,L|173:197,1,65.0151666666667,10|2,2:0|2:0,2:0:0:0:
112,256,41856,2,0,P|81:252|51:263,2,65.0151666666667,2|2|2,1:2|1:2|2:0,2:0:0:0:
171,315,42867,2,0,B|238:329|222:270|289:284,1,130.030333333333,6|0,1:2|1:0,2:0:0:0:
372,303,43878,2,0,P|376:272|365:242,1,65.0151666666667,10|2,2:0|2:0,2:0:0:0:
304,181,44553,5,2,1:2:0:0:
415,49,45227,2,0,L|479:54,1,65.0151666666667,2|0,2:0|1:0,2:0:0:0:
512,132,45901,2,0,P|457:162|401:134,1,130.030333333333,2|8,1:2|2:0,2:0:0:0:
344,199,46912,1,2,2:0:0:0:
282,142,47249,2,0,B|214:130|232:188|165:177,1,130.030333333333,0|0,1:0|2:0,2:0:0:0:
151,92,48260,1,0,1:0:0:0:
104,16,48598,2,0,P|74:9|43:17,1,65.0151666666667,4|8,1:2|2:0,2:0:0:0:
0,96,49272,2,0,P|8:125|31:148,1,65.0151666666667,8|2,2:0|1:2,2:0:0:0:
107,188,49946,5,6,1:2:0:0:
166,128,50283,2,0,L|230:123,1,65.0151666666667,6|10,1:2|2:0,2:0:0:0:
290,63,50957,2,0,P|241:180|280:301,1,260.060666666667,6|2,1:2|1:2,2:0:0:0:
364,301,52642,5,6,1:2:0:0:
321,373,52980,2,0,P|290:384|258:380,1,65.0151666666667,6|10,1:2|2:0,2:0:0:0:
199,319,53654,2,0,P|206:229|121:198,1,195,6|10,1:2|2:0,2:0:0:0:
56,252,55002,1,2,1:2:0:0:
116,312,55339,37,6,1:2:0:0:
235,192,56013,2,0,L|364:202,1,130.030333333333,10|2,2:0|1:2,2:0:0:0:
424,261,57024,1,2,2:0:0:0:
490,208,57362,2,0,P|498:177|492:145,1,65.0151666666667,10|2,2:0|2:0,2:0:0:0:
432,85,58036,2,0,P|413:41|434:-2,2,97.5227500000001,2|2|2,1:2|2:0|1:2,2:0:0:0:
372,144,59384,2,0,P|311:150|274:100,1,130.030333333333,6|10,1:2|2:0,2:0:0:0:
214,39,60395,1,10,2:0:0:0:
138,0,60732,21,6,1:2:0:0:
89,68,61069,2,0,L|100:131,1,65.0151666666667,6|10,1:2|2:0,2:0:0:0:
104,216,61744,2,0,P|2:146|17:22,1,260.060666666667,6|2,1:2|1:2,2:0:0:0:
89,68,63429,5,6,1:2:0:0:
161,24,63766,2,0,P|192:16|224:22,1,65.0151666666667,6|10,1:2|0:0,2:0:0:0:
286,79,64440,1,6,1:2:0:0:
345,19,64777,2,0,P|375:32|392:59,1,65.0151666666667,2|8,2:0|2:0,2:0:0:0:
473,80,65451,2,0,P|475:111|462:140,1,65.0151666666667,12|2,2:0|1:2,2:0:0:0:
485,221,66126,37,6,1:2:0:0:
485,221,67137,1,2,2:0:0:0:
425,280,67474,2,0,P|394:288|362:282,1,65.0151666666667,2|2,1:2|1:2,2:0:0:0:
302,222,68148,2,0,P|271:214|239:220,1,65.0151666666667,10|2,2:0|1:2,2:0:0:0:
179,279,68822,2,0,P|183:231|152:196,2,97.5227500000001,14|2|2,2:0|2:0|1:2,2:0:0:0:
95,262,70171,1,8,1:2:0:0:
67,180,70508,1,8,1:2:0:0:
124,114,70845,1,8,1:2:0:0:
209,130,71182,1,8,1:2:0:0:
237,211,71519,1,2,2:0:0:0:
256,192,71687,12,4,73541,1:2:0:0:
160,224,74215,22,0,P|196:236|232:223,1,78.018197619629,6|2,1:2|2:0,2:0:0:0:
304,151,74890,2,0,P|340:138|376:150,1,78.018197619629,10|2,2:0|1:2,2:0:0:0:
412,186,75395,2,0,L|390:301,1,117.142996429443,10|2,2:0|1:2,2:0:0:0:
299,348,76238,2,0,L|285:271,1,78.018197619629,10|2,2:0|1:2,2:0:0:0:
247,237,76744,1,10,2:0:0:0:
213,199,76912,6,0,L|226:122,1,78.018197619629,4|2,1:2|1:2,2:0:0:0:
263,27,77586,2,0,B|302:36|319:74|319:74|327:33|366:16,1,156.036395239258,8|2,2:0|1:2,2:0:0:0:
469,17,78598,1,0,1:2:0:0:
411,102,78935,1,8,2:0:0:0:
412,203,79272,2,0,P|393:205|376:196,1,38.9999988098145,2|10,2:0|2:0,2:0:0:0:
330,218,79609,70,0,P|300:193|293:156,1,78.018197619629,6|2,1:2|2:0,2:0:0:0:
257,119,80114,2,0,L|180:132,1,78.018197619629,2|2,2:0|2:0,2:0:0:0:
84,171,80789,2,0,P|91:114|53:72,1,116.999996429443,10|2,2:0|1:2,2:0:0:0:
129,5,81631,2,0,L|206:18,1,78.018197619629,10|2,2:0|2:0,2:0:0:0:
260,104,82305,6,0,P|294:87|331:96,1,78.018197619629,6|2,1:2|2:0,2:0:0:0:
367,60,82811,1,2,2:0:0:0:
417,60,82980,2,0,P|443:88|446:125,1,78.018197619629,8|0,2:0|1:0,2:0:0:0:
507,195,83654,2,0,P|488:228|453:242,1,78.018197619629,0|0,1:0|1:0,2:0:0:0:
407,322,84328,1,10,2:0:0:0:
328,276,84665,1,2,1:2:0:0:
256,347,85002,70,0,P|221:330|184:339,1,78.018197619629,6|2,1:2|2:0,2:0:0:0:
148,375,85508,2,0,L|109:368,1,38.9999988098145,2|8,2:0|2:0,2:0:0:0:
37,296,86013,1,2,1:2:0:0:
61,197,86350,2,0,P|95:180|132:189,1,78.018197619629,2|2,1:2|1:2,2:0:0:0:
169,225,86856,2,0,L|207:218,1,38.9999988098145,2|8,2:0|2:0,2:0:0:0:
279,146,87362,1,2,2:0:0:0:
349,216,87699,6,0,P|406:223|448:185,1,116.999996429443,6|2,1:2|2:0,2:0:0:0:
448,134,88373,1,8,2:0:0:0:
355,92,88710,2,0,P|279:90|238:27,1,156.036395239258,2|0,1:2|1:0,2:0:0:0:
166,99,89721,1,10,2:0:0:0:
213,188,90058,1,2,1:2:0:0:
166,277,90395,70,0,L|243:290,1,78.018197619629,6|2,1:2|2:0,2:0:0:0:
314,218,91069,1,8,2:0:0:0:
413,235,91407,1,2,1:2:0:0:
463,143,91744,2,0,P|442:111|405:100,1,78.018197619629,2|2,1:2|1:2,2:0:0:0:
368,139,92249,2,0,P|317:162|314:217,1,117.142996429443,2|2,2:0|1:2,2:0:0:0:
381,299,93092,6,0,P|409:273|413:235,1,78.018197619629,6|2,1:2|2:0,2:0:0:0:
368,139,93766,2,0,P|369:99|344:70,1,78.018197619629,10|2,2:0|1:2,2:0:0:0:
290,80,94272,2,0,P|262:32|206:34,1,116.999996429443,2|0,2:0|1:0,2:0:0:0:
167,72,94946,1,8,2:0:0:0:
167,72,95114,1,8,2:0:0:0:
94,153,95451,2,0,L|101:191,1,39.1247988098145,2|2,1:2|1:2,2:0:0:0:
111,245,95789,70,0,P|148:234|182:250,1,78.018197619629,6|2,1:2|2:0,2:0:0:0:
220,288,96294,2,0,L|233:211,1,78.018197619629,2|2,2:0|2:0,2:0:0:0:
342,211,96968,2,0,L|320:326,1,117.142996429443,10|2,2:0|1:2,2:0:0:0:
404,383,97811,2,0,P|440:373|462:342,1,78.018197619629,10|2,2:0|2:0,2:0:0:0:
460,240,98485,6,0,P|451:202|468:168,1,78.018197619629,6|2,1:2|2:0,2:0:0:0:
495,120,98991,1,2,2:0:0:0:
512,68,99159,2,0,P|456:15|383:30,1,156.036395239258,8|0,2:0|1:0,2:0:0:0:
307,106,100171,1,0,1:0:0:0:
277,210,100508,1,8,2:0:0:0:
324,308,100845,2,0,L|316:346,1,38.9999988098145,2|10,1:2|2:0,2:0:0:0:
277,384,101182,70,0,L|200:371,1,78.018197619629,6|2,1:2|2:0,2:0:0:0:
161,332,101687,2,0,P|150:295|166:261,1,78.018197619629,2|2,2:0|2:0,2:0:0:0:
243,183,102362,2,0,L|264:67,1,116.999996429443,10|2,2:0|1:2,2:0:0:0:
164,22,103204,2,0,L|151:99,1,78.018197619629,10|2,2:0|1:2,2:0:0:0:
101,198,103878,6,0,P|66:214|29:203,1,78.018197619629,6|2,1:2|2:0,2:0:0:0:
0,164,104384,1,2,2:0:0:0:
0,109,104553,2,0,P|37:98|71:114,1,78.018197619629,8|0,2:0|1:0,2:0:0:0:
148,36,105227,2,0,P|176:62|179:99,1,78.018197619629,0|0,1:0|1:0,2:0:0:0:
284,126,105901,1,10,2:0:0:0:
274,232,106238,1,10,2:0:0:0:
194,306,106575,70,0,P|183:343|199:377,1,78.018197619629,6|2,1:2|2:0,2:0:0:0:
249,383,107081,2,0,L|288:377,1,38.9999988098145,2|8,2:0|2:0,2:0:0:0:
373,322,107586,1,2,1:2:0:0:
402,225,107923,2,0,P|365:214|331:230,1,78.018197619629,2|2,1:2|1:2,2:0:0:0:
258,158,108598,2,0,P|221:169|187:153,1,78.018197619629,10|0,2:0|1:0,2:0:0:0:
186,51,109272,6,0,P|231:16|287:28,1,116.999996429443,6|2,1:2|2:0,2:0:0:0:
312,72,109946,1,8,2:0:0:0:
379,147,110283,2,0,P|446:180|512:143,1,156.036395239258,2|0,1:2|1:0,2:0:0:0:
489,45,111294,2,0,L|412:58,1,78.018197619629,8|0,2:0|1:0,2:0:0:0:
312,72,111968,70,0,P|277:88|240:77,1,78.018197619629,6|0,1:2|2:0,2:0:0:0:
194,55,112474,2,0,P|165:80|161:119,1,78.018197619629,2|0,2:0|2:0,2:0:0:0:
133,161,112980,2,0,P|163:183|172:220,1,78.018197619629,2|0,1:2|1:0,2:0:0:0:
147,318,113654,1,2,1:2:0:0:
51,346,113991,1,2,1:2:0:0:
75,249,114328,1,2,2:0:0:0:
172,221,114665,6,0,P|229:214|271:252,1,117.142996429443,4|0,1:2|2:0,2:0:0:0:
306,287,115339,2,0,P|343:296|377:279,1,78.018197619629,2|0,2:0|2:0,2:0:0:0:
394,179,116013,2,0,P|420:150|422:112,1,78.018197619629,2|8,2:0|2:0,2:0:0:0:
329,108,116687,1,2,1:2:0:0:
243,144,117024,1,10,2:0:0:0:
196,66,117362,6,0,B|158:44|103:74|127:163|202:207|215:140|280:202|280:202|304:116|350:167|378:96|354:7|306:4|284:42,1,520,4|0,1:2|2:0,2:0:0:0:
