osu file format v14

[General]
AudioFilename: audio.mp3
AudioLeadIn: 0
PreviewTime: 123166
Countdown: 0
SampleSet: Soft
StackLeniency: 0.7
Mode: 3
LetterboxInBreaks: 0
SpecialStyle: 0
WidescreenStoryboard: 0

[Editor]
Bookmarks: 24562,57019,72757,88494,90462,106199,121937,123904,139642,155380,171117,173084,188822,204560,208494
DistanceSpacing: 1
BeatDivisor: 16
GridSize: 8
TimelineZoom: 1.7

[Metadata]
Title:Appeal*Love
TitleUnicode:アピール☆ラブ
Artist:Orikasa Naomi
ArtistUnicode:折笠奈緒美
Creator:SurfChu85
Version:Master Rank
Source:ポケモン オメガルビー・アルファサファイア
Tags:pocket monsters ポケットモンスター Nintendo 3DS Pokémon Omega Ruby & Alpha Sapphire Super Music Complete スーパーミュージックコンプリート ルチア luchia lisia theme special arrangement hitomi satou 佐藤仁美
BeatmapID:1733435
BeatmapSetID:827218

[Difficulty]
HPDrainRate:8
CircleSize:7
OverallDifficulty:7
ApproachRate:5
SliderMultiplier:1.4
SliderTickRate:1

[Events]
//Background and Video events
0,0,"bg.png",0,0
//Break Periods
//Storyboard Layer 0 (Background)
//Storyboard Layer 1 (Fail)
//Storyboard Layer 2 (Pass)
//Storyboard Layer 3 (Foreground)
//Storyboard Layer 4 (Overlay)
//Storyboard Sound Samples

[TimingPoints]
608,491.803278688525,4,2,0,5,1,0
4789,491.803278688525,4,2,0,5,1,0
18436,491.803278688525,4,2,0,5,1,0
20526,491.803278688525,4,2,0,5,1,0
22370,491.803278688525,4,2,0,5,1,0
24562,491.803278688525,4,2,0,5,1,0
25544,491.803278688525,4,2,0,5,1,0
123904,-100,4,2,0,5,0,1
139642,-100,4,2,0,5,0,0
173084,-100,4,2,0,5,0,1
188822,-100,4,2,0,5,0,0
189314,-100,4,2,0,5,0,1
204560,-100,4,2,0,5,0,0

[HitObjects]
475,192,608,128,0,1714:0:0:0:0:
256,192,608,1,0,0:0:0:0:
36,192,1468,128,0,2698:0:0:0:0:
256,192,1468,1,0,0:0:0:0:
256,192,2452,1,0,0:0:0:0:
475,192,2452,128,0,3558:0:0:0:0:
36,192,3312,128,0,4050:0:0:0:0:
256,192,3312,1,0,0:0:0:0:
256,192,4173,128,0,4419:0:0:0:0:
329,192,4419,128,0,4542:0:0:0:0:
402,192,4542,128,0,4788:0:0:0:0:
475,192,4789,128,0,18067:0:0:0:0:
329,192,6387,128,0,6633:0:0:0:0:
256,192,6633,128,0,6909:0:0:0:0:
402,192,6909,128,0,7217:0:0:0:0:
329,192,7217,128,0,7739:0:0:0:0:
256,192,7739,128,0,7985:0:0:0:0:
182,192,7985,128,0,8231:0:0:0:0:
329,192,8293,128,0,8416:0:0:0:0:
256,192,8416,128,0,8692:0:0:0:0:
182,192,8692,128,0,8846:0:0:0:0:
109,192,9092,128,0,9338:0:0:0:0:
182,192,9338,128,0,10168:0:0:0:0:
256,192,10168,128,0,10321:0:0:0:0:
109,192,10321,128,0,10721:0:0:0:0:
329,192,10721,128,0,10998:0:0:0:0:
256,192,10998,128,0,11182:0:0:0:0:
182,192,11182,128,0,11551:0:0:0:0:
36,192,11428,128,0,11551:0:0:0:0:
109,192,11551,128,0,11889:0:0:0:0:
182,192,11889,128,0,12135:0:0:0:0:
256,192,12135,128,0,12381:0:0:0:0:
329,192,12381,128,0,12504:0:0:0:0:
402,192,12504,128,0,12780:0:0:0:0:
402,192,12934,128,0,13149:0:0:0:0:
329,192,13149,128,0,13395:0:0:0:0:
182,192,13149,128,0,13641:0:0:0:0:
402,192,13395,128,0,13518:0:0:0:0:
109,192,13641,128,0,14133:0:0:0:0:
36,192,13887,128,0,14625:0:0:0:0:
402,192,14286,128,0,15116:0:0:0:0:
109,192,14625,128,0,15362:0:0:0:0:
329,192,15116,128,0,15362:0:0:0:0:
256,192,15362,128,0,15608:0:0:0:0:
182,192,15362,128,0,15854:0:0:0:0:
329,192,15608,128,0,15854:0:0:0:0:
402,192,15854,128,0,16223:0:0:0:0:
256,192,15854,128,0,16346:0:0:0:0:
329,192,16223,128,0,16469:0:0:0:0:
182,192,16346,128,0,16838:0:0:0:0:
36,192,16469,128,0,16715:0:0:0:0:
256,192,16715,128,0,16961:0:0:0:0:
109,192,16838,128,0,17329:0:0:0:0:
329,192,16961,128,0,17084:0:0:0:0:
182,192,17084,128,0,17452:0:0:0:0:
36,192,17329,128,0,18067:0:0:0:0:
256,192,17452,128,0,18067:0:0:0:0:
402,192,18067,1,0,0:0:0:0:
329,192,18129,1,0,0:0:0:0:
256,192,18190,1,0,0:0:0:0:
182,192,18252,1,0,0:0:0:0:
109,192,18313,1,0,0:0:0:0:
256,192,18436,128,0,18682:0:0:0:0:
36,192,18436,128,0,18559:0:0:0:0:
109,192,18682,128,0,18805:0:0:0:0:
329,192,18682,128,0,18928:0:0:0:0:
402,192,19051,128,0,19297:0:0:0:0:
36,192,19051,128,0,19174:0:0:0:0:
329,192,19419,128,0,19726:0:0:0:0:
256,192,19726,128,0,19849:0:0:0:0:
402,192,19849,128,0,20034:0:0:0:0:
475,192,20157,128,0,20280:0:0:0:0:
36,192,20157,128,0,21264:0:0:0:0:
109,192,20526,1,0,0:0:0:0:
256,192,20526,128,0,20772:0:0:0:0:
182,192,20649,1,0,0:0:0:0:
109,192,20772,1,0,0:0:0:0:
329,192,20772,128,0,21018:0:0:0:0:
182,192,20895,1,0,0:0:0:0:
256,192,21018,1,0,0:0:0:0:
402,192,21018,128,0,21264:0:0:0:0:
109,192,21141,1,0,0:0:0:0:
182,192,21264,1,0,0:0:0:0:
475,192,21264,128,0,21387:0:0:0:0:
402,192,21601,128,0,21909:0:0:0:0:
329,192,21909,128,0,22185:0:0:0:0:
256,192,22185,128,0,22370:0:0:0:0:
329,192,22370,128,0,24091:0:0:0:0:
36,192,22370,128,0,24562:0:0:0:0:
475,192,24562,128,0,24807:0:0:0:0:
402,192,24684,128,0,24930:0:0:0:0:
329,192,24807,128,0,25053:0:0:0:0:
256,192,24930,128,0,25176:0:0:0:0:
182,192,25053,128,0,25299:0:0:0:0:
109,192,25176,128,0,25422:0:0:0:0:
36,192,25299,128,0,25544:0:0:0:0:
475,192,25422,128,0,25544:0:0:0:0:
402,192,25544,1,0,0:0:0:0:
256,192,25544,1,0,0:0:0:0:
182,192,25544,128,0,25789:0:0:0:0:
109,192,25666,128,0,25912:0:0:0:0:
329,192,25666,128,0,25789:0:0:0:0:
36,192,25789,128,0,26035:0:0:0:0:
402,192,26035,1,0,0:0:0:0:
475,192,26035,1,0,0:0:0:0:
256,192,26035,1,0,0:0:0:0:
182,192,26158,1,0,0:0:0:0:
109,192,26281,1,0,0:0:0:0:
475,192,26281,128,0,26404:0:0:0:0:
402,192,26527,128,0,26773:0:0:0:0:
256,192,26527,128,0,26773:0:0:0:0:
36,192,26527,1,0,0:0:0:0:
182,192,26650,128,0,26896:0:0:0:0:
109,192,26773,128,0,27019:0:0:0:0:
182,192,27019,1,0,0:0:0:0:
329,192,27019,1,0,0:0:0:0:
402,192,27019,1,0,0:0:0:0:
109,192,27142,1,0,0:0:0:0:
36,192,27265,1,0,0:0:0:0:
36,192,27511,128,0,28003:0:0:0:0:
182,192,27511,128,0,28003:0:0:0:0:
256,192,27511,1,0,0:0:0:0:
475,192,27511,128,0,27757:0:0:0:0:
402,192,27634,128,0,27880:0:0:0:0:
329,192,27757,128,0,28003:0:0:0:0:
109,192,28003,128,0,28494:0:0:0:0:
475,192,28003,1,0,0:0:0:0:
256,192,28003,128,0,28494:0:0:0:0:
402,192,28125,1,0,0:0:0:0:
329,192,28248,1,0,0:0:0:0:
182,192,28494,128,0,28986:0:0:0:0:
329,192,28494,128,0,28986:0:0:0:0:
36,192,28494,1,0,0:0:0:0:
475,192,28494,128,0,28740:0:0:0:0:
402,192,28617,128,0,28863:0:0:0:0:
109,192,28740,128,0,28986:0:0:0:0:
256,192,28986,128,0,29478:0:0:0:0:
402,192,28986,128,0,29478:0:0:0:0:
475,192,28986,1,0,0:0:0:0:
109,192,29109,1,0,0:0:0:0:
36,192,29232,1,0,0:0:0:0:
182,192,29478,128,0,29724:0:0:0:0:
475,192,29478,128,0,29601:0:0:0:0:
329,192,29478,128,0,29601:0:0:0:0:
109,192,29601,128,0,29847:0:0:0:0:
36,192,29724,128,0,29970:0:0:0:0:
329,192,29847,128,0,29970:0:0:0:0:
475,192,29847,128,0,29970:0:0:0:0:
182,192,29970,1,0,0:0:0:0:
256,192,29970,1,0,0:0:0:0:
109,192,30093,1,0,0:0:0:0:
36,192,30216,1,0,0:0:0:0:
402,192,30216,128,0,30462:0:0:0:0:
329,192,30462,128,0,30707:0:0:0:0:
109,192,30462,1,0,0:0:0:0:
475,192,30462,1,0,0:0:0:0:
256,192,30584,128,0,30830:0:0:0:0:
36,192,30707,128,0,30830:0:0:0:0:
109,192,30707,128,0,30830:0:0:0:0:
182,192,30707,128,0,30953:0:0:0:0:
475,192,30953,128,0,33412:0:0:0:0:
402,192,30953,1,0,0:0:0:0:
36,192,31076,128,0,31199:0:0:0:0:
109,192,31076,128,0,31445:0:0:0:0:
329,192,31076,1,0,0:0:0:0:
256,192,31199,1,0,0:0:0:0:
402,192,31445,128,0,33412:0:0:0:0:
36,192,31445,128,0,31937:0:0:0:0:
329,192,31445,128,0,31691:0:0:0:0:
256,192,31568,128,0,31814:0:0:0:0:
182,192,31691,128,0,31937:0:0:0:0:
109,192,31937,128,0,32429:0:0:0:0:
329,192,31937,128,0,32060:0:0:0:0:
256,192,31937,1,0,0:0:0:0:
329,192,32306,128,0,32429:0:0:0:0:
182,192,32429,128,0,32921:0:0:0:0:
36,192,32429,1,0,0:0:0:0:
256,192,32429,128,0,32675:0:0:0:0:
109,192,32552,128,0,32798:0:0:0:0:
36,192,32675,128,0,32921:0:0:0:0:
109,192,32921,128,0,33044:0:0:0:0:
329,192,32921,1,0,0:0:0:0:
256,192,32921,1,0,0:0:0:0:
182,192,33044,128,0,33166:0:0:0:0:
256,192,33166,128,0,33289:0:0:0:0:
329,192,33289,128,0,33412:0:0:0:0:
36,192,33412,128,0,33535:0:0:0:0:
109,192,33412,128,0,33535:0:0:0:0:
182,192,33412,1,0,0:0:0:0:
109,192,33658,128,0,33781:0:0:0:0:
182,192,33658,128,0,33781:0:0:0:0:
256,192,33658,1,0,0:0:0:0:
475,192,33658,128,0,33781:0:0:0:0:
36,192,33904,1,0,0:0:0:0:
329,192,33904,1,0,0:0:0:0:
402,192,33904,128,0,34027:0:0:0:0:
182,192,34027,128,0,34150:0:0:0:0:
256,192,34027,128,0,34150:0:0:0:0:
109,192,34273,1,0,0:0:0:0:
329,192,34273,1,0,0:0:0:0:
36,192,34396,1,0,0:0:0:0:
475,192,34396,1,0,0:0:0:0:
256,192,34396,1,0,0:0:0:0:
109,192,34519,1,0,0:0:0:0:
329,192,34519,1,0,0:0:0:0:
182,192,34642,1,0,0:0:0:0:
402,192,34642,1,0,0:0:0:0:
256,192,34765,1,0,0:0:0:0:
475,192,34765,1,0,0:0:0:0:
182,192,34888,1,0,0:0:0:0:
36,192,34888,1,0,0:0:0:0:
402,192,34888,1,0,0:0:0:0:
329,192,35011,128,0,35380:0:0:0:0:
109,192,35011,1,0,0:0:0:0:
36,192,35134,1,0,0:0:0:0:
402,192,35257,1,0,0:0:0:0:
109,192,35380,128,0,35871:0:0:0:0:
36,192,35380,1,0,0:0:0:0:
256,192,35380,128,0,35871:0:0:0:0:
475,192,35380,1,0,0:0:0:0:
402,192,35503,1,0,0:0:0:0:
329,192,35625,1,0,0:0:0:0:
182,192,35748,1,0,0:0:0:0:
329,192,35871,128,0,36363:0:0:0:0:
475,192,35871,128,0,36363:0:0:0:0:
402,192,35871,1,0,0:0:0:0:
36,192,35871,1,0,0:0:0:0:
109,192,35994,1,0,0:0:0:0:
182,192,36117,1,0,0:0:0:0:
109,192,36240,1,0,0:0:0:0:
36,192,36240,128,0,36609:0:0:0:0:
402,192,36363,1,0,0:0:0:0:
256,192,36363,1,0,0:0:0:0:
329,192,36486,1,0,0:0:0:0:
182,192,36609,128,0,36732:0:0:0:0:
256,192,36609,1,0,0:0:0:0:
109,192,36732,128,0,36855:0:0:0:0:
402,192,36855,1,0,0:0:0:0:
475,192,36855,1,0,0:0:0:0:
329,192,36978,1,0,0:0:0:0:
36,192,37101,1,0,0:0:0:0:
256,192,37101,1,0,0:0:0:0:
109,192,37224,1,0,0:0:0:0:
475,192,37224,1,0,0:0:0:0:
329,192,37347,128,0,37839:0:0:0:0:
402,192,37347,1,0,0:0:0:0:
182,192,37347,128,0,37839:0:0:0:0:
36,192,37593,1,0,0:0:0:0:
109,192,37593,1,0,0:0:0:0:
402,192,37839,128,0,38207:0:0:0:0:
256,192,37839,128,0,38207:0:0:0:0:
475,192,38207,128,0,38330:0:0:0:0:
109,192,38207,1,0,0:0:0:0:
36,192,38207,1,0,0:0:0:0:
329,192,38207,128,0,38330:0:0:0:0:
182,192,38330,1,0,0:0:0:0:
256,192,38330,1,0,0:0:0:0:
329,192,38453,1,0,0:0:0:0:
402,192,38453,1,0,0:0:0:0:
475,192,38576,1,0,0:0:0:0:
36,192,38576,1,0,0:0:0:0:
109,192,38699,1,0,0:0:0:0:
329,192,38699,1,0,0:0:0:0:
256,192,38822,1,0,0:0:0:0:
182,192,38945,1,0,0:0:0:0:
402,192,38945,1,0,0:0:0:0:
109,192,39068,1,0,0:0:0:0:
329,192,39068,1,0,0:0:0:0:
182,192,39191,1,0,0:0:0:0:
475,192,39314,1,0,0:0:0:0:
256,192,39314,1,0,0:0:0:0:
36,192,39560,128,0,39806:0:0:0:0:
329,192,39560,1,0,0:0:0:0:
402,192,39560,1,0,0:0:0:0:
182,192,39560,128,0,39806:0:0:0:0:
109,192,39806,128,0,39929:0:0:0:0:
475,192,39806,1,0,0:0:0:0:
256,192,39806,128,0,39929:0:0:0:0:
329,192,39929,128,0,40175:0:0:0:0:
182,192,39929,128,0,40175:0:0:0:0:
402,192,40175,1,0,0:0:0:0:
109,192,40175,128,0,40298:0:0:0:0:
256,192,40175,128,0,40298:0:0:0:0:
475,192,40175,1,0,0:0:0:0:
36,192,40298,1,0,0:0:0:0:
329,192,40298,1,0,0:0:0:0:
182,192,40421,1,0,0:0:0:0:
402,192,40421,1,0,0:0:0:0:
256,192,40544,1,0,0:0:0:0:
182,192,40666,1,0,0:0:0:0:
109,192,40666,1,0,0:0:0:0:
36,192,40789,1,0,0:0:0:0:
329,192,40789,1,0,0:0:0:0:
475,192,40912,128,0,41158:0:0:0:0:
256,192,41035,1,0,0:0:0:0:
182,192,41035,1,0,0:0:0:0:
402,192,41035,128,0,41281:0:0:0:0:
109,192,41158,1,0,0:0:0:0:
329,192,41158,128,0,41404:0:0:0:0:
475,192,41281,128,0,41527:0:0:0:0:
36,192,41281,1,0,0:0:0:0:
256,192,41281,128,0,41527:0:0:0:0:
182,192,41404,128,0,41650:0:0:0:0:
109,192,41527,128,0,41773:0:0:0:0:
475,192,41650,128,0,41773:0:0:0:0:
256,192,41773,1,0,0:0:0:0:
36,192,41773,1,0,0:0:0:0:
329,192,41773,1,0,0:0:0:0:
182,192,41896,1,0,0:0:0:0:
109,192,42019,1,0,0:0:0:0:
402,192,42142,1,0,0:0:0:0:
475,192,42265,128,0,45216:0:0:0:0:
36,192,42265,1,0,0:0:0:0:
329,192,42265,128,0,42511:0:0:0:0:
256,192,42388,128,0,42634:0:0:0:0:
182,192,42511,128,0,42757:0:0:0:0:
402,192,42757,1,0,0:0:0:0:
109,192,42757,1,0,0:0:0:0:
36,192,42757,1,0,0:0:0:0:
329,192,42880,1,0,0:0:0:0:
256,192,43003,1,0,0:0:0:0:
109,192,43125,1,0,0:0:0:0:
182,192,43248,1,0,0:0:0:0:
329,192,43248,1,0,0:0:0:0:
256,192,43371,1,0,0:0:0:0:
182,192,43494,1,0,0:0:0:0:
36,192,43617,1,0,0:0:0:0:
329,192,43740,128,0,43863:0:0:0:0:
109,192,43740,1,0,0:0:0:0:
256,192,43863,128,0,43986:0:0:0:0:
182,192,43986,128,0,44109:0:0:0:0:
109,192,44109,128,0,44232:0:0:0:0:
36,192,44232,128,0,44355:0:0:0:0:
329,192,44232,1,0,0:0:0:0:
402,192,44232,1,0,0:0:0:0:
109,192,44355,128,0,44478:0:0:0:0:
182,192,44478,128,0,44601:0:0:0:0:
256,192,44601,128,0,44724:0:0:0:0:
329,192,44724,128,0,44847:0:0:0:0:
36,192,44724,1,0,0:0:0:0:
109,192,44724,1,0,0:0:0:0:
402,192,44847,128,0,44970:0:0:0:0:
402,192,45093,128,0,45216:0:0:0:0:
109,192,45093,1,0,0:0:0:0:
256,192,45216,1,0,0:0:0:0:
182,192,45216,128,0,45462:0:0:0:0:
109,192,45339,128,0,45584:0:0:0:0:
36,192,45462,128,0,45707:0:0:0:0:
329,192,45584,1,0,0:0:0:0:
182,192,45707,1,0,0:0:0:0:
475,192,45707,1,0,0:0:0:0:
402,192,45707,1,0,0:0:0:0:
329,192,45830,1,0,0:0:0:0:
256,192,45953,1,0,0:0:0:0:
182,192,46076,1,0,0:0:0:0:
36,192,46199,1,0,0:0:0:0:
109,192,46199,1,0,0:0:0:0:
402,192,46199,128,0,46445:0:0:0:0:
329,192,46322,128,0,46568:0:0:0:0:
256,192,46445,128,0,46691:0:0:0:0:
109,192,46568,1,0,0:0:0:0:
475,192,46691,1,0,0:0:0:0:
182,192,46691,1,0,0:0:0:0:
36,192,46814,128,0,46937:0:0:0:0:
402,192,46814,1,0,0:0:0:0:
109,192,46937,128,0,47060:0:0:0:0:
329,192,46937,1,0,0:0:0:0:
182,192,47060,128,0,47183:0:0:0:0:
256,192,47183,128,0,47306:0:0:0:0:
475,192,47183,1,0,0:0:0:0:
329,192,47306,128,0,47429:0:0:0:0:
402,192,47429,128,0,47552:0:0:0:0:
475,192,47552,128,0,47675:0:0:0:0:
329,192,47552,128,0,47675:0:0:0:0:
182,192,47552,1,0,0:0:0:0:
36,192,47675,1,0,0:0:0:0:
109,192,47675,1,0,0:0:0:0:
36,192,47921,128,0,48044:0:0:0:0:
109,192,48044,128,0,48166:0:0:0:0:
402,192,48044,1,0,0:0:0:0:
182,192,48166,128,0,48289:0:0:0:0:
329,192,48166,1,0,0:0:0:0:
256,192,48166,1,0,0:0:0:0:
36,192,48289,128,0,48658:0:0:0:0:
329,192,48535,1,0,0:0:0:0:
402,192,48658,128,0,48781:0:0:0:0:
109,192,48658,1,0,0:0:0:0:
182,192,48658,1,0,0:0:0:0:
256,192,48781,128,0,48904:0:0:0:0:
329,192,48904,128,0,49027:0:0:0:0:
402,192,49027,128,0,49642:0:0:0:0:
475,192,49027,128,0,50134:0:0:0:0:
36,192,49150,1,0,0:0:0:0:
256,192,49150,1,0,0:0:0:0:
182,192,49273,1,0,0:0:0:0:
109,192,49396,1,0,0:0:0:0:
36,192,49519,1,0,0:0:0:0:
329,192,49642,1,0,0:0:0:0:
256,192,49642,1,0,0:0:0:0:
182,192,49765,1,0,0:0:0:0:
109,192,49888,1,0,0:0:0:0:
182,192,50011,1,0,0:0:0:0:
402,192,50134,1,0,0:0:0:0:
256,192,50134,1,0,0:0:0:0:
36,192,50134,1,0,0:0:0:0:
329,192,50257,1,0,0:0:0:0:
109,192,50257,1,0,0:0:0:0:
402,192,50380,1,0,0:0:0:0:
182,192,50380,1,0,0:0:0:0:
256,192,50503,1,0,0:0:0:0:
475,192,50503,1,0,0:0:0:0:
36,192,50503,1,0,0:0:0:0:
402,192,50625,1,0,0:0:0:0:
182,192,50625,1,0,0:0:0:0:
109,192,50748,1,0,0:0:0:0:
329,192,50748,1,0,0:0:0:0:
36,192,50871,1,0,0:0:0:0:
256,192,50871,1,0,0:0:0:0:
109,192,50994,1,0,0:0:0:0:
329,192,50994,1,0,0:0:0:0:
36,192,51117,128,0,51363:0:0:0:0:
182,192,51117,1,0,0:0:0:0:
402,192,51117,1,0,0:0:0:0:
475,192,51240,1,0,0:0:0:0:
109,192,51363,128,0,51609:0:0:0:0:
256,192,51363,128,0,51609:0:0:0:0:
402,192,51363,1,0,0:0:0:0:
475,192,51609,1,0,0:0:0:0:
402,192,51609,1,0,0:0:0:0:
109,192,51732,128,0,51978:0:0:0:0:
256,192,51732,128,0,51978:0:0:0:0:
329,192,51855,1,0,0:0:0:0:
402,192,51978,1,0,0:0:0:0:
36,192,52101,128,0,52347:0:0:0:0:
182,192,52101,128,0,52347:0:0:0:0:
475,192,52101,1,0,0:0:0:0:
402,192,52224,1,0,0:0:0:0:
329,192,52347,1,0,0:0:0:0:
109,192,52470,128,0,52716:0:0:0:0:
256,192,52470,128,0,52716:0:0:0:0:
475,192,52470,1,0,0:0:0:0:
402,192,52593,1,0,0:0:0:0:
475,192,52716,128,0,52839:0:0:0:0:
182,192,52716,1,0,0:0:0:0:
402,192,52839,128,0,52962:0:0:0:0:
109,192,52839,1,0,0:0:0:0:
329,192,52962,128,0,53084:0:0:0:0:
36,192,52962,1,0,0:0:0:0:
182,192,53084,128,0,53207:0:0:0:0:
109,192,53084,128,0,53330:0:0:0:0:
256,192,53084,128,0,53330:0:0:0:0:
475,192,53084,1,0,0:0:0:0:
109,192,53453,128,0,53699:0:0:0:0:
256,192,53453,128,0,53699:0:0:0:0:
402,192,53576,1,0,0:0:0:0:
475,192,53576,1,0,0:0:0:0:
36,192,53699,128,0,53822:0:0:0:0:
109,192,53822,128,0,53945:0:0:0:0:
182,192,53945,128,0,54068:0:0:0:0:
402,192,53945,1,0,0:0:0:0:
329,192,54068,128,0,54191:0:0:0:0:
256,192,54068,1,0,0:0:0:0:
36,192,54068,1,0,0:0:0:0:
402,192,54191,128,0,54314:0:0:0:0:
475,192,54314,128,0,54683:0:0:0:0:
182,192,54314,1,0,0:0:0:0:
109,192,54437,1,0,0:0:0:0:
182,192,54560,1,0,0:0:0:0:
329,192,54560,1,0,0:0:0:0:
402,192,54683,128,0,54806:0:0:0:0:
36,192,54683,1,0,0:0:0:0:
329,192,54806,128,0,54929:0:0:0:0:
109,192,54806,1,0,0:0:0:0:
256,192,54929,128,0,55052:0:0:0:0:
182,192,54929,1,0,0:0:0:0:
36,192,55052,1,0,0:0:0:0:
109,192,55052,1,0,0:0:0:0:
402,192,55052,128,0,55175:0:0:0:0:
329,192,55175,1,0,0:0:0:0:
256,192,55298,1,0,0:0:0:0:
182,192,55421,1,0,0:0:0:0:
36,192,55544,1,0,0:0:0:0:
109,192,55544,1,0,0:0:0:0:
329,192,55544,128,0,55666:0:0:0:0:
182,192,55666,1,0,0:0:0:0:
256,192,55666,1,0,0:0:0:0:
402,192,55666,128,0,55789:0:0:0:0:
329,192,55912,1,0,0:0:0:0:
109,192,55912,1,0,0:0:0:0:
475,192,55912,128,0,56527:0:0:0:0:
402,192,56035,128,0,56281:0:0:0:0:
329,192,56158,128,0,56404:0:0:0:0:
256,192,56281,128,0,56527:0:0:0:0:
182,192,56404,128,0,56650:0:0:0:0:
329,192,56527,1,0,0:0:0:0:
36,192,56527,128,0,57019:0:0:0:0:
256,192,56650,1,0,0:0:0:0:
182,192,56773,1,0,0:0:0:0:
109,192,56896,1,0,0:0:0:0:
329,192,57019,1,0,0:0:0:0:
475,192,57019,128,0,57634:0:0:0:0:
402,192,57265,128,0,57511:0:0:0:0:
329,192,57511,128,0,57757:0:0:0:0:
109,192,57511,1,0,0:0:0:0:
256,192,57757,128,0,57880:0:0:0:0:
475,192,57757,128,0,57880:0:0:0:0:
182,192,57880,128,0,58003:0:0:0:0:
36,192,58003,1,0,0:0:0:0:
475,192,58003,128,0,58125:0:0:0:0:
182,192,58371,1,0,0:0:0:0:
109,192,58494,1,0,0:0:0:0:
256,192,58494,1,0,0:0:0:0:
402,192,58740,128,0,58986:0:0:0:0:
109,192,58863,1,0,0:0:0:0:
329,192,58986,128,0,59355:0:0:0:0:
36,192,58986,128,0,59601:0:0:0:0:
256,192,58986,1,0,0:0:0:0:
475,192,59355,128,0,59724:0:0:0:0:
182,192,59478,128,0,59970:0:0:0:0:
109,192,59478,1,0,0:0:0:0:
402,192,59724,128,0,60216:0:0:0:0:
36,192,59724,128,0,59847:0:0:0:0:
256,192,59970,128,0,60462:0:0:0:0:
36,192,59970,128,0,60093:0:0:0:0:
329,192,60462,128,0,60953:0:0:0:0:
36,192,60584,1,0,0:0:0:0:
109,192,60830,1,0,0:0:0:0:
402,192,60953,128,0,61445:0:0:0:0:
475,192,60953,128,0,61445:0:0:0:0:
182,192,60953,1,0,0:0:0:0:
36,192,60953,128,0,61322:0:0:0:0:
256,192,61199,128,0,61445:0:0:0:0:
36,192,61445,1,0,0:0:0:0:
109,192,61445,1,0,0:0:0:0:
329,192,61445,128,0,61937:0:0:0:0:
182,192,61568,1,0,0:0:0:0:
182,192,61814,1,0,0:0:0:0:
109,192,61937,1,0,0:0:0:0:
36,192,61937,1,0,0:0:0:0:
256,192,61937,128,0,62183:0:0:0:0:
475,192,61937,128,0,62183:0:0:0:0:
182,192,62183,128,0,62306:0:0:0:0:
402,192,62183,128,0,62306:0:0:0:0:
109,192,62306,128,0,62429:0:0:0:0:
329,192,62306,128,0,62429:0:0:0:0:
256,192,62675,1,0,0:0:0:0:
182,192,62675,128,0,62921:0:0:0:0:
475,192,62798,1,0,0:0:0:0:
402,192,62921,1,0,0:0:0:0:
329,192,62921,1,0,0:0:0:0:
256,192,63166,128,0,63412:0:0:0:0:
36,192,63166,128,0,63412:0:0:0:0:
329,192,63166,1,0,0:0:0:0:
109,192,63412,1,0,0:0:0:0:
182,192,63412,1,0,0:0:0:0:
329,192,63658,128,0,63904:0:0:0:0:
402,192,63658,1,0,0:0:0:0:
109,192,63658,128,0,63904:0:0:0:0:
182,192,63904,1,0,0:0:0:0:
256,192,63904,1,0,0:0:0:0:
402,192,64150,128,0,64888:0:0:0:0:
475,192,64150,1,0,0:0:0:0:
36,192,64150,128,0,64888:0:0:0:0:
109,192,64150,1,0,0:0:0:0:
256,192,64396,1,0,0:0:0:0:
329,192,64396,1,0,0:0:0:0:
109,192,64519,1,0,0:0:0:0:
182,192,64519,1,0,0:0:0:0:
256,192,64765,1,0,0:0:0:0:
329,192,64765,1,0,0:0:0:0:
182,192,64888,1,0,0:0:0:0:
109,192,64888,128,0,65380:0:0:0:0:
475,192,64888,128,0,65134:0:0:0:0:
256,192,65257,1,0,0:0:0:0:
475,192,65257,128,0,65380:0:0:0:0:
36,192,65380,1,0,0:0:0:0:
329,192,65380,128,0,65625:0:0:0:0:
182,192,65380,1,0,0:0:0:0:
256,192,65625,128,0,65748:0:0:0:0:
402,192,65748,128,0,66117:0:0:0:0:
36,192,65871,128,0,66117:0:0:0:0:
182,192,65871,1,0,0:0:0:0:
475,192,65871,1,0,0:0:0:0:
329,192,66117,128,0,66363:0:0:0:0:
36,192,66240,128,0,66363:0:0:0:0:
109,192,66240,1,0,0:0:0:0:
182,192,66363,1,0,0:0:0:0:
256,192,66363,1,0,0:0:0:0:
475,192,66609,128,0,67101:0:0:0:0:
182,192,66609,1,0,0:0:0:0:
256,192,66732,1,0,0:0:0:0:
109,192,66855,128,0,67101:0:0:0:0:
329,192,66855,1,0,0:0:0:0:
36,192,66855,1,0,0:0:0:0:
402,192,67101,128,0,67347:0:0:0:0:
109,192,67224,128,0,67347:0:0:0:0:
475,192,67347,128,0,67593:0:0:0:0:
182,192,67347,128,0,67470:0:0:0:0:
36,192,67347,1,0,0:0:0:0:
256,192,67470,128,0,67839:0:0:0:0:
402,192,67593,128,0,67962:0:0:0:0:
182,192,67839,128,0,68330:0:0:0:0:
475,192,67962,128,0,68084:0:0:0:0:
36,192,67962,1,0,0:0:0:0:
329,192,68084,128,0,68576:0:0:0:0:
109,192,68084,1,0,0:0:0:0:
256,192,68330,1,0,0:0:0:0:
182,192,68576,1,0,0:0:0:0:
109,192,68699,1,0,0:0:0:0:
36,192,68822,1,0,0:0:0:0:
475,192,68822,128,0,69191:0:0:0:0:
402,192,68822,1,0,0:0:0:0:
182,192,69068,128,0,69314:0:0:0:0:
256,192,69191,1,0,0:0:0:0:
475,192,69314,128,0,69683:0:0:0:0:
402,192,69314,1,0,0:0:0:0:
109,192,69314,128,0,69560:0:0:0:0:
329,192,69314,1,0,0:0:0:0:
182,192,69560,128,0,69683:0:0:0:0:
329,192,69683,1,0,0:0:0:0:
475,192,69806,128,0,70175:0:0:0:0:
402,192,69806,1,0,0:0:0:0:
182,192,69806,128,0,70052:0:0:0:0:
256,192,70052,128,0,70298:0:0:0:0:
475,192,70298,1,0,0:0:0:0:
402,192,70298,1,0,0:0:0:0:
182,192,70298,128,0,70421:0:0:0:0:
329,192,70421,1,0,0:0:0:0:
109,192,70421,128,0,70666:0:0:0:0:
36,192,70544,128,0,70789:0:0:0:0:
182,192,70666,128,0,70789:0:0:0:0:
36,192,71035,128,0,71281:0:0:0:0:
475,192,71035,128,0,71404:0:0:0:0:
329,192,71035,1,0,0:0:0:0:
109,192,71281,128,0,71527:0:0:0:0:
36,192,71527,128,0,71650:0:0:0:0:
182,192,71527,1,0,0:0:0:0:
475,192,71527,128,0,71773:0:0:0:0:
402,192,71527,1,0,0:0:0:0:
256,192,71650,1,0,0:0:0:0:
329,192,71773,1,0,0:0:0:0:
402,192,71896,1,0,0:0:0:0:
182,192,71896,1,0,0:0:0:0:
475,192,72019,1,0,0:0:0:0:
109,192,72019,1,0,0:0:0:0:
36,192,72019,1,0,0:0:0:0:
402,192,72142,1,0,0:0:0:0:
329,192,72265,128,0,72388:0:0:0:0:
36,192,72265,1,0,0:0:0:0:
256,192,72388,128,0,72511:0:0:0:0:
109,192,72388,1,0,0:0:0:0:
182,192,72511,128,0,72634:0:0:0:0:
475,192,72511,128,0,72757:0:0:0:0:
36,192,72757,1,0,0:0:0:0:
256,192,72757,1,0,0:0:0:0:
402,192,72757,128,0,73003:0:0:0:0:
109,192,73003,1,0,0:0:0:0:
329,192,73003,1,0,0:0:0:0:
329,192,73248,128,0,73494:0:0:0:0:
182,192,73248,1,0,0:0:0:0:
402,192,73248,1,0,0:0:0:0:
402,192,73494,128,0,73740:0:0:0:0:
256,192,73494,1,0,0:0:0:0:
182,192,73617,1,0,0:0:0:0:
36,192,73740,1,0,0:0:0:0:
109,192,73740,1,0,0:0:0:0:
475,192,73740,128,0,73986:0:0:0:0:
256,192,73863,1,0,0:0:0:0:
182,192,73863,1,0,0:0:0:0:
329,192,73986,128,0,74232:0:0:0:0:
36,192,73986,1,0,0:0:0:0:
109,192,73986,1,0,0:0:0:0:
256,192,74232,128,0,74478:0:0:0:0:
182,192,74232,1,0,0:0:0:0:
402,192,74232,1,0,0:0:0:0:
475,192,74478,128,0,74601:0:0:0:0:
36,192,74478,128,0,74724:0:0:0:0:
329,192,74601,128,0,74970:0:0:0:0:
182,192,74724,1,0,0:0:0:0:
402,192,74970,128,0,75462:0:0:0:0:
36,192,74970,128,0,75462:0:0:0:0:
109,192,75093,1,0,0:0:0:0:
182,192,75216,1,0,0:0:0:0:
256,192,75216,1,0,0:0:0:0:
475,192,75462,128,0,75584:0:0:0:0:
109,192,75584,1,0,0:0:0:0:
36,192,75707,128,0,76076:0:0:0:0:
182,192,75707,1,0,0:0:0:0:
329,192,75707,128,0,75830:0:0:0:0:
402,192,75830,1,0,0:0:0:0:
256,192,75953,128,0,76076:0:0:0:0:
475,192,75953,1,0,0:0:0:0:
182,192,76199,128,0,76322:0:0:0:0:
36,192,76199,128,0,76445:0:0:0:0:
329,192,76199,1,0,0:0:0:0:
402,192,76199,1,0,0:0:0:0:
475,192,76322,1,0,0:0:0:0:
109,192,76445,128,0,76568:0:0:0:0:
329,192,76445,128,0,76568:0:0:0:0:
256,192,76445,1,0,0:0:0:0:
402,192,76568,128,0,76691:0:0:0:0:
182,192,76568,1,0,0:0:0:0:
36,192,76691,128,0,76937:0:0:0:0:
475,192,76691,1,0,0:0:0:0:
256,192,76937,128,0,77060:0:0:0:0:
402,192,76937,128,0,77183:0:0:0:0:
109,192,77060,1,0,0:0:0:0:
182,192,77183,1,0,0:0:0:0:
36,192,77183,1,0,0:0:0:0:
329,192,77183,128,0,77429:0:0:0:0:
475,192,77429,128,0,77675:0:0:0:0:
182,192,77429,1,0,0:0:0:0:
109,192,77552,1,0,0:0:0:0:
182,192,77675,1,0,0:0:0:0:
36,192,77675,128,0,78166:0:0:0:0:
256,192,77921,128,0,78166:0:0:0:0:
329,192,77921,1,0,0:0:0:0:
402,192,78044,1,0,0:0:0:0:
475,192,78166,1,0,0:0:0:0:
109,192,78166,1,0,0:0:0:0:
182,192,78412,128,0,78658:0:0:0:0:
402,192,78412,128,0,78658:0:0:0:0:
256,192,78658,128,0,78904:0:0:0:0:
475,192,78658,128,0,78904:0:0:0:0:
36,192,78658,1,0,0:0:0:0:
182,192,78904,128,0,79150:0:0:0:0:
402,192,78904,128,0,79150:0:0:0:0:
256,192,79150,128,0,79396:0:0:0:0:
475,192,79150,128,0,79396:0:0:0:0:
36,192,79150,1,0,0:0:0:0:
182,192,79396,128,0,79519:0:0:0:0:
402,192,79396,128,0,79519:0:0:0:0:
256,192,79519,128,0,79888:0:0:0:0:
475,192,79519,128,0,79888:0:0:0:0:
36,192,79642,1,0,0:0:0:0:
329,192,79765,1,0,0:0:0:0:
182,192,79888,128,0,80380:0:0:0:0:
402,192,79888,128,0,80380:0:0:0:0:
109,192,79888,1,0,0:0:0:0:
36,192,80134,1,0,0:0:0:0:
475,192,80257,1,0,0:0:0:0:
109,192,80380,128,0,80625:0:0:0:0:
329,192,80380,128,0,80625:0:0:0:0:
256,192,80380,1,0,0:0:0:0:
36,192,80503,1,0,0:0:0:0:
182,192,80625,1,0,0:0:0:0:
402,192,80625,128,0,80994:0:0:0:0:
256,192,80748,1,0,0:0:0:0:
109,192,80871,128,0,81117:0:0:0:0:
475,192,80994,1,0,0:0:0:0:
402,192,81117,128,0,81486:0:0:0:0:
182,192,81117,128,0,81240:0:0:0:0:
329,192,81117,1,0,0:0:0:0:
36,192,81117,1,0,0:0:0:0:
109,192,81240,128,0,81609:0:0:0:0:
256,192,81486,1,0,0:0:0:0:
475,192,81609,128,0,81978:0:0:0:0:
329,192,81609,1,0,0:0:0:0:
109,192,81855,128,0,82101:0:0:0:0:
182,192,82101,128,0,82224:0:0:0:0:
256,192,82101,1,0,0:0:0:0:
329,192,82101,1,0,0:0:0:0:
475,192,82101,128,0,82593:0:0:0:0:
109,192,82224,128,0,82593:0:0:0:0:
402,192,82347,1,0,0:0:0:0:
256,192,82839,128,0,82962:0:0:0:0:
36,192,82839,1,0,0:0:0:0:
329,192,83084,128,0,83207:0:0:0:0:
109,192,83084,1,0,0:0:0:0:
402,192,83330,128,0,83453:0:0:0:0:
182,192,83330,1,0,0:0:0:0:
475,192,83822,128,0,83945:0:0:0:0:
256,192,83822,1,0,0:0:0:0:
256,192,84560,1,0,0:0:0:0:
329,192,84683,1,0,0:0:0:0:
402,192,84806,1,0,0:0:0:0:
329,192,84929,1,0,0:0:0:0:
402,192,85052,1,0,0:0:0:0:
109,192,85052,1,0,0:0:0:0:
182,192,85052,1,0,0:0:0:0:
475,192,85175,1,0,0:0:0:0:
256,192,85298,1,0,0:0:0:0:
36,192,85298,128,0,85544:0:0:0:0:
329,192,85421,1,0,0:0:0:0:
402,192,85544,1,0,0:0:0:0:
109,192,85544,128,0,85789:0:0:0:0:
329,192,85666,1,0,0:0:0:0:
402,192,85789,1,0,0:0:0:0:
36,192,85789,128,0,86035:0:0:0:0:
475,192,85912,1,0,0:0:0:0:
256,192,86035,1,0,0:0:0:0:
109,192,86035,128,0,86281:0:0:0:0:
182,192,86035,1,0,0:0:0:0:
329,192,86158,1,0,0:0:0:0:
402,192,86281,1,0,0:0:0:0:
182,192,86281,128,0,88248:0:0:0:0:
329,192,86404,1,0,0:0:0:0:
402,192,86527,1,0,0:0:0:0:
36,192,86527,128,0,86896:0:0:0:0:
475,192,87019,1,0,0:0:0:0:
36,192,87019,128,0,87388:0:0:0:0:
256,192,87019,1,0,0:0:0:0:
329,192,87019,1,0,0:0:0:0:
36,192,87511,128,0,87880:0:0:0:0:
329,192,87511,1,0,0:0:0:0:
36,192,88003,128,0,88371:0:0:0:0:
402,192,88003,1,0,0:0:0:0:
475,192,88003,1,0,0:0:0:0:
256,192,88494,1,0,0:0:0:0:
329,192,88494,1,0,0:0:0:0:
109,192,88494,1,0,0:0:0:0:
402,192,88617,1,0,0:0:0:0:
475,192,88617,1,0,0:0:0:0:
182,192,88617,1,0,0:0:0:0:
256,192,88863,1,0,0:0:0:0:
329,192,88863,1,0,0:0:0:0:
109,192,88863,1,0,0:0:0:0:
402,192,88986,1,0,0:0:0:0:
475,192,88986,1,0,0:0:0:0:
182,192,88986,1,0,0:0:0:0:
402,192,89109,1,0,0:0:0:0:
475,192,89109,1,0,0:0:0:0:
182,192,89109,1,0,0:0:0:0:
402,192,89355,128,0,89478:0:0:0:0:
36,192,89355,1,0,0:0:0:0:
109,192,89355,1,0,0:0:0:0:
475,192,89478,128,0,89724:0:0:0:0:
402,192,89601,128,0,89847:0:0:0:0:
329,192,89724,128,0,89970:0:0:0:0:
256,192,89847,128,0,90093:0:0:0:0:
182,192,89970,128,0,90216:0:0:0:0:
475,192,89970,1,0,0:0:0:0:
109,192,90093,128,0,90339:0:0:0:0:
402,192,90093,1,0,0:0:0:0:
36,192,90216,128,0,90462:0:0:0:0:
329,192,90216,1,0,0:0:0:0:
256,192,90339,1,0,0:0:0:0:
475,192,90339,128,0,90462:0:0:0:0:
182,192,90462,1,0,0:0:0:0:
402,192,90462,128,0,90707:0:0:0:0:
256,192,90707,128,0,90953:0:0:0:0:
402,192,90830,128,0,90953:0:0:0:0:
182,192,90953,128,0,91199:0:0:0:0:
329,192,90953,1,0,0:0:0:0:
109,192,91199,128,0,91322:0:0:0:0:
475,192,91199,128,0,91322:0:0:0:0:
36,192,91322,128,0,91445:0:0:0:0:
402,192,91322,128,0,91445:0:0:0:0:
256,192,91445,1,0,0:0:0:0:
182,192,91814,1,0,0:0:0:0:
329,192,91937,1,0,0:0:0:0:
109,192,91937,1,0,0:0:0:0:
402,192,92183,128,0,92429:0:0:0:0:
109,192,92306,1,0,0:0:0:0:
329,192,92429,128,0,92798:0:0:0:0:
256,192,92429,1,0,0:0:0:0:
36,192,92429,128,0,92675:0:0:0:0:
475,192,92798,128,0,93166:0:0:0:0:
36,192,92798,128,0,92921:0:0:0:0:
256,192,92921,128,0,93412:0:0:0:0:
109,192,92921,1,0,0:0:0:0:
402,192,93166,128,0,93658:0:0:0:0:
182,192,93166,1,0,0:0:0:0:
36,192,93289,1,0,0:0:0:0:
329,192,93412,128,0,93904:0:0:0:0:
109,192,93412,1,0,0:0:0:0:
36,192,93535,1,0,0:0:0:0:
182,192,93658,1,0,0:0:0:0:
109,192,93781,1,0,0:0:0:0:
402,192,93904,128,0,94396:0:0:0:0:
36,192,93904,1,0,0:0:0:0:
182,192,94027,1,0,0:0:0:0:
256,192,94150,1,0,0:0:0:0:
109,192,94273,1,0,0:0:0:0:
475,192,94396,128,0,94888:0:0:0:0:
182,192,94396,1,0,0:0:0:0:
36,192,94396,128,0,94765:0:0:0:0:
256,192,94642,128,0,94888:0:0:0:0:
36,192,94888,1,0,0:0:0:0:
109,192,94888,1,0,0:0:0:0:
402,192,94888,128,0,95134:0:0:0:0:
182,192,95011,1,0,0:0:0:0:
329,192,95134,128,0,95380:0:0:0:0:
475,192,95257,1,0,0:0:0:0:
109,192,95380,1,0,0:0:0:0:
36,192,95380,1,0,0:0:0:0:
256,192,95380,128,0,95625:0:0:0:0:
182,192,95503,1,0,0:0:0:0:
402,192,95625,128,0,95871:0:0:0:0:
475,192,95625,1,0,0:0:0:0:
36,192,95748,1,0,0:0:0:0:
109,192,95871,1,0,0:0:0:0:
329,192,95994,1,0,0:0:0:0:
256,192,96117,1,0,0:0:0:0:
182,192,96117,128,0,96363:0:0:0:0:
475,192,96240,1,0,0:0:0:0:
402,192,96363,1,0,0:0:0:0:
329,192,96363,1,0,0:0:0:0:
256,192,96609,128,0,96855:0:0:0:0:
36,192,96609,128,0,96855:0:0:0:0:
182,192,96609,1,0,0:0:0:0:
329,192,96855,1,0,0:0:0:0:
402,192,96855,1,0,0:0:0:0:
329,192,97101,128,0,97347:0:0:0:0:
256,192,97101,1,0,0:0:0:0:
109,192,97101,128,0,97347:0:0:0:0:
402,192,97347,1,0,0:0:0:0:
475,192,97347,1,0,0:0:0:0:
256,192,97470,1,0,0:0:0:0:
402,192,97593,128,0,98330:0:0:0:0:
36,192,97593,128,0,98330:0:0:0:0:
109,192,97593,1,0,0:0:0:0:
182,192,97716,1,0,0:0:0:0:
256,192,97839,1,0,0:0:0:0:
329,192,97839,1,0,0:0:0:0:
109,192,97962,1,0,0:0:0:0:
182,192,97962,1,0,0:0:0:0:
475,192,98084,1,0,0:0:0:0:
256,192,98207,1,0,0:0:0:0:
329,192,98207,1,0,0:0:0:0:
182,192,98330,1,0,0:0:0:0:
109,192,98330,128,0,98822:0:0:0:0:
475,192,98330,128,0,98576:0:0:0:0:
256,192,98699,1,0,0:0:0:0:
475,192,98699,128,0,98822:0:0:0:0:
36,192,98822,1,0,0:0:0:0:
329,192,98822,128,0,99068:0:0:0:0:
182,192,98822,1,0,0:0:0:0:
256,192,99068,128,0,99191:0:0:0:0:
402,192,99191,128,0,99560:0:0:0:0:
36,192,99314,128,0,99560:0:0:0:0:
109,192,99314,1,0,0:0:0:0:
182,192,99314,1,0,0:0:0:0:
329,192,99560,128,0,99806:0:0:0:0:
36,192,99683,128,0,99806:0:0:0:0:
109,192,99683,1,0,0:0:0:0:
402,192,99806,1,0,0:0:0:0:
475,192,99806,1,0,0:0:0:0:
475,192,100052,128,0,100544:0:0:0:0:
182,192,100052,1,0,0:0:0:0:
256,192,100175,1,0,0:0:0:0:
109,192,100298,128,0,100544:0:0:0:0:
329,192,100298,1,0,0:0:0:0:
36,192,100298,1,0,0:0:0:0:
402,192,100544,128,0,100789:0:0:0:0:
109,192,100666,128,0,100789:0:0:0:0:
475,192,100789,128,0,101035:0:0:0:0:
182,192,100789,128,0,100912:0:0:0:0:
36,192,100789,1,0,0:0:0:0:
256,192,100912,128,0,101158:0:0:0:0:
329,192,101035,128,0,101404:0:0:0:0:
182,192,101158,1,0,0:0:0:0:
109,192,101281,1,0,0:0:0:0:
475,192,101404,128,0,101527:0:0:0:0:
36,192,101404,1,0,0:0:0:0:
329,192,101527,128,0,102019:0:0:0:0:
109,192,101527,1,0,0:0:0:0:
256,192,101773,1,0,0:0:0:0:
182,192,102019,1,0,0:0:0:0:
109,192,102142,1,0,0:0:0:0:
36,192,102265,1,0,0:0:0:0:
475,192,102265,128,0,102634:0:0:0:0:
402,192,102265,1,0,0:0:0:0:
109,192,102511,128,0,102757:0:0:0:0:
256,192,102634,1,0,0:0:0:0:
475,192,102757,128,0,103125:0:0:0:0:
402,192,102757,1,0,0:0:0:0:
329,192,102757,1,0,0:0:0:0:
182,192,102757,128,0,103003:0:0:0:0:
109,192,103003,128,0,103125:0:0:0:0:
36,192,103125,128,0,103248:0:0:0:0:
402,192,103248,1,0,0:0:0:0:
182,192,103494,128,0,103740:0:0:0:0:
475,192,103740,1,0,0:0:0:0:
402,192,103740,1,0,0:0:0:0:
109,192,103740,128,0,103986:0:0:0:0:
329,192,103863,1,0,0:0:0:0:
36,192,103986,128,0,104232:0:0:0:0:
475,192,103986,1,0,0:0:0:0:
182,192,103986,128,0,104232:0:0:0:0:
329,192,104109,1,0,0:0:0:0:
402,192,104232,1,0,0:0:0:0:
256,192,104232,1,0,0:0:0:0:
36,192,104478,128,0,104724:0:0:0:0:
475,192,104478,128,0,104847:0:0:0:0:
329,192,104478,1,0,0:0:0:0:
109,192,104724,128,0,104970:0:0:0:0:
36,192,104970,128,0,105093:0:0:0:0:
182,192,104970,1,0,0:0:0:0:
475,192,104970,128,0,105216:0:0:0:0:
402,192,104970,1,0,0:0:0:0:
256,192,105093,1,0,0:0:0:0:
329,192,105216,1,0,0:0:0:0:
402,192,105339,1,0,0:0:0:0:
182,192,105339,1,0,0:0:0:0:
475,192,105462,1,0,0:0:0:0:
109,192,105462,1,0,0:0:0:0:
36,192,105462,1,0,0:0:0:0:
402,192,105584,1,0,0:0:0:0:
329,192,105707,128,0,105830:0:0:0:0:
36,192,105707,1,0,0:0:0:0:
256,192,105830,128,0,105953:0:0:0:0:
109,192,105830,1,0,0:0:0:0:
182,192,105953,128,0,106076:0:0:0:0:
475,192,105953,128,0,106199:0:0:0:0:
36,192,106199,1,0,0:0:0:0:
256,192,106199,1,0,0:0:0:0:
402,192,106199,128,0,106445:0:0:0:0:
109,192,106445,1,0,0:0:0:0:
329,192,106445,1,0,0:0:0:0:
329,192,106691,128,0,106937:0:0:0:0:
182,192,106691,1,0,0:0:0:0:
402,192,106691,1,0,0:0:0:0:
402,192,106937,128,0,107183:0:0:0:0:
256,192,106937,1,0,0:0:0:0:
182,192,107060,1,0,0:0:0:0:
36,192,107183,1,0,0:0:0:0:
109,192,107183,1,0,0:0:0:0:
475,192,107183,128,0,107429:0:0:0:0:
256,192,107306,1,0,0:0:0:0:
182,192,107306,1,0,0:0:0:0:
329,192,107429,128,0,107675:0:0:0:0:
36,192,107429,1,0,0:0:0:0:
109,192,107429,1,0,0:0:0:0:
256,192,107675,128,0,107921:0:0:0:0:
182,192,107675,1,0,0:0:0:0:
402,192,107675,1,0,0:0:0:0:
402,192,107921,128,0,108044:0:0:0:0:
109,192,107921,128,0,108044:0:0:0:0:
329,192,108044,128,0,108412:0:0:0:0:
182,192,108166,1,0,0:0:0:0:
36,192,108166,128,0,108412:0:0:0:0:
256,192,108412,128,0,108904:0:0:0:0:
402,192,108535,1,0,0:0:0:0:
36,192,108535,128,0,108658:0:0:0:0:
475,192,108658,1,0,0:0:0:0:
182,192,108658,1,0,0:0:0:0:
36,192,108781,128,0,108904:0:0:0:0:
475,192,108904,128,0,109027:0:0:0:0:
109,192,109027,1,0,0:0:0:0:
182,192,109150,1,0,0:0:0:0:
329,192,109150,128,0,109273:0:0:0:0:
36,192,109150,128,0,109396:0:0:0:0:
402,192,109273,1,0,0:0:0:0:
256,192,109396,128,0,109519:0:0:0:0:
475,192,109396,1,0,0:0:0:0:
36,192,109519,128,0,109642:0:0:0:0:
182,192,109642,128,0,109765:0:0:0:0:
329,192,109642,1,0,0:0:0:0:
402,192,109642,1,0,0:0:0:0:
475,192,109765,1,0,0:0:0:0:
36,192,109765,128,0,109888:0:0:0:0:
109,192,109888,128,0,110011:0:0:0:0:
329,192,109888,128,0,110011:0:0:0:0:
256,192,109888,1,0,0:0:0:0:
402,192,110011,128,0,110134:0:0:0:0:
182,192,110011,1,0,0:0:0:0:
475,192,110134,1,0,0:0:0:0:
36,192,110134,1,0,0:0:0:0:
109,192,110257,1,0,0:0:0:0:
256,192,110380,128,0,110503:0:0:0:0:
402,192,110380,128,0,110625:0:0:0:0:
182,192,110380,1,0,0:0:0:0:
109,192,110503,1,0,0:0:0:0:
182,192,110625,1,0,0:0:0:0:
36,192,110625,1,0,0:0:0:0:
329,192,110625,128,0,110871:0:0:0:0:
475,192,110871,128,0,111117:0:0:0:0:
182,192,110871,1,0,0:0:0:0:
109,192,110994,1,0,0:0:0:0:
182,192,111117,1,0,0:0:0:0:
36,192,111117,128,0,111609:0:0:0:0:
402,192,111240,1,0,0:0:0:0:
256,192,111363,128,0,111609:0:0:0:0:
329,192,111363,1,0,0:0:0:0:
402,192,111486,1,0,0:0:0:0:
475,192,111609,1,0,0:0:0:0:
109,192,111609,1,0,0:0:0:0:
182,192,111732,1,0,0:0:0:0:
256,192,111855,128,0,112101:0:0:0:0:
475,192,111855,128,0,112101:0:0:0:0:
329,192,111855,1,0,0:0:0:0:
402,192,111978,1,0,0:0:0:0:
109,192,112101,128,0,112347:0:0:0:0:
329,192,112101,128,0,112347:0:0:0:0:
36,192,112101,1,0,0:0:0:0:
182,192,112347,128,0,112593:0:0:0:0:
402,192,112347,128,0,112593:0:0:0:0:
109,192,112593,128,0,112839:0:0:0:0:
329,192,112593,128,0,112839:0:0:0:0:
36,192,112593,1,0,0:0:0:0:
182,192,112839,128,0,112962:0:0:0:0:
402,192,112839,128,0,112962:0:0:0:0:
256,192,112962,128,0,113330:0:0:0:0:
475,192,112962,128,0,113330:0:0:0:0:
36,192,113084,1,0,0:0:0:0:
329,192,113207,1,0,0:0:0:0:
182,192,113330,128,0,113576:0:0:0:0:
402,192,113330,128,0,113576:0:0:0:0:
109,192,113330,1,0,0:0:0:0:
109,192,113576,128,0,113699:0:0:0:0:
329,192,113576,128,0,113699:0:0:0:0:
36,192,113699,128,0,114068:0:0:0:0:
256,192,113699,128,0,114068:0:0:0:0:
475,192,113822,1,0,0:0:0:0:
182,192,113945,1,0,0:0:0:0:
402,192,114068,128,0,114437:0:0:0:0:
109,192,114068,1,0,0:0:0:0:
475,192,114068,128,0,114314:0:0:0:0:
109,192,114314,128,0,114560:0:0:0:0:
256,192,114437,1,0,0:0:0:0:
475,192,114437,128,0,114560:0:0:0:0:
402,192,114560,128,0,114929:0:0:0:0:
182,192,114560,128,0,114683:0:0:0:0:
329,192,114560,1,0,0:0:0:0:
36,192,114560,1,0,0:0:0:0:
109,192,114683,128,0,115052:0:0:0:0:
256,192,114929,1,0,0:0:0:0:
475,192,115052,128,0,115421:0:0:0:0:
329,192,115052,1,0,0:0:0:0:
402,192,115175,1,0,0:0:0:0:
182,192,115175,1,0,0:0:0:0:
109,192,115298,128,0,115544:0:0:0:0:
256,192,115298,1,0,0:0:0:0:
329,192,115421,1,0,0:0:0:0:
182,192,115544,128,0,115666:0:0:0:0:
475,192,115544,128,0,116035:0:0:0:0:
402,192,115544,1,0,0:0:0:0:
36,192,115544,1,0,0:0:0:0:
109,192,115666,128,0,116035:0:0:0:0:
402,192,115789,1,0,0:0:0:0:
256,192,116281,128,0,116404:0:0:0:0:
36,192,116281,1,0,0:0:0:0:
329,192,116527,128,0,116650:0:0:0:0:
109,192,116527,1,0,0:0:0:0:
402,192,116773,128,0,116896:0:0:0:0:
182,192,116773,1,0,0:0:0:0:
475,192,117265,128,0,117388:0:0:0:0:
256,192,117265,1,0,0:0:0:0:
329,192,117511,1,0,0:0:0:0:
182,192,117634,1,0,0:0:0:0:
109,192,117757,1,0,0:0:0:0:
182,192,117880,1,0,0:0:0:0:
256,192,118003,1,0,0:0:0:0:
36,192,118003,1,0,0:0:0:0:
329,192,118125,1,0,0:0:0:0:
402,192,118248,1,0,0:0:0:0:
329,192,118371,1,0,0:0:0:0:
402,192,118494,1,0,0:0:0:0:
109,192,118494,1,0,0:0:0:0:
182,192,118494,1,0,0:0:0:0:
475,192,118617,1,0,0:0:0:0:
256,192,118740,1,0,0:0:0:0:
109,192,118740,128,0,118986:0:0:0:0:
329,192,118863,1,0,0:0:0:0:
402,192,118986,1,0,0:0:0:0:
36,192,118986,128,0,119232:0:0:0:0:
329,192,119109,1,0,0:0:0:0:
182,192,119232,128,0,119478:0:0:0:0:
402,192,119232,1,0,0:0:0:0:
475,192,119355,1,0,0:0:0:0:
256,192,119478,1,0,0:0:0:0:
36,192,119478,128,0,119724:0:0:0:0:
109,192,119478,1,0,0:0:0:0:
329,192,119601,1,0,0:0:0:0:
402,192,119724,1,0,0:0:0:0:
182,192,119724,128,0,121691:0:0:0:0:
475,192,119847,1,0,0:0:0:0:
36,192,119970,128,0,120339:0:0:0:0:
329,192,119970,1,0,0:0:0:0:
329,192,120093,1,0,0:0:0:0:
475,192,120462,1,0,0:0:0:0:
36,192,120462,128,0,120830:0:0:0:0:
329,192,120462,1,0,0:0:0:0:
475,192,120584,1,0,0:0:0:0:
36,192,120953,128,0,121322:0:0:0:0:
329,192,120953,1,0,0:0:0:0:
329,192,121076,1,0,0:0:0:0:
36,192,121445,128,0,121814:0:0:0:0:
475,192,121445,1,0,0:0:0:0:
329,192,121445,1,0,0:0:0:0:
475,192,121568,1,0,0:0:0:0:
329,192,121937,1,0,0:0:0:0:
402,192,122060,128,0,122306:0:0:0:0:
475,192,122060,128,0,122306:0:0:0:0:
182,192,122183,1,0,0:0:0:0:
36,192,122429,128,0,123289:0:0:0:0:
256,192,122429,1,0,0:0:0:0:
475,192,122429,1,0,0:0:0:0:
256,192,122552,1,0,0:0:0:0:
475,192,122552,1,0,0:0:0:0:
329,192,122798,1,0,0:0:0:0:
402,192,122798,1,0,0:0:0:0:
475,192,122921,128,0,123166:0:0:0:0:
402,192,123044,128,0,123289:0:0:0:0:
329,192,123166,128,0,123412:0:0:0:0:
256,192,123289,128,0,123535:0:0:0:0:
36,192,123412,128,0,123781:0:0:0:0:
182,192,123412,128,0,123658:0:0:0:0:
109,192,123535,128,0,123781:0:0:0:0:
36,192,123904,128,0,125380:0:0:0:0:
475,192,123904,1,0,0:0:0:0:
109,192,123904,1,0,0:0:0:0:
402,192,124027,1,0,0:0:0:0:
329,192,124150,1,0,0:0:0:0:
256,192,124273,1,0,0:0:0:0:
182,192,124396,1,0,0:0:0:0:
109,192,124396,1,0,0:0:0:0:
475,192,124396,1,0,0:0:0:0:
256,192,124519,1,0,0:0:0:0:
329,192,124642,1,0,0:0:0:0:
402,192,124765,1,0,0:0:0:0:
475,192,124888,1,0,0:0:0:0:
109,192,124888,1,0,0:0:0:0:
182,192,125011,1,0,0:0:0:0:
256,192,125134,1,0,0:0:0:0:
329,192,125257,1,0,0:0:0:0:
402,192,125380,1,0,0:0:0:0:
475,192,125380,1,0,0:0:0:0:
109,192,125380,1,0,0:0:0:0:
329,192,125503,1,0,0:0:0:0:
256,192,125625,1,0,0:0:0:0:
182,192,125748,1,0,0:0:0:0:
475,192,125871,128,0,126609:0:0:0:0:
109,192,125871,1,0,0:0:0:0:
36,192,125871,1,0,0:0:0:0:
402,192,125871,1,0,0:0:0:0:
329,192,125994,1,0,0:0:0:0:
256,192,126117,1,0,0:0:0:0:
182,192,126240,1,0,0:0:0:0:
109,192,126363,1,0,0:0:0:0:
36,192,126363,1,0,0:0:0:0:
402,192,126363,1,0,0:0:0:0:
182,192,126486,1,0,0:0:0:0:
256,192,126609,1,0,0:0:0:0:
329,192,126732,1,0,0:0:0:0:
402,192,126855,1,0,0:0:0:0:
475,192,126855,1,0,0:0:0:0:
36,192,126855,1,0,0:0:0:0:
109,192,126978,1,0,0:0:0:0:
182,192,127101,1,0,0:0:0:0:
256,192,127224,1,0,0:0:0:0:
329,192,127347,1,0,0:0:0:0:
475,192,127347,1,0,0:0:0:0:
36,192,127347,1,0,0:0:0:0:
402,192,127470,1,0,0:0:0:0:
256,192,127470,1,0,0:0:0:0:
329,192,127593,1,0,0:0:0:0:
182,192,127593,1,0,0:0:0:0:
109,192,127716,1,0,0:0:0:0:
256,192,127716,1,0,0:0:0:0:
182,192,127839,128,0,128576:0:0:0:0:
36,192,127839,1,0,0:0:0:0:
402,192,127839,1,0,0:0:0:0:
475,192,127839,128,0,128207:0:0:0:0:
256,192,128084,1,0,0:0:0:0:
402,192,128330,1,0,0:0:0:0:
475,192,128330,1,0,0:0:0:0:
36,192,128330,1,0,0:0:0:0:
109,192,128330,1,0,0:0:0:0:
329,192,128576,1,0,0:0:0:0:
329,192,128699,128,0,129314:0:0:0:0:
36,192,128822,1,0,0:0:0:0:
182,192,128822,1,0,0:0:0:0:
256,192,129068,1,0,0:0:0:0:
475,192,129068,1,0,0:0:0:0:
182,192,129314,1,0,0:0:0:0:
402,192,129314,1,0,0:0:0:0:
36,192,129314,1,0,0:0:0:0:
182,192,129437,128,0,129806:0:0:0:0:
256,192,129560,1,0,0:0:0:0:
475,192,129560,1,0,0:0:0:0:
329,192,129806,1,0,0:0:0:0:
402,192,129806,1,0,0:0:0:0:
36,192,129806,128,0,130298:0:0:0:0:
109,192,129806,128,0,130052:0:0:0:0:
182,192,130052,128,0,130298:0:0:0:0:
109,192,130298,128,0,130789:0:0:0:0:
256,192,130298,128,0,130544:0:0:0:0:
475,192,130298,1,0,0:0:0:0:
329,192,130544,128,0,130666:0:0:0:0:
402,192,130666,128,0,130912:0:0:0:0:
182,192,130789,128,0,131281:0:0:0:0:
36,192,130789,1,0,0:0:0:0:
256,192,130789,1,0,0:0:0:0:
475,192,130912,128,0,131158:0:0:0:0:
402,192,131158,128,0,131281:0:0:0:0:
256,192,131281,128,0,131773:0:0:0:0:
475,192,131281,128,0,131404:0:0:0:0:
36,192,131281,128,0,131404:0:0:0:0:
329,192,131281,1,0,0:0:0:0:
109,192,131404,128,0,131527:0:0:0:0:
182,192,131527,128,0,131650:0:0:0:0:
329,192,131650,128,0,131773:0:0:0:0:
475,192,131773,128,0,131896:0:0:0:0:
36,192,131773,1,0,0:0:0:0:
109,192,131773,1,0,0:0:0:0:
402,192,131896,128,0,132019:0:0:0:0:
329,192,132019,128,0,132142:0:0:0:0:
182,192,132019,1,0,0:0:0:0:
256,192,132142,128,0,132265:0:0:0:0:
109,192,132142,1,0,0:0:0:0:
329,192,132265,128,0,132388:0:0:0:0:
36,192,132265,1,0,0:0:0:0:
475,192,132265,1,0,0:0:0:0:
402,192,132388,128,0,132511:0:0:0:0:
36,192,132511,128,0,132634:0:0:0:0:
256,192,132511,1,0,0:0:0:0:
109,192,132634,128,0,132757:0:0:0:0:
329,192,132634,1,0,0:0:0:0:
182,192,132757,128,0,132880:0:0:0:0:
402,192,132757,1,0,0:0:0:0:
475,192,132757,1,0,0:0:0:0:
256,192,132880,128,0,133003:0:0:0:0:
329,192,133003,128,0,133125:0:0:0:0:
109,192,133003,1,0,0:0:0:0:
182,192,133125,128,0,133248:0:0:0:0:
402,192,133125,1,0,0:0:0:0:
256,192,133248,128,0,133371:0:0:0:0:
36,192,133248,1,0,0:0:0:0:
475,192,133248,1,0,0:0:0:0:
329,192,133371,128,0,133494:0:0:0:0:
402,192,133494,128,0,133617:0:0:0:0:
182,192,133494,1,0,0:0:0:0:
475,192,133617,128,0,133740:0:0:0:0:
109,192,133617,1,0,0:0:0:0:
329,192,133740,128,0,133863:0:0:0:0:
36,192,133740,1,0,0:0:0:0:
402,192,133740,1,0,0:0:0:0:
256,192,133863,128,0,133986:0:0:0:0:
182,192,133986,128,0,134109:0:0:0:0:
475,192,133986,1,0,0:0:0:0:
109,192,134109,128,0,134232:0:0:0:0:
402,192,134109,1,0,0:0:0:0:
256,192,134232,128,0,134355:0:0:0:0:
329,192,134232,1,0,0:0:0:0:
36,192,134232,1,0,0:0:0:0:
182,192,134355,128,0,134478:0:0:0:0:
109,192,134478,128,0,134601:0:0:0:0:
329,192,134478,1,0,0:0:0:0:
36,192,134601,128,0,134724:0:0:0:0:
402,192,134601,1,0,0:0:0:0:
256,192,134724,128,0,134847:0:0:0:0:
475,192,134724,1,0,0:0:0:0:
109,192,134724,1,0,0:0:0:0:
329,192,134847,128,0,134970:0:0:0:0:
402,192,134970,128,0,135093:0:0:0:0:
182,192,134970,1,0,0:0:0:0:
329,192,135093,128,0,135216:0:0:0:0:
109,192,135093,1,0,0:0:0:0:
256,192,135216,128,0,135339:0:0:0:0:
36,192,135216,1,0,0:0:0:0:
402,192,135216,1,0,0:0:0:0:
475,192,135339,128,0,135462:0:0:0:0:
182,192,135339,1,0,0:0:0:0:
402,192,135462,128,0,135584:0:0:0:0:
109,192,135462,1,0,0:0:0:0:
329,192,135584,128,0,135707:0:0:0:0:
36,192,135584,1,0,0:0:0:0:
256,192,135707,128,0,135830:0:0:0:0:
182,192,135707,1,0,0:0:0:0:
475,192,135707,1,0,0:0:0:0:
402,192,135830,1,0,0:0:0:0:
109,192,135830,1,0,0:0:0:0:
36,192,135953,1,0,0:0:0:0:
329,192,135953,1,0,0:0:0:0:
256,192,135953,128,0,136199:0:0:0:0:
109,192,136199,128,0,136445:0:0:0:0:
402,192,136199,128,0,136445:0:0:0:0:
109,192,136568,1,0,0:0:0:0:
402,192,136568,1,0,0:0:0:0:
256,192,136691,1,0,0:0:0:0:
182,192,136814,1,0,0:0:0:0:
109,192,136937,1,0,0:0:0:0:
329,192,136937,1,0,0:0:0:0:
36,192,137060,1,0,0:0:0:0:
256,192,137060,1,0,0:0:0:0:
182,192,137183,1,0,0:0:0:0:
402,192,137183,1,0,0:0:0:0:
109,192,137306,1,0,0:0:0:0:
329,192,137306,1,0,0:0:0:0:
182,192,137429,1,0,0:0:0:0:
402,192,137429,1,0,0:0:0:0:
36,192,137552,1,0,0:0:0:0:
256,192,137552,1,0,0:0:0:0:
109,192,137675,1,0,0:0:0:0:
475,192,137675,128,0,137921:0:0:0:0:
402,192,137798,128,0,138044:0:0:0:0:
36,192,137921,1,0,0:0:0:0:
329,192,137921,128,0,138166:0:0:0:0:
109,192,138044,1,0,0:0:0:0:
256,192,138044,128,0,138289:0:0:0:0:
36,192,138166,128,0,138412:0:0:0:0:
182,192,138166,1,0,0:0:0:0:
475,192,138166,1,0,0:0:0:0:
402,192,138289,1,0,0:0:0:0:
109,192,138289,1,0,0:0:0:0:
329,192,138412,1,0,0:0:0:0:
36,192,138535,1,0,0:0:0:0:
256,192,138535,1,0,0:0:0:0:
475,192,138658,1,0,0:0:0:0:
182,192,138658,1,0,0:0:0:0:
402,192,138781,1,0,0:0:0:0:
36,192,138781,128,0,138904:0:0:0:0:
329,192,138904,1,0,0:0:0:0:
475,192,138904,128,0,139150:0:0:0:0:
256,192,139027,1,0,0:0:0:0:
402,192,139027,128,0,139273:0:0:0:0:
36,192,139027,128,0,139150:0:0:0:0:
182,192,139150,1,0,0:0:0:0:
329,192,139150,128,0,139396:0:0:0:0:
109,192,139273,1,0,0:0:0:0:
256,192,139273,128,0,139519:0:0:0:0:
36,192,139396,1,0,0:0:0:0:
182,192,139396,128,0,139642:0:0:0:0:
109,192,139519,128,0,139765:0:0:0:0:
36,192,139642,128,0,141117:0:0:0:0:
475,192,139642,128,0,140380:0:0:0:0:
402,192,139642,1,0,0:0:0:0:
329,192,139642,1,0,0:0:0:0:
256,192,139888,1,0,0:0:0:0:
182,192,140011,1,0,0:0:0:0:
109,192,140134,1,0,0:0:0:0:
402,192,140134,1,0,0:0:0:0:
329,192,140380,128,0,140871:0:0:0:0:
109,192,140380,1,0,0:0:0:0:
182,192,140503,1,0,0:0:0:0:
256,192,140625,1,0,0:0:0:0:
475,192,140625,1,0,0:0:0:0:
109,192,140871,128,0,140994:0:0:0:0:
256,192,140871,1,0,0:0:0:0:
182,192,140994,128,0,141117:0:0:0:0:
329,192,140994,1,0,0:0:0:0:
256,192,141117,128,0,141240:0:0:0:0:
402,192,141117,1,0,0:0:0:0:
475,192,141117,1,0,0:0:0:0:
182,192,141240,128,0,141363:0:0:0:0:
329,192,141240,1,0,0:0:0:0:
109,192,141363,128,0,141486:0:0:0:0:
256,192,141363,1,0,0:0:0:0:
475,192,141363,128,0,141486:0:0:0:0:
36,192,141486,128,0,141609:0:0:0:0:
182,192,141486,1,0,0:0:0:0:
402,192,141486,128,0,141609:0:0:0:0:
109,192,141609,1,0,0:0:0:0:
329,192,141609,128,0,141732:0:0:0:0:
256,192,141732,128,0,141855:0:0:0:0:
36,192,141732,1,0,0:0:0:0:
329,192,141855,128,0,141978:0:0:0:0:
109,192,141855,1,0,0:0:0:0:
402,192,141978,128,0,142101:0:0:0:0:
182,192,141978,1,0,0:0:0:0:
475,192,142101,128,0,142224:0:0:0:0:
256,192,142101,1,0,0:0:0:0:
36,192,142101,1,0,0:0:0:0:
402,192,142224,128,0,142347:0:0:0:0:
182,192,142224,1,0,0:0:0:0:
109,192,142347,1,0,0:0:0:0:
329,192,142347,128,0,142593:0:0:0:0:
36,192,142470,1,0,0:0:0:0:
402,192,142593,1,0,0:0:0:0:
475,192,142593,1,0,0:0:0:0:
256,192,142593,128,0,142716:0:0:0:0:
182,192,142716,128,0,142839:0:0:0:0:
329,192,142716,1,0,0:0:0:0:
109,192,142839,128,0,143576:0:0:0:0:
256,192,142839,1,0,0:0:0:0:
475,192,142839,128,0,142962:0:0:0:0:
182,192,142962,1,0,0:0:0:0:
402,192,142962,128,0,143084:0:0:0:0:
329,192,143084,128,0,143207:0:0:0:0:
36,192,143084,1,0,0:0:0:0:
475,192,143084,1,0,0:0:0:0:
256,192,143207,128,0,143330:0:0:0:0:
182,192,143330,128,0,143453:0:0:0:0:
475,192,143330,128,0,143453:0:0:0:0:
402,192,143453,128,0,143576:0:0:0:0:
329,192,143576,128,0,143699:0:0:0:0:
36,192,143576,1,0,0:0:0:0:
182,192,143576,1,0,0:0:0:0:
256,192,143699,128,0,143822:0:0:0:0:
329,192,143822,128,0,143945:0:0:0:0:
36,192,143822,1,0,0:0:0:0:
256,192,143945,128,0,144068:0:0:0:0:
109,192,143945,1,0,0:0:0:0:
182,192,144068,1,0,0:0:0:0:
475,192,144068,1,0,0:0:0:0:
402,192,144068,1,0,0:0:0:0:
329,192,144191,1,0,0:0:0:0:
256,192,144314,128,0,144437:0:0:0:0:
182,192,144314,1,0,0:0:0:0:
109,192,144437,1,0,0:0:0:0:
36,192,144560,1,0,0:0:0:0:
402,192,144560,1,0,0:0:0:0:
475,192,144560,1,0,0:0:0:0:
329,192,144560,128,0,144806:0:0:0:0:
256,192,144683,128,0,144929:0:0:0:0:
182,192,144806,128,0,145052:0:0:0:0:
109,192,144929,128,0,145175:0:0:0:0:
256,192,145052,128,0,145298:0:0:0:0:
36,192,145052,128,0,145298:0:0:0:0:
475,192,145052,1,0,0:0:0:0:
329,192,145175,128,0,145421:0:0:0:0:
402,192,145298,128,0,145544:0:0:0:0:
475,192,145421,128,0,145666:0:0:0:0:
36,192,145544,128,0,145666:0:0:0:0:
109,192,145544,128,0,145789:0:0:0:0:
329,192,145544,1,0,0:0:0:0:
182,192,145666,128,0,145912:0:0:0:0:
256,192,145789,128,0,146035:0:0:0:0:
329,192,145912,128,0,146158:0:0:0:0:
402,192,146035,128,0,146404:0:0:0:0:
36,192,146035,1,0,0:0:0:0:
475,192,146035,1,0,0:0:0:0:
182,192,146035,1,0,0:0:0:0:
182,192,146281,1,0,0:0:0:0:
256,192,146404,128,0,146773:0:0:0:0:
329,192,146404,1,0,0:0:0:0:
475,192,146527,1,0,0:0:0:0:
402,192,146527,1,0,0:0:0:0:
36,192,146527,1,0,0:0:0:0:
182,192,146650,128,0,146773:0:0:0:0:
109,192,146773,128,0,147757:0:0:0:0:
329,192,146773,1,0,0:0:0:0:
256,192,146896,1,0,0:0:0:0:
182,192,147019,1,0,0:0:0:0:
475,192,147019,1,0,0:0:0:0:
36,192,147019,1,0,0:0:0:0:
402,192,147019,128,0,147142:0:0:0:0:
329,192,147142,128,0,147265:0:0:0:0:
256,192,147265,128,0,147388:0:0:0:0:
36,192,147265,128,0,148003:0:0:0:0:
182,192,147388,128,0,147511:0:0:0:0:
402,192,147511,1,0,0:0:0:0:
475,192,147511,1,0,0:0:0:0:
256,192,147757,128,0,148003:0:0:0:0:
329,192,147757,128,0,147880:0:0:0:0:
402,192,147880,128,0,148003:0:0:0:0:
475,192,148003,128,0,148125:0:0:0:0:
109,192,148003,128,0,148125:0:0:0:0:
182,192,148125,128,0,148248:0:0:0:0:
402,192,148125,128,0,148248:0:0:0:0:
256,192,148248,128,0,148371:0:0:0:0:
329,192,148248,128,0,148371:0:0:0:0:
36,192,148371,128,0,148494:0:0:0:0:
402,192,148371,128,0,148494:0:0:0:0:
329,192,148494,128,0,148617:0:0:0:0:
109,192,148494,128,0,148617:0:0:0:0:
182,192,148617,128,0,148740:0:0:0:0:
256,192,148617,128,0,148740:0:0:0:0:
109,192,148740,128,0,148863:0:0:0:0:
475,192,148740,128,0,148863:0:0:0:0:
182,192,148863,128,0,148986:0:0:0:0:
402,192,148863,128,0,148986:0:0:0:0:
256,192,148986,128,0,149109:0:0:0:0:
329,192,148986,128,0,149109:0:0:0:0:
182,192,149109,128,0,149232:0:0:0:0:
109,192,149109,128,0,149232:0:0:0:0:
36,192,149232,128,0,149355:0:0:0:0:
475,192,149232,128,0,149355:0:0:0:0:
402,192,149232,128,0,149355:0:0:0:0:
329,192,149355,128,0,149478:0:0:0:0:
256,192,149355,128,0,149478:0:0:0:0:
182,192,149478,128,0,149601:0:0:0:0:
109,192,149478,128,0,149970:0:0:0:0:
475,192,149478,128,0,149601:0:0:0:0:
402,192,149478,128,0,149601:0:0:0:0:
36,192,149478,128,0,149601:0:0:0:0:
182,192,149724,1,0,0:0:0:0:
475,192,149724,1,0,0:0:0:0:
36,192,149724,1,0,0:0:0:0:
329,192,149724,1,0,0:0:0:0:
402,192,149970,128,0,150462:0:0:0:0:
36,192,149970,128,0,150093:0:0:0:0:
182,192,149970,128,0,150093:0:0:0:0:
329,192,149970,128,0,150093:0:0:0:0:
475,192,149970,128,0,150093:0:0:0:0:
36,192,150216,1,0,0:0:0:0:
182,192,150216,1,0,0:0:0:0:
329,192,150216,1,0,0:0:0:0:
475,192,150216,1,0,0:0:0:0:
109,192,150462,128,0,150953:0:0:0:0:
182,192,150462,128,0,150584:0:0:0:0:
36,192,150462,128,0,150584:0:0:0:0:
329,192,150462,128,0,150584:0:0:0:0:
475,192,150462,128,0,150584:0:0:0:0:
475,192,150707,1,0,0:0:0:0:
329,192,150707,1,0,0:0:0:0:
182,192,150707,1,0,0:0:0:0:
36,192,150707,1,0,0:0:0:0:
402,192,150953,128,0,151445:0:0:0:0:
329,192,150953,128,0,151199:0:0:0:0:
475,192,150953,1,0,0:0:0:0:
36,192,150953,1,0,0:0:0:0:
256,192,151076,128,0,151322:0:0:0:0:
182,192,151199,128,0,151445:0:0:0:0:
109,192,151322,128,0,151568:0:0:0:0:
36,192,151445,128,0,151568:0:0:0:0:
256,192,151445,128,0,151568:0:0:0:0:
329,192,151445,128,0,151568:0:0:0:0:
475,192,151445,128,0,151568:0:0:0:0:
182,192,151691,1,0,0:0:0:0:
402,192,151691,1,0,0:0:0:0:
109,192,151937,128,0,152060:0:0:0:0:
36,192,151937,128,0,152060:0:0:0:0:
475,192,151937,128,0,152060:0:0:0:0:
256,192,151937,128,0,152060:0:0:0:0:
329,192,151937,128,0,152183:0:0:0:0:
402,192,152060,128,0,152306:0:0:0:0:
182,192,152060,1,0,0:0:0:0:
475,192,152183,128,0,152429:0:0:0:0:
36,192,152183,128,0,152306:0:0:0:0:
109,192,152183,128,0,152429:0:0:0:0:
256,192,152183,1,0,0:0:0:0:
182,192,152306,128,0,152552:0:0:0:0:
329,192,152306,1,0,0:0:0:0:
402,192,152429,128,0,152675:0:0:0:0:
256,192,152429,1,0,0:0:0:0:
329,192,152552,128,0,152798:0:0:0:0:
109,192,152552,1,0,0:0:0:0:
256,192,152675,128,0,152921:0:0:0:0:
36,192,152675,1,0,0:0:0:0:
182,192,152798,128,0,153166:0:0:0:0:
475,192,152921,1,0,0:0:0:0:
402,192,152921,1,0,0:0:0:0:
109,192,152921,1,0,0:0:0:0:
256,192,153044,128,0,153166:0:0:0:0:
109,192,153166,128,0,153412:0:0:0:0:
36,192,153412,128,0,153535:0:0:0:0:
182,192,153412,128,0,153535:0:0:0:0:
256,192,153412,1,0,0:0:0:0:
329,192,153535,1,0,0:0:0:0:
475,192,153535,1,0,0:0:0:0:
109,192,153658,1,0,0:0:0:0:
182,192,153781,1,0,0:0:0:0:
329,192,153904,128,0,154027:0:0:0:0:
475,192,153904,128,0,154027:0:0:0:0:
256,192,153904,1,0,0:0:0:0:
182,192,154027,1,0,0:0:0:0:
36,192,154027,1,0,0:0:0:0:
256,192,154150,1,0,0:0:0:0:
402,192,154273,5,0,0:0:0:0:
182,192,154273,1,0,0:0:0:0:
475,192,154396,128,0,154642:0:0:0:0:
329,192,154396,1,0,0:0:0:0:
109,192,154396,1,0,0:0:0:0:
36,192,154396,1,0,0:0:0:0:
402,192,154519,128,0,154765:0:0:0:0:
256,192,154519,1,0,0:0:0:0:
329,192,154642,128,0,154888:0:0:0:0:
182,192,154642,1,0,0:0:0:0:
256,192,154765,128,0,155011:0:0:0:0:
109,192,154765,1,0,0:0:0:0:
182,192,154888,128,0,155134:0:0:0:0:
36,192,154888,1,0,0:0:0:0:
109,192,155011,128,0,155257:0:0:0:0:
475,192,155011,1,0,0:0:0:0:
36,192,155134,128,0,155380:0:0:0:0:
402,192,155134,1,0,0:0:0:0:
329,192,155257,1,0,0:0:0:0:
475,192,155380,1,0,0:0:0:0:
256,192,155380,1,0,0:0:0:0:
402,192,155503,1,0,0:0:0:0:
182,192,155503,1,0,0:0:0:0:
329,192,155625,1,0,0:0:0:0:
109,192,155748,1,0,0:0:0:0:
402,192,155871,1,0,0:0:0:0:
329,192,155871,128,0,156117:0:0:0:0:
36,192,155871,1,0,0:0:0:0:
109,192,155994,1,0,0:0:0:0:
256,192,156117,1,0,0:0:0:0:
402,192,156117,128,0,156240:0:0:0:0:
182,192,156240,1,0,0:0:0:0:
475,192,156240,128,0,156363:0:0:0:0:
109,192,156363,1,0,0:0:0:0:
36,192,156363,1,0,0:0:0:0:
182,192,156486,1,0,0:0:0:0:
256,192,156486,1,0,0:0:0:0:
109,192,156609,1,0,0:0:0:0:
36,192,156609,1,0,0:0:0:0:
329,192,156609,128,0,156855:0:0:0:0:
402,192,156855,1,0,0:0:0:0:
182,192,156855,1,0,0:0:0:0:
256,192,156855,128,0,157101:0:0:0:0:
36,192,157101,128,0,157347:0:0:0:0:
475,192,157101,128,0,157224:0:0:0:0:
329,192,157224,128,0,157470:0:0:0:0:
182,192,157347,1,0,0:0:0:0:
36,192,157593,128,0,158084:0:0:0:0:
402,192,157593,128,0,158084:0:0:0:0:
109,192,157716,1,0,0:0:0:0:
256,192,157839,1,0,0:0:0:0:
182,192,157839,1,0,0:0:0:0:
475,192,158084,128,0,158207:0:0:0:0:
109,192,158207,1,0,0:0:0:0:
329,192,158330,128,0,158453:0:0:0:0:
182,192,158330,1,0,0:0:0:0:
36,192,158330,128,0,158699:0:0:0:0:
402,192,158453,1,0,0:0:0:0:
475,192,158576,1,0,0:0:0:0:
256,192,158576,128,0,158699:0:0:0:0:
329,192,158822,1,0,0:0:0:0:
402,192,158822,1,0,0:0:0:0:
182,192,158822,128,0,158945:0:0:0:0:
36,192,158822,128,0,159068:0:0:0:0:
475,192,158945,1,0,0:0:0:0:
256,192,159068,1,0,0:0:0:0:
329,192,159068,128,0,159191:0:0:0:0:
109,192,159068,128,0,159191:0:0:0:0:
182,192,159191,1,0,0:0:0:0:
402,192,159191,128,0,159314:0:0:0:0:
475,192,159314,1,0,0:0:0:0:
36,192,159314,128,0,159560:0:0:0:0:
402,192,159560,128,0,159806:0:0:0:0:
256,192,159560,128,0,159683:0:0:0:0:
109,192,159683,1,0,0:0:0:0:
329,192,159806,128,0,160052:0:0:0:0:
36,192,159806,1,0,0:0:0:0:
182,192,159806,1,0,0:0:0:0:
182,192,160052,1,0,0:0:0:0:
475,192,160052,128,0,160298:0:0:0:0:
109,192,160175,1,0,0:0:0:0:
36,192,160298,128,0,160789:0:0:0:0:
182,192,160298,1,0,0:0:0:0:
329,192,160544,1,0,0:0:0:0:
256,192,160544,128,0,160789:0:0:0:0:
402,192,160666,1,0,0:0:0:0:
109,192,160789,1,0,0:0:0:0:
475,192,160789,1,0,0:0:0:0:
475,192,161035,128,0,161281:0:0:0:0:
36,192,161281,1,0,0:0:0:0:
329,192,161281,128,0,161527:0:0:0:0:
109,192,161281,128,0,161527:0:0:0:0:
402,192,161527,128,0,161773:0:0:0:0:
182,192,161527,128,0,161773:0:0:0:0:
36,192,161773,1,0,0:0:0:0:
475,192,161773,128,0,162019:0:0:0:0:
256,192,161773,128,0,162019:0:0:0:0:
109,192,162019,128,0,162142:0:0:0:0:
329,192,162019,128,0,162142:0:0:0:0:
475,192,162142,128,0,162511:0:0:0:0:
256,192,162142,128,0,162511:0:0:0:0:
36,192,162265,1,0,0:0:0:0:
329,192,162388,1,0,0:0:0:0:
109,192,162511,1,0,0:0:0:0:
402,192,162511,128,0,163003:0:0:0:0:
182,192,162511,128,0,163003:0:0:0:0:
36,192,162757,1,0,0:0:0:0:
475,192,162880,1,0,0:0:0:0:
256,192,163003,1,0,0:0:0:0:
329,192,163003,128,0,163248:0:0:0:0:
109,192,163003,128,0,163248:0:0:0:0:
36,192,163125,1,0,0:0:0:0:
402,192,163248,128,0,163617:0:0:0:0:
182,192,163248,1,0,0:0:0:0:
256,192,163371,1,0,0:0:0:0:
109,192,163494,128,0,163740:0:0:0:0:
475,192,163617,1,0,0:0:0:0:
329,192,163740,1,0,0:0:0:0:
36,192,163740,1,0,0:0:0:0:
402,192,163740,128,0,164109:0:0:0:0:
182,192,163740,128,0,163863:0:0:0:0:
109,192,163863,128,0,164232:0:0:0:0:
256,192,164109,1,0,0:0:0:0:
329,192,164232,1,0,0:0:0:0:
475,192,164232,128,0,164601:0:0:0:0:
109,192,164478,128,0,164724:0:0:0:0:
329,192,164724,1,0,0:0:0:0:
475,192,164724,128,0,165216:0:0:0:0:
182,192,164724,128,0,164847:0:0:0:0:
256,192,164724,1,0,0:0:0:0:
109,192,164847,128,0,165216:0:0:0:0:
402,192,164970,1,0,0:0:0:0:
36,192,165462,1,0,0:0:0:0:
256,192,165462,128,0,165584:0:0:0:0:
109,192,165707,1,0,0:0:0:0:
329,192,165707,128,0,165830:0:0:0:0:
182,192,165953,1,0,0:0:0:0:
402,192,165953,128,0,166076:0:0:0:0:
109,192,166076,1,0,0:0:0:0:
36,192,166199,1,0,0:0:0:0:
475,192,166199,1,0,0:0:0:0:
182,192,166322,1,0,0:0:0:0:
256,192,166445,1,0,0:0:0:0:
475,192,166445,128,0,166568:0:0:0:0:
36,192,166691,1,0,0:0:0:0:
109,192,166814,1,0,0:0:0:0:
256,192,166937,1,0,0:0:0:0:
182,192,167060,1,0,0:0:0:0:
256,192,167183,1,0,0:0:0:0:
36,192,167183,1,0,0:0:0:0:
329,192,167306,1,0,0:0:0:0:
402,192,167429,1,0,0:0:0:0:
329,192,167552,1,0,0:0:0:0:
182,192,167675,1,0,0:0:0:0:
109,192,167675,1,0,0:0:0:0:
402,192,167675,1,0,0:0:0:0:
475,192,167798,1,0,0:0:0:0:
36,192,167921,128,0,168166:0:0:0:0:
256,192,167921,1,0,0:0:0:0:
329,192,168044,1,0,0:0:0:0:
402,192,168166,1,0,0:0:0:0:
182,192,168166,128,0,168412:0:0:0:0:
329,192,168289,1,0,0:0:0:0:
402,192,168412,1,0,0:0:0:0:
109,192,168412,128,0,168658:0:0:0:0:
475,192,168535,1,0,0:0:0:0:
182,192,168658,1,0,0:0:0:0:
256,192,168658,1,0,0:0:0:0:
36,192,168658,128,0,168904:0:0:0:0:
329,192,168781,1,0,0:0:0:0:
182,192,168904,128,0,170871:0:0:0:0:
402,192,168904,1,0,0:0:0:0:
329,192,169027,1,0,0:0:0:0:
36,192,169150,128,0,169519:0:0:0:0:
402,192,169150,1,0,0:0:0:0:
402,192,169273,1,0,0:0:0:0:
256,192,169642,1,0,0:0:0:0:
329,192,169642,1,0,0:0:0:0:
475,192,169642,1,0,0:0:0:0:
36,192,169642,128,0,170011:0:0:0:0:
256,192,169765,1,0,0:0:0:0:
329,192,170134,1,0,0:0:0:0:
36,192,170134,128,0,170503:0:0:0:0:
329,192,170257,1,0,0:0:0:0:
475,192,170625,1,0,0:0:0:0:
402,192,170625,1,0,0:0:0:0:
36,192,170625,128,0,170994:0:0:0:0:
475,192,170748,1,0,0:0:0:0:
402,192,171117,128,0,171240:0:0:0:0:
475,192,171117,128,0,171240:0:0:0:0:
329,192,171117,128,0,171240:0:0:0:0:
182,192,171240,1,0,0:0:0:0:
109,192,171240,1,0,0:0:0:0:
36,192,171240,1,0,0:0:0:0:
36,192,171486,128,0,171609:0:0:0:0:
109,192,171486,128,0,171609:0:0:0:0:
182,192,171486,128,0,171609:0:0:0:0:
329,192,171609,1,0,0:0:0:0:
402,192,171609,1,0,0:0:0:0:
475,192,171609,1,0,0:0:0:0:
182,192,171732,1,0,0:0:0:0:
109,192,171732,1,0,0:0:0:0:
36,192,171732,1,0,0:0:0:0:
329,192,171855,1,0,0:0:0:0:
475,192,171855,1,0,0:0:0:0:
182,192,171978,1,0,0:0:0:0:
109,192,171978,1,0,0:0:0:0:
36,192,171978,1,0,0:0:0:0:
475,192,172101,128,0,172347:0:0:0:0:
402,192,172224,128,0,172470:0:0:0:0:
329,192,172347,128,0,172593:0:0:0:0:
256,192,172470,128,0,172716:0:0:0:0:
182,192,172593,128,0,172839:0:0:0:0:
475,192,172593,128,0,172716:0:0:0:0:
109,192,172716,128,0,172962:0:0:0:0:
402,192,172716,128,0,172839:0:0:0:0:
36,192,172839,128,0,172962:0:0:0:0:
329,192,172839,128,0,172962:0:0:0:0:
256,192,172962,128,0,173084:0:0:0:0:
36,192,173084,128,0,174560:0:0:0:0:
475,192,173084,1,0,0:0:0:0:
109,192,173084,1,0,0:0:0:0:
182,192,173084,1,0,0:0:0:0:
402,192,173207,1,0,0:0:0:0:
329,192,173330,1,0,0:0:0:0:
256,192,173453,1,0,0:0:0:0:
475,192,173576,1,0,0:0:0:0:
182,192,173576,1,0,0:0:0:0:
109,192,173576,1,0,0:0:0:0:
256,192,173699,1,0,0:0:0:0:
329,192,173822,1,0,0:0:0:0:
402,192,173945,1,0,0:0:0:0:
109,192,174068,1,0,0:0:0:0:
475,192,174068,1,0,0:0:0:0:
182,192,174191,1,0,0:0:0:0:
256,192,174314,1,0,0:0:0:0:
329,192,174437,1,0,0:0:0:0:
475,192,174560,1,0,0:0:0:0:
109,192,174560,1,0,0:0:0:0:
402,192,174560,1,0,0:0:0:0:
329,192,174683,1,0,0:0:0:0:
256,192,174806,1,0,0:0:0:0:
182,192,174929,1,0,0:0:0:0:
36,192,175052,1,0,0:0:0:0:
402,192,175052,1,0,0:0:0:0:
109,192,175052,1,0,0:0:0:0:
475,192,175052,128,0,175789:0:0:0:0:
329,192,175175,1,0,0:0:0:0:
256,192,175298,1,0,0:0:0:0:
182,192,175421,1,0,0:0:0:0:
402,192,175544,1,0,0:0:0:0:
36,192,175544,1,0,0:0:0:0:
109,192,175544,1,0,0:0:0:0:
182,192,175666,1,0,0:0:0:0:
256,192,175789,1,0,0:0:0:0:
329,192,175912,1,0,0:0:0:0:
36,192,176035,1,0,0:0:0:0:
475,192,176035,1,0,0:0:0:0:
402,192,176035,1,0,0:0:0:0:
109,192,176158,1,0,0:0:0:0:
182,192,176281,1,0,0:0:0:0:
256,192,176404,1,0,0:0:0:0:
329,192,176527,1,0,0:0:0:0:
36,192,176527,1,0,0:0:0:0:
475,192,176527,1,0,0:0:0:0:
256,192,176650,1,0,0:0:0:0:
402,192,176650,1,0,0:0:0:0:
329,192,176773,1,0,0:0:0:0:
182,192,176773,1,0,0:0:0:0:
256,192,176896,1,0,0:0:0:0:
109,192,176896,1,0,0:0:0:0:
36,192,177019,1,0,0:0:0:0:
475,192,177019,128,0,177388:0:0:0:0:
402,192,177019,1,0,0:0:0:0:
182,192,177019,128,0,177757:0:0:0:0:
256,192,177265,1,0,0:0:0:0:
109,192,177511,1,0,0:0:0:0:
402,192,177511,1,0,0:0:0:0:
475,192,177511,1,0,0:0:0:0:
36,192,177511,1,0,0:0:0:0:
329,192,177757,1,0,0:0:0:0:
329,192,177880,128,0,178494:0:0:0:0:
182,192,178003,1,0,0:0:0:0:
36,192,178003,1,0,0:0:0:0:
256,192,178248,1,0,0:0:0:0:
475,192,178248,1,0,0:0:0:0:
402,192,178494,1,0,0:0:0:0:
36,192,178494,1,0,0:0:0:0:
182,192,178494,1,0,0:0:0:0:
182,192,178617,128,0,178986:0:0:0:0:
475,192,178740,1,0,0:0:0:0:
256,192,178740,1,0,0:0:0:0:
109,192,178986,128,0,179232:0:0:0:0:
402,192,178986,1,0,0:0:0:0:
329,192,178986,1,0,0:0:0:0:
36,192,178986,128,0,179478:0:0:0:0:
182,192,179232,128,0,179478:0:0:0:0:
109,192,179478,128,0,179970:0:0:0:0:
475,192,179478,1,0,0:0:0:0:
256,192,179478,128,0,179724:0:0:0:0:
329,192,179724,128,0,179847:0:0:0:0:
402,192,179847,128,0,180093:0:0:0:0:
256,192,179970,1,0,0:0:0:0:
182,192,179970,128,0,180462:0:0:0:0:
36,192,179970,1,0,0:0:0:0:
475,192,180093,128,0,180339:0:0:0:0:
402,192,180339,128,0,180462:0:0:0:0:
36,192,180462,128,0,180584:0:0:0:0:
475,192,180462,128,0,180584:0:0:0:0:
256,192,180462,128,0,180953:0:0:0:0:
329,192,180462,1,0,0:0:0:0:
109,192,180584,128,0,180707:0:0:0:0:
182,192,180707,128,0,180830:0:0:0:0:
329,192,180830,128,0,180953:0:0:0:0:
109,192,180953,1,0,0:0:0:0:
475,192,180953,128,0,181076:0:0:0:0:
36,192,180953,1,0,0:0:0:0:
402,192,181076,128,0,181199:0:0:0:0:
182,192,181199,1,0,0:0:0:0:
329,192,181199,128,0,181322:0:0:0:0:
109,192,181322,1,0,0:0:0:0:
256,192,181322,128,0,181445:0:0:0:0:
329,192,181445,128,0,181568:0:0:0:0:
475,192,181445,1,0,0:0:0:0:
36,192,181445,1,0,0:0:0:0:
402,192,181568,128,0,181691:0:0:0:0:
256,192,181691,1,0,0:0:0:0:
36,192,181691,128,0,181814:0:0:0:0:
109,192,181814,128,0,181937:0:0:0:0:
329,192,181814,1,0,0:0:0:0:
475,192,181937,1,0,0:0:0:0:
182,192,181937,128,0,182060:0:0:0:0:
402,192,181937,1,0,0:0:0:0:
256,192,182060,128,0,182183:0:0:0:0:
329,192,182183,128,0,182306:0:0:0:0:
109,192,182183,1,0,0:0:0:0:
182,192,182306,128,0,182429:0:0:0:0:
402,192,182306,1,0,0:0:0:0:
475,192,182429,1,0,0:0:0:0:
36,192,182429,1,0,0:0:0:0:
256,192,182429,128,0,182552:0:0:0:0:
329,192,182552,128,0,182675:0:0:0:0:
402,192,182675,128,0,182798:0:0:0:0:
182,192,182675,1,0,0:0:0:0:
109,192,182798,1,0,0:0:0:0:
475,192,182798,128,0,182921:0:0:0:0:
329,192,182921,128,0,183044:0:0:0:0:
402,192,182921,1,0,0:0:0:0:
36,192,182921,1,0,0:0:0:0:
256,192,183044,128,0,183166:0:0:0:0:
182,192,183166,128,0,183289:0:0:0:0:
475,192,183166,1,0,0:0:0:0:
109,192,183289,128,0,183412:0:0:0:0:
402,192,183289,1,0,0:0:0:0:
329,192,183412,1,0,0:0:0:0:
256,192,183412,128,0,183535:0:0:0:0:
36,192,183412,1,0,0:0:0:0:
182,192,183535,128,0,183658:0:0:0:0:
329,192,183658,1,0,0:0:0:0:
109,192,183658,128,0,183781:0:0:0:0:
36,192,183781,128,0,183904:0:0:0:0:
402,192,183781,1,0,0:0:0:0:
475,192,183904,1,0,0:0:0:0:
109,192,183904,1,0,0:0:0:0:
256,192,183904,128,0,184027:0:0:0:0:
329,192,184027,128,0,184150:0:0:0:0:
402,192,184150,128,0,184273:0:0:0:0:
182,192,184150,1,0,0:0:0:0:
329,192,184273,128,0,184396:0:0:0:0:
109,192,184273,1,0,0:0:0:0:
36,192,184396,1,0,0:0:0:0:
402,192,184396,1,0,0:0:0:0:
256,192,184396,128,0,184519:0:0:0:0:
475,192,184519,128,0,184642:0:0:0:0:
182,192,184519,1,0,0:0:0:0:
402,192,184642,128,0,184765:0:0:0:0:
109,192,184642,1,0,0:0:0:0:
36,192,184765,1,0,0:0:0:0:
329,192,184765,128,0,184888:0:0:0:0:
182,192,184888,1,0,0:0:0:0:
256,192,184888,128,0,185011:0:0:0:0:
475,192,184888,1,0,0:0:0:0:
402,192,185011,1,0,0:0:0:0:
109,192,185011,1,0,0:0:0:0:
329,192,185134,1,0,0:0:0:0:
256,192,185134,128,0,185380:0:0:0:0:
36,192,185134,1,0,0:0:0:0:
402,192,185380,128,0,185625:0:0:0:0:
109,192,185380,128,0,185625:0:0:0:0:
109,192,185748,1,0,0:0:0:0:
402,192,185748,1,0,0:0:0:0:
256,192,185871,1,0,0:0:0:0:
182,192,185994,1,0,0:0:0:0:
109,192,186117,1,0,0:0:0:0:
329,192,186117,1,0,0:0:0:0:
256,192,186240,1,0,0:0:0:0:
36,192,186240,1,0,0:0:0:0:
182,192,186363,1,0,0:0:0:0:
402,192,186363,1,0,0:0:0:0:
329,192,186486,1,0,0:0:0:0:
109,192,186486,1,0,0:0:0:0:
402,192,186609,1,0,0:0:0:0:
182,192,186609,1,0,0:0:0:0:
256,192,186732,1,0,0:0:0:0:
36,192,186732,1,0,0:0:0:0:
109,192,186855,1,0,0:0:0:0:
475,192,186855,1,0,0:0:0:0:
329,192,186855,1,0,0:0:0:0:
256,192,186978,1,0,0:0:0:0:
402,192,186978,1,0,0:0:0:0:
329,192,187101,1,0,0:0:0:0:
475,192,187101,1,0,0:0:0:0:
182,192,187101,1,0,0:0:0:0:
36,192,187101,1,0,0:0:0:0:
256,192,187224,1,0,0:0:0:0:
109,192,187224,1,0,0:0:0:0:
402,192,187224,1,0,0:0:0:0:
182,192,187347,1,0,0:0:0:0:
329,192,187347,1,0,0:0:0:0:
36,192,187347,128,0,187593:0:0:0:0:
475,192,187347,1,0,0:0:0:0:
402,192,187470,1,0,0:0:0:0:
256,192,187470,1,0,0:0:0:0:
475,192,187593,1,0,0:0:0:0:
109,192,187593,1,0,0:0:0:0:
329,192,187593,1,0,0:0:0:0:
182,192,187716,1,0,0:0:0:0:
402,192,187716,1,0,0:0:0:0:
36,192,187716,1,0,0:0:0:0:
256,192,187839,1,0,0:0:0:0:
475,192,187839,1,0,0:0:0:0:
182,192,187962,1,0,0:0:0:0:
402,192,187962,1,0,0:0:0:0:
475,192,188084,128,0,188330:0:0:0:0:
329,192,188084,1,0,0:0:0:0:
109,192,188084,1,0,0:0:0:0:
36,192,188207,1,0,0:0:0:0:
256,192,188207,1,0,0:0:0:0:
402,192,188207,128,0,188453:0:0:0:0:
329,192,188330,128,0,188576:0:0:0:0:
182,192,188330,1,0,0:0:0:0:
256,192,188453,128,0,188699:0:0:0:0:
109,192,188453,1,0,0:0:0:0:
182,192,188576,128,0,188822:0:0:0:0:
36,192,188576,1,0,0:0:0:0:
109,192,188699,128,0,188945:0:0:0:0:
36,192,188822,128,0,189068:0:0:0:0:
475,192,188822,128,0,188945:0:0:0:0:
402,192,188822,128,0,189068:0:0:0:0:
329,192,188945,128,0,189191:0:0:0:0:
256,192,189068,128,0,189314:0:0:0:0:
182,192,189191,128,0,189314:0:0:0:0:
36,192,189314,128,0,189437:0:0:0:0:
109,192,189314,128,0,189437:0:0:0:0:
475,192,189314,128,0,190052:0:0:0:0:
182,192,189437,128,0,189560:0:0:0:0:
256,192,189560,128,0,189683:0:0:0:0:
329,192,189683,128,0,189806:0:0:0:0:
402,192,189806,128,0,189929:0:0:0:0:
36,192,189806,128,0,189929:0:0:0:0:
109,192,189806,128,0,189929:0:0:0:0:
182,192,189929,128,0,190052:0:0:0:0:
256,192,190052,128,0,190175:0:0:0:0:
329,192,190175,128,0,190298:0:0:0:0:
402,192,190298,128,0,190421:0:0:0:0:
475,192,190298,128,0,190421:0:0:0:0:
36,192,190298,128,0,190421:0:0:0:0:
109,192,190298,128,0,190421:0:0:0:0:
182,192,190421,128,0,190544:0:0:0:0:
256,192,190544,128,0,190666:0:0:0:0:
329,192,190666,128,0,190789:0:0:0:0:
36,192,190789,128,0,191281:0:0:0:0:
109,192,190789,128,0,190912:0:0:0:0:
182,192,190789,128,0,190912:0:0:0:0:
256,192,190789,128,0,190912:0:0:0:0:
475,192,190789,1,0,0:0:0:0:
109,192,191035,1,0,0:0:0:0:
256,192,191035,1,0,0:0:0:0:
182,192,191035,1,0,0:0:0:0:
256,192,191281,128,0,191404:0:0:0:0:
329,192,191281,128,0,191404:0:0:0:0:
402,192,191281,128,0,191404:0:0:0:0:
475,192,191281,128,0,191773:0:0:0:0:
256,192,191527,1,0,0:0:0:0:
329,192,191527,1,0,0:0:0:0:
402,192,191527,1,0,0:0:0:0:
256,192,191773,128,0,191896:0:0:0:0:
182,192,191773,128,0,191896:0:0:0:0:
109,192,191773,128,0,191896:0:0:0:0:
36,192,191773,128,0,192265:0:0:0:0:
182,192,192019,1,0,0:0:0:0:
256,192,192019,1,0,0:0:0:0:
109,192,192019,1,0,0:0:0:0:
256,192,192265,128,0,192388:0:0:0:0:
475,192,192265,128,0,192388:0:0:0:0:
182,192,192388,128,0,192511:0:0:0:0:
402,192,192388,128,0,192511:0:0:0:0:
329,192,192511,128,0,192634:0:0:0:0:
109,192,192511,128,0,192634:0:0:0:0:
36,192,192634,128,0,192757:0:0:0:0:
256,192,192634,128,0,192757:0:0:0:0:
475,192,192757,128,0,193494:0:0:0:0:
402,192,192757,128,0,192880:0:0:0:0:
182,192,192757,128,0,192880:0:0:0:0:
329,192,192880,128,0,193003:0:0:0:0:
256,192,193003,128,0,193125:0:0:0:0:
182,192,193125,128,0,193248:0:0:0:0:
109,192,193248,128,0,193371:0:0:0:0:
36,192,193248,128,0,193371:0:0:0:0:
402,192,193248,128,0,193371:0:0:0:0:
329,192,193371,128,0,193494:0:0:0:0:
36,192,193494,128,0,193617:0:0:0:0:
256,192,193494,128,0,193617:0:0:0:0:
109,192,193617,128,0,193986:0:0:0:0:
182,192,193617,128,0,193740:0:0:0:0:
402,192,193740,128,0,193863:0:0:0:0:
475,192,193740,128,0,193863:0:0:0:0:
329,192,193863,128,0,193986:0:0:0:0:
182,192,193986,128,0,194232:0:0:0:0:
256,192,193986,128,0,194109:0:0:0:0:
36,192,194109,128,0,194232:0:0:0:0:
256,192,194232,128,0,194355:0:0:0:0:
109,192,194232,128,0,194355:0:0:0:0:
402,192,194232,128,0,194355:0:0:0:0:
475,192,194232,128,0,194355:0:0:0:0:
329,192,194355,128,0,194724:0:0:0:0:
182,192,194355,128,0,194478:0:0:0:0:
256,192,194478,128,0,194601:0:0:0:0:
402,192,194601,128,0,194724:0:0:0:0:
36,192,194724,128,0,195216:0:0:0:0:
109,192,194724,128,0,194970:0:0:0:0:
182,192,194724,128,0,194847:0:0:0:0:
256,192,194724,128,0,194847:0:0:0:0:
182,192,194970,1,0,0:0:0:0:
329,192,194970,1,0,0:0:0:0:
256,192,195216,128,0,195339:0:0:0:0:
329,192,195216,128,0,195339:0:0:0:0:
402,192,195216,128,0,195462:0:0:0:0:
475,192,195216,128,0,195707:0:0:0:0:
182,192,195462,1,0,0:0:0:0:
329,192,195462,1,0,0:0:0:0:
256,192,195707,128,0,195830:0:0:0:0:
182,192,195707,128,0,195830:0:0:0:0:
109,192,195707,128,0,195953:0:0:0:0:
36,192,195707,128,0,196199:0:0:0:0:
182,192,195953,1,0,0:0:0:0:
329,192,195953,1,0,0:0:0:0:
329,192,196199,128,0,196322:0:0:0:0:
475,192,196199,128,0,196322:0:0:0:0:
182,192,196322,128,0,196445:0:0:0:0:
36,192,196322,128,0,196445:0:0:0:0:
329,192,196445,128,0,196568:0:0:0:0:
402,192,196445,128,0,196568:0:0:0:0:
182,192,196568,128,0,196691:0:0:0:0:
109,192,196568,128,0,196691:0:0:0:0:
256,192,196691,128,0,196814:0:0:0:0:
36,192,196691,1,0,0:0:0:0:
475,192,196691,1,0,0:0:0:0:
329,192,196814,128,0,196937:0:0:0:0:
402,192,196937,128,0,197060:0:0:0:0:
182,192,196937,1,0,0:0:0:0:
475,192,197060,128,0,197183:0:0:0:0:
36,192,197183,128,0,197921:0:0:0:0:
256,192,197183,1,0,0:0:0:0:
402,192,197183,1,0,0:0:0:0:
109,192,197306,128,0,197429:0:0:0:0:
182,192,197429,128,0,197552:0:0:0:0:
329,192,197429,1,0,0:0:0:0:
256,192,197552,128,0,197675:0:0:0:0:
329,192,197675,128,0,197798:0:0:0:0:
475,192,197675,1,0,0:0:0:0:
109,192,197675,1,0,0:0:0:0:
402,192,197798,128,0,197921:0:0:0:0:
475,192,197921,128,0,198658:0:0:0:0:
182,192,197921,1,0,0:0:0:0:
402,192,198044,128,0,198166:0:0:0:0:
329,192,198166,128,0,198658:0:0:0:0:
36,192,198166,1,0,0:0:0:0:
109,192,198166,1,0,0:0:0:0:
256,192,198289,128,0,198412:0:0:0:0:
182,192,198412,128,0,198658:0:0:0:0:
109,192,198535,128,0,198658:0:0:0:0:
36,192,198658,128,0,198904:0:0:0:0:
402,192,198658,128,0,198781:0:0:0:0:
256,192,198658,1,0,0:0:0:0:
329,192,198781,128,0,198904:0:0:0:0:
256,192,198904,128,0,199027:0:0:0:0:
475,192,198904,128,0,199150:0:0:0:0:
109,192,198904,1,0,0:0:0:0:
182,192,199027,128,0,199150:0:0:0:0:
109,192,199150,128,0,199273:0:0:0:0:
402,192,199150,128,0,199396:0:0:0:0:
329,192,199150,1,0,0:0:0:0:
36,192,199273,128,0,199396:0:0:0:0:
329,192,199396,128,0,199642:0:0:0:0:
256,192,199396,1,0,0:0:0:0:
36,192,199642,128,0,199765:0:0:0:0:
182,192,199642,1,0,0:0:0:0:
475,192,199642,1,0,0:0:0:0:
109,192,199765,128,0,200011:0:0:0:0:
402,192,199888,1,0,0:0:0:0:
182,192,200011,128,0,200625:0:0:0:0:
256,192,200134,1,0,0:0:0:0:
475,192,200134,1,0,0:0:0:0:
36,192,200134,1,0,0:0:0:0:
329,192,200380,1,0,0:0:0:0:
36,192,200625,1,0,0:0:0:0:
109,192,200625,1,0,0:0:0:0:
36,192,200871,128,0,201732:0:0:0:0:
109,192,200871,128,0,201732:0:0:0:0:
329,192,200871,1,0,0:0:0:0:
182,192,200871,1,0,0:0:0:0:
256,192,200871,1,0,0:0:0:0:
182,192,201117,128,0,202101:0:0:0:0:
256,192,201117,128,0,203330:0:0:0:0:
329,192,201117,128,0,201978:0:0:0:0:
402,192,201117,1,0,0:0:0:0:
475,192,201117,1,0,0:0:0:0:
402,192,201486,128,0,201978:0:0:0:0:
475,192,201486,128,0,203084:0:0:0:0:
36,192,201855,128,0,202716:0:0:0:0:
109,192,201855,128,0,202101:0:0:0:0:
329,192,202101,128,0,202347:0:0:0:0:
402,192,202101,128,0,202347:0:0:0:0:
182,192,202224,128,0,202962:0:0:0:0:
109,192,202224,128,0,202716:0:0:0:0:
329,192,202470,128,0,202839:0:0:0:0:
402,192,202470,128,0,202839:0:0:0:0:
36,192,202839,128,0,203699:0:0:0:0:
109,192,202839,128,0,202962:0:0:0:0:
329,192,202962,128,0,203330:0:0:0:0:
402,192,202962,128,0,203084:0:0:0:0:
182,192,203084,128,0,203945:0:0:0:0:
109,192,203084,128,0,203699:0:0:0:0:
402,192,203207,128,0,204191:0:0:0:0:
475,192,203207,128,0,204191:0:0:0:0:
256,192,203453,128,0,203945:0:0:0:0:
329,192,203453,128,0,203945:0:0:0:0:
109,192,203822,128,0,203945:0:0:0:0:
36,192,203822,128,0,203945:0:0:0:0:
182,192,204068,128,0,204191:0:0:0:0:
256,192,204068,128,0,204191:0:0:0:0:
329,192,204068,128,0,204191:0:0:0:0:
36,192,204068,1,0,0:0:0:0:
109,192,204068,1,0,0:0:0:0:
402,192,204314,128,0,204437:0:0:0:0:
475,192,204314,128,0,204437:0:0:0:0:
182,192,204314,1,0,0:0:0:0:
256,192,204314,1,0,0:0:0:0:
329,192,204314,1,0,0:0:0:0:
36,192,204437,1,0,0:0:0:0:
109,192,204437,1,0,0:0:0:0:
402,192,204560,1,0,0:0:0:0:
475,192,204560,1,0,0:0:0:0:
256,192,204560,128,0,206035:0:0:0:0:
36,192,204683,1,0,0:0:0:0:
109,192,204806,1,0,0:0:0:0:
182,192,204929,1,0,0:0:0:0:
475,192,205052,1,0,0:0:0:0:
109,192,205052,1,0,0:0:0:0:
402,192,205175,1,0,0:0:0:0:
36,192,205175,1,0,0:0:0:0:
329,192,205298,1,0,0:0:0:0:
182,192,205298,1,0,0:0:0:0:
402,192,205421,1,0,0:0:0:0:
109,192,205421,1,0,0:0:0:0:
475,192,205544,1,0,0:0:0:0:
36,192,205544,1,0,0:0:0:0:
109,192,205666,1,0,0:0:0:0:
402,192,205666,1,0,0:0:0:0:
182,192,205789,1,0,0:0:0:0:
329,192,205789,1,0,0:0:0:0:
109,192,205912,1,0,0:0:0:0:
36,192,206035,1,0,0:0:0:0:
475,192,206035,1,0,0:0:0:0:
329,192,206035,1,0,0:0:0:0:
402,192,206158,1,0,0:0:0:0:
256,192,206158,1,0,0:0:0:0:
182,192,206281,1,0,0:0:0:0:
329,192,206281,1,0,0:0:0:0:
256,192,206404,1,0,0:0:0:0:
109,192,206404,1,0,0:0:0:0:
182,192,206527,1,0,0:0:0:0:
36,192,206527,1,0,0:0:0:0:
402,192,206527,1,0,0:0:0:0:
475,192,206527,1,0,0:0:0:0:
475,192,206650,1,0,0:0:0:0:
402,192,206773,1,0,0:0:0:0:
329,192,206896,1,0,0:0:0:0:
109,192,207019,1,0,0:0:0:0:
36,192,207019,1,0,0:0:0:0:
256,192,207019,1,0,0:0:0:0:
36,192,207142,1,0,0:0:0:0:
109,192,207265,1,0,0:0:0:0:
182,192,207388,1,0,0:0:0:0:
329,192,207511,1,0,0:0:0:0:
475,192,207511,1,0,0:0:0:0:
256,192,207511,1,0,0:0:0:0:
475,192,207634,1,0,0:0:0:0:
402,192,207757,1,0,0:0:0:0:
329,192,207880,1,0,0:0:0:0:
109,192,207880,1,0,0:0:0:0:
36,192,208003,1,0,0:0:0:0:
182,192,208003,1,0,0:0:0:0:
256,192,208003,1,0,0:0:0:0:
36,192,208125,1,0,0:0:0:0:
109,192,208248,1,0,0:0:0:0:
182,192,208371,1,0,0:0:0:0:
256,192,208494,1,0,0:0:0:0:
475,192,208494,1,0,0:0:0:0:
36,192,208494,1,0,0:0:0:0:
402,192,208617,1,0,0:0:0:0:
109,192,208740,1,0,0:0:0:0:
329,192,208863,1,0,0:0:0:0:
182,192,208986,1,0,0:0:0:0:
256,192,209232,1,0,0:0:0:0:
182,192,209724,1,0,0:0:0:0:
329,192,209970,1,0,0:0:0:0:
329,192,210093,1,0,0:0:0:0:
329,192,210339,1,0,0:0:0:0:
182,192,210707,1,0,0:0:0:0:
329,192,210953,1,0,0:0:0:0:
182,192,211199,1,0,0:0:0:0:
256,192,211445,1,0,0:0:0:0:
182,192,211691,1,0,0:0:0:0:
329,192,211937,1,0,0:0:0:0:
36,192,211937,1,0,0:0:0:0:
475,192,211937,1,0,0:0:0:0:
109,192,212060,1,0,0:0:0:0:
182,192,212183,1,0,0:0:0:0:
402,192,212306,1,0,0:0:0:0:
329,192,212429,1,0,0:0:0:0:
36,192,212429,1,0,0:0:0:0:
475,192,212429,1,0,0:0:0:0:
109,192,212552,1,0,0:0:0:0:
182,192,212675,1,0,0:0:0:0:
256,192,212798,1,0,0:0:0:0:
329,192,212798,1,0,0:0:0:0:
109,192,212921,1,0,0:0:0:0:
402,192,212921,1,0,0:0:0:0:
475,192,212921,1,0,0:0:0:0:
182,192,213044,1,0,0:0:0:0:
256,192,213166,1,0,0:0:0:0:
329,192,213289,1,0,0:0:0:0:
36,192,213289,1,0,0:0:0:0:
182,192,213412,1,0,0:0:0:0:
475,192,213412,1,0,0:0:0:0:
402,192,213412,1,0,0:0:0:0:
256,192,213535,1,0,0:0:0:0:
329,192,213658,1,0,0:0:0:0:
36,192,213658,1,0,0:0:0:0:
402,192,213781,1,0,0:0:0:0:
109,192,213781,1,0,0:0:0:0:
256,192,213904,1,0,0:0:0:0:
182,192,213904,1,0,0:0:0:0:
329,192,214027,1,0,0:0:0:0:
402,192,214150,1,0,0:0:0:0:
475,192,214273,1,0,0:0:0:0:
182,192,214396,1,0,0:0:0:0:
402,192,214396,1,0,0:0:0:0:
109,192,214519,1,0,0:0:0:0:
329,192,214519,1,0,0:0:0:0:
36,192,214642,1,0,0:0:0:0:
256,192,214642,1,0,0:0:0:0:
402,192,214765,1,0,0:0:0:0:
182,192,214765,1,0,0:0:0:0:
329,192,214888,1,0,0:0:0:0:
109,192,214888,1,0,0:0:0:0:
256,192,215011,1,0,0:0:0:0:
36,192,215011,1,0,0:0:0:0:
182,192,215134,1,0,0:0:0:0:
402,192,215134,1,0,0:0:0:0:
329,192,215257,1,0,0:0:0:0:
109,192,215257,1,0,0:0:0:0:
36,192,215380,1,0,0:0:0:0:
256,192,215380,1,0,0:0:0:0:
475,192,215380,1,0,0:0:0:0:
402,192,215503,1,0,0:0:0:0:
182,192,215503,1,0,0:0:0:0:
329,192,215625,1,0,0:0:0:0:
109,192,215625,1,0,0:0:0:0:
256,192,215748,1,0,0:0:0:0:
36,192,215748,1,0,0:0:0:0:
109,192,215871,1,0,0:0:0:0:
329,192,215871,1,0,0:0:0:0:
182,192,215994,1,0,0:0:0:0:
402,192,215994,1,0,0:0:0:0:
109,192,216117,1,0,0:0:0:0:
329,192,216117,1,0,0:0:0:0:
256,192,216240,1,0,0:0:0:0:
36,192,216240,1,0,0:0:0:0:
182,192,216363,1,0,0:0:0:0:
402,192,216363,1,0,0:0:0:0:
475,192,216363,1,0,0:0:0:0:
329,192,216486,1,0,0:0:0:0:
109,192,216486,1,0,0:0:0:0:
36,192,216609,1,0,0:0:0:0:
256,192,216609,1,0,0:0:0:0:
182,192,216732,1,0,0:0:0:0:
475,192,216732,1,0,0:0:0:0:
402,192,216855,1,0,0:0:0:0:
109,192,216855,1,0,0:0:0:0:
36,192,216855,1,0,0:0:0:0:
182,192,216978,1,0,0:0:0:0:
475,192,216978,1,0,0:0:0:0:
36,192,217101,1,0,0:0:0:0:
256,192,217101,1,0,0:0:0:0:
109,192,217224,1,0,0:0:0:0:
329,192,217224,1,0,0:0:0:0:
182,192,217347,1,0,0:0:0:0:
475,192,217347,1,0,0:0:0:0:
256,192,217470,1,0,0:0:0:0:
182,192,217593,1,0,0:0:0:0:
402,192,217593,1,0,0:0:0:0:
109,192,217716,1,0,0:0:0:0:
329,192,217716,1,0,0:0:0:0:
256,192,217839,1,0,0:0:0:0:
36,192,217839,1,0,0:0:0:0:
475,192,217839,1,0,0:0:0:0:
329,192,217962,1,0,0:0:0:0:
402,192,218084,1,0,0:0:0:0:
36,192,218084,1,0,0:0:0:0:
182,192,218084,1,0,0:0:0:0:
109,192,218207,1,0,0:0:0:0:
256,192,218207,1,0,0:0:0:0:
182,192,218330,1,0,0:0:0:0:
329,192,218330,1,0,0:0:0:0:
256,192,218453,1,0,0:0:0:0:
402,192,218453,1,0,0:0:0:0:
329,192,218576,1,0,0:0:0:0:
475,192,218576,1,0,0:0:0:0:
36,192,218576,1,0,0:0:0:0:
109,192,218699,1,0,0:0:0:0:
182,192,218822,1,0,0:0:0:0:
402,192,218822,1,0,0:0:0:0:
182,192,218945,1,0,0:0:0:0:
36,192,219068,1,0,0:0:0:0:
329,192,219068,1,0,0:0:0:0:
109,192,219191,1,0,0:0:0:0:
402,192,219191,1,0,0:0:0:0:
182,192,219314,1,0,0:0:0:0:
475,192,219314,1,0,0:0:0:0:
36,192,219437,1,0,0:0:0:0:
256,192,219437,1,0,0:0:0:0:
109,192,219560,1,0,0:0:0:0:
329,192,219560,1,0,0:0:0:0:
475,192,219560,1,0,0:0:0:0:
182,192,219683,1,0,0:0:0:0:
402,192,219683,1,0,0:0:0:0:
329,192,219806,1,0,0:0:0:0:
109,192,219806,1,0,0:0:0:0:
36,192,219929,1,0,0:0:0:0:
256,192,219929,1,0,0:0:0:0:
475,192,219929,1,0,0:0:0:0:
402,192,220052,1,0,0:0:0:0:
182,192,220052,1,0,0:0:0:0:
329,192,220175,1,0,0:0:0:0:
36,192,220175,128,0,222265:0:0:0:0:
109,192,220175,128,0,221773:0:0:0:0:
