osu file format v14

[General]
AudioFilename: audio.mp3
AudioLeadIn: 0
PreviewTime: 80235
Countdown: 0
SampleSet: Soft
StackLeniency: 0.6
Mode: 0
LetterboxInBreaks: 0
WidescreenStoryboard: 1

[Editor]
Bookmarks: 8421,24432,40410,56394,80371,112344,128334,144306,160296,184287,214225,248099,280164,310127,312143,342089,344081
DistanceSpacing: 1
BeatDivisor: 8
GridSize: 32
TimelineZoom: 3.799999

[Metadata]
Title:WALL FLOWER
TitleUnicode:WALL FLOWER
Artist:Original Love
ArtistUnicode:Original Love
Creator:Dialect
Version:danaus plexippus
Source:
Tags:TOCT-8037 jpop j-pop 90s eyes takao tajima 田島貴男 flowerwall wallflower オリジナル・ラブ eye album pop japanese jazz marathon
BeatmapID:3984352
BeatmapSetID:1929084

[Difficulty]
HPDrainRate:5
CircleSize:4.4
OverallDifficulty:9
ApproachRate:9.4
SliderMultiplier:2.3
SliderTickRate:1

[Events]
//Background and Video events
0,0,"gow-mosby-ttJWmYBUCPw-unsplash.jpg",0,0
//Break Periods
//Storyboard Layer 0 (Background)
//Storyboard Layer 1 (Fail)
//Storyboard Layer 2 (Pass)
//Storyboard Layer 3 (Foreground)
//Storyboard Layer 4 (Overlay)
//Storyboard Sound Samples

[TimingPoints]
450,508.474576271186,4,2,5,35,1,0
958,487.80487804878,4,2,5,35,1,0
1445,480,4,2,5,35,1,0
1925,495.867768595041,4,2,5,35,1,0
2420,500,4,2,5,35,1,0
2920,504.201680672269,4,2,5,35,1,0
3424,500,4,2,5,35,1,0
4424,504.201680672269,4,2,5,35,1,0
5432,500,4,2,5,35,1,0
5932,491.803278688525,4,2,5,35,1,0
6423,495.867768595041,4,2,5,35,1,0
6918,504.201680672269,4,2,5,35,1,0
8421,500,4,2,5,35,1,0
9438,495.867768595041,4,2,5,35,1,0
9933,500,4,2,5,35,1,0
11433,487.80487804878,4,2,5,35,1,0
11920,491.803278688524,4,2,5,35,1,0
12411,517.241379310345,4,2,5,35,1,0
12928,495.867768595042,4,2,5,35,1,0
13423,508.474576271186,4,2,5,35,1,0
13931,500,4,2,5,35,1,0
14431,500,4,2,5,35,1,0
17931,491.803278688524,4,2,5,35,1,0
18422,495.867768595041,4,2,5,35,1,0
18917,500,4,2,5,35,1,0
20417,508.474576271186,4,2,5,35,1,0
20925,491.803278688525,4,2,5,35,1,0
21416,500,4,2,5,35,1,0
23416,508.474576271186,4,2,5,35,1,0
24432,500,4,2,5,55,1,0
24932,495.867768595041,4,2,5,55,1,0
25303,-66.6666666666667,4,2,5,55,0,0
25427,491.803278688525,4,2,5,55,1,0
25672,-66.6666666666667,4,2,5,55,0,0
25918,495.867768595041,4,2,5,55,1,0
26041,-66.6666666666667,4,2,5,55,0,0
26413,504.201680672269,4,2,5,55,1,0
26413,-95.2380952380952,4,2,5,55,0,0
26917,504.201680672269,4,2,5,55,1,0
27043,-95.2380952380952,4,2,5,55,0,0
27295,-64.5161290322581,4,2,5,55,0,0
27925,500,4,2,5,55,1,0
28050,-64.5161290322581,4,2,5,55,0,0
28425,500,4,2,5,55,1,0
28425,-90.9090909090909,4,2,5,55,0,0
29300,-62.5,4,2,5,55,0,0
30425,-100,4,2,5,55,0,0
31300,-66.6666666666667,4,2,5,55,0,0
31925,491.803278688525,4,2,5,55,1,0
32416,500,4,2,5,55,1,0
33291,-66.6666666666667,4,2,5,55,0,0
34416,-95.2380952380952,4,2,5,55,0,0
35291,-64.5161290322581,4,2,5,55,0,0
35416,495.867768595041,4,2,5,55,1,0
35663,-64.5161290322581,4,2,5,55,0,0
36407,-90.9090909090909,4,2,5,55,0,0
37275,-62.5,4,2,5,55,0,0
37399,500,4,2,5,55,1,0
37649,-62.5,4,2,5,55,0,0
37899,504.201680672269,4,2,5,55,1,0
38277,495.867768595041,4,2,5,55,1,0
39888,512.820512820513,4,2,5,55,1,0
40144,532.150776053215,4,2,5,55,1,0
40410,512.820512820513,4,2,5,50,1,0
40922,500,4,2,5,50,1,0
41922,483.870967741936,4,2,5,50,1,0
42405,512.820512820513,4,2,5,50,1,0
42917,480.000000000001,4,2,5,50,1,0
43397,491.803278688525,4,2,5,50,1,0
43888,500.000000000001,4,2,5,50,1,0
44388,508.474576271187,4,2,5,50,1,0
45404,504.20168067227,4,2,5,50,1,0
45908,500.000000000001,4,2,5,50,1,0
46408,500.000000000001,4,2,5,50,1,0
48658,-125,4,2,5,50,0,0
48908,487.804878048781,4,2,5,50,1,0
49151,-126.582278481013,4,2,5,50,0,0
49395,500.000000000001,4,2,5,50,1,0
49895,-125,4,2,5,50,0,0
50895,508.474576271187,4,2,5,50,1,0
51149,-125,4,2,5,50,0,0
51403,500.000000000001,4,2,5,50,1,0
51903,-285.714285714284,4,2,5,50,0,0
52403,-100,4,2,5,50,0,0
53403,495.867768595042,4,2,5,50,1,0
55386,504.20168067227,4,2,5,50,1,0
56394,491.803278688526,4,2,5,55,1,0
56516,-86.9565217391304,4,2,5,55,0,0
56885,504.20168067227,4,2,5,55,1,0
57011,-86.9565217391304,4,2,5,55,0,0
57389,495.867768595042,4,2,5,55,1,0
57512,-86.9565217391304,4,2,5,55,0,0
57884,504.20168067227,4,2,5,55,1,0
58010,-86.9565217391304,4,2,5,55,0,0
58388,500.000000000001,4,2,5,55,1,0
58888,495.867768595042,4,2,5,55,1,0
58888,-86.9565217391304,4,2,5,55,0,0
59383,504.20168067227,4,2,5,55,1,0
59383,-86.9565217391304,4,2,5,55,0,0
60895,500.000000000001,4,2,5,55,1,0
61020,-86.9565217391304,4,2,5,55,0,0
61395,491.803278688526,4,2,5,55,1,0
61517,-86.9565217391304,4,2,5,55,0,0
61886,500.000000000001,4,2,5,55,1,0
62011,-86.9565217391304,4,2,5,55,0,0
62886,495.867768595042,4,2,5,55,1,0
63257,-86.9565217391304,4,2,5,55,0,0
63381,500.000000000001,4,2,5,55,1,0
63631,-86.9565217391304,4,2,5,55,0,0
63881,495.867768595042,4,2,5,55,1,0
64360,500,4,2,5,55,1,0
64871,504.20168067227,4,2,5,55,1,0
66383,500.000000000001,4,2,5,55,1,0
67883,-285.714285714284,4,2,5,55,0,0
68383,-86.9565217391304,4,2,5,55,0,0
68883,504.20168067227,4,2,5,55,1,0
68883,-86.9565217391304,4,2,5,55,0,0
69387,491.803278688526,4,2,5,55,1,0
69755,-86.9565217391304,4,2,5,55,0,0
69878,500.000000000001,4,2,5,55,1,0
70003,-86.9565217391304,4,2,5,55,0,0
71378,495.867768595042,4,2,5,55,1,0
71873,491.803278688526,4,2,5,55,1,0
71873,-86.9565217391304,4,2,5,55,0,0
72364,508.474576271187,4,2,5,55,1,0
72872,495.867768595042,4,2,5,55,1,0
72995,-133.333333333333,4,2,5,55,0,0
74359,504.20168067227,4,2,5,55,1,0
74359,-133.333333333333,4,2,5,55,0,0
75871,500.000000000001,4,2,5,55,1,0
75871,-133.333333333333,4,2,5,55,0,0
76371,500.000000000001,4,2,5,55,1,0
76371,-133.333333333333,4,2,5,55,0,0
78371,-66.6666666666667,4,2,5,55,0,0
78871,526.315789473685,4,2,5,55,1,0
79002,-66.6666666666667,4,2,5,55,0,0
79265,491.803278688525,4,2,5,55,1,0
79265,-66.6666666666667,4,2,5,55,0,0
79633,-133.333333333333,4,2,5,55,0,0
80371,500,4,2,5,75,1,1
80371,-50,4,2,5,75,0,1
81246,-133.333333333333,4,2,5,75,0,1
81621,-66.6666666666667,4,2,5,75,0,1
81871,491.803278688525,4,2,5,75,1,1
81993,-50,4,2,5,75,0,1
82362,504.201680672269,4,2,5,75,1,1
82362,-40,4,2,5,75,0,1
83244,-66.6666666666667,4,2,5,75,0,1
83370,495.867768595041,4,2,5,75,1,1
83617,-66.6666666666667,4,2,5,75,0,1
83865,500,4,2,5,75,1,1
83990,-40,4,2,5,75,0,1
84365,500,4,2,5,75,1,1
84365,-36.3636363636364,4,2,5,75,0,1
84865,495.867768595041,4,2,5,75,1,1
85236,-66.6666666666667,4,2,5,75,0,1
86352,500,4,2,5,75,1,1
87602,-66.6666666666667,4,2,5,75,0,1
88352,-50,4,2,5,75,0,1
89227,-133.333333333333,4,2,5,75,0,1
89602,-66.6666666666667,4,2,5,75,0,1
89977,-50,4,2,5,75,0,1
90352,-40,4,2,5,75,0,1
91227,-57.1428571428571,4,2,5,75,0,1
91602,-50,4,2,5,75,0,1
91977,-40,4,2,5,75,0,1
92352,-36.3636363636364,4,2,5,75,0,1
93227,-66.6666666666667,4,2,5,75,0,1
94352,495.867768595041,4,2,5,75,1,1
95591,-66.6666666666667,4,2,5,75,0,1
96335,504.201680672269,4,2,5,75,1,0
96587,-66.6666666666667,4,2,5,75,0,0
96839,-40,4,2,5,75,0,1
97343,495.867768595041,4,2,5,75,1,1
98334,500,4,2,5,75,1,1
98334,-66.6666666666667,4,2,5,75,0,1
99209,-40,4,2,5,75,0,1
99459,-66.6666666666667,4,2,5,75,0,1
99834,-100,4,2,5,75,0,1
100459,-66.6666666666667,4,2,5,75,0,1
101584,-50,4,2,5,75,0,1
101959,-133.333333333333,4,2,5,75,0,1
102459,-66.6666666666667,4,2,5,75,0,1
102834,-100,4,2,5,75,0,1
103584,-66.6666666666667,4,2,5,75,0,1
105209,-50,4,2,5,75,0,1
105459,-66.6666666666667,4,2,5,75,0,1
105834,495.867768595041,4,2,5,75,1,1
106329,500,4,2,5,75,1,1
106454,-66.6666666666667,4,2,5,75,0,1
107204,-40,4,2,5,75,0,1
107454,-66.6666666666667,4,2,5,75,0,1
109204,-40,4,2,5,75,0,1
109454,-66.6666666666667,4,2,5,75,0,1
109704,-57.1428571428571,4,2,5,75,0,1
110204,-57.1428571428571,4,2,5,75,0,0
111829,476.190476190476,4,2,5,50,1,0
112067,555.555555555556,4,2,5,50,1,0
112344,497.925311203319,4,2,5,50,1,0
112344,-333.333333333333,4,2,5,50,0,0
118319,508.474576271186,4,2,5,50,1,0
118827,508.474576271186,4,2,5,50,1,0
119335,500,4,2,5,50,1,0
120335,500,4,2,5,50,1,0
120335,-333.333333333333,4,2,5,50,0,0
125835,491.803278688525,4,2,5,50,1,0
126326,500,4,2,5,50,1,0
126826,-133.333333333333,4,2,5,50,0,0
127826,508.474576271186,4,2,5,50,1,0
128334,495.867768595041,4,2,5,65,1,1
128334,-57.1428571428571,4,2,5,65,0,1
128829,500,4,2,5,65,1,1
128954,-57.1428571428571,4,2,5,65,0,1
129454,-66.6666666666667,4,2,5,65,0,1
130329,500,4,2,5,65,1,1
130579,-133.333333333333,4,2,5,65,0,1
131954,-66.6666666666667,4,2,5,65,0,1
134079,-133.333333333333,4,2,5,65,0,1
134329,-57.1428571428571,4,2,5,65,0,1
134954,-133.333333333333,4,2,5,65,0,1
135204,-57.1428571428571,4,2,5,65,0,1
135329,487.80487804878,4,2,5,65,1,1
135572,-57.1428571428571,4,2,5,65,0,1
136304,495.867768595041,4,2,5,65,1,1
136427,-57.1428571428571,4,2,5,65,0,1
137807,500,4,2,5,65,1,1
137932,-57.1428571428571,4,2,5,65,0,1
138307,508.474576271186,4,2,5,65,1,1
138561,-133.333333333333,4,2,5,65,0,1
139323,495.867768595041,4,2,5,65,1,1
140314,495.867768595041,4,2,5,65,1,1
140437,-57.1428571428571,4,2,5,65,0,1
140685,-66.6666666666667,4,2,5,65,0,1
142545,-57.1428571428571,4,2,5,65,0,1
142794,500,4,2,5,65,1,1
142919,-44.4444444444445,4,2,5,65,0,1
143169,-133.333333333333,4,2,5,65,0,1
143294,512.820512820513,4,2,5,65,1,1
143550,-80,4,2,5,65,0,1
143806,500,4,2,5,65,1,1
144306,517.241379310345,4,2,5,50,1,0
144823,491.803278688525,4,2,5,50,1,0
145806,500,4,2,5,50,1,0
146306,508.474576271186,4,2,5,50,1,0
146814,500,4,2,5,50,1,0
148314,500,4,2,5,50,1,0
152314,498.960498960499,4,2,5,50,1,0
152563,-133.333333333333,4,2,5,50,0,0
156305,500,4,2,5,50,1,0
159305,495.867768595041,4,2,5,50,1,0
160296,500,4,2,5,55,1,0
161419,495.867768595041,4,2,5,55,1,0
161791,504.201680672269,4,2,5,55,1,0
162295,500,4,2,5,55,1,0
166545,-83.3333333333333,4,2,5,55,0,0
167295,483.870967741935,4,2,5,55,1,0
167778,508.474576271186,4,2,5,55,1,0
168286,500,4,2,5,55,1,0
171286,487.80487804878,4,2,5,55,1,0
171773,500,4,2,5,55,1,0
172273,500,4,2,5,55,1,0
176898,-133.333333333333,4,2,5,55,0,0
181273,487.80487804878,4,2,5,55,1,0
182248,517.241379310345,4,2,5,55,1,0
182248,-66.6666666666667,4,2,5,55,0,0
183153,504.201680672269,4,2,5,55,1,0
183153,-66.6666666666667,4,2,5,55,0,0
183531,-181.818181818181,4,2,5,55,0,0
184287,495.867768595041,4,2,5,75,1,1
184287,-66.6666666666667,4,2,5,75,0,1
185154,-133.333333333333,4,2,5,75,0,1
185526,-66.6666666666667,4,2,5,75,0,1
185898,-50,4,2,5,75,0,1
186270,-40,4,2,5,75,0,1
187138,-66.6666666666667,4,2,5,75,0,1
187882,-40,4,2,5,75,0,1
188253,500,4,2,5,75,1,1
188253,-36.3636363636364,4,2,5,75,0,1
188878,-100,4,2,5,75,0,1
189128,-66.6666666666667,4,2,5,75,0,1
190253,-100,4,2,5,75,0,1
191503,-66.6666666666667,4,2,5,75,0,1
192253,504.201680672269,4,2,5,75,1,1
192253,-66.6666666666667,4,2,5,75,0,1
193135,-133.333333333333,4,2,5,75,0,1
193261,491.803278688525,4,2,5,75,1,1
193506,-66.6666666666667,4,2,5,75,0,1
193875,-50,4,2,5,75,0,1
194244,500,4,2,5,75,1,1
194244,-40,4,2,5,75,0,1
195119,-57.1428571428571,4,2,5,75,0,1
195494,-50,4,2,5,75,0,1
195869,-40,4,2,5,75,0,1
196244,-36.3636363636364,4,2,5,75,0,1
197119,-66.6666666666667,4,2,5,75,0,1
199119,-100,4,2,5,75,0,1
199494,-66.6666666666667,4,2,5,75,0,1
200244,504.201680672269,4,2,5,75,1,0
200496,-66.6666666666667,4,2,5,75,0,0
200748,-40,4,2,5,75,0,1
201252,495.867768595041,4,2,5,75,1,1
202242,495.867768595041,4,2,5,75,1,1
202242,-57.1428571428571,4,2,5,75,0,1
202365,-66.6666666666667,4,2,5,75,0,1
203109,-40,4,2,5,75,0,1
203357,-66.6666666666667,4,2,5,75,0,1
203729,-100,4,2,5,75,0,1
204225,500,4,2,5,75,1,1
204350,-66.6666666666667,4,2,5,75,0,1
205475,-50,4,2,5,75,0,1
206350,-66.6666666666667,4,2,5,75,0,1
207100,-100,4,2,5,75,0,1
208350,-66.6666666666667,4,2,5,75,0,1
209100,-50,4,2,5,75,0,1
209350,-66.6666666666667,4,2,5,75,0,1
209975,-100,4,2,5,75,0,1
210350,-66.6666666666667,4,2,5,75,0,1
211100,-40,4,2,5,75,0,1
211350,-66.6666666666667,4,2,5,75,0,1
213100,-40,4,2,5,75,0,1
213850,-100,4,2,5,75,0,1
214100,-100,4,2,5,75,0,0
215600,491.803278688525,4,2,5,50,1,0
215968,535.714285714286,4,2,5,50,1,0
216235,500,4,2,5,50,1,0
216235,-222.222222222222,4,2,5,50,0,0
219985,535.714285714286,4,2,5,50,1,0
220118,-225.733634311512,4,2,5,50,0,0
220252,495.867768595041,4,2,5,50,1,0
221863,-222.222222222222,4,2,5,50,0,0
222111,-223.713646532438,4,2,5,50,0,0
222235,500,4,2,5,50,1,0
224235,-222.222222222222,4,2,5,50,0,0
228110,-222.965440356745,4,2,5,50,0,0
228235,502.092050209205,4,2,5,50,1,0
229866,-222.222222222222,4,2,5,50,0,0
230117,-223.713646532438,4,2,5,50,0,0
230243,491.803278688525,4,2,5,50,1,0
231226,508.474576271186,4,2,5,50,1,0
232242,495.867768595041,4,2,5,50,1,0
236208,504.201680672269,4,2,5,50,1,0
238224,500,4,2,5,50,1,0
247474,461.538461538462,4,2,5,50,1,0
247877,571.428571428571,4,2,5,58,1,0
247877,-66.6666666666667,4,2,5,58,0,0
248224,495.867768595041,4,2,5,65,1,0
248224,-40,4,2,5,65,0,0
249215,-66.6666666666667,4,2,5,65,0,0
250207,500,4,2,5,65,1,0
250832,-66.6666666666667,4,2,5,65,0,0
252207,-133.333333333333,4,2,5,65,0,0
254082,-66.6666666666667,4,2,5,65,0,0
256144,-66.6666666666667,4,2,5,65,0,1
257644,-66.6666666666667,4,2,5,65,0,0
258144,-66.6666666666667,4,2,5,65,0,1
258207,495.867768595041,4,2,5,65,1,1
259694,-100,4,2,5,65,0,0
260190,500,4,2,5,65,1,0
262190,-66.6666666666667,4,2,5,65,0,1
264190,504.201680672269,4,2,5,65,1,0
264190,-66.6666666666667,4,2,5,65,0,0
266206,500,4,2,5,65,1,0
266206,-66.6666666666667,4,2,5,65,0,0
270206,495.867768595041,4,2,5,65,1,0
271445,-66.6666666666667,4,2,5,65,0,0
272189,500,4,2,5,65,1,0
272689,-66.6666666666667,4,2,5,65,0,0
276189,495.867768595041,4,2,5,65,1,0
276189,-66.6666666666667,4,2,5,65,0,0
278172,-100,4,2,5,65,0,0
279660,504.201680672269,4,2,5,65,1,0
280164,500,4,2,5,80,1,1
280164,-53.763440860215,4,2,5,80,0,1
281164,-100,4,2,5,80,0,1
281789,-50,4,2,5,80,0,1
283039,-40,4,2,5,80,0,1
283664,-133.333333333333,4,2,5,80,0,1
283789,-40,4,2,5,80,0,1
284164,-44.4444444444445,4,2,5,80,0,1
285164,-66.6666666666667,4,2,5,80,0,1
286164,504.201680672269,4,2,5,80,1,1
287172,-66.6666666666667,4,2,5,80,0,1
288180,500,4,2,5,80,1,1
288180,-66.6666666666667,4,2,5,80,0,1
290180,495.867768595041,4,2,5,80,1,1
290180,-66.6666666666667,4,2,5,80,0,1
292163,500,4,2,5,80,1,1
292413,-66.6666666666667,4,2,5,80,0,1
293663,-57.1428571428571,4,2,5,80,0,1
294163,495.867768595041,4,2,5,80,1,1
294410,-57.1428571428571,4,2,5,80,0,1
296146,504.201680672269,4,2,5,80,1,1
296902,-66.6666666666667,4,2,5,80,0,1
297658,-50,4,2,5,80,0,1
297784,-133.333333333333,4,2,5,80,0,1
298162,500,4,2,5,80,1,1
298162,-44.4444444444445,4,2,5,80,0,1
299412,-66.6666666666667,4,2,5,80,0,1
299662,-133.333333333333,4,2,5,80,0,1
299787,-50,4,2,5,80,0,1
300162,495.867768595041,4,2,5,80,1,1
300162,-44.4444444444445,4,2,5,80,0,1
301277,-66.6666666666667,4,2,5,80,0,1
302145,500,4,2,5,80,1,1
303270,-66.6666666666667,4,2,5,80,0,1
304145,504.201680672269,4,2,5,80,1,1
304145,-66.6666666666667,4,2,5,80,0,1
304649,-50,4,2,5,80,0,1
305279,-133.333333333333,4,2,5,80,0,1
305783,-100,4,2,5,80,0,1
306161,495.867768595041,4,2,5,80,1,1
307276,-66.6666666666667,4,2,5,80,0,1
307648,-133.333333333333,4,2,5,80,0,1
307772,-40,4,2,5,80,0,1
308144,-66.6666666666667,4,2,5,80,0,1
310127,504.201680672269,4,2,5,65,1,0
312143,497.92531120332,4,2,5,80,1,1
312143,-50,4,2,5,80,0,1
312391,-66.6666666666667,4,2,5,80,0,1
312640,-40,4,2,5,80,0,1
312765,-66.6666666666667,4,2,5,80,0,1
313512,-57.1428571428571,4,2,5,80,0,1
313761,-66.6666666666667,4,2,5,80,0,1
314134,-44.4444444444445,4,2,5,80,0,1
314383,-80,4,2,5,80,0,1
315628,-36.3636363636364,4,2,5,80,0,1
316125,500,4,2,5,80,1,1
316125,-66.6666666666667,4,2,5,80,0,1
316500,-66.6666666666667,4,2,5,80,0,1
317125,-40,4,2,5,80,0,1
317625,-57.1428571428571,4,2,5,80,0,1
317750,-100,4,2,5,80,0,1
318625,-57.1428571428571,4,2,5,80,0,1
320125,-100,4,2,5,80,0,1
320625,-33.3333333333333,4,2,5,80,0,1
321000,-50,4,2,5,80,0,1
321625,-100,4,2,5,80,0,1
322125,-66.6666666666667,4,2,5,80,0,1
323000,-100,4,2,5,80,0,1
324125,497.92531120332,4,2,5,80,1,1
325743,-66.6666666666667,4,2,5,80,0,1
326365,-57.1428571428571,4,2,5,80,0,1
328107,504.201680672269,4,2,5,80,1,1
328107,-66.6666666666667,4,2,5,80,0,1
328359,-80,4,2,5,80,0,1
328611,-222.222222222221,4,2,5,80,0,1
329115,-66.6666666666667,4,2,5,80,0,1
329367,-222.222222222221,4,2,5,80,0,1
329871,-50,4,2,5,80,0,1
330123,500,4,2,5,80,1,1
330623,-36.3636363636364,4,2,5,80,0,1
331873,-66.6666666666667,4,2,5,80,0,1
332123,-50,4,2,5,80,0,1
332373,-39.2156862745098,4,2,5,80,0,1
333748,-100,4,2,5,80,0,1
334123,497.92531120332,4,2,5,75,1,1
336114,-100,4,2,5,70,0,1
342089,-80,4,2,5,55,0,0
343583,-80,4,2,5,45,0,0

[Colours]
Combo1 : 199,49,255
Combo2 : 192,192,192
Combo3 : 128,128,128
Combo4 : 157,230,155
Combo5 : 151,190,234
Combo6 : 255,185,0

[HitObjects]
100,349,8421,6,0,P|105:318|105:281,1,57.5,2|0,3:2|2:0,2:0:0:0:
189,252,8671,2,0,P|191:316|201:379,1,115,2|0,2:0|3:0,2:0:0:0:
270,329,9046,1,2,2:0:0:0:
111,213,9296,1,2,2:0:0:0:
376,308,9809,5,2,2:0:0:0:
357,383,10183,1,2,2:0:0:0:
453,288,10433,70,0,P|444:257|408:240,1,57.5,2|0,3:2|2:0,2:0:0:0:
334,163,10683,2,0,P|392:143|411:92,1,115,2|0,2:0|3:0,2:0:0:0:
384,16,11058,1,2,2:0:0:0:
192,87,11308,1,2,2:0:0:0:
486,175,11798,5,2,2:0:0:0:
486,175,12165,1,2,2:0:0:0:
303,284,12411,70,0,P|296:319|293:352,1,57.5,2|0,3:2|2:0,2:0:0:0:
203,267,12669,2,0,P|195:209|184:153,1,115.444666666667,2|0,2:0|3:0,2:0:0:0:
122,115,13051,1,2,2:0:0:0:
358,169,13299,1,2,2:0:0:0:
270,17,13804,5,2,2:0:0:0:
328,67,13931,1,2,3:2:0:0:
341,61,14056,1,2,2:0:0:0:
349,43,14181,1,2,2:0:0:0:
347,26,14306,1,2,2:0:0:0:
192,62,14431,1,2,3:2:0:0:
460,128,14806,69,2,2:0:0:0:
488,199,14931,2,0,L|477:263,1,57.5,2|0,3:2|2:0,2:0:0:0:
411,325,15181,2,0,L|400:261,1,57.5,2|0,2:0|2:0,2:0:0:0:
315,236,15431,2,0,L|304:300,1,57.5,2|0,3:2|2:0,2:0:0:0:
238,362,15681,2,0,L|227:298,1,57.5,2|0,2:0|2:0,2:0:0:0:
158,273,15931,5,2,3:2:0:0:
155,260,16056,1,2,2:0:0:0:
162,248,16181,1,2,3:2:0:0:
175,246,16306,1,2,2:0:0:0:
230,179,16431,70,0,P|191:160|168:159,1,57.5,2|0,3:2|2:0,2:0:0:0:
256,67,16681,2,0,P|284:61|344:-2,1,115,2|0,2:0|3:2,2:0:0:0:
418,11,17056,1,2,2:0:0:0:
395,162,17306,1,2,2:0:0:0:
230,179,17764,5,2,2:0:0:0:
230,179,18176,1,2,2:0:0:0:
402,279,18422,70,0,P|400:318|388:355,1,57.5,2|0,3:2|2:0,2:0:0:0:
306,370,18669,2,0,P|302:302|281:238,1,115.463833333333,2|0,2:0|3:0,2:0:0:0:
224,284,19042,1,2,2:0:0:0:
377,167,19292,1,2,2:0:0:0:
248,41,19792,5,2,2:0:0:0:
252,50,20167,1,2,2:0:0:0:
371,20,20417,70,0,P|402:36|408:66,1,57.5,2|0,3:2|2:0,2:0:0:0:
312,123,20671,2,0,P|273:151|293:226,1,115,2|0,2:0|3:0,2:0:0:0:
334,264,21047,1,2,2:0:0:0:
507,166,21293,1,2,2:0:0:0:
393,132,21791,5,2,2:0:0:0:
384,207,21916,1,2,3:2:0:0:
394,210,22041,1,2,2:0:0:0:
405,216,22166,1,2,2:0:0:0:
415,224,22291,1,2,2:0:0:0:
388,344,22416,69,2,3:2:0:0:
382,354,22791,1,2,2:0:0:0:
304,309,22916,2,0,L|237:296,1,57.5,2|0,3:2|2:0,2:0:0:0:
163,349,23166,2,0,L|96:362,1,57.5,2|0,2:0|2:0,2:0:0:0:
127,258,23416,2,0,L|194:245,1,57.5,2|0,3:2|2:0,2:0:0:0:
252,147,23670,5,8,2:0:0:0:
270,43,23797,1,8,2:0:0:0:
242,161,23924,1,8,2:0:0:0:
170,11,24178,70,0,P|182:69|187:83,1,57.5,8|0,2:0|2:0,2:0:0:0:
308,216,24432,22,0,B|312:217|313:235|313:235|401:246|494:276|494:276|496:290|505:296,1,230,6|8,3:1|2:0,2:0:0:0:
447,130,25055,2,0,P|411:153|407:185,1,57.5,2|0,2:0|3:0,2:0:0:0:
361,318,25303,6,0,P|276:335|193:359,1,171.804256580353,8|0,2:0|2:0,2:0:0:0:
64,305,25672,2,0,P|70:259|120:227,1,86.25,2|0,1:2|2:0,2:0:0:0:
212,129,25918,1,8,2:0:0:0:
139,162,26041,70,0,B|133:152|124:147|124:147|124:89|145:36|145:36|162:22|187:25,1,172.5,0|0,1:2|2:0,2:0:0:0:
257,15,26413,6,0,B|248:20|246:35|246:35|148:67|55:78|55:78|54:97|50:99,1,241.499992630005,2|8,3:0|2:0,2:0:0:0:
16,196,27043,2,0,P|60:207|99:223,1,60.375,2|0,2:0|3:0,2:0:0:0:
110,361,27295,70,0,P|178:345|191:239,1,178.25,8|0,2:0|2:0,2:0:0:0:
307,144,27673,2,0,P|285:209|296:240,1,89.1249999999999,0|0,1:2|2:0,2:0:0:0:
408,100,27925,1,8,2:0:0:0:
452,222,28050,6,0,B|458:232|467:237|467:237|467:295|446:348|446:348|429:362|404:359,1,178.25,0|0,1:2|2:0,2:0:0:0:
294,252,28425,70,0,B|303:246|305:230|305:230|408:197|507:185|507:185|508:165|512:163,1,253,2|8,3:0|2:0,2:0:0:0:
408,100,29050,2,0,P|389:69|398:32,1,63.25,2|0,2:0|3:0,2:0:0:0:
462,8,29300,6,0,P|382:84|298:49,1,184,8|0,2:0|2:0,2:0:0:0:
220,186,29675,2,0,P|213:262|213:292,1,92,0|0,1:0|2:0,2:0:0:0:
81,208,29925,1,8,2:0:0:0:
155,143,30050,70,0,B|161:132|170:127|170:127|170:66|148:11|148:11|130:-3|104:0,1,184,0|0,1:2|2:0,2:0:0:0:
33,4,30425,6,0,B|83:17|107:65|107:65|175:33|235:59,1,230,2|10,3:0|2:0,2:0:0:0:
303,84,31050,2,0,L|388:69,1,57.5,2|0,2:0|3:0,2:0:0:0:
475,173,31300,70,0,B|393:155|411:250|305:226,1,172.500006580353,8|0,2:0|1:0,2:0:0:0:
270,320,31675,2,0,P|204:337|144:355,1,86.25,8|0,2:0|2:0,2:0:0:0:
82,273,31925,5,8,2:0:0:0:
64,198,32047,1,8,2:0:0:0:
96,129,32170,1,8,2:0:0:0:
167,98,32293,1,8,2:0:0:0:
232,211,32416,70,0,B|233:207|251:206|251:206|262:118|292:25|292:25|306:23|312:14,1,230,6|8,3:1|2:0,2:0:0:0:
385,15,33041,2,0,P|374:59|337:81,1,57.5,2|2,2:0|2:0,2:0:0:0:
347,206,33291,2,0,P|459:167|525:160,1,172.5,0|0,1:0|2:0,2:0:0:0:
464,319,33666,2,0,P|393:284|338:275,1,86.25,0|0,1:0|2:0,2:0:0:0:
327,331,33916,1,8,2:0:0:0:
327,331,34041,6,0,B|317:325|312:316|312:316|254:316|201:337|201:337|187:354|190:379,1,172.5,0|0,1:2|2:0,2:0:0:0:
241,221,34416,70,0,B|239:216|220:215|220:215|209:121|177:22|177:22|162:20|155:10,1,241.5,2|8,3:0|2:0,2:0:0:0:
78,14,35041,2,0,P|94:64|128:81,1,60.375,2|0,2:0|1:0,2:0:0:0:
288,128,35291,2,0,P|366:183|329:268,1,176.82400135994,8|0,1:2|2:0,2:0:0:0:
322,340,35663,2,0,P|255:368|225:391,1,89.125,0|0,1:0|2:0,2:0:0:0:
333,240,35911,1,8,2:0:0:0:
430,303,36035,6,0,B|439:296|449:295|449:295|474:243|477:186|477:186|468:166|444:158,1,178.25,0|0,1:2|2:0,2:0:0:0:
494,29,36407,70,0,B|485:35|483:51|483:51|380:84|281:96|281:96|280:116|276:118,1,253,2|8,3:0|2:0,2:0:0:0:
207,91,37027,2,0,P|226:45|259:28,1,63.25,2|0,2:0|1:0,2:0:0:0:
56,10,37275,2,0,P|126:95|87:176,1,185.484266666667,0|8,1:0|2:0,2:0:0:0:
26,257,37649,2,0,P|46:335|59:370,1,92,0|0,1:0|2:0,2:0:0:0:
169,280,37899,5,8,2:0:0:0:
39,94,38025,1,8,2:0:0:0:
169,280,38277,1,8,2:0:0:0:
362,365,39764,69,4,3:0:0:0:
367,351,39888,1,4,3:0:0:0:
199,267,40144,1,4,3:0:0:0:
321,118,40410,53,4,3:2:0:0:
384,161,40538,2,0,P|400:125|424:99,1,57.5,2|0,2:0|2:0,2:0:0:0:
378,42,40794,2,0,L|306:30,1,57.5,2|0,2:0|3:0,2:0:0:0:
253,59,41047,2,0,L|181:71,1,57.5,2|0,2:0|2:0,2:0:0:0:
103,36,41297,1,2,2:0:0:0:
93,49,41422,5,0,3:0:0:0:
44,111,41547,2,0,P|60:134|71:161,1,57.5,2|0,2:0|2:0,2:0:0:0:
139,192,41797,2,0,L|129:248,1,57.5,2|0,2:0|3:0,2:0:0:0:
62,282,42042,2,0,L|74:354,1,57.5,2|0,2:0|2:0,2:0:0:0:
203,375,42284,70,0,P|235:317|221:253,1,118.802666666667,2|2,2:0|2:0,2:0:0:0:
302,161,42661,1,2,2:0:0:0:
408,230,42789,1,2,2:0:0:0:
408,230,42917,1,0,3:0:0:0:
408,230,43157,1,2,2:0:0:0:
385,63,43397,5,0,3:0:0:0:
387,55,43519,1,2,2:0:0:0:
390,47,43642,1,2,2:0:0:0:
453,113,43765,2,0,P|468:64|480:45,1,57.9676666666667,2|0,2:0|3:0,2:0:0:0:
309,168,44013,2,0,P|320:194|326:222,1,57.5,2|0,2:0|2:0,2:0:0:0:
247,16,44263,70,0,L|175:4,1,57.5,2|0,2:0|3:0,2:0:0:0:
141,64,44515,2,0,L|85:74,1,57.5,2|0,2:0|2:0,2:0:0:0:
143,157,44769,2,0,P|137:184|125:210,1,57.5,2|0,2:0|3:0,2:0:0:0:
63,261,45023,2,0,P|75:287|81:315,1,57.5,2|0,2:0|2:0,2:0:0:0:
184,355,45277,6,0,L|240:364,1,57.5,2|0,2:0|3:0,2:0:0:0:
299,316,45530,2,0,L|355:306,1,57.5,2|0,2:0|2:0,2:0:0:0:
467,213,45782,2,0,L|410:222,1,57.5,2|0,2:0|3:0,2:0:0:0:
352,144,46033,2,0,L|295:134,1,57.5,2|0,2:0|2:0,2:0:0:0:
255,50,46283,70,0,P|283:12|311:0,1,57.5,2|0,2:0|3:0,2:0:0:0:
200,173,46533,1,2,2:0:0:0:
150,113,46658,1,2,2:0:0:0:
171,39,46908,1,0,3:0:0:0:
116,196,47158,5,2,2:0:0:0:
37,267,47283,2,0,P|131:293|187:322,1,115,2|0,2:0|2:0,2:0:0:0:
200,350,47658,2,0,P|287:350|280:264,1,172.5,2|0,2:0|2:0,2:0:0:0:
235,236,48158,1,2,2:0:0:0:
412,156,48283,69,8,2:0:0:0:
427,82,48408,1,4,3:2:0:0:
310,190,48658,2,0,P|282:135|312:93,1,92,2|0,2:0|3:0,2:0:0:0:
161,4,49151,2,0,P|160:111|75:132,1,184.372485,2|2,2:0|2:0,2:0:0:0:
5,77,49895,2,0,L|108:50,1,92,0|2,3:2|2:0,2:0:0:0:
101,61,50270,1,2,2:0:0:0:
108,68,50395,5,0,3:0:0:0:
114,234,50645,2,0,L|11:207,1,92,2|0,2:0|3:0,2:0:0:0:
196,198,51149,70,0,B|194:296|299:250|297:363,1,182.552533333333,2|2,2:0|2:0,2:0:0:0:
290,351,51778,1,2,2:0:0:0:
274,348,51903,2,0,P|281:327|314:298,1,60.3750000000004,0|0,3:0|2:0,2:0:0:0:
406,253,52403,6,0,L|420:163,1,57.5,4|0,3:2|2:0,2:0:0:0:
356,51,52653,1,2,2:0:0:0:
315,139,52778,1,2,2:0:0:0:
106,356,53526,69,2,2:0:0:0:
66,288,53650,1,2,2:0:0:0:
125,237,53774,2,0,P|171:253|193:258,1,57.5,2|0,2:0|3:0,2:0:0:0:
184,101,54022,1,2,2:0:0:0:
201,60,54146,2,0,P|185:13|170:2,2,57.5,2|0|0,2:0|2:0|3:0,2:0:0:0:
36,93,54518,5,2,2:0:0:0:
123,147,54642,1,2,2:0:0:0:
66,288,54890,1,0,3:0:0:0:
76,278,55014,69,0,2:0:0:0:
86,270,55138,2,0,P|74:230|65:209,1,57.5,2|0,2:0|2:0,2:0:0:0:
179,311,55386,1,0,3:0:0:0:
152,218,55512,21,8,2:0:0:0:
265,317,55638,2,0,P|253:357|244:378,1,57.5,10|0,2:0|2:0,2:0:0:0:
236,229,55890,5,8,2:0:0:0:
378,194,56016,1,8,2:0:0:0:
219,154,56142,1,8,2:0:0:0:
361,119,56268,1,8,2:0:0:0:
278,72,56394,69,6,1:2:0:0:
325,11,56516,2,0,P|370:36|376:75,1,66.125,2|0,2:0|2:0,2:0:0:0:
227,1,56762,1,2,2:0:0:0:
224,11,56885,1,8,2:0:0:0:
151,75,57011,2,0,P|94:89|67:101,1,66.125,2|0,2:0|2:0,2:0:0:0:
219,154,57263,1,2,2:0:0:0:
219,154,57389,5,0,1:0:0:0:
270,215,57512,2,0,P|302:173|285:133,1,66.125,2|0,2:0|2:0,2:0:0:0:
170,220,57760,2,0,L|185:294,1,66.6584095945676,2|8,2:0|2:0,2:0:0:0:
283,359,58010,2,0,L|298:285,1,66.125,2|0,2:0|2:0,2:0:0:0:
405,158,58262,70,0,P|451:143|498:120,1,66.1250012612343,2|0,2:0|1:0,2:0:0:0:
320,12,58513,1,2,2:0:0:0:
272,70,58638,1,2,2:0:0:0:
330,122,58763,1,2,2:0:0:0:
288,189,58888,6,0,P|220:223|246:290,1,132.25,8|0,2:0|2:0,2:0:0:0:
382,356,59259,1,2,2:0:0:0:
382,356,59383,2,0,P|428:371|475:394,1,66.125,2|0,1:2|2:0,2:0:0:0:
307,277,59635,1,2,2:0:0:0:
285,368,59761,2,0,L|299:278,1,66.125,2|8,2:0|2:0,2:0:0:0:
423,229,60013,2,0,L|409:139,1,66.125,2|0,2:0|2:0,2:0:0:0:
300,62,60265,70,0,P|270:30|278:1,1,66.125,2|0,2:0|1:0,2:0:0:0:
201,116,60517,2,0,P|199:148|173:167,1,66.125,2|0,2:0|2:0,2:0:0:0:
108,16,60769,2,0,L|183:34,1,66.1250012612343,2|8,2:0|2:0,2:0:0:0:
83,105,61020,2,0,L|18:89,1,66.125,2|0,2:0|2:0,2:0:0:0:
90,219,61270,6,0,P|108:275|115:316,1,66.1250012612343,2|0,2:0|1:0,2:0:0:0:
204,349,61517,2,0,P|212:317|223:285,1,66.125,2|0,2:0|2:0,2:0:0:0:
338,242,61763,2,0,P|358:275|392:278,1,66.662817927901,2|8,2:0|2:0,2:0:0:0:
315,125,62011,2,0,P|284:134|269:163,1,66.125,2|0,2:0|2:0,2:0:0:0:
440,176,62261,70,0,P|430:84|374:69,1,132.25,2|0,2:0|2:0,2:0:0:0:
277,16,62636,1,2,2:0:0:0:
265,31,62761,1,2,2:0:0:0:
253,46,62886,1,8,2:0:0:0:
185,11,63009,1,2,2:0:0:0:
113,41,63133,1,2,2:0:0:0:
174,102,63257,6,0,P|191:189|134:239,1,133.316819189136,2|0,2:0|2:0,2:0:0:0:
95,234,63631,2,0,P|192:272|239:316,1,132.250002522469,2|8,2:0|2:0,2:0:0:0:
386,240,64128,1,2,2:0:0:0:
367,170,64252,1,8,2:0:0:0:
428,120,64360,69,4,1:2:0:0:
299,286,64610,2,0,L|313:368,1,57.5,2|0,2:0|2:0,2:0:0:0:
242,375,64871,1,8,2:0:0:0:
122,105,65123,2,0,P|156:147|187:149,1,57.5,2|0,2:0|2:0,2:0:0:0:
231,126,65375,2,0,P|291:84|244:-2,1,172.5,0|0,1:0|2:0,2:0:0:0:
173,24,65879,2,0,L|425:70,1,230,8|0,2:0|1:0,2:0:0:0:
472,228,66633,6,0,P|455:296|399:309,1,115,2|8,2:0|2:0,2:0:0:0:
200,140,67133,2,0,B|326:120|269:255|402:232,1,230,2|2,2:0|2:0,2:0:0:0:
399,219,67758,1,2,2:0:0:0:
390,203,67883,2,0,L|320:212,1,60.3750000000004,8|0,2:0|2:0,2:0:0:0:
227,322,68383,70,0,L|134:298,1,66.125,4|0,1:2|2:0,2:0:0:0:
73,249,68633,1,2,2:0:0:0:
138,164,68758,1,2,2:0:0:0:
138,164,68883,6,0,L|231:140,1,66.125,8|0,2:0|2:0,2:0:0:0:
254,94,69135,1,2,2:0:0:0:
253,77,69261,1,2,2:0:0:0:
239,65,69387,1,2,1:2:0:0:
171,7,69509,69,2,2:0:0:0:
101,42,69632,1,2,2:0:0:0:
34,77,69755,2,0,P|15:29|10:1,1,66.662817927901,2|8,2:0|2:0,2:0:0:0:
138,164,70003,2,0,P|129:195|115:226,1,66.125,2|0,2:0|2:0,2:0:0:0:
11,349,70253,6,0,P|97:320|179:316,1,132.25,2|2,2:0|2:0,2:0:0:0:
210,282,70628,2,0,L|219:357,1,66.125,2|0,2:0|2:0,2:0:0:0:
306,243,70878,2,0,L|315:168,1,66.125,10|0,2:0|2:0,2:0:0:0:
244,74,71128,1,4,3:0:0:0:
239,91,71253,1,4,3:0:0:0:
251,105,71378,69,4,3:0:0:0:
390,20,71625,1,4,3:0:0:0:
142,67,71873,2,0,L|45:37,1,66.125,8|0,2:0|2:0,2:0:0:0:
142,67,72118,5,8,2:0:0:0:
20,121,72241,1,8,2:0:0:0:
108,253,72364,38,0,L|120:325,1,57.5,4|0,3:2|2:0,2:0:0:0:
181,223,72618,2,0,L|171:166,1,57.5,2|0,2:0|2:0,2:0:0:0:
216,299,72872,1,2,3:2:0:0:
266,230,72995,2,0,L|256:173,1,43.1250000000001,2|0,2:0|2:0,2:0:0:0:
319,99,73243,2,0,L|326:141,1,43.1250000000001,2|0,2:0|3:0,2:0:0:0:
353,258,73491,2,0,L|343:201,1,43.1250000000001,2|0,2:0|2:0,2:0:0:0:
406,127,73739,2,0,L|413:169,1,43.1250000000001,2|0,2:0|3:0,2:0:0:0:
467,225,73987,5,2,2:0:0:0:
487,215,74111,1,2,3:2:0:0:
484,190,74235,1,2,2:0:0:0:
372,36,74359,70,0,L|414:28,1,43.1250000000001,2|0,3:2|2:0,2:0:0:0:
319,99,74611,2,0,L|276:106,1,43.1250000000001,2|0,2:0|2:0,2:0:0:0:
199,51,74863,1,0,3:0:0:0:
222,30,74989,2,0,L|264:22,1,43.1250000000001,2|0,2:0|2:0,2:0:0:0:
198,155,75241,1,2,2:0:0:0:
198,155,75367,1,0,3:0:0:0:
127,122,75493,2,0,L|84:129,1,43.1250000000001,2|0,2:0|2:0,2:0:0:0:
40,67,75745,1,2,2:0:0:0:
63,46,75871,2,0,L|105:38,1,43.1250000000001,2|0,3:2|2:0,2:0:0:0:
103,212,76121,2,0,L|60:219,1,43.1250000000001,2|0,3:2|2:0,2:0:0:0:
181,313,76371,6,0,P|174:351|167:372,1,43.1250000000001,2|0,3:2|2:0,2:0:0:0:
95,337,76621,2,0,P|102:299|109:278,1,43.1250000000001,2|0,2:0|2:0,2:0:0:0:
200,229,76871,1,0,3:0:0:0:
218,196,76996,2,0,P|211:158|204:137,1,43.1250000000001,2|0,2:0|2:0,2:0:0:0:
155,30,77246,2,0,P|209:79|255:59,1,129.375,2|2,2:0|2:0,2:0:0:0:
307,3,77746,1,8,2:0:0:0:
375,38,77871,1,8,2:0:0:0:
134,177,78121,1,8,2:0:0:0:
353,362,78371,6,0,P|367:291|383:244,1,86.25,4|0,1:2|2:0,2:0:0:0:
498,142,78621,2,0,P|478:186|425:176,1,86.25,4|0,1:2|2:0,2:0:0:0:
284,88,78871,1,8,2:0:0:0:
346,129,79002,2,0,L|447:103,1,86.25,0|0,1:2|2:0,2:0:0:0:
265,233,79265,6,0,B|171:218|214:317|115:300,1,172.5,6|8,1:2|2:0,2:0:0:0:
167,131,79633,2,0,L|156:81,1,43.1250000000001,8|0,2:0|2:0,2:0:0:0:
250,4,79879,5,8,2:0:0:0:
327,25,80002,1,8,2:0:0:0:
404,9,80125,1,8,2:0:0:0:
470,47,80248,1,8,2:0:0:0:
303,96,80371,6,0,B|297:105|283:107|283:107|253:200|242:288|242:288|224:289|206:306,1,230,6|0,3:1|2:0,2:0:0:0:
180,364,80746,1,0,3:0:0:0:
308,343,80871,1,8,2:0:0:0:
340,274,80996,1,2,2:0:0:0:
412,245,81121,1,0,1:0:0:0:
427,327,81246,70,0,P|414:339|402:317,1,43.1250000000001,8|0,2:0|2:0,2:0:0:0:
485,177,81496,2,0,P|476:198|465:203,1,21.5625000000001,8|0,2:0|2:0,2:0:0:0:
404,153,81621,6,0,P|385:114|401:69,1,86.25,4|0,3:2|2:0,2:0:0:0:
296,88,81871,1,8,2:0:0:0:
296,88,81993,70,0,B|283:95|276:108|276:108|196:108|123:79|123:79|103:55|107:21,1,230,4|0,3:2|2:0,2:0:0:0:
226,23,82362,6,0,B|224:27|207:28|207:28|196:111|168:198|168:198|155:200|149:208,1,215.625,4|0,3:2|2:0,2:0:0:0:
149,207,82614,1,2,2:0:0:0:
82,192,82740,1,0,3:0:0:0:
172,320,82866,69,8,2:0:0:0:
178,306,82992,1,4,3:0:0:0:
192,298,83118,1,4,3:0:0:0:
283,355,83244,6,0,B|336:346|342:292|342:292|367:247|417:253,1,170.447256580353,8|2,2:0|2:0,2:0:0:0:
482,257,83617,2,0,P|465:311|420:320,1,86.25,4|0,3:2|2:0,2:0:0:0:
398,376,83865,1,8,2:0:0:0:
452,177,83990,70,0,B|456:151|431:121|431:121|342:86|244:86|244:86|235:101|219:110,1,287.5,4|4,3:2|3:0,2:0:0:0:
249,0,84365,6,0,B|255:8|269:10|269:10|300:106|312:197|312:197|326:198|333:202,1,237.1875,4|0,3:2|2:0,2:0:0:0:
342,192,84615,1,2,2:0:0:0:
234,257,84740,1,0,3:0:0:0:
304,353,84865,69,8,2:0:0:0:
374,372,84988,2,0,P|384:330|382:295,1,57.5,4|8,3:0|3:0,2:0:0:0:
218,184,85236,6,0,P|193:249|69:238,1,172.5,8|8,2:0|2:0,2:0:0:0:
42,119,85608,1,4,3:2:0:0:
108,82,85732,1,2,2:0:0:0:
32,6,85856,37,8,2:0:0:0:
184,58,85980,2,0,B|193:52|198:43|198:43|257:43|311:64|311:64|326:82|323:107,1,172.5,6|2,3:0|2:3,2:0:0:0:
484,165,86352,6,0,B|456:175|420:162|420:162|403:191|370:196,1,115,4|2,3:2|2:0,2:0:0:0:
308,176,86727,1,0,3:0:0:0:
349,331,86852,1,8,2:0:0:0:
413,296,86977,1,0,1:0:0:0:
485,300,87102,1,8,2:0:0:0:
341,338,87227,70,0,P|287:317|232:301,1,115,12|0,2:0|2:0,2:0:0:0:
113,346,87602,2,0,P|86:309|97:261,1,86.25,4|0,3:2|2:0,2:0:0:0:
255,125,87852,21,8,2:0:0:0:
178,186,87977,1,8,3:2:0:0:
69,161,88102,1,8,3:2:0:0:
139,56,88227,1,8,3:2:0:0:
264,137,88352,6,0,B|273:143|275:157|275:157|368:187|456:198|456:198|457:216|474:234,1,230,6|0,3:2|2:0,2:0:0:0:
385,96,88727,1,2,3:2:0:0:
442,285,88852,1,8,2:0:0:0:
463,294,88977,1,2,2:0:0:0:
482,290,89102,1,0,1:0:0:0:
380,356,89227,70,0,P|368:325|318:308,1,86.2500000000002,2|8,1:2|2:0,2:0:0:0:
232,223,89602,2,0,P|223:181|245:145,1,86.25,6|0,3:2|2:0,2:0:0:0:
174,339,89852,1,8,2:0:0:0:
153,262,89977,6,0,B|146:249|133:242|133:242|133:162|162:89|162:89|186:69|220:73,1,230,4|0,3:2|2:0,2:0:0:0:
263,21,90352,70,0,B|259:23|258:40|258:40|175:51|88:79|88:79|86:92|78:98,1,215.625,4|0,3:2|2:0,2:0:0:0:
78,97,90602,1,2,2:0:0:0:
26,37,90727,1,0,3:0:0:0:
116,197,90852,5,8,2:0:0:0:
168,136,90977,1,4,3:0:0:0:
244,136,91102,1,0,1:0:0:0:
165,269,91227,70,0,B|51:251|102:373|-17:352,1,201.25,8|2,2:0|1:2,2:0:0:0:
5,281,91602,2,0,P|132:356|169:384,1,172.5,4|0,3:2|2:0,2:0:0:0:
151,370,91852,1,8,2:0:0:0:
351,238,91977,6,0,B|359:222|374:214|374:214|374:121|340:37|340:37|312:13|273:18,1,287.5,4|0,3:2|2:0,2:0:0:0:
254,129,92352,70,0,B|258:131|259:150|259:150|353:162|451:194|451:194|453:209|462:215,1,237.1875,4|0,3:2|2:0,2:0:0:0:
457,210,92602,1,2,2:0:0:0:
511,148,92727,1,0,3:0:0:0:
417,2,92852,5,8,2:0:0:0:
411,5,92977,1,2,2:0:0:0:
410,14,93102,1,0,1:0:0:0:
474,61,93227,2,0,P|507:242|507:258,1,172.5,8|0,2:0|1:0,2:0:0:0:
462,362,93602,2,0,P|426:327|447:266,1,86.25,12|0,2:0|2:0,2:0:0:0:
347,134,93852,69,10,2:0:0:0:
237,263,93977,2,0,B|239:261|241:250|241:250|315:227|385:217|385:217|386:203|389:201,1,172.5,6|2,3:0|2:3,2:3:0:0:
292,66,94352,53,4,3:2:0:0:
227,26,94475,1,2,2:0:0:0:
152,31,94599,1,2,2:0:0:0:
97,86,94723,1,2,3:2:0:0:
87,257,94847,5,10,2:0:0:0:
116,240,94971,1,2,2:0:0:0:
123,206,95095,1,2,2:0:0:0:
117,175,95219,2,0,P|75:168|43:156,1,57.5,8|0,2:0|2:0,2:0:0:0:
191,339,95467,1,8,2:0:0:0:
232,273,95591,2,0,P|268:329|258:381,1,86.25,4|0,1:2|2:0,2:0:0:0:
338,238,95839,21,8,2:0:0:0:
220,163,95963,1,8,1:2:0:0:
290,46,96087,1,8,1:2:0:0:
408,121,96211,1,8,2:0:0:0:
220,163,96335,6,0,B|243:127|243:127|291:143,1,86.25,4|0,3:2|2:0,2:0:0:0:
408,121,96587,2,0,L|394:177,1,43.125,0|0,1:0|2:0,2:0:0:0:
376,48,96713,2,0,L|386:6,1,43.125,0|0,1:0|2:0,2:0:0:0:
483,59,96839,70,0,P|411:87|234:163,1,215.625,14|0,1:0|2:0,2:0:0:0:
284,141,97091,1,0,1:2:0:0:
367,260,97217,54,0,P|445:226|524:195,1,143.75,14|0,3:2|2:0,2:0:0:0:
344,369,97466,2,0,P|323:340|299:338,1,57.5,8|0,2:0|2:0,2:0:0:0:
188,233,97714,1,2,3:2:0:0:
132,283,97838,2,0,P|152:354|203:364,1,115,8|2,2:0|2:0,2:0:0:0:
22,150,98210,1,0,1:0:0:0:
22,150,98272,1,2,2:0:0:0:
22,150,98334,22,0,L|85:163,1,43.125,2|0,3:2|2:0,2:0:0:0:
127,119,98459,2,0,L|253:98,1,86.25,0|2,2:0|2:0,2:0:0:0:
294,10,98709,1,2,1:2:0:0:
365,137,98834,53,8,2:0:0:0:
382,130,98959,1,2,2:0:0:0:
383,111,99084,1,0,1:0:0:0:
301,21,99209,22,0,L|351:275,1,215.625,10|0,2:0|2:0,2:0:0:0:
259,219,99459,2,0,L|237:111,1,86.25,2|0,2:0|1:0,2:0:0:0:
397,297,99709,1,2,2:0:0:0:
326,379,99834,54,0,P|297:368|298:290,1,115,8|2,2:0|2:0,2:0:0:0:
158,241,100209,1,2,1:2:0:0:
158,241,100271,1,2,2:0:0:0:
158,241,100334,22,0,L|167:286,1,28.75,0|0,1:0|2:0,2:0:0:0:
220,194,100459,2,0,P|187:162|129:165,1,86.25,2|0,2:0|2:0,2:0:0:0:
56,60,100709,2,0,P|97:54|127:23,1,86.25,0|8,3:0|2:0,2:0:0:0:
54,178,100959,2,0,L|73:281,1,86.25,2|0,2:0|3:0,2:0:0:0:
218,98,101209,2,0,L|237:-5,1,86.25,8|0,2:0|2:0,2:0:0:0:
218,98,101459,1,8,2:0:0:0:
287,141,101584,54,0,B|378:126|337:224|433:207,1,172.5,4|0,3:2|2:0,2:0:0:0:
431,207,101834,1,8,2:0:0:0:
495,261,101959,2,0,P|479:300|436:300,1,86.2500000000002,4|2,3:2|2:0,2:0:0:0:
418,116,102334,69,6,1:2:0:0:
376,49,102459,2,0,L|207:11,1,172.5,2|2,2:0|2:0,2:0:0:0:
141,36,102834,2,0,B|124:45|126:64|126:64|139:53|150:54,1,57.5,8|0,2:0|2:0,2:0:0:0:
234,252,103084,1,0,1:0:0:0:
265,186,103209,2,0,P|238:168|253:82,1,115,8|8,2:0|2:0,2:0:0:0:
357,270,103584,2,0,L|339:369,1,86.25,4|0,1:2|2:0,2:0:0:0:
349,181,103834,1,8,2:0:0:0:
221,330,103959,2,0,P|164:305|152:255,1,86.25,6|8,1:2|2:0,2:0:0:0:
424,203,104209,1,8,2:0:0:0:
480,142,104334,6,0,P|497:113|494:91,1,43.125,6|0,1:2|2:0,2:0:0:0:
365,2,104459,2,0,L|381:87,1,86.25,2|0,2:0|1:0,2:0:0:0:
439,289,104709,2,0,P|479:274|498:237,1,86.25,2|8,2:0|2:0,2:0:0:0:
352,259,104959,1,2,2:0:0:0:
360,272,105084,1,2,3:2:0:0:
250,197,105209,22,0,L|69:160,1,172.5,8|0,2:0|2:0,2:0:0:0:
66,174,105459,2,0,P|28:139|47:90,1,86.25,2|0,2:0|3:0,2:0:0:0:
217,1,105709,53,0,1:0:0:0:
217,1,105834,2,0,P|208:45|128:44,1,115,8|0,2:0|2:0,2:0:0:0:
114,266,106205,1,2,2:0:0:0:
114,266,106267,1,2,2:0:0:0:
114,266,106329,22,0,P|117:286|122:299,1,28.75,2|0,1:2|2:0,2:0:0:0:
188,366,106454,2,0,L|204:281,1,86.25,2|0,2:0|2:0,2:0:0:0:
146,59,106704,2,0,L|162:144,1,86.25,2|8,2:0|2:0,2:0:0:0:
231,182,106954,1,2,2:0:0:0:
284,128,107079,1,2,1:2:0:0:
330,372,107204,54,0,P|319:276|428:229,1,215.625,8|0,2:0|2:0,2:0:0:0:
412,225,107454,2,0,L|396:310,1,86.25,2|0,2:0|1:0,2:0:0:0:
366,147,107704,1,2,2:0:0:0:
370,67,107829,22,0,B|455:57|415:157|513:141,1,172.5,8|2,2:0|1:2,2:0:0:0:
276,8,108204,1,0,3:0:0:0:
219,62,108329,54,0,L|160:74,1,43.125,0|0,1:0|2:0,2:0:0:0:
22,152,108454,2,0,L|117:176,1,86.25,2|0,2:0|2:0,2:0:0:0:
189,228,108704,2,0,P|197:279|167:315,1,86.25,2|8,2:0|2:0,2:0:0:0:
93,78,108954,2,0,P|73:40|83:0,1,86.25,2|0,2:0|2:0,2:0:0:0:
273,182,109204,22,0,P|367:233|345:338,1,215.625,2|0,1:2|2:0,2:0:0:0:
348,341,109454,2,0,L|331:245,1,86.25,2|0,2:0|2:0,2:0:0:0:
340,0,109704,2,0,L|314:142,1,100.625,2|8,2:0|2:0,2:0:0:0:
189,228,109954,53,4,3:0:0:0:
93,78,110079,1,4,3:0:0:0:
256,0,110204,1,4,3:1:0:0:
300,334,111704,21,0,3:2:0:0:
283,256,111829,54,0,P|318:245|356:240,1,57.5,0|0,3:0|2:0,2:0:0:0:
442,173,112067,2,0,P|416:169|385:160,1,57.5,0|0,3:0|2:0,2:0:0:0:
313,39,112344,38,0,B|334:-8|387:-20|430:-8|430:-8|411:17|385:26|385:26|382:57|364:79|364:79|373:100|360:124|360:124|374:143|377:159|377:159|371:185|352:202|352:202|361:223|353:253|353:253|368:270|370:297|370:297|395:308|407:331,1,534.750000000001,4|0,3:2|2:0,2:0:0:0:
227,353,116327,6,0,B|230:334|252:316|252:316|247:290|257:269|257:269|241:243|245:219|245:219|222:209|209:185|209:185|208:169|216:147|216:147|198:127|201:104|201:104|178:87|167:59|167:59|140:56|115:37|115:37|153:14|207:12|240:52,1,538.214358680726,2|0,2:0|2:0,2:0:0:0:
343,247,120335,6,0,B|300:112|365:30|365:30|382:45|382:45|392:30|392:30|400:47|400:47|420:40|420:40|447:152|357:254,1,534.750000000001,4|0,3:2|2:0,2:0:0:0:
199,139,124335,6,0,B|218:71|184:28|184:28|175:35|175:35|169:28|169:28|165:37|165:37|155:33|155:33|140:92|186:143,1,274.895991577149,6|0,3:2|2:0,2:0:0:0:
110,268,126576,5,2,2:0:0:0:
182,245,126701,1,2,1:2:0:0:
116,280,126826,2,0,L|62:269,1,43.1250000000001,2|0,2:0|2:0,2:0:0:0:
210,352,127076,2,0,L|264:341,1,43.1250000000001,2|0,2:0|1:0,2:0:0:0:
333,195,127326,37,8,2:0:0:0:
263,158,127451,2,0,L|252:96,1,43.1250000000001,8|0,2:0|2:0,2:0:0:0:
367,123,127701,37,8,2:0:0:0:
440,133,127826,1,8,2:0:0:0:
475,61,127953,2,0,P|424:27|367:48,1,115,8|0,2:0|2:0,2:0:0:0:
178,235,128334,38,0,B|164:212|164:212|170:179,1,50.3125,4|0,3:2|2:0,2:0:0:0:
434,227,128457,2,0,P|402:283|314:276,1,150.9375,2|0,2:0|2:0,2:0:0:0:
322,282,128705,38,0,B|364:299|364:299|368:311|368:311|420:332,1,101.436709292968,2|8,2:0|2:0,2:0:0:0:
171,245,128954,2,0,B|129:262|129:262|125:274|125:274|73:295,1,100.625,2|8,2:0|2:0,2:0:0:0:
308,149,129204,37,2,3:2:0:0:
328,72,129329,1,0,2:0:0:0:
271,14,129454,38,0,P|225:28|234:79,1,86.25,2|0,2:0|1:0,2:0:0:0:
428,62,129704,2,0,P|414:16|363:25,1,86.25,2|8,2:0|2:0,2:0:0:0:
388,198,129954,2,0,P|434:184|425:133,1,86.25,2|0,2:0|2:0,2:0:0:0:
230,126,130204,38,0,P|238:190|247:229,2,86.2500032901765,2|2|2,2:0|1:2|2:0,2:0:0:0:
167,295,130579,38,0,B|112:327|52:226|122:117|278:171|323:239|244:350|344:361|385:327,1,431.250000000001,2|8,2:0|2:0,2:0:0:0:
439,140,131954,2,0,B|425:124|425:124|400:136,1,43.125,0|0,3:0|2:0,3:0:0:0:
475,215,132079,2,0,B|495:210|495:210|497:183,1,43.125,0|0,3:0|2:0,3:0:0:0:
394,221,132204,2,0,B|387:241|387:241|410:256,1,43.125,0|0,3:0|2:0,3:0:0:0:
499,76,132329,37,4,1:2:0:0:
330,135,132454,2,0,P|314:92|349:58,1,86.25,2|0,2:0|2:0,2:0:0:0:
258,238,132704,38,0,B|231:262|226:309|226:309|252:111|58:83|115:-21|187:-99|267:-2|259:43|201:53,1,517.5,2|2,2:0|2:0,2:0:0:0:
14,144,133579,1,4,3:0:0:0:
14,153,133704,1,4,3:0:0:0:
16,168,133829,2,0,P|67:152|141:202,1,129.375,8|0,2:0|2:0,3:0:0:0:
131,185,134079,2,0,P|124:219|110:227,1,43.1250000000001,4|0,3:0|3:0,3:0:0:0:
56,367,134329,54,0,B|115:318|115:318|200:352,1,150.9375,4|0,1:2|2:0,2:0:0:0:
256,342,134579,2,0,B|295:375|295:375|353:352,1,100.625,4|0,1:2|2:0,2:0:0:0:
366,168,134829,1,8,2:0:0:0:
250,236,134954,2,0,P|263:255|290:258,1,43.1250000000001,4|0,1:2|2:0,2:0:0:0:
497,0,135204,6,0,B|456:82|456:82|340:61,1,198.03000191927,4|4,1:2|3:2,2:0:0:0:
157,0,135572,2,0,L|57:28,1,100.625,4|0,1:2|2:0,2:0:0:0:
131,185,135816,53,8,2:0:0:0:
281,126,135938,2,0,L|184:98,1,100.625,4|0,1:2|2:0,2:0:0:0:
33,261,136182,37,8,2:0:0:0:
33,261,136304,1,4,3:2:0:0:
182,357,136427,2,0,P|220:321|197:269,1,100.625,2|0,2:0|2:0,2:0:0:0:
97,94,136675,38,0,B|107:138|107:138|120:145|120:145|132:192,1,100.625,2|8,2:0|2:0,2:0:0:0:
292,358,136923,2,0,B|302:313|302:313|315:306|315:306|327:259,1,100.625,2|8,2:0|2:0,2:0:0:0:
371,98,137171,2,0,B|264:80|304:198|209:190,2,201.25000191927,8|2|2,2:0|3:2|2:0,2:0:0:0:
449,110,137807,1,8,2:0:0:0:
512,0,137932,2,0,L|412:28,1,100.625,0|0,1:2|2:0,2:0:0:0:
216,103,138182,37,2,2:0:0:0:
216,103,138244,1,2,2:0:0:0:
216,103,138307,1,2,1:2:0:0:
112,9,138434,1,0,2:0:0:0:
105,194,138561,38,0,B|255:216|350:269|350:269|406:256|383:185|316:201|327:247,1,384.393264805794,2|2,2:0|2:0,2:0:0:0:
497,300,139818,37,8,2:0:0:0:
497,300,139942,1,2,2:0:0:0:
448,188,140066,1,2,2:0:0:0:
497,300,140190,1,2,2:0:0:0:
421,361,140314,37,4,1:2:0:0:
448,188,140437,2,0,P|471:137|524:135,1,100.625,2|0,2:0|2:0,2:0:0:0:
286,35,140685,38,0,B|260:137|415:127|504:378|345:537|56:250|269:240|332:101|292:22,1,690,2|2,1:2|2:0,2:0:0:0:
185,134,141801,37,8,2:0:0:0:
112,161,141925,1,4,3:0:0:0:
119,181,142049,1,4,3:0:0:0:
131,194,142173,1,4,3:0:0:0:
41,54,142297,6,0,L|0:41,1,43.125,8|0,2:0|2:0,2:0:0:0:
112,161,142421,1,2,1:2:0:0:
196,29,142545,38,0,P|257:12|323:-1,1,100.625,4|0,1:2|2:0,2:0:0:0:
114,0,142793,1,8,2:0:0:0:
38,216,142919,38,0,B|145:198|105:316|200:308,1,194.0625,12|0,2:0|2:0,2:0:0:0:
255,265,143169,2,0,P|264:234|212:230,1,87.2850032901765,4|2,1:2|2:0,2:0:0:0:
328,341,143550,2,0,L|413:354,1,71.875,8|0,2:0|2:0,2:0:0:0:
475,157,143806,37,8,2:0:0:0:
418,209,143931,1,8,2:0:0:0:
342,192,144056,1,8,2:0:0:0:
321,120,144181,1,8,2:0:0:0:
418,19,144306,5,4,3:2:0:0:
311,114,144435,2,0,P|295:62|296:46,1,57.5,2|0,2:0|2:0,2:0:0:0:
223,31,144693,2,0,P|218:59|206:85,1,57.9446666666667,2|0,2:0|3:0,2:0:0:0:
138,110,144945,2,0,L|70:96,1,57.5,2|0,2:0|2:0,2:0:0:0:
28,191,145191,1,2,2:0:0:0:
39,208,145314,5,0,3:0:0:0:
94,262,145437,2,0,P|78:314|79:330,1,57.5,2|0,2:0|2:0,2:0:0:0:
155,306,145683,2,0,P|180:293|208:287,1,57.9676666666667,2|0,2:0|3:0,2:0:0:0:
280,227,145931,69,2,2:0:0:0:
347,324,146056,2,0,P|318:318|293:304,1,57.5,2|0,2:0|2:0,2:0:0:0:
325,162,146306,1,0,3:0:0:0:
418,228,146433,2,0,P|416:256|423:284,1,57.5,2|0,2:0|2:0,2:0:0:0:
471,132,146687,1,2,2:0:0:0:
445,60,146814,2,0,P|380:10|331:22,1,115,0|2,3:0|2:0,2:0:0:0:
248,113,147189,1,2,2:0:0:0:
186,71,147314,1,0,3:0:0:0:
186,71,147439,1,2,2:0:0:0:
93,138,147564,5,2,2:0:0:0:
154,183,147689,2,0,L|210:194,1,57.5,2|0,2:0|3:0,2:0:0:0:
270,241,147939,2,0,L|326:229,1,57.5,2|0,2:0|2:0,2:0:0:0:
399,297,148189,70,0,P|388:342|361:379,1,57.5,2|0,2:0|3:0,2:0:0:0:
306,374,148439,2,0,P|286:352|263:336,1,57.5,2|0,2:0|2:0,2:0:0:0:
341,216,148689,2,0,P|352:171|379:134,1,57.5,2|0,2:0|3:0,2:0:0:0:
434,139,148939,2,0,P|453:160|476:176,1,57.5,2|0,2:0|2:0,2:0:0:0:
381,64,149189,6,0,L|324:52,1,57.5,2|0,2:0|3:0,2:0:0:0:
265,6,149439,2,0,L|208:17,1,57.5,2|0,2:0|2:0,2:0:0:0:
85,103,149689,2,0,B|181:87|145:193|231:186,1,172.5,2|2,2:0|2:0,2:0:0:0:
352,320,150314,69,0,3:0:0:0:
404,265,150439,1,0,2:0:0:0:
358,331,150564,2,0,P|414:352|433:363,1,57.5,0|0,2:0|2:0,2:0:0:0:
307,236,150814,1,2,3:2:0:0:
300,244,150939,1,2,2:0:0:0:
292,254,151064,1,2,2:0:0:0:
242,183,151189,6,0,P|257:110|277:54,1,115,2|0,2:0|2:0,2:0:0:0:
326,19,151564,2,0,P|405:64|374:160,1,172.5,2|0,2:0|2:0,2:0:0:0:
332,161,152064,1,8,2:0:0:0:
489,107,152189,1,8,2:0:0:0:
332,151,152314,1,4,1:2:0:0:
416,338,152563,70,0,L|509:325,1,86.2500000000002,2|0,2:0|3:0,2:0:0:0:
342,247,153062,2,0,P|319:322|214:303,1,172.5,2|2,2:0|2:0,2:0:0:0:
228,316,153686,1,2,2:0:0:0:
235,303,153810,1,0,3:2:0:0:
173,51,154060,1,2,2:0:0:0:
145,121,154185,1,2,2:0:0:0:
208,164,154309,6,0,P|248:173|267:182,1,43.1250000000001,0|0,3:0|2:0,2:0:0:0:
364,99,154559,1,2,2:0:0:0:
358,79,154684,1,2,2:0:0:0:
352,59,154808,1,0,3:0:0:0:
467,166,155058,1,2,2:0:0:0:
461,186,155183,1,2,2:0:0:0:
454,201,155307,2,0,P|380:218|319:241,1,129.375,0|0,3:0|2:0,2:0:0:0:
289,299,155806,2,0,P|298:341|376:345,1,129.375,0|0,3:0|2:0,2:0:0:0:
430,290,156305,70,0,L|492:318,1,57.5,4|0,3:2|2:0,2:0:0:0:
319,170,156555,1,2,2:0:0:0:
379,130,156680,2,0,P|398:91|391:39,1,57.5,2|0,2:0|3:0,2:0:0:0:
306,4,157055,1,2,2:0:0:0:
281,19,157180,1,2,2:0:0:0:
288,45,157305,1,0,3:0:0:0:
220,101,157430,5,2,2:0:0:0:
176,33,157555,1,2,2:0:0:0:
102,51,157680,2,0,P|59:41|27:26,1,57.5,2|0,2:0|3:0,2:0:0:0:
150,156,157930,1,2,2:0:0:0:
122,226,158055,2,0,P|89:255|58:273,1,57.5,2|0,2:0|2:0,2:0:0:0:
87,343,158305,69,0,3:0:0:0:
159,323,158430,1,2,2:0:0:0:
232,301,158555,2,0,P|270:321|295:331,1,57.5,2|0,2:0|2:0,2:0:0:0:
379,271,158805,2,0,P|400:202|343:180,1,115,0|0,3:0|2:0,2:0:0:0:
326,98,159180,1,2,2:0:0:0:
398,54,159305,1,0,3:0:0:0:
254,32,159428,22,0,P|178:10|111:2,1,115,8|8,2:0|2:0,2:0:0:0:
34,141,159800,1,8,2:0:0:0:
144,101,159924,1,4,3:0:0:0:
36,125,160048,1,4,3:0:0:0:
127,93,160172,1,4,3:0:0:0:
6,234,160296,5,4,1:2:0:0:
72,312,160421,2,0,L|85:225,1,57.5,2|0,2:0|2:0,2:0:0:0:
175,184,160671,2,0,L|188:271,1,57.5,2|8,2:0|2:0,2:0:0:0:
228,356,160921,1,2,2:0:0:0:
292,312,161046,69,2,2:0:0:0:
228,347,161171,2,0,P|181:329|154:325,1,57.5,2|0,2:0|1:0,2:0:0:0:
303,214,161419,2,0,P|336:206|368:192,1,57.5,2|0,2:0|2:0,2:0:0:0:
251,131,161666,1,2,2:0:0:0:
266,143,161791,1,8,2:0:0:0:
305,75,161917,1,2,2:0:0:0:
370,30,162043,1,2,2:0:0:0:
442,12,162169,2,0,P|436:72|409:104,1,57.5958312276205,2|0,2:0|1:0,2:0:0:0:
296,66,162420,6,0,P|284:33|286:0,1,57.5,2|0,2:0|2:0,2:0:0:0:
450,163,162670,1,2,2:0:0:0:
364,121,162795,1,8,2:0:0:0:
455,178,162920,2,0,P|437:264|406:301,1,143.75,2|0,2:0|2:0,2:0:0:0:
343,267,163295,1,0,1:0:0:0:
264,357,163420,69,2,2:0:0:0:
198,316,163545,1,2,2:0:0:0:
224,247,163670,2,0,P|236:191|237:160,1,57.5,2|8,2:0|2:0,2:0:0:0:
98,287,163920,2,0,P|110:343|111:374,1,57.5,2|0,2:0|2:0,2:0:0:0:
132,191,164170,6,0,L|36:167,1,57.5,2|0,2:0|1:0,2:0:0:0:
267,77,164420,2,0,L|363:53,1,57.5,2|0,2:0|2:0,2:0:0:0:
75,94,164670,2,0,L|-1:31,1,57.5,2|8,2:0|2:0,2:0:0:0:
338,161,164920,2,0,L|435:179,1,57.5,2|0,2:0|2:0,2:0:0:0:
180,68,165170,70,0,P|167:17|177:-23,1,57.5,2|0,2:0|1:0,2:0:0:0:
224,247,165420,2,0,P|224:281|212:313,1,57.5,2|0,2:0|2:0,2:0:0:0:
262,65,165670,2,0,P|288:19|324:-1,1,57.5,2|8,2:0|2:0,2:0:0:0:
148,270,165920,2,0,P|133:301|109:325,1,57.5,2|0,2:0|2:0,2:0:0:0:
297,361,166170,6,0,L|394:342,1,57.5,2|0,2:0|1:0,2:0:0:0:
313,232,166420,1,2,2:0:0:0:
400,264,166545,2,0,L|302:245,1,69,2|0,2:0|2:0,2:0:0:0:
395,113,166795,1,8,2:0:0:0:
410,92,166920,1,6,3:0:0:0:
463,151,167045,70,0,B|338:139|409:51|281:37,1,204.791993682861,6|2,3:0|2:0,2:0:0:0:
195,96,167536,2,0,P|208:157|229:198,1,57.5,2|2,2:0|2:0,2:0:0:0:
75,241,167778,1,10,3:2:0:0:
124,141,167905,1,2,3:0:0:0:
17,63,168032,1,2,3:0:0:0:
42,157,168159,1,2,3:0:0:0:
115,13,168286,5,6,1:2:0:0:
230,236,168536,1,2,2:0:0:0:
291,196,168661,1,2,2:0:0:0:
227,257,168786,2,0,L|151:236,1,57.5,8|0,2:0|2:0,2:0:0:0:
269,377,169036,1,2,2:0:0:0:
272,369,169161,1,2,2:0:0:0:
323,314,169286,2,0,P|408:349|403:391,1,143.75,0|0,1:0|2:0,2:0:0:0:
394,227,169661,1,2,2:0:0:0:
470,207,169786,2,0,P|482:112|505:-26,1,201.25,8|0,2:0|2:0,2:0:0:0:
499,2,170286,69,0,1:0:0:0:
338,69,170536,1,2,2:0:0:0:
346,90,170661,1,2,2:0:0:0:
297,150,170786,2,0,P|247:136|214:121,1,57.5,8|0,2:0|2:0,2:0:0:0:
164,4,171036,5,2,2:0:0:0:
164,4,171161,1,2,2:0:0:0:
89,77,171286,2,0,P|112:156|168:183,1,143.75,0|0,1:0|2:0,2:0:0:0:
206,247,171651,1,2,2:0:0:0:
177,331,171773,69,8,2:0:0:0:
249,350,171898,1,2,2:0:0:0:
308,298,172023,1,2,2:0:0:0:
382,317,172148,1,2,2:0:0:0:
452,289,172273,6,0,P|475:225|490:200,1,57.5,4|0,1:2|2:0,2:0:0:0:
343,108,172523,1,2,2:0:0:0:
394,193,172648,1,2,2:0:0:0:
488,139,172773,1,8,2:0:0:0:
348,16,173023,69,2,2:0:0:0:
327,8,173148,1,2,2:0:0:0:
315,31,173273,1,0,1:0:0:0:
248,100,173398,5,2,2:0:0:0:
197,154,173523,1,2,2:0:0:0:
130,125,173648,2,0,L|145:46,1,57.5,2|8,2:0|2:0,2:0:0:0:
251,224,173898,1,2,2:0:0:0:
197,279,174023,1,2,2:0:0:0:
263,230,174148,2,0,L|278:309,1,57.5,2|0,2:0|1:0,2:0:0:0:
394,378,174398,69,2,2:0:0:0:
443,317,174523,2,0,P|500:343|508:372,1,57.5,2|0,2:0|2:0,2:0:0:0:
373,230,174773,1,8,2:0:0:0:
379,217,174898,1,2,2:0:0:0:
384,203,175023,1,2,2:0:0:0:
389,189,175148,1,2,2:0:0:0:
473,135,175273,6,0,P|465:106|458:56,1,57.5,2|8,1:2|2:0,2:0:0:0:
336,0,175523,2,0,P|330:41|321:79,1,57.5,2|0,2:0|2:0,2:0:0:0:
271,135,175773,69,8,2:0:0:0:
157,34,175898,1,8,2:0:0:0:
121,136,176023,5,8,2:0:0:0:
57,180,176148,1,8,2:0:0:0:
96,247,176273,38,0,L|181:257,1,57.5,4|0,3:2|2:0,2:0:0:0:
281,338,176523,2,0,L|223:331,1,57.5,2|0,2:0|2:0,2:0:0:0:
56,334,176773,1,0,3:0:0:0:
56,334,176898,2,0,L|117:341,1,43.1250000000001,2|0,2:0|2:0,2:0:0:0:
250,259,177148,2,0,L|292:264,1,43.1250000000001,2|0,2:0|3:0,2:0:0:0:
153,253,177398,2,0,L|110:247,1,43.1250000000001,2|0,2:0|2:0,2:0:0:0:
223,331,177648,2,0,L|265:336,1,43.1250000000001,2|0,2:0|3:0,2:0:0:0:
206,182,177898,1,2,2:0:0:0:
179,112,178023,1,2,2:0:0:0:
235,60,178148,1,2,2:0:0:0:
322,130,178273,6,0,L|316:172,1,43.1250000000001,2|0,3:2|2:0,2:0:0:0:
363,54,178523,2,0,L|368:11,1,43.1250000000001,2|0,2:0|2:0,2:0:0:0:
416,124,178773,1,0,3:0:0:0:
372,45,178898,2,0,L|377:2,1,43.1250000000001,2|0,2:0|2:0,2:0:0:0:
454,0,179148,2,0,L|448:42,1,43.1250000000001,2|0,2:0|3:0,2:0:0:0:
416,124,179398,1,2,2:0:0:0:
498,167,179523,2,0,L|503:124,1,43.1250000000001,2|0,2:0|2:0,2:0:0:0:
417,218,179773,1,2,3:2:0:0:
424,236,179898,1,2,2:0:0:0:
432,255,180023,1,2,2:0:0:0:
441,275,180148,1,2,2:0:0:0:
380,331,180273,70,0,L|338:326,1,43.1250000000001,2|0,3:2|2:0,2:0:0:0:
207,310,180523,2,0,L|164:304,1,43.1250000000001,2|0,2:0|2:0,2:0:0:0:
210,223,180773,1,0,3:0:0:0:
228,210,180898,2,0,L|270:215,1,43.1250000000001,2|0,2:0|2:0,2:0:0:0:
280,136,181148,2,0,L|237:130,1,43.1250016450883,2|0,2:0|3:0,2:0:0:0:
193,0,181394,1,8,2:0:0:0:
348,67,181516,1,8,2:0:0:0:
262,56,181638,5,4,3:0:0:0:
266,38,181760,1,4,3:0:0:0:
280,136,181882,1,4,3:0:0:0:
379,157,182004,1,4,3:0:0:0:
434,64,182126,1,4,3:0:0:0:
364,244,182248,6,0,P|435:266|475:268,1,86.25,4|0,1:2|2:0,2:0:0:0:
232,351,182506,2,0,P|189:358|149:374,1,86.25,4|0,1:2|2:0,2:0:0:0:
332,362,182765,1,8,2:0:0:0:
242,271,182894,2,0,P|210:238|230:190,1,86.25,8|0,2:0|2:0,2:0:0:0:
162,76,183153,6,0,B|78:103|78:103|74:115|74:115|-5:137,1,172.5,4|8,1:2|2:0,2:0:0:0:
46,0,183531,2,0,L|56:39,1,31.6250000000001,8|0,2:0|2:0,2:0:0:0:
155,156,183783,5,8,2:0:0:0:
246,72,183909,1,8,2:0:0:0:
213,8,184035,2,0,L|165:-3,1,31.6250000000001,0|0,3:0|2:0,2:0:0:0:
249,153,184287,6,0,B|255:157|257:167|257:167|324:189|387:197|387:197|388:210|400:223,1,172.5,6|0,3:1|2:0,2:0:0:0:
467,195,184658,1,0,3:0:0:0:
372,349,184782,1,8,2:0:0:0:
323,293,184906,1,2,2:0:0:0:
249,304,185030,1,0,1:0:0:0:
239,315,185154,70,0,P|241:342|262:351,1,43.1250000000001,2|0,1:2|2:0,2:0:0:0:
395,217,185402,2,0,L|383:180,1,21.5625000000001,0|0,1:0|2:0,2:0:0:0:
327,141,185526,6,0,P|348:79|388:75,1,86.25,4|0,3:2|2:0,2:0:0:0:
181,6,185774,1,8,2:0:0:0:
244,49,185898,70,0,B|237:61|225:67|225:67|225:143|252:211|252:211|275:230|307:226,1,230,4|0,3:2|2:0,2:0:0:0:
395,217,186270,6,0,B|360:227|349:256|349:256|282:278|219:286|219:286|218:299|206:312,1,215.625,6|0,3:2|2:0,2:0:0:0:
212,303,186518,1,2,2:0:0:0:
153,255,186642,1,0,3:0:0:0:
91,367,186766,69,8,2:0:0:0:
74,337,186890,1,4,3:0:0:0:
100,311,187014,1,4,3:0:0:0:
177,178,187138,6,0,B|168:111|155:49|155:49|137:33|109:27,1,172.5,2|0,1:2|2:0,2:0:0:0:
48,68,187510,2,0,P|75:119|109:118,1,86.25,4|0,3:2|2:0,2:0:0:0:
177,178,187758,1,8,2:0:0:0:
301,61,187882,70,0,B|278:56|248:81|248:81|212:171|212:271|212:271|228:279|237:295,1,287.5,4|0,3:2|2:0,2:0:0:0:
352,274,188253,6,0,B|339:286|336:299|336:299|248:328|165:338|165:338|164:356|148:373,1,237.1875,6|0,3:2|2:0,2:0:0:0:
154,367,188503,1,2,2:0:0:0:
77,337,188628,1,0,3:0:0:0:
137,262,188753,69,8,3:2:0:0:
264,161,188878,2,0,P|273:123|270:99,1,57.5,4|8,3:0|2:3,2:0:0:0:
74,24,189128,6,0,P|122:101|201:101,1,172.5,6|8,3:2|2:0,2:0:0:0:
309,15,189503,2,0,P|246:6|205:-7,1,86.25,4|0,1:2|2:0,2:0:0:0:
156,31,189753,69,8,2:0:0:0:
265,161,189878,2,0,B|270:170|280:175|280:175|280:235|258:289|258:289|240:304|215:301,1,172.5,6|2,3:0|2:3,2:3:0:0:
97,201,190253,54,0,B|125:211|161:198|161:198|178:227|211:232,1,115,4|2,3:2|2:0,2:0:0:0:
138,280,190628,1,0,3:2:0:0:
223,374,190753,1,8,2:0:0:0:
295,357,190878,1,2,2:0:0:0:
369,356,191003,1,0,3:0:0:0:
213,382,191128,6,0,P|148:360|97:351,1,115,2|8,3:2|2:0,2:0:0:0:
230,208,191503,2,0,P|256:167|232:120,1,86.25,4|0,1:2|2:0,2:0:0:0:
115,23,191753,1,8,2:0:0:0:
148,121,191878,1,8,2:0:0:0:
60,167,192003,1,8,2:0:0:0:
20,60,192128,1,8,2:0:0:0:
261,118,192253,6,0,B|267:113|268:102|268:102|338:80|405:71|405:71|406:57|419:43,1,172.500006580353,6|0,3:1|3:0,2:0:0:0:
319,1,192631,1,2,2:0:0:0:
407,157,192757,2,0,P|361:202|307:184,1,129.375,8|0,1:2|2:0,2:0:0:0:
298,344,193009,2,0,P|323:311|355:306,1,43.125,8|0,2:0|2:0,2:0:0:0:
409,284,193135,6,0,P|412:312|391:336,1,43.1250016450883,8|0,2:0|3:0,2:0:0:0:
230,208,193383,1,8,2:0:0:0:
176,264,193506,2,0,P|124:284|86:304,1,86.25,4|0,3:2|2:0,2:0:0:0:
21,155,193752,1,8,2:0:0:0:
83,207,193875,70,0,B|101:211|126:190|126:190|155:117|155:35|155:35|142:28|135:15,1,230,4|0,3:2|2:0,2:0:0:0:
68,31,194244,6,0,B|76:37|78:51|78:51|169:80|255:91|255:91|256:109|273:127,1,215.625,6|0,3:1|2:0,2:0:0:0:
258,102,194494,1,2,2:0:0:0:
332,79,194619,1,0,3:0:0:0:
465,7,194744,69,8,2:0:0:0:
481,44,194869,1,2,2:0:0:0:
443,73,194994,1,0,3:0:0:0:
349,164,195119,6,0,B|359:251|402:212|408:329,1,150.9375,4|0,1:2|2:0,2:0:0:0:
405,301,195369,1,8,2:0:0:0:
250,378,195494,2,0,P|280:304|289:255,1,115,4|0,3:2|2:0,2:0:0:0:
166,147,195744,1,8,2:0:0:0:
135,305,195869,70,0,B|112:310|80:283|80:283|44:191|44:87|44:87|60:78|69:62,1,287.5,4|0,3:2|2:0,2:0:0:0:
12,5,196244,6,0,B|22:12|24:30|24:30|142:68|253:82|253:82|254:105|276:128,1,316.25,6|0,3:1|1:0,2:0:0:0:
332,75,196619,1,2,2:0:0:0:
444,181,196744,1,8,2:0:0:0:
414,114,196869,1,2,3:2:0:0:
477,71,196994,1,2,2:0:0:0:
383,252,197119,70,0,P|318:268|208:314,1,172.5,4|8,3:2|2:0,2:0:0:0:
407,333,197494,2,0,P|450:303|446:257,1,86.25,4|0,1:2|2:0,2:0:0:0:
282,144,197744,5,8,2:0:0:0:
207,172,197869,2,0,B|201:162|192:158|192:158|192:100|213:48|213:48|230:34|255:37,1,172.5,2|2,3:0|2:3,2:3:0:0:
359,20,198244,5,6,3:2:0:0:
414,75,198369,1,2,2:0:0:0:
419,150,198494,1,2,2:0:0:0:
379,215,198619,1,2,3:2:0:0:
289,256,198744,69,8,2:0:0:0:
274,236,198869,1,2,2:0:0:0:
292,218,198994,1,2,2:0:0:0:
423,339,199119,6,0,P|393:358|361:347,1,57.5,8|0,2:0|2:0,2:0:0:0:
297,375,199369,1,8,2:0:0:0:
182,254,199494,2,0,P|202:198|214:138,1,86.25,6|0,1:2|2:0,2:0:0:0:
70,51,199744,69,12,3:2:0:0:
143,127,199869,1,8,3:2:0:0:
251,102,199994,1,8,3:2:0:0:
251,102,200119,1,8,3:2:0:0:
355,189,200244,6,0,B|372:153|372:153|417:150,1,86.25,4|0,1:2|2:0,2:0:0:0:
447,81,200496,2,0,L|457:39,1,43.125,2|0,2:0|2:0,2:0:0:0:
512,137,200622,2,0,L|503:180,1,43.125,2|0,3:2|2:0,2:0:0:0:
446,263,200748,54,0,L|221:311,1,215.625,12|0,1:0|2:0,2:0:0:0:
235,307,201000,1,8,2:0:0:0:
123,240,201126,2,0,L|281:206,1,143.75,4|0,1:2|2:0,2:0:0:0:
78,347,201375,2,0,P|63:312|42:298,1,57.5,2|0,2:0|2:0,2:0:0:0:
142,131,201623,1,2,3:2:0:0:
93,71,201747,2,0,P|62:134|106:202,1,115,8|0,2:0|2:0,2:0:0:0:
233,87,202119,1,2,2:0:0:0:
233,87,202181,1,2,2:0:0:0:
233,87,202242,54,0,L|220:36,1,50.3125004798174,0|0,1:0|2:0,2:0:0:0:
365,0,202365,2,0,L|340:99,1,86.25,2|0,2:0|2:0,2:0:0:0:
352,156,202613,1,2,2:0:0:0:
509,49,202737,21,8,2:0:0:0:
484,26,202861,1,2,3:2:0:0:
453,45,202985,1,2,1:2:0:0:
356,170,203109,2,0,L|408:379,1,215.625,2|0,1:2|2:0,2:0:0:0:
475,312,203357,2,0,L|448:207,1,86.25,2|2,1:2|2:0,2:0:0:0:
408,379,203605,1,2,3:2:0:0:
297,287,203729,54,0,P|254:296|240:359,1,115,8|2,2:0|2:0,2:0:0:0:
116,303,204101,1,2,2:0:0:0:
116,303,204163,1,2,2:0:0:0:
116,303,204225,22,0,L|154:294,1,28.75,0|0,1:0|2:0,2:0:0:0:
215,157,204350,2,0,P|189:110|140:104,1,86.25,2|0,2:0|2:0,2:0:0:0:
42,247,204600,2,0,P|73:203|58:156,1,86.25,2|8,2:0|2:0,2:0:0:0:
26,29,204850,2,0,L|128:6,1,86.25,2|0,3:2|2:0,2:0:0:0:
259,55,205100,2,0,L|344:74,1,86.25,2|0,3:2|2:0,2:0:0:0:
403,35,205350,1,8,2:0:0:0:
342,149,205475,54,0,P|349:248|383:356,1,172.5,4|0,1:2|2:0,2:0:0:0:
367,318,205725,1,8,2:0:0:0:
202,351,205850,2,0,P|259:294|223:239,1,115,6|0,1:2|2:0,2:0:0:0:
183,244,206100,1,8,2:0:0:0:
86,361,206225,69,4,1:2:0:0:
44,297,206350,2,0,B|52:276|48:252|48:252|57:275|84:284,1,86.25,2|0,2:0|2:0,2:0:0:0:
142,114,206600,1,2,2:0:0:0:
126,134,206725,1,8,2:0:0:0:
69,81,206850,1,2,2:0:0:0:
100,9,206975,1,0,1:0:0:0:
237,88,207100,2,0,P|227:121|219:159,1,57.5,8|0,2:0|2:0,2:0:0:0:
301,6,207350,1,8,2:0:0:0:
336,77,207475,1,2,1:2:0:0:
405,109,207600,1,2,2:0:0:0:
481,97,207725,1,8,2:0:0:0:
365,192,207850,1,8,2:0:0:0:
353,270,207975,1,8,2:0:0:0:
498,311,208100,1,8,2:0:0:0:
406,354,208225,37,4,1:2:0:0:
269,245,208350,2,0,L|174:270,1,86.25,2|2,2:0|2:0,2:0:0:0:
473,190,208600,2,0,P|494:136|470:83,1,86.25,2|8,2:0|2:0,2:0:0:0:
297,331,208850,1,2,2:0:0:0:
229,370,208975,1,8,2:0:0:0:
126,199,209100,54,0,P|163:108|256:122,1,172.5,4|0,1:2|2:0,2:0:0:0:
227,103,209350,2,0,L|254:0,1,86.25,2|0,2:0|2:0,2:0:0:0:
369,182,209600,2,0,L|395:285,1,86.25,2|8,2:0|2:0,2:0:0:0:
331,93,209850,1,2,2:0:0:0:
389,42,209975,2,0,P|430:12|452:11,1,57.5,2|0,2:0|1:0,2:0:0:0:
267,183,210225,22,0,L|260:226,1,28.75,0|0,1:0|2:0,2:0:0:0:
166,285,210350,2,0,B|128:295|128:295|119:304|119:304|52:321,1,86.25,2|0,2:0|2:0,2:0:0:0:
103,114,210600,2,0,P|137:155|124:198,1,86.25,2|8,2:0|2:0,2:0:0:0:
25,114,210850,1,2,2:0:0:0:
45,42,210975,1,0,1:0:0:0:
180,7,211100,54,0,P|288:45|411:62,1,215.625,0|0,1:0|2:0,2:0:0:0:
387,60,211350,2,0,P|337:69|345:129,1,86.25,2|0,2:0|2:0,2:0:0:0:
476,191,211600,1,2,2:0:0:0:
401,211,211725,2,0,P|413:300|432:388,1,172.5,8|0,2:0|2:0,2:0:0:0:
494,292,212100,1,2,2:0:0:0:
494,292,212162,1,2,2:0:0:0:
494,292,212225,21,2,1:2:0:0:
329,340,212350,2,0,P|325:297|312:242,1,86.25,2|0,2:0|2:0,2:0:0:0:
487,21,212600,2,0,P|477:63|473:106,1,86.25,2|8,2:0|2:0,2:0:0:0:
332,121,212850,1,2,2:0:0:0:
267,164,212975,1,2,2:0:0:0:
190,148,213100,54,0,P|126:80|250:18,1,215.625,2|2,1:2|2:0,2:0:0:0:
191,0,213350,2,0,B|145:62|145:62|75:36,1,143.75,2|0,2:0|2:0,2:0:0:0:
9,37,213600,1,2,2:0:0:0:
109,210,213725,21,8,2:0:0:0:
19,307,213850,2,0,P|23:279|52:254,1,57.5,8|0,2:0|2:0,2:0:0:0:
208,346,214100,1,8,2:0:0:0:
430,17,215600,21,0,3:0:0:0:
430,17,215722,1,0,3:0:0:0:
386,222,215968,1,0,3:0:0:0:
303,93,216235,6,0,B|296:103|271:117|271:117|246:211|233:311|233:311|213:312|192:331,1,284.624991313935,6|0,3:2|2:0,2:0:0:0:
125,290,217735,1,2,3:2:0:0:
165,224,217860,2,0,L|160:195,1,25.8749992103577,2|2,2:0|2:0,2:0:0:0:
176,92,218110,70,0,B|171:69|198:36|198:36|298:-3|407:-3|407:-3|416:14|434:24,1,310.499990524292,2|0,2:0|2:0,2:0:0:0:
326,89,219735,1,2,3:2:0:0:
291,156,219860,2,0,L|296:185,1,25.8749992103577,2|2,2:0|2:0,2:0:0:0:
269,263,220118,6,0,B|275:252|301:237|301:237|326:142|339:41|339:41|359:39|380:20,1,284.624991313935,2|0,2:0|2:0,2:0:0:0:
477,134,221739,1,2,3:2:0:0:
419,86,221863,2,0,L|427:57,1,25.8749992103577,2|0,2:0|2:0,2:0:0:0:
246,122,222111,70,0,B|189:146|119:113|119:113|94:163|43:176,1,232.874992893219,2|2,3:2|2:0,2:0:0:0:
102,20,223485,1,2,2:0:0:0:
300,175,223735,1,2,2:0:0:0:
246,230,223860,1,2,2:0:0:0:
294,293,223985,1,2,2:0:0:0:
273,362,224110,1,2,2:0:0:0:
304,290,224235,6,0,B|297:280|272:266|272:266|247:172|234:72|234:72|214:71|193:52,1,284.624991313935,6|0,3:2|2:0,2:0:0:0:
76,2,225735,1,2,3:2:0:0:
111,69,225860,2,0,L|106:98,1,25.8749992103577,2|2,2:0|2:0,2:0:0:0:
0,193,226110,70,0,B|-5:216|22:249|22:249|122:288|231:288|231:288|240:271|258:261,1,310.499990524292,2|0,2:0|2:0,2:0:0:0:
365,283,227735,1,2,3:2:0:0:
322,348,227860,2,0,L|327:377,1,25.8749992103577,2|2,2:0|2:0,2:0:0:0:
471,268,228110,6,0,B|464:256|435:240|435:240|407:134|393:21|393:21|370:19|347:-2,1,310.499990524292,2|0,2:0|2:0,2:0:0:0:
256,76,229741,1,2,3:2:0:0:
304,134,229866,2,0,L|333:126,1,25.8749992103577,2|0,2:0|2:0,2:0:0:0:
203,197,230117,70,0,B|146:173|76:206|76:206|51:156|0:143,1,227.377992893219,2|2,3:2|2:0,2:0:0:0:
33,72,231480,1,8,2:0:0:0:
111,60,231607,1,8,2:0:0:0:
246,7,231734,1,8,2:0:0:0:
266,29,231861,1,8,2:0:0:0:
295,17,231988,1,8,2:0:0:0:
376,95,232115,1,8,2:0:0:0:
376,95,232179,1,0,2:0:0:0:
376,95,232242,6,0,B|371:96|370:114|370:114|278:126|180:157|180:157|178:172|169:178,1,230,6|8,3:1|2:0,2:0:0:0:
109,191,232861,1,2,2:0:0:0:
79,266,232985,1,0,1:0:0:0:
114,339,233109,2,0,P|143:357|175:356,1,57.5,2|0,1:2|2:0,2:0:0:0:
67,255,233357,2,0,P|38:257|15:274,1,57.5,2|0,2:0|2:0,2:0:0:0:
161,281,233605,69,8,2:0:0:0:
229,254,233729,2,0,B|235:251|247:261|247:261|262:298|262:339|262:339|256:343|252:350,1,115,0|0,1:2|2:0,2:0:0:0:
252,349,234225,6,0,B|260:344|262:329|262:329|357:298|447:288|447:288|448:269|452:267,1,230,2|8,3:0|2:0,2:0:0:0:
417,207,234845,1,2,2:0:0:0:
466,148,234969,1,0,1:0:0:0:
393,66,235093,2,0,P|353:101|316:12,1,172.5,0|0,1:0|1:0,2:0:0:0:
138,134,235713,69,8,2:0:0:0:
181,73,235837,2,0,P|216:91|219:125,1,57.5,2|0,2:0|2:0,2:0:0:0:
82,200,236084,1,2,2:0:0:0:
133,258,236208,6,0,B|137:259|138:277|138:277|226:288|319:318|319:318|321:332|330:338,1,230,2|8,3:1|2:0,2:0:0:0:
400,313,236838,1,2,2:0:0:0:
485,160,237090,1,8,2:0:0:0:
409,182,237216,2,0,P|373:192|342:208,1,57.5,2|0,2:0|2:0,2:0:0:0:
448,248,237468,2,0,P|474:259|502:266,1,57.5,2|0,2:0|2:0,2:0:0:0:
399,37,237720,69,8,2:0:0:0:
334,0,237846,2,0,B|325:-1|313:7|313:7|299:43|299:84|299:84|305:87|309:94,1,115,0|0,1:2|2:0,2:0:0:0:
249,178,238224,6,0,B|196:190|171:240|171:240|101:207|38:233,1,230,2|10,3:2|2:0,2:0:0:0:
12,135,238849,1,2,2:0:0:0:
56,67,238974,2,0,P|106:97|109:139,1,57.5,2|0,2:0|1:0,2:0:0:0:
49,231,239224,69,2,2:0:0:0:
36,253,239349,1,2,2:0:0:0:
38,278,239474,1,2,2:0:0:0:
54,295,239599,1,2,2:0:0:0:
119,343,239724,1,8,2:0:0:0:
177,290,239849,2,0,P|194:240|195:200,2,57.5,2|2|2,3:0|3:0|3:0,3:0:0:0:
272,370,240224,6,0,B|276:369|277:351|277:351|365:340|458:310|458:310|460:296|469:290,1,230,6|8,3:1|2:0,2:0:0:0:
444,219,240849,1,2,2:0:0:0:
484,52,241099,1,8,2:0:0:0:
414,87,241224,2,0,P|377:54|377:24,1,57.5,2|0,2:0|2:0,2:0:0:0:
317,170,241474,2,0,P|303:195|278:208,1,57.5,2|0,2:0|2:0,2:0:0:0:
211,7,241724,69,8,2:0:0:0:
154,62,241849,2,0,B|150:69|144:72|144:72|144:112|158:149|158:149|170:158|178:156,1,115,0|0,1:2|2:0,2:0:0:0:
219,273,242224,6,0,B|215:274|214:292|214:292|126:303|33:333|33:333|31:347|22:353,1,230,2|8,3:1|2:0,2:0:0:0:
12,255,242849,1,2,2:0:0:0:
154,62,243099,1,8,2:0:0:0:
86,91,243224,2,0,P|54:60|61:25,1,57.5,2|0,2:0|2:0,2:0:0:0:
183,163,243474,2,0,P|173:189|149:204,1,57.5,2|0,2:0|2:0,2:0:0:0:
230,100,243724,69,8,2:0:0:0:
297,170,243849,2,0,B|301:177|307:180|307:180|307:220|293:257|293:257|281:266|273:264,1,115,0|0,1:2|2:0,2:0:0:0:
301,80,244224,6,0,B|305:79|306:61|306:61|394:50|487:20|487:20|489:6|498:0,2,230,2|8|0,3:1|2:0|2:0,2:0:0:0:
356,130,245349,1,8,2:0:0:0:
366,144,245474,2,0,P|398:170|439:160,1,57.5,2|0,2:0|2:0,2:0:0:0:
388,338,245724,69,8,2:0:0:0:
501,161,245849,1,8,2:0:0:0:
380,356,246099,1,8,2:0:0:0:
150,159,247474,5,0,3:0:0:0:
150,159,247589,1,8,2:0:0:0:
201,62,247704,1,8,3:2:0:0:
50,150,247877,2,8,B|43:155|43:155|75:224,2,43.1250016450883,8|8|8,3:2|3:2|3:2,3:2:0:0:
129,13,248224,54,0,B|210:39|305:114|325:204|332:200|386:139|324:37|221:35|165:115|166:173|321:241|251:334,2,575,4|6|0,1:2|1:2|2:0,2:0:0:0:
80,136,249339,1,2,1:0:0:0:
80,136,249463,2,0,L|-26:177,1,86.25,2|0,2:0|1:0,2:0:0:0:
164,264,249711,1,8,2:0:0:0:
254,76,249959,6,2,L|243:21,3,43.1250016450883,2|2|2|2,2:0|2:0|2:0|2:0,2:0:0:0:
254,76,250207,69,2,3:2:0:0:
254,76,250332,1,2,2:0:0:0:
432,42,250457,1,2,2:0:0:0:
356,35,250582,1,2,2:0:0:0:
335,106,250707,5,10,2:0:0:0:
424,206,250832,2,0,L|403:320,1,86.25,2|0,2:0|2:0,2:0:0:0:
408,290,251082,1,8,2:0:0:0:
305,285,251207,69,0,1:0:0:0:
309,301,251332,1,2,2:0:0:0:
241,376,251457,5,2,2:0:0:0:
199,284,251582,2,0,B|112:251|-6:231|-6:231|-15:265|20:308,1,258.75,2|0,2:0|2:0,2:0:0:0:
193,186,252082,1,2,2:0:0:0:
193,186,252207,70,0,B|206:159|206:159|103:118,1,129.375,0|0,1:0|2:0,2:0:0:0:
86,0,252707,5,10,2:0:0:0:
186,16,252832,1,2,2:0:0:0:
261,97,252957,1,2,2:0:0:0:
272,223,253082,1,2,1:2:0:0:
261,244,253457,69,2,2:0:0:0:
320,158,253582,1,2,2:0:0:0:
412,127,253707,1,10,2:0:0:0:
511,166,253832,1,2,2:0:0:0:
511,166,254082,6,0,P|446:122|470:30,1,172.5,4|8,1:2|2:0,2:0:0:0:
460,38,254457,1,2,2:0:0:0:
320,5,254582,2,0,B|230:1|272:80|172:86,1,172.500006580353,2|0,2:0|2:0,2:0:0:0:
121,37,254957,1,2,2:0:0:0:
134,11,255082,1,8,2:0:0:0:
43,43,255207,69,2,1:2:0:0:
34,63,255332,1,8,2:0:0:0:
39,87,255457,1,0,2:0:0:0:
122,164,255582,1,8,2:0:0:0:
22,255,255707,5,8,2:0:0:0:
205,151,255832,2,0,B|209:202|209:202|174:236,1,86.25,4|0,1:2|2:0,2:0:0:0:
148,297,256082,69,8,1:2:0:0:
148,297,256207,1,12,2:0:0:0:
226,333,256332,1,2,2:0:0:0:
152,288,256457,1,2,3:2:0:0:
221,341,256582,1,2,1:2:0:0:
159,280,256707,1,10,2:0:0:0:
214,349,256832,1,2,2:0:0:0:
167,275,256957,1,2,1:2:0:0:
206,354,257082,1,10,2:0:0:0:
291,267,257207,5,2,1:2:0:0:
378,196,257332,1,2,2:0:0:0:
236,130,257457,1,2,2:0:0:0:
341,62,257582,1,2,2:0:0:0:
233,2,257707,1,10,2:0:0:0:
152,50,258082,69,2,2:0:0:0:
152,50,258207,1,6,1:2:0:0:
108,85,258330,1,2,2:0:0:0:
91,134,258454,1,2,2:0:0:0:
97,187,258578,1,2,2:0:0:0:
196,290,258702,5,8,2:0:0:0:
224,221,258826,1,2,2:0:0:0:
289,176,258950,1,2,2:0:0:0:
365,175,259074,1,2,1:2:0:0:
385,188,259198,69,2,3:2:0:0:
452,135,259322,1,2,2:0:0:0:
413,53,259446,5,2,2:0:0:0:
346,0,259570,1,2,2:0:0:0:
321,85,259694,1,10,2:0:0:0:
162,78,260066,69,2,2:0:0:0:
162,78,260190,2,0,P|153:51|160:32,1,57.5,0|0,1:0|2:0,2:0:0:0:
77,118,260440,5,2,2:0:0:0:
84,132,260565,1,2,2:0:0:0:
55,203,260690,1,10,2:0:0:0:
62,217,260815,1,2,2:0:0:0:
131,253,260940,1,2,2:0:0:0:
117,292,261065,1,10,2:0:0:0:
99,338,261190,69,2,1:2:0:0:
174,362,261315,1,2,2:0:0:0:
238,317,261440,1,2,2:0:0:0:
313,335,261565,1,2,2:0:0:0:
408,252,261690,5,8,2:0:0:0:
304,201,261815,1,8,2:0:0:0:
403,265,261940,1,8,2:0:0:0:
299,214,262065,1,8,2:0:0:0:
431,155,262190,69,6,1:2:0:0:
458,29,262315,2,0,L|463:71,1,43.125,8|0,2:0|2:0,2:0:0:0:
387,90,262440,2,0,L|380:37,1,43.1250016450883,8|0,2:0|2:0,2:0:0:0:
308,127,262565,5,4,1:2:0:0:
271,32,262690,1,8,2:0:0:0:
182,103,262815,1,8,2:0:0:0:
43,0,262940,69,4,1:2:0:0:
118,47,263065,1,2,1:2:0:0:
202,0,263190,1,2,1:2:0:0:
80,120,263315,2,0,P|29:140|-1:156,1,86.25,4|0,1:2|2:0,2:0:0:0:
80,120,263565,1,12,2:0:0:0:
36,240,263690,5,8,2:0:0:0:
132,317,263815,2,0,B|155:278|155:278|138:240,1,86.25,0|4,1:2|2:0,2:0:0:0:
44,333,264065,1,8,2:0:0:0:
202,187,264190,70,0,P|263:202|266:290,1,130.065004935265,4|0,1:2|2:0,2:0:0:0:
280,260,264442,1,2,2:0:0:0:
251,337,264568,1,0,3:0:0:0:
428,279,264694,6,0,P|367:294|364:382,1,129.375004935265,8|0,2:0|2:0,2:0:0:0:
348,352,264946,1,2,2:0:0:0:
490,330,265072,1,8,2:0:0:0:
469,164,265198,70,0,P|413:133|433:47,1,129.375004935265,0|0,1:2|2:0,2:0:0:0:
410,73,265450,1,2,2:0:0:0:
465,0,265576,1,0,3:0:0:0:
299,98,265702,2,0,L|317:192,1,86.25,8|0,2:0|2:0,2:0:0:0:
59,244,266080,5,2,2:0:0:0:
133,347,266206,2,0,P|194:360|264:382,1,129.375004935265,2|0,1:2|2:0,2:0:0:0:
257,379,266456,1,2,2:0:0:0:
308,326,266581,1,0,1:0:0:0:
412,359,266706,70,0,P|450:315|441:278,1,86.25,8|0,2:0|2:0,2:0:0:0:
389,190,266956,1,2,2:0:0:0:
383,209,267081,1,2,3:2:0:0:
462,123,267206,5,2,1:2:0:0:
450,116,267331,1,2,2:0:0:0:
409,26,267456,1,2,2:0:0:0:
373,47,267581,1,2,1:2:0:0:
271,5,267706,70,0,L|174:23,1,86.25,8|0,2:0|2:0,2:0:0:0:
100,101,267956,1,2,2:0:0:0:
173,130,268081,1,8,2:0:0:0:
89,114,268206,2,0,P|82:71|72:29,1,86.25,4|0,1:2|2:0,2:0:0:0:
186,245,268706,5,8,2:0:0:0:
196,230,268831,1,2,2:0:0:0:
271,215,268956,1,2,2:0:0:0:
307,282,269081,70,0,P|288:354|267:391,1,86.25,2|0,2:0|1:0,2:0:0:0:
274,372,269268,1,2,2:0:0:0:
262,376,269331,1,2,2:0:0:0:
382,238,269456,5,2,2:0:0:0:
451,274,269581,1,2,2:0:0:0:
501,214,269706,1,8,2:0:0:0:
453,100,269831,69,2,2:0:0:0:
432,171,269956,1,2,2:0:0:0:
453,100,270081,1,2,2:0:0:0:
313,10,270701,5,8,2:0:0:0:
307,16,270763,1,2,2:0:0:0:
301,24,270825,1,10,2:0:0:0:
232,73,270949,69,0,2:0:0:0:
226,67,271011,1,2,2:0:0:0:
220,59,271073,1,2,2:0:0:0:
157,13,271197,5,2,1:2:0:0:
58,73,271321,1,8,1:2:0:0:
127,178,271445,2,0,B|149:140|149:140|137:96,1,86.25,2|0,1:2|1:2,1:2:0:0:
48,226,271693,69,8,2:0:0:0:
197,266,271817,1,8,2:0:0:0:
182,338,271941,1,8,2:0:0:0:
33,298,272065,1,8,2:0:0:0:
189,352,272189,6,0,P|277:326|366:311,1,172.5,4|2,1:2|2:0,2:0:0:0:
490,242,272689,2,0,P|464:198|476:163,1,86.25,12|0,2:0|2:0,2:0:0:0:
438,104,272939,1,2,2:0:0:0:
486,9,273064,1,8,2:0:0:0:
327,86,273189,70,0,L|346:188,1,86.25,4|0,1:2|2:0,2:0:0:0:
277,6,273439,1,2,2:0:0:0:
327,86,273564,1,2,2:0:0:0:
235,145,273689,1,8,2:0:0:0:
22,19,273939,5,0,1:0:0:0:
108,53,274064,1,2,2:0:0:0:
108,53,274189,70,0,P|111:121|125:207,1,129.375,4|0,1:2|2:0,2:0:0:0:
167,239,274439,1,2,2:0:0:0:
309,187,274564,1,2,2:0:0:0:
250,65,274689,1,10,2:0:0:0:
346,327,275064,5,8,2:0:0:0:
412,289,275189,2,0,P|460:303|505:318,1,86.25,2|0,2:0|1:0,2:0:0:0:
420,206,275439,1,2,2:0:0:0:
502,101,275564,1,2,2:0:0:0:
389,18,275689,1,8,2:0:0:0:
152,20,276064,69,8,2:0:0:0:
99,139,276189,2,0,P|179:114|303:84,1,172.500006580353,4|0,1:2|1:0,2:0:0:0:
264,92,276560,1,2,2:0:0:0:
123,226,276684,1,8,2:0:0:0:
236,290,276808,2,0,P|289:302|350:320,1,86.25,2|0,2:0|2:0,2:0:0:0:
140,374,277056,5,8,2:0:0:0:
373,174,277304,1,2,2:0:0:0:
152,20,277552,1,2,2:0:0:0:
100,80,277676,70,0,P|71:40|73:2,1,86.25,8|0,1:2|2:0,2:0:0:0:
183,111,277924,1,2,2:0:0:0:
49,185,278048,1,8,2:0:0:0:
46,204,278172,6,0,L|182:235,1,115,0|0,1:0|2:0,2:0:0:0:
325,298,278544,1,0,1:0:0:0:
325,298,278668,2,0,P|280:284|254:213,1,115,8|0,2:0|2:0,2:0:0:0:
390,225,279040,1,8,2:0:0:0:
390,225,279164,1,2,2:0:0:0:
381,175,279288,1,8,2:0:0:0:
416,136,279412,2,0,P|436:101|430:80,1,57.5,8|0,2:0|2:0,2:0:0:0:
251,8,279660,5,8,2:0:0:0:
235,101,279786,1,8,2:0:0:0:
270,191,279912,1,8,2:0:0:0:
247,285,280038,1,8,2:0:0:0:
254,361,280164,38,0,B|248:353|236:351|236:351|210:269|200:192|200:192|184:191|168:176,1,213.900006690903,6|0,3:1|2:0,2:0:0:0:
105,239,280539,1,2,3:2:0:0:
22,219,280664,1,8,2:0:0:0:
65,151,280789,1,2,2:0:0:0:
140,161,280914,1,0,3:0:0:0:
56,39,281039,1,8,2:0:0:0:
170,6,281164,6,0,P|191:56|196:100,1,57.5,2|0,2:0|2:0,2:0:0:0:
61,156,281414,2,0,P|27:129|31:93,1,57.5,6|0,3:2|2:0,2:0:0:0:
227,125,281664,70,0,L|234:162,1,28.75,8|0,2:0|2:0,2:0:0:0:
276,209,281789,2,0,B|288:202|294:190|294:190|370:190|438:217|438:217|457:240|453:272,1,230,4|0,3:2|2:0,2:0:0:0:
371,327,282164,5,4,3:2:0:0:
346,254,282289,1,2,2:0:0:0:
398,194,282414,1,2,2:0:0:0:
458,142,282539,69,0,3:0:0:0:
480,74,282664,1,8,2:0:0:0:
440,11,282789,1,2,2:0:0:0:
366,7,282914,1,0,3:0:0:0:
301,47,283039,6,0,P|325:104|405:84,1,143.75,12|0,2:0|2:0,2:0:0:0:
221,16,283289,1,2,2:0:0:0:
210,9,283351,1,2,2:0:0:0:
196,17,283414,2,0,P|205:98|217:168,1,143.75,4|0,1:2|2:0,2:0:0:0:
462,245,283664,70,0,P|456:263|444:269,1,21.5625008225441,8|0,2:0|2:0,2:0:0:0:
348,302,283789,2,0,B|333:293|325:278|325:278|230:278|145:311|145:311|122:340|127:380,1,287.5,4|0,3:2|2:0,2:0:0:0:
228,368,284164,6,0,B|234:358|250:355|250:355|283:252|295:155|295:155|315:153|335:135,1,258.75000987053,6|0,3:2|2:0,2:0:0:0:
401,1,284539,1,0,3:0:0:0:
364,39,284664,1,8,2:0:0:0:
324,64,284789,1,0,3:2:0:0:
206,10,284914,1,2,2:0:0:0:
274,70,285039,1,8,2:0:0:0:
200,138,285164,70,0,P|149:151|112:166,1,86.2500032901765,2|0,2:0|3:0,2:0:0:0:
200,138,285414,1,6,3:2:0:0:
272,194,285539,1,2,2:0:0:0:
168,269,285664,5,8,2:0:0:0:
311,335,285789,2,0,B|316:326|326:321|326:321|326:261|304:207|304:207|286:192|261:195,1,172.500006580353,4|0,3:2|2:0,2:0:0:0:
239,373,286164,69,4,3:2:0:0:
333,255,286290,1,10,2:0:0:0:
460,357,286416,2,0,P|492:371|514:382,1,57.5,0|2,3:0|2:0,2:0:0:0:
370,153,286668,2,0,P|407:141|458:65,1,115,8|0,2:0|2:0,2:0:0:0:
370,153,287046,1,8,2:0:0:0:
250,83,287172,6,0,P|267:7|276:-16,1,86.2500032901765,0|0,3:2|2:0,2:0:0:0:
156,190,287424,1,12,1:2:0:0:
156,190,287550,1,0,1:2:0:0:
85,330,287676,69,8,2:0:0:0:
29,250,287802,1,12,2:0:0:0:
69,172,287928,1,8,2:0:0:0:
37,85,288054,1,8,2:0:0:0:
125,6,288180,6,0,L|112:61,1,43.1250016450883,4|0,1:2|2:0,2:0:0:0:
22,71,288305,2,0,L|31:29,1,43.1250016450883,0|0,3:2|2:0,2:0:0:0:
197,224,288555,69,2,2:0:0:0:
208,245,288680,2,0,L|221:300,1,43.1250016450883,4|0,1:2|2:0,2:0:0:0:
278,334,288805,2,0,L|268:375,1,43.1250016450883,0|0,3:2|2:0,2:0:0:0:
196,97,289055,6,0,L|186:138,1,43.1250016450883,8|0,3:2|2:0,2:0:0:0:
310,66,289180,2,0,L|323:11,1,43.1250016450883,4|0,1:2|2:0,2:0:0:0:
362,202,289305,2,0,L|352:243,1,43.1250016450883,8|0,3:2|2:0,2:0:0:0:
196,367,289555,69,8,2:0:0:0:
94,326,289680,2,0,L|81:271,1,43.1250016450883,4|0,1:2|2:0,2:0:0:0:
103,97,289930,5,2,2:0:0:0:
100,87,290055,1,10,2:0:0:0:
152,14,290180,70,0,P|195:36|195:124,1,129.375004935265,4|0,3:2|2:0,2:0:0:0:
204,110,290427,1,2,2:0:0:0:
278,198,290551,1,2,3:2:0:0:
375,120,290675,2,0,L|436:108,1,43.1250016450883,8|0,1:2|2:0,2:0:0:0:
470,191,290799,2,0,P|503:74|523:16,1,172.500006580353,0|0,1:0|2:0,2:0:0:0:
379,211,291171,5,0,3:0:0:0:
488,320,291295,2,0,P|438:327|415:367,1,86.2500032901765,8|4,2:0|2:0,2:0:0:0:
488,320,291543,1,8,2:0:0:0:
331,292,291667,2,0,L|262:312,1,43.1250016450883,8|0,2:0|2:0,2:0:0:0:
118,254,291915,1,2,2:0:0:0:
118,254,292039,1,2,2:0:0:0:
118,254,292163,69,6,3:2:0:0:
85,183,292288,1,2,2:0:0:0:
128,123,292413,2,0,P|167:151|158:203,1,86.2500032901765,2|0,2:0|3:0,2:0:0:0:
128,123,292663,1,8,2:0:0:0:
263,14,292788,1,8,2:0:0:0:
260,91,292913,1,2,2:0:0:0:
383,57,293038,6,0,P|433:77|476:98,1,86.2500032901765,8|0,2:0|2:0,2:0:0:0:
181,53,293288,1,8,2:0:0:0:
418,216,293538,1,8,2:0:0:0:
345,250,293663,70,0,P|326:231|341:187,1,50.3125004798174,8|0,2:0|2:0,2:0:0:0:
490,161,293788,1,2,3:0:0:0:
410,330,293913,6,0,P|419:304|465:300,1,50.3125004798174,8|0,2:0|2:0,2:0:0:0:
438,293,294038,1,2,3:0:0:0:
317,333,294163,69,12,1:2:0:0:
170,379,294286,1,0,3:0:0:0:
231,307,294410,2,0,B|235:283|235:283|213:257,1,50.3125004798174,2|0,2:0|2:0,2:0:0:0:
156,210,294534,5,12,1:2:0:0:
309,216,294658,1,0,3:0:0:0:
232,162,294782,2,0,B|221:139|221:139|236:109,1,50.3125004798174,2|0,2:0|2:0,2:0:0:0:
319,104,294906,70,0,P|303:35|296:-20,1,100.625000959635,12|8,3:2|2:0,2:0:0:0:
154,63,295154,5,12,1:2:0:0:
89,105,295278,2,0,L|9:83,1,50.3125004798174,2|0,3:0|2:0,2:0:0:0:
89,105,295402,1,2,3:0:0:0:
32,239,295526,69,12,1:2:0:0:
97,281,295650,2,0,L|177:259,1,50.3125004798174,2|0,3:0|2:0,2:0:0:0:
97,281,295774,1,2,3:0:0:0:
139,180,295898,5,8,2:0:0:0:
256,312,296022,1,8,2:0:0:0:
412,257,296146,69,4,1:2:0:0:
334,182,296272,1,2,2:0:0:0:
433,116,296398,1,0,1:2:0:0:
348,61,296524,1,2,2:0:0:0:
199,0,296650,1,12,1:2:0:0:
266,63,296776,1,2,2:0:0:0:
165,82,296902,2,0,P|102:102|63:118,1,86.2500032901765,4|8,1:2|2:0,2:0:0:0:
32,276,297154,5,2,2:0:0:0:
25,259,297280,1,8,2:0:0:0:
72,201,297406,2,0,P|114:233|106:283,1,86.2500032901765,4|0,1:2|2:0,2:0:0:0:
187,365,297658,70,0,L|203:299,1,57.5,4|0,1:2|2:0,2:0:0:0:
292,227,297784,2,0,B|296:229|299:234|299:234|331:234|359:223|359:223|367:214|365:200,1,86.2500032901765,12|0,3:2|2:0,2:0:0:0:
415,156,298162,6,0,B|409:166|393:169|393:169|360:272|348:369|348:369|328:371|308:389,1,258.75000987053,6|0,3:2|2:0,2:0:0:0:
207,217,298537,1,0,3:0:0:0:
258,160,298662,1,8,2:0:0:0:
172,112,298787,1,0,1:0:0:0:
315,97,298912,1,8,2:0:0:0:
288,2,299037,1,0,1:0:0:0:
392,60,299162,69,2,2:0:0:0:
392,60,299287,1,8,2:0:0:0:
392,60,299412,2,0,P|450:88|479:120,1,86.2500032901765,6|0,3:2|2:0,2:0:0:0:
316,223,299662,6,0,L|290:232,1,21.5625008225441,8|0,2:0|2:0,2:0:0:0:
313,316,299787,2,0,B|325:309|331:297|331:297|407:297|475:324|475:324|494:347|490:379,1,230,4|0,3:2|2:0,2:0:0:0:
244,361,300162,70,0,B|238:351|222:348|222:348|189:245|177:148|177:148|157:146|137:128,1,258.75000987053,6|0,3:2|2:0,2:0:0:0:
200,5,300533,1,0,3:0:0:0:
95,42,300657,1,8,2:0:0:0:
201,12,300781,1,2,2:0:0:0:
268,88,300905,1,8,2:0:0:0:
268,88,300967,1,8,2:0:0:0:
268,88,301029,1,8,2:0:0:0:
200,19,301153,5,0,1:2:0:0:
432,2,301277,2,0,P|382:12|359:50,1,86.2500032901765,8|0,2:0|2:0,2:0:0:0:
426,83,301525,1,4,3:0:0:0:
398,159,301649,1,6,3:0:0:0:
426,83,301773,2,0,P|481:98|518:109,1,86.2500032901765,4|0,1:3|2:0,2:0:0:0:
325,190,302021,1,2,3:0:0:0:
489,260,302145,69,4,1:2:0:0:
359,305,302270,1,4,3:0:0:0:
492,277,302395,5,4,3:0:0:0:
355,287,302520,1,4,3:0:0:0:
298,369,302645,69,4,1:2:0:0:
253,239,302770,1,6,3:0:0:0:
253,239,302832,1,2,2:0:0:0:
253,239,302895,1,2,2:0:0:0:
258,159,303020,1,10,2:0:0:0:
197,118,303145,5,12,2:0:0:0:
319,1,303270,2,0,P|301:67|296:102,1,86.2500032901765,0|0,1:2|2:0,2:0:0:0:
319,1,303520,1,8,2:0:0:0:
222,37,303645,69,8,2:0:0:0:
411,102,303770,1,8,2:0:0:0:
197,118,303895,1,8,2:0:0:0:
386,183,304020,1,8,2:0:0:0:
428,252,304145,6,0,L|478:238,1,43.1250016450883,4|0,1:2|2:0,2:0:0:0:
330,321,304271,1,0,3:0:0:0:
330,321,304523,1,0,1:2:0:0:
255,362,304649,2,0,P|221:220|203:172,1,172.5,4|0,1:2|2:0,2:0:0:0:
82,171,304901,2,0,P|42:183|33:222,1,57.5,2|0,1:2|2:0,2:0:0:0:
54,267,305027,69,8,2:0:0:0:
54,267,305153,1,2,2:0:0:0:
124,71,305279,2,0,P|134:33|141:11,1,43.1250016450883,8|4,2:0|3:2,2:0:0:0:
149,301,305531,1,2,3:2:0:0:
206,248,305657,1,8,2:0:0:0:
167,314,305783,2,0,P|207:334|230:354,1,57.5,6|0,3:2|2:0,2:0:0:0:
199,238,306035,1,2,2:0:0:0:
337,163,306161,5,6,3:2:0:0:
298,96,306284,1,2,2:0:0:0:
329,28,306408,1,2,2:0:0:0:
397,7,306532,1,0,3:0:0:0:
319,10,306656,1,8,2:0:0:0:
249,44,306780,1,2,2:0:0:0:
311,0,306904,1,8,3:2:0:0:
177,124,307028,69,8,2:0:0:0:
117,2,307152,1,2,3:2:0:0:
187,139,307276,2,0,P|147:177|104:166,1,86.2500032901765,2|4,2:0|3:2,2:0:0:0:
53,208,307524,1,0,3:2:0:0:
108,359,307648,6,0,L|116:325,1,21.5625008225441,10|0,2:0|2:0,2:0:0:0:
190,283,307772,2,0,B|205:292|213:307|213:307|312:307|400:272|400:272|424:242|419:201,1,287.5,4|0,3:2|2:0,2:0:0:0:
314,219,308144,70,0,B|317:225|328:227|328:227|349:293|357:355|357:355|369:357|382:368,1,172.500006580353,6|0,3:2|3:0,2:0:0:0:
420,215,308516,1,2,2:0:0:0:
480,170,308640,1,8,2:0:0:0:
412,198,308764,1,2,2:0:0:0:
369,134,308888,1,2,2:0:0:0:
332,7,309012,1,8,2:0:0:0:
474,3,309136,5,2,2:0:0:0:
404,35,309260,1,8,2:0:0:0:
332,7,309384,2,0,P|283:24|236:46,1,86.2500032901765,6|8,3:2|2:0,2:0:0:0:
116,9,309632,69,8,2:0:0:0:
15,126,309756,2,0,P|42:84|84:84,1,86.2500032901765,6|0,3:2|2:0,2:0:0:0:
218,220,310003,1,8,2:0:0:0:
139,162,310127,21,0,3:2:0:0:
89,222,310253,1,8,2:0:0:0:
124,290,310379,1,2,2:0:0:0:
135,287,310505,1,0,3:0:0:0:
223,336,310631,2,0,P|312:312|351:307,1,115,8|0,2:0|2:0,2:0:0:0:
439,181,311009,1,8,2:0:0:0:
399,257,311135,1,2,2:0:0:0:
387,245,311261,1,8,2:0:0:0:
368,241,311387,2,0,P|336:215|338:191,1,57.5,2|0,2:0|2:0,2:0:0:0:
412,8,311639,5,8,2:0:0:0:
334,87,311765,1,2,3:0:0:0:
231,39,311891,1,2,3:0:0:0:
231,39,312017,1,2,3:0:0:0:
13,50,312143,38,0,B|19:54|21:65|21:65|93:88|161:97|161:97|162:111|175:125,1,172.5,6|0,3:1|2:0,2:0:0:0:
216,169,312391,2,0,P|271:194|302:182,1,86.2500032901765,2|0,3:2|2:0,2:0:0:0:
428,124,312640,2,0,B|431:88|431:88|416:121,1,71.875,4|0,1:2|2:0,2:0:0:0:
320,288,312765,2,0,P|372:257|379:225,1,86.2500032901765,2|0,3:2|2:0,2:0:0:0:
201,306,313014,1,8,2:0:0:0:
143,356,313138,6,0,P|86:368|34:387,1,86.2500032901765,4|0,3:2|2:0,2:0:0:0:
160,236,313387,1,2,2:0:0:0:
11,141,313512,2,0,P|72:175|77:240,1,100.625000959635,0|12,1:2|2:0,2:0:0:0:
311,137,313761,70,0,B|316:128|325:123|325:123|325:64|304:11|304:11|286:-2|262:0,1,172.500006580353,4|0,3:2|2:0,2:0:0:0:
226,98,314134,6,0,B|233:93|235:81|235:81|312:56|385:47|385:47|386:32|400:17,1,194.062507402897,6|0,3:1|2:0,2:0:0:0:
473,8,314383,70,0,P|462:69|431:89,1,71.875,2|0,3:2|2:0,2:0:0:0:
492,238,314632,1,8,2:0:0:0:
426,197,314757,2,0,P|369:222|335:209,1,71.875,2|0,3:2|2:0,2:0:0:0:
241,352,315006,1,8,2:0:0:0:
236,274,315130,6,0,P|182:242|174:206,1,71.875,2|0,3:2|2:0,2:0:0:0:
112,21,315379,1,2,2:0:0:0:
82,101,315503,1,2,3:2:0:0:
161,140,315628,70,0,L|399:86,1,237.187502261996,4|0,1:2|2:0,2:0:0:0:
506,146,315877,6,0,L|274:198,1,237.187502261996,4|0,1:2|2:0,2:0:0:0:
71,303,316125,70,0,B|77:308|77:321|77:321|141:329|209:351|209:351|211:361|217:365,1,172.500006580353,6|0,3:1|2:0,2:0:0:0:
135,239,316500,1,2,3:2:0:0:
206,258,316625,1,8,2:0:0:0:
90,169,316750,1,2,2:0:0:0:
209,70,316875,1,2,3:2:0:0:
139,6,317000,1,10,2:0:0:0:
134,18,317125,6,0,L|32:57,1,71.875,2|0,2:0|2:0,2:0:0:0:
331,124,317375,1,2,2:0:0:0:
339,52,317500,1,2,3:2:0:0:
413,17,317625,70,0,P|419:43|422:74,1,50.3125004798174,8|0,2:0|2:0,2:0:0:0:
343,212,317750,2,0,B|336:216|329:216|329:216|311:255|309:295|309:295|316:310|333:316,1,115,4|0,3:2|2:0,2:0:0:0:
397,295,318125,5,4,3:2:0:0:
236,214,318312,2,0,L|217:162,1,28.75,2|0,2:0|2:0,2:0:0:0:
150,17,318625,70,0,P|37:50|-23:70,1,150.937501439452,8|0,2:0|2:0,2:0:0:0:
39,127,318875,1,8,2:0:0:0:
22,247,319000,2,0,P|67:205|125:217,1,100.625000959635,4|0,3:2|2:0,2:0:0:0:
186,354,319250,1,8,2:0:0:0:
95,371,319375,2,0,P|117:304|140:245,1,100.625000959635,4|0,3:2|2:0,2:0:0:0:
353,240,319625,5,8,2:0:0:0:
313,180,319750,1,8,2:0:0:0:
364,87,319875,1,8,2:0:0:0:
254,34,320000,1,8,2:0:0:0:
254,34,320125,70,0,L|244:4,1,28.75,4|0,3:2|2:0,2:0:0:0:
138,270,320500,6,0,L|128:300,1,28.75,0|0,3:2|2:0,2:0:0:0:
95,371,320625,2,0,P|60:206|50:125,1,172.500006580353,4|0,1:2|2:0,2:0:0:0:
146,18,320875,1,10,2:0:0:0:
79,79,321000,2,0,P|21:50|20:-8,1,115,4|0,3:2|2:0,2:0:0:0:
160,161,321250,1,8,2:0:0:0:
235,81,321375,69,2,3:2:0:0:
325,115,321500,1,2,3:2:0:0:
412,37,321625,2,0,L|428:2,1,28.75,8|0,2:0|2:0,2:0:0:0:
413,122,321875,1,2,2:0:0:0:
318,212,322000,1,8,2:0:0:0:
306,318,322125,6,0,B|301:321|300:329|300:329|249:345|201:351|201:351|201:361|191:371,1,129.375004935265,6|0,3:1|2:0,2:0:0:0:
130,330,322375,2,0,L|116:277,1,43.1250016450883,2|0,2:0|2:0,2:0:0:0:
235,81,322625,2,0,P|257:9|280:-37,1,86.2500032901765,8|2,2:0|2:0,2:0:0:0:
235,81,322875,1,2,3:2:0:0:
24,173,323000,2,0,B|190:148|35:188|215:161,1,172.5,8|0,2:0|2:0,2:0:0:0:
348,26,323625,69,8,2:0:0:0:
427,1,323750,2,0,B|431:0|438:15|438:15|436:55|418:94|418:94|411:94|404:98,1,115,4|0,3:2|2:0,2:0:0:0:
304,150,324125,5,6,3:2:0:0:
308,255,324249,1,2,2:0:0:0:
398,114,324373,69,2,2:0:0:0:
402,219,324498,1,2,3:2:0:0:
309,142,324622,5,10,2:0:0:0:
305,253,324747,1,2,2:0:0:0:
410,113,324871,69,2,2:0:0:0:
407,224,324996,1,10,2:0:0:0:
315,135,325120,5,2,2:0:0:0:
302,251,325245,1,10,2:0:0:0:
424,114,325369,69,6,3:2:0:0:
411,230,325494,1,2,2:0:0:0:
496,265,325618,5,8,2:0:0:0:
498,279,325743,2,0,P|438:301|387:321,1,86.2500032901765,4|0,3:2|2:0,2:0:0:0:
206,240,325992,1,8,2:0:0:0:
133,266,326116,69,4,3:2:0:0:
178,149,326241,1,10,2:0:0:0:
86,72,326365,2,0,L|72:3,1,50.3125004798174,8|0,2:0|2:0,2:0:0:0:
181,69,326490,5,4,3:2:0:0:
163,140,326614,2,0,P|97:168|67:187,1,100.625000959635,8|0,2:0|3:0,2:0:0:0:
203,351,326863,69,4,3:2:0:0:
317,300,326988,1,10,2:0:0:0:
306,180,327112,2,0,L|344:121,1,50.3125004798174,8|0,2:0|2:0,2:0:0:0:
376,245,327237,5,4,3:2:0:0:
316,284,327361,1,10,2:0:0:0:
256,241,327485,2,0,L|188:228,1,50.3125004798174,8|0,2:0|2:0,2:0:0:0:
410,161,327610,69,12,2:0:0:0:
275,80,327734,1,8,2:0:0:0:
456,73,327859,1,8,2:0:0:0:
358,1,327983,1,8,2:0:0:0:
275,80,328107,6,0,P|191:50|118:35,1,129.375004935265,4|0,3:2|2:0,2:0:0:0:
89,5,328359,70,0,L|80:47,1,35.9375,2|0,2:0|2:0,2:0:0:0:
0,77,328485,2,0,L|9:119,1,35.9375,0|0,3:0|2:0,2:0:0:0:
48,171,328611,2,0,P|73:178|83:207,1,51.7499984207154,4|0,1:2|2:0,2:0:0:0:
23,361,328989,1,8,2:0:0:0:
15,344,329115,6,0,P|56:335|74:307,1,43.1250016450883,6|0,1:2|2:0,2:0:0:0:
132,344,329241,2,0,P|148:305|135:274,1,43.1250016450883,10|0,2:0|2:0,2:0:0:0:
210,255,329367,2,0,P|187:219|145:203,1,77.6249976310731,2|0,2:0|2:0,2:0:0:0:
345,364,329871,70,0,L|370:288,1,57.5,2|0,1:2|2:0,2:0:0:0:
314,222,329997,2,0,L|289:146,1,57.5,8|0,1:2|2:0,2:0:0:0:
449,136,330123,2,0,L|474:60,1,57.5,4|0,1:2|2:0,2:0:0:0:
362,101,330373,1,2,2:0:0:0:
362,101,330623,6,0,L|153:51,1,158.125001507998,4|0,3:2|2:0,2:0:0:0:
39,4,330873,69,2,2:0:0:0:
95,141,330998,5,2,2:0:0:0:
208,64,331248,69,2,2:0:0:0:
82,261,331498,5,0,3:0:0:0:
82,261,331623,1,8,2:0:0:0:
264,354,331873,2,0,P|319:338|323:297,1,86.2500032901765,2|0,2:0|2:0,2:0:0:0:
345,229,332123,70,0,B|351:224|351:211|351:211|415:203|483:181|483:181|485:171|491:167,1,172.500006580353,6|0,3:1|2:0,2:0:0:0:
448,110,332373,2,2,B|368:76|352:3|352:3|370:86|340:147,5,293.24999608469,4|8|2|0|6|8,3:2|2:0|2:0|2:0|3:2|2:0,2:1:0:0:
204,67,333748,2,0,P|217:28|233:0,1,57.5,6|0,3:2|2:0,2:0:0:0:
204,67,333998,1,0,3:0:0:0:
31,123,334123,5,12,2:0:0:0:
155,159,334247,1,2,3:2:0:0:
37,132,334371,2,0,L|52:96,1,28.75,0|0,3:0|2:0,2:0:0:0:
64,245,334496,69,12,2:0:0:0:
105,367,334620,1,2,3:2:0:0:
60,255,334745,2,0,L|98:246,1,28.75,0|0,3:0|2:0,2:0:0:0:
191,253,334869,5,12,2:0:0:0:
114,356,334994,1,2,3:2:0:0:
180,255,335118,2,0,L|208:281,1,28.75,0|0,3:0|2:0,2:0:0:0:
256,352,335243,69,8,2:0:0:0:
393,272,335367,1,8,2:0:0:0:
287,149,335492,2,0,L|279:110,1,28.75,8|0,2:0|2:0,2:0:0:0:
302,244,335616,5,8,2:0:0:0:
389,143,335741,1,8,2:0:0:0:
187,151,335865,69,8,2:0:0:0:
177,18,335990,1,8,2:0:0:0:
178,164,336114,5,12,1:2:0:0:
256,192,336176,12,0,341965,2:0:0:0:
219,25,342089,5,0,1:0:0:0:
150,104,342214,2,0,P|90:83|92:2,1,143.75,8|0,2:0|2:0,2:0:0:0:
231,101,342587,2,0,P|306:131|389:173,1,143.75,8|0,2:0|2:0,2:0:0:0:
435,145,342961,1,8,2:0:0:0:
481,86,343085,2,0,P|496:49|515:17,1,71.875,2|0,2:0|2:0,2:0:0:0:
381,249,343334,2,0,P|398:280|411:313,1,71.875,2|0,2:0|2:0,2:0:0:0:
363,73,343583,6,8,L|374:29,8,35.9375,8|8|8|8|8|8|8|8|4,2:2|2:3|2:3|2:2|2:3|2:3|2:2|2:3|1:0,2:3:0:0:
