osu file format v14

[General]
AudioFilename: audio.mp3
AudioLeadIn: 0
PreviewTime: 39938
Countdown: 0
SampleSet: Soft
StackLeniency: 0.7
Mode: 0
LetterboxInBreaks: 0
WidescreenStoryboard: 1

[Editor]
Bookmarks: 8873,20241,30346,60662,70767,80873,101083,121294,126346,131399,141504,150978
DistanceSpacing: 0.9
BeatDivisor: 4
GridSize: 8
TimelineZoom: 1.8

[Metadata]
Title:The Title Track
TitleUnicode:The Title Track
Artist:Origami Angel
ArtistUnicode:Origami Angel
Creator:Mimari
Version:Normal
Source:
Tags:somewhere city english rock emo punk mapping to pander contest
BeatmapID:2881962
BeatmapSetID:1396156

[Difficulty]
HPDrainRate:3
CircleSize:3.6
OverallDifficulty:4
ApproachRate:6
SliderMultiplier:1.1
SliderTickRate:1

[Events]
//Background and Video events
0,0,"ily pishi.jpg",0,0
//Break Periods
//Storyboard Layer 0 (Background)
//Storyboard Layer 1 (Fail)
//Storyboard Layer 2 (Pass)
//Storyboard Layer 3 (Foreground)
//Storyboard Layer 4 (Overlay)
//Storyboard Sound Samples

[TimingPoints]
31,315.789473684211,4,2,1,75,1,0
8873,-111.111111111111,4,2,1,75,0,0
10136,-100,4,2,1,75,0,0
20241,-111.111111111111,4,2,1,60,0,0
25294,-100,4,2,1,70,0,0
30346,-111.111111111111,4,2,1,60,0,0
35399,-100,4,2,1,70,0,0
40452,-95.2380952380951,4,2,1,75,0,1
44083,-105.263157894737,4,2,1,75,0,1
45031,-105.263157894737,4,2,1,75,0,0
45820,-95.2380952380951,4,2,1,75,0,1
49925,-95.2380952380951,4,2,1,75,0,0
50873,-95.2380952380951,4,2,1,75,0,1
54188,-105.263157894737,4,2,1,75,0,1
55136,-105.263157894737,4,2,1,75,0,0
55925,-95.2380952380951,4,2,1,75,0,1
59241,-100,4,2,1,75,0,0
60662,-100,4,2,1,70,0,0
80873,-105.263157894737,4,2,1,60,0,0
101083,-95.2380952380951,4,2,1,75,0,1
104873,-100,4,2,1,75,0,0
106136,-95.2380952380951,4,2,1,75,0,1
109925,-95.2380952380951,4,2,1,75,0,0
111188,-95.2380952380951,4,2,1,75,0,1
114978,-100,4,2,1,75,0,0
116241,-95.2380952380951,4,2,1,75,0,1
121294,-111.111111111111,4,2,1,65,0,0
121846,-111.111111111111,4,2,1,65,0,0
126136,-111.111111111111,4,2,1,75,0,0
126346,-95.2380952380954,4,2,1,75,0,0
130451,-95.2380952380954,4,2,1,75,0,0
131240,-95.2380952380954,4,2,1,75,0,0
131399,-95.2380952380952,4,2,1,70,0,1
135188,-100,4,2,1,60,0,0
136452,-111.111111111111,4,2,1,65,0,0
141504,-111.111111111111,4,2,1,60,0,0
141662,-111.111111111111,4,2,1,60,0,0
142767,-111.111111111111,4,2,1,55,0,0
144031,-111.111111111111,4,2,1,50,0,0
145294,-111.111111111111,4,2,1,45,0,0
146557,-111.111111111111,4,2,1,35,0,0
147820,-111.111111111111,4,2,1,25,0,0
149083,-111.111111111111,4,2,1,15,0,0
150346,-111.111111111111,4,2,1,10,0,0
150978,-111.111111111111,4,2,2,5,0,0

[Colours]
Combo1 : 149,156,219
Combo2 : 223,157,157
Combo3 : 236,173,132
Combo4 : 167,194,228

[HitObjects]
67,335,8873,6,0,P|119:325|177:315,1,98.9999969787599,2|8,0:0|1:2,0:0:0:0:
247,370,9504,1,8,1:2:0:0:
340,338,9820,2,0,L|357:275,1,49.4999984893799,10|10,1:2|1:2,0:0:0:0:
369,243,10136,6,0,P|373:194|334:144,1,110,14|10,1:2|0:0,0:0:0:0:
303,119,10609,1,0,0:0:0:0:
303,119,10767,2,0,L|235:133,1,55,2|2,1:2|1:2,0:0:0:0:
183,204,11241,6,0,L|58:184,1,110,6|2,1:2|1:2,0:0:0:0:
13,108,11873,2,0,P|34:52|98:38,1,110,2|2,1:2|1:2,0:0:0:0:
126,29,12346,2,0,L|200:21,1,55,10|2,1:2|1:2,0:0:0:0:
230,16,12662,1,6,1:2:0:0:
316,63,12978,6,0,L|396:73,2,55,10|2|2,0:0|0:0|1:2,0:0:0:0:
279,96,13452,1,2,1:2:0:0:
195,148,13767,6,0,P|191:178|207:211,1,55,2|0,1:2|0:0,0:0:0:0:
243,224,14083,2,0,L|363:246,1,110,2|2,1:2|1:2,0:0:0:0:
415,168,14715,1,2,1:2:0:0:
492,229,15031,1,2,1:2:0:0:
448,317,15346,5,0,1:2:0:0:
448,317,15504,2,0,L|368:328,1,55,14|0,0:0|0:0,0:0:0:0:
355,357,15820,2,0,P|315:333|235:336,1,110,2|8,1:2|0:0,0:0:0:0:
204,342,16294,1,2,1:2:0:0:
109,372,16609,1,2,1:2:0:0:
58,286,16925,6,0,L|71:154,1,110,2|2,1:2|1:2,0:0:0:0:
94,133,17399,2,0,P|120:121|166:132,1,55,10|2,1:2|1:2,0:0:0:0:
189,145,17715,1,6,1:2:0:0:
269,202,18031,6,0,L|275:277,2,55,10|0|2,0:0|0:0|1:2,0:0:0:0:
296,160,18504,1,2,1:2:0:0:
293,60,18820,6,0,B|250:51|250:51|227:62|227:62|174:51,1,110,6|2,1:2|1:2,0:0:0:0:
92,23,19452,2,0,P|46:35|18:94,1,110,2|2,1:2|1:2,0:0:0:0:
22,136,19925,2,0,L|29:214,1,55,10|10,1:2|1:2,0:0:0:0:
31,240,20241,6,0,L|141:257,1,98.9999969787599,6|10,1:2|0:0,0:0:0:0:
215,277,20873,1,2,1:2:0:0:
151,339,21188,1,10,0:0:0:0:
235,365,21504,2,0,L|290:355,1,49.4999984893799,2|0,1:2|1:2,0:0:0:0:
327,344,21820,2,0,P|346:298|336:236,1,98.9999969787599,10|2,0:0|1:2,0:0:0:0:
285,180,22452,1,10,0:0:0:0:
198,199,22767,6,0,P|179:153|189:91,1,98.9999969787599,2|10,1:2|0:0,0:0:0:0:
231,29,23399,1,2,1:2:0:0:
294,91,23715,1,10,0:0:0:0:
335,11,24031,2,0,L|446:35,1,98.9999969787599,2|10,1:2|0:0,0:0:0:0:
481,105,24662,2,0,L|486:163,1,49.4999984893799,2|0,1:2|0:0,0:0:0:0:
492,198,24978,1,14,0:0:0:0:
433,273,25294,6,0,B|401:290|401:290|318:262,1,110,6|8,1:2|0:0,0:0:0:0:
248,212,25925,2,0,L|179:226,1,55,2|0,1:2|1:2,0:0:0:0:
145,234,26241,1,8,0:0:0:0:
145,234,26399,2,0,L|127:356,1,110,0|0,1:2|1:2,0:0:0:0:
93,377,26873,1,10,0:0:0:0:
25,305,27188,1,2,1:2:0:0:
49,208,27504,2,0,L|36:144,1,55,10|0,0:0|1:2,0:0:0:0:
40,104,27820,6,0,P|77:62|134:61,1,110,2|8,1:2|0:0,0:0:0:0:
224,81,28452,2,0,L|293:97,1,55,2|0,1:2|1:2,0:0:0:0:
324,107,28767,1,8,0:0:0:0:
324,107,28925,2,0,L|303:229,1,110,2|0,1:2|1:2,0:0:0:0:
260,303,29557,2,0,B|301:296|301:296|322:304|322:304|378:295,1,110,0|0,1:2|1:2,0:0:0:0:
414,312,30031,1,8,0:0:0:0:
480,252,30346,6,0,L|495:139,1,98.9999969787599,6|10,1:2|0:0,0:0:0:0:
461,70,30978,1,2,1:2:0:0:
398,133,31293,1,10,0:0:0:0:
366,49,31609,2,0,L|308:57,1,49.4999984893799,2|0,1:2|1:2,0:0:0:0:
273,65,31925,2,0,P|225:66|171:29,1,98.9999969787599,10|2,0:0|1:2,0:0:0:0:
99,6,32557,1,10,0:0:0:0:
38,70,32872,6,0,P|29:118|52:164,1,98.9999969787599,2|10,1:2|0:0,0:0:0:0:
119,218,33504,1,2,1:2:0:0:
147,133,33820,1,10,0:0:0:0:
210,195,34136,6,0,L|267:206,1,49.4999984893799,10|2,1:2|1:2,0:0:0:0:
301,218,34452,2,0,P|330:217|351:205,1,49.4999984893799,10|2,1:2|1:2,0:0:0:0:
377,174,34767,1,10,1:2:0:0:
447,119,35083,1,10,1:2:0:0:
505,198,35399,6,0,L|492:320,1,110,6|8,1:2|0:0,0:0:0:0:
404,350,36030,2,0,L|335:364,1,55,2|0,1:2|1:2,0:0:0:0:
301,372,36346,1,8,0:0:0:0:
301,372,36504,2,0,L|177:352,1,110,0|0,1:2|1:2,0:0:0:0:
143,347,36978,1,10,0:0:0:0:
83,267,37293,1,2,1:2:0:0:
180,249,37609,2,0,L|246:237,1,55,10|0,0:0|1:2,0:0:0:0:
282,227,37925,6,0,P|307:179|288:115,1,110,2|8,1:2|0:0,0:0:0:0:
234,48,38557,2,0,L|180:35,1,55,2|0,1:2|1:2,0:0:0:0:
137,11,38872,1,8,0:0:0:0:
137,11,39030,2,0,L|150:129,1,110,2|0,1:2|1:2,0:0:0:0:
152,170,39504,1,8,0:0:0:0:
64,216,39820,2,0,P|48:243|52:279,1,55,0|0,1:2|1:2,0:0:0:0:
61,313,40136,1,8,0:0:0:0:
163,351,40452,6,0,L|291:337,1,115.49999647522,6|10,0:0|0:0,0:0:0:0:
381,371,41083,1,2,1:2:0:0:
381,371,41241,2,0,L|390:308,1,57.7499982376099,2|8,1:2|0:0,0:0:0:0:
398,262,41557,5,6,1:2:0:0:
460,179,41873,1,2,1:2:0:0:
377,115,42188,2,0,B|336:95|336:95|258:118,1,115.49999647522,2|2,1:2|1:2,0:0:0:0:
219,132,42662,2,0,P|202:158|206:197,1,57.7499982376099,10|2,0:0|1:2,0:0:0:0:
216,234,42978,1,2,0:0:0:0:
236,335,43294,6,0,L|304:324,2,57.7499982376099,10|2|2,0:0|0:0|1:2,0:0:0:0:
189,358,43767,1,2,1:2:0:0:
98,331,44083,6,0,P|78:286|87:222,1,104.499997209549,6|6,1:2|1:2,0:0:0:0:
130,150,44715,1,6,1:2:0:0:
41,125,45031,1,6,1:2:0:0:
105,56,45346,1,2,1:2:0:0:
198,87,45662,5,0,1:2:0:0:
198,87,45820,2,0,L|272:73,1,57.7499982376099,10|2,0:0|0:0,0:0:0:0:
310,71,46136,1,2,1:2:0:0:
310,71,46294,1,2,1:2:0:0:
399,19,46609,5,2,1:2:0:0:
480,83,46925,1,2,1:2:0:0:
444,180,47241,2,0,L|315:154,1,115.49999647522,6|2,1:2|1:2,0:0:0:0:
278,160,47715,2,0,P|257:184|256:221,1,57.7499982376099,10|2,0:0|1:2,0:0:0:0:
262,260,48031,1,2,1:2:0:0:
324,342,48346,6,0,L|397:330,1,57.7499982376099,10|2,0:0|0:0,0:0:0:0:
436,326,48662,1,2,1:2:0:0:
436,326,48820,1,2,1:2:0:0:
497,242,49136,6,0,L|485:113,1,115.49999647522,6|2,1:2|1:2,0:0:0:0:
436,41,49767,1,2,1:2:0:0:
436,41,49925,2,0,L|363:54,1,57.7499982376099,0|0,1:2|1:2,0:0:0:0:
344,89,50241,2,0,L|271:102,1,57.7499982376099,10|2,1:2|1:2,0:0:0:0:
243,127,50557,1,6,1:2:0:0:
155,70,50873,6,0,P|116:72|87:99,1,57.7499982376099,10|2,0:0|0:0,0:0:0:0:
61,113,51188,1,2,1:2:0:0:
61,113,51346,1,2,1:2:0:0:
48,216,51662,5,6,1:2:0:0:
144,174,51978,1,2,1:2:0:0:
205,258,52294,2,0,B|256:254|256:254|271:241|271:241|339:231,1,115.49999647522,2|2,1:2|1:2,0:0:0:0:
365,222,52767,2,0,L|434:239,1,57.7499982376099,10|2,0:0|1:2,0:0:0:0:
468,258,53083,1,6,1:2:0:0:
405,341,53399,6,0,L|338:357,1,57.7499982376099,10|2,0:0|0:0,0:0:0:0:
301,346,53715,1,2,1:2:0:0:
301,346,53873,1,2,1:2:0:0:
210,369,54188,6,0,L|108:343,1,104.499997209549,6|6,1:2|1:2,0:0:0:0:
40,277,54820,1,6,1:2:0:0:
125,236,55136,1,6,1:2:0:0:
51,177,55451,1,2,1:2:0:0:
137,134,55767,5,0,1:2:0:0:
137,134,55925,2,0,L|207:150,1,57.7499982376099,10|2,0:0|0:0,0:0:0:0:
247,163,56241,1,2,1:2:0:0:
247,163,56399,1,2,1:2:0:0:
297,253,56714,5,2,1:2:0:0:
391,210,57030,1,2,1:2:0:0:
356,111,57346,2,0,P|328:62|262:39,1,115.49999647522,6|2,1:2|1:2,0:0:0:0:
223,44,57820,2,0,L|159:54,1,57.7499982376099,10|2,0:0|1:2,0:0:0:0:
114,61,58136,1,6,1:2:0:0:
41,135,58451,6,0,P|36:163|50:203,1,57.7499982376099,10|2,0:0|0:0,0:0:0:0:
75,238,58767,1,2,1:2:0:0:
75,238,58925,1,2,1:2:0:0:
161,286,59241,6,0,P|178:204|214:106,1,165,6|2,1:2|0:0,0:0:0:0:
299,163,60031,1,2,0:0:0:0:
259,249,60346,1,10,0:0:0:0:
267,351,60662,6,0,B|322:342|322:342|325:344|325:344|395:332,1,110,0|2,1:2|1:2,0:0:0:0:
426,345,61136,1,0,1:2:0:0:
426,345,61294,1,10,1:2:0:0:
469,258,61609,1,10,1:2:0:0:
403,183,61925,6,0,L|332:171,1,55,0|0,1:2|1:2,0:0:0:0:
299,163,62241,1,10,1:2:0:0:
254,251,62557,2,0,L|183:239,1,55,0|0,1:2|1:2,0:0:0:0:
150,231,62873,1,10,1:2:0:0:
59,269,63188,6,0,L|48:196,1,55,8|8,1:2|1:2,0:0:0:0:
40,165,63504,2,0,L|29:92,1,55,10|8,1:2|1:2,0:0:0:0:
23,61,63820,1,14,1:2:0:0:
117,31,64136,1,10,1:2:0:0:
187,101,64452,6,0,L|258:89,1,55,0|0,1:2|1:2,0:0:0:0:
291,81,64768,1,10,1:2:0:0:
350,159,65084,2,0,L|421:147,1,55,0|0,1:2|1:2,0:0:0:0:
453,143,65400,1,10,1:2:0:0:
503,227,65715,6,0,L|493:286,1,55,8|8,1:2|1:2,0:0:0:0:
477,328,66031,2,0,L|411:343,1,55,8|8,1:2|1:2,0:0:0:0:
378,354,66346,1,10,1:2:0:0:
378,354,66504,1,10,1:2:0:0:
300,292,66820,5,10,1:2:0:0:
230,363,67136,1,10,1:2:0:0:
166,286,67452,2,0,B|148:232|148:232|175:169,1,110,10|10,1:2|1:2,0:0:0:0:
196,142,67925,1,10,1:2:0:0:
213,44,68241,6,0,L|139:56,1,55,0|0,1:2|1:2,0:0:0:0:
109,60,68557,2,0,L|35:72,1,55,0|0,1:2|1:2,0:0:0:0:
9,81,68873,1,10,0:0:0:0:
9,81,69031,1,10,0:0:0:0:
61,164,69346,5,10,0:0:0:0:
11,249,69662,1,10,0:0:0:0:
57,336,69978,2,0,B|92:352|92:352|172:330,1,110,10|10,0:0|0:0,0:0:0:0:
209,319,70452,2,0,L|220:253,1,55,10|10,1:2|1:2,0:0:0:0:
234,217,70767,6,0,B|225:162|225:162|227:159|227:159|215:89,1,110,0|2,1:2|1:2,0:0:0:0:
237,65,71241,1,0,1:2:0:0:
237,65,71399,1,10,1:2:0:0:
317,8,71714,1,10,1:2:0:0:
406,49,72030,6,0,L|461:59,1,55,0|0,1:2|1:2,0:0:0:0:
509,68,72346,1,10,1:2:0:0:
509,167,72662,2,0,L|454:177,1,55,0|0,1:2|1:2,0:0:0:0:
406,186,72978,1,10,1:2:0:0:
352,268,73294,6,0,L|272:256,1,55,8|8,1:2|1:2,0:0:0:0:
248,249,73609,2,0,L|175:238,1,55,10|8,1:2|1:2,0:0:0:0:
144,232,73925,1,14,1:2:0:0:
67,169,74241,1,10,1:2:0:0:
15,253,74557,6,0,L|28:322,1,55,0|0,1:2|1:2,0:0:0:0:
39,354,74873,1,10,1:2:0:0:
134,379,75188,2,0,L|200:361,1,55,0|0,1:2|1:2,0:0:0:0:
234,350,75504,1,10,1:2:0:0:
329,375,75820,6,0,L|338:320,1,55,8|8,1:2|1:2,0:0:0:0:
345,271,76136,2,0,L|354:216,1,55,8|8,1:2|1:2,0:0:0:0:
366,171,76451,1,10,1:2:0:0:
366,171,76609,1,10,1:2:0:0:
388,74,76925,5,10,1:2:0:0:
292,48,77241,1,10,1:2:0:0:
267,143,77557,2,0,L|150:167,1,110,10|10,1:2|1:2,0:0:0:0:
110,173,78030,1,10,1:2:0:0:
12,157,78346,6,0,L|20:220,1,55,0|0,1:2|1:2,0:0:0:0:
27,260,78662,2,0,L|35:323,1,55,0|0,1:2|1:2,0:0:0:0:
45,367,78978,1,10,0:0:0:0:
45,367,79136,1,10,0:0:0:0:
126,310,79451,5,10,0:0:0:0:
201,373,79767,1,10,0:0:0:0:
278,310,80083,2,0,L|268:188,1,110,10|10,0:0|0:0,0:0:0:0:
234,164,80557,2,0,L|243:94,1,55,10|10,1:2|1:2,0:0:0:0:
249,60,80873,6,0,P|289:35|350:45,1,104.499997209549,6|8,0:0|0:0,0:0:0:0:
387,70,81346,1,0,1:2:0:0:
387,70,81504,1,0,1:2:0:0:
459,129,81820,1,8,0:0:0:0:
423,216,82136,2,0,L|311:190,1,104.499997209549,0|8,1:2|0:0,0:0:0:0:
234,164,82767,2,0,L|162:175,1,52.2499986047745,2|6,1:2|0:0,0:0:0:0:
140,186,83083,1,10,0:0:0:0:
140,186,83241,6,0,P|115:222|127:297,1,104.499997209549,6|2,0:0|1:2,0:0:0:0:
136,324,83715,1,10,0:0:0:0:
213,270,84031,1,2,1:2:0:0:
264,347,84346,2,0,L|374:329,1,104.499997209549,10|0,0:0|1:2,0:0:0:0:
417,341,84820,1,0,1:2:0:0:
417,341,84978,1,10,0:0:0:0:
484,275,85294,2,0,P|502:230|481:164,1,104.499997209549,0|10,1:2|0:0,0:0:0:0:
419,114,85925,6,0,L|292:133,1,104.499997209549,2|8,1:2|0:0,0:0:0:0:
272,137,86398,1,0,0:0:0:0:
272,137,86556,1,0,1:2:0:0:
214,62,86872,1,8,0:0:0:0:
121,46,87188,2,0,P|84:55|43:117,1,104.499997209549,0|8,1:2|0:0,0:0:0:0:
23,197,87820,2,0,L|33:255,1,52.2499986047745,2|6,1:2|0:0,0:0:0:0:
44,294,88136,1,10,0:0:0:0:
44,294,88294,6,0,L|151:318,1,104.499997209549,6|2,0:0|1:2,0:0:0:0:
192,326,88767,1,10,0:0:0:0:
272,277,89083,1,2,1:2:0:0:
198,218,89399,2,0,P|180:168|204:107,1,104.499997209549,10|0,0:0|1:2,0:0:0:0:
221,83,89873,1,0,1:2:0:0:
221,83,90031,1,10,0:0:0:0:
299,30,90346,2,0,L|420:54,1,104.499997209549,0|8,1:2|0:0,0:0:0:0:
463,121,90978,6,0,P|488:161|478:222,1,104.499997209549,2|8,1:2|0:0,0:0:0:0:
453,259,91451,1,0,0:0:0:0:
453,259,91609,1,0,1:2:0:0:
394,331,91925,1,8,0:0:0:0:
307,294,92241,2,0,L|201:311,1,104.499997209549,0|8,1:2|0:0,0:0:0:0:
118,350,92873,2,0,L|51:341,1,52.2499986047745,2|6,1:2|0:0,0:0:0:0:
39,304,93188,1,10,0:0:0:0:
39,304,93346,6,0,P|34:252|61:209,1,104.499997209549,6|2,0:0|1:2,0:0:0:0:
102,185,93820,1,10,0:0:0:0:
178,239,94136,1,2,1:2:0:0:
235,164,94451,2,0,L|346:186,1,104.499997209549,10|0,0:0|1:2,0:0:0:0:
387,200,94925,1,0,1:2:0:0:
387,200,95083,1,10,0:0:0:0:
459,139,95399,2,0,P|477:94|456:28,1,104.499997209549,0|10,1:2|0:0,0:0:0:0:
375,12,96031,6,0,L|250:25,1,104.499997209549,2|8,1:2|0:0,0:0:0:0:
227,27,96504,1,0,0:0:0:0:
227,27,96662,1,0,1:2:0:0:
140,64,96978,1,8,0:0:0:0:
57,19,97294,2,0,P|33:56|45:127,1,104.499997209549,0|8,1:2|0:0,0:0:0:0:
90,191,97925,2,0,L|157:176,1,52.2499986047745,2|6,1:2|0:0,0:0:0:0:
187,170,98241,1,10,0:0:0:0:
187,170,98399,6,0,P|241:169|288:204,1,104.499997209549,6|2,0:0|1:2,0:0:0:0:
306,236,98873,1,10,0:0:0:0:
326,327,99189,1,2,1:2:0:0:
245,374,99504,1,10,0:0:0:0:
169,318,99820,2,0,P|115:318|64:351,2,104.499997209549,4|8|8,0:0|0:0|0:0,0:0:0:0:
245,374,100767,1,8,0:0:0:0:
326,327,101083,6,0,L|343:201,1,115.49999647522,6|8,0:0|1:2,0:0:0:0:
354,164,101557,1,2,1:2:0:0:
354,164,101715,1,2,0:0:0:0:
305,71,102031,1,10,1:2:0:0:
391,14,102346,6,0,P|446:18|482:81,1,115.49999647522,2|10,1:2|1:2,0:0:0:0:
484,115,102820,2,0,L|463:255,1,115.49999647522,2|0,1:2|1:2,0:0:0:0:
407,315,103452,1,2,1:2:0:0:
407,315,103609,6,0,P|360:287|282:300,1,115.49999647522,2|10,1:2|1:2,0:0:0:0:
250,304,104083,1,2,1:2:0:0:
160,353,104399,1,2,1:2:0:0:
160,353,104557,2,0,L|144:273,1,57.7499982376099,8|0,1:2|1:2,0:0:0:0:
106,270,104873,6,0,P|56:284|37:304,2,73.3333333333333,2|2|2,1:2|1:2|1:2,0:0:0:0:
129,208,105504,2,0,P|97:166|71:156,2,73.3333333333333,10|2|2,1:2|1:2|1:2,0:0:0:0:
198,211,106136,6,0,L|325:230,1,115.49999647522,6|8,0:0|0:0,0:0:0:0:
363,236,106609,1,2,1:2:0:0:
440,166,106925,1,0,1:2:0:0:
393,72,107241,6,0,P|359:31|278:37,1,115.49999647522,2|2,1:2|1:2,0:0:0:0:
247,26,107715,2,0,L|255:98,1,57.7499982376099,10|2,0:0|1:2,0:0:0:0:
262,135,108031,1,2,1:2:0:0:
198,211,108346,2,0,L|123:193,1,57.7499982376099,10|2,0:0|1:2,0:0:0:0:
90,187,108662,6,0,P|36:203|16:264,1,115.49999647522,2|8,1:2|0:0,0:0:0:0:
29,304,109136,1,2,1:2:0:0:
108,371,109452,1,2,0:0:0:0:
197,319,109767,1,2,1:2:0:0:
197,319,109925,6,0,L|274:306,1,57.7499982376099,6|0,1:2|1:2,0:0:0:0:
308,302,110241,1,0,1:2:0:0:
308,302,110399,1,0,1:2:0:0:
405,351,110715,1,8,1:2:0:0:
405,351,110873,2,0,L|420:275,1,57.7499982376099,0|8,1:2|1:2,0:0:0:0:
446,252,111188,6,0,L|430:120,1,115.49999647522,6|8,0:0|1:2,0:0:0:0:
424,89,111662,1,2,1:2:0:0:
424,89,111820,1,2,0:0:0:0:
331,41,112136,1,10,1:2:0:0:
244,97,112451,6,0,P|179:94|122:58,1,115.49999647522,2|10,1:2|1:2,0:0:0:0:
97,34,112925,2,0,L|111:167,1,115.49999647522,2|0,1:2|1:2,0:0:0:0:
79,251,113557,1,2,1:2:0:0:
79,251,113715,6,0,P|130:225|187:224,1,115.49999647522,2|10,1:2|1:2,0:0:0:0:
234,248,114188,1,2,1:2:0:0:
338,227,114504,1,2,1:2:0:0:
338,227,114662,2,0,L|346:147,1,57.7499982376099,8|0,1:2|1:2,0:0:0:0:
338,120,114978,6,0,P|292:95|264:96,2,73.3333333333333,2|2|2,1:2|1:2|1:2,0:0:0:0:
394,85,115609,2,0,P|399:33|388:8,2,73.3333333333333,10|2|2,1:2|1:2|1:2,0:0:0:0:
448,127,116241,6,0,L|437:269,1,115.49999647522,6|8,0:0|0:0,0:0:0:0:
430,293,116715,1,2,1:2:0:0:
342,348,117031,1,0,1:2:0:0:
311,248,117346,1,2,1:2:0:0:
311,248,117504,6,0,P|272:207|196:213,1,115.49999647522,2|10,1:2|0:0,0:0:0:0:
166,221,117978,2,0,L|89:240,1,57.7499982376099,2|2,1:2|1:2,0:0:0:0:
59,247,118294,1,2,1:2:0:0:
59,247,118452,1,10,0:0:0:0:
25,148,118767,6,0,P|31:61|72:34,1,115.49999647522,2|8,1:2|0:0,0:0:0:0:
90,14,119241,1,2,1:2:0:0:
151,98,119557,1,2,0:0:0:0:
209,11,119873,1,2,1:2:0:0:
209,11,120031,6,0,L|279:20,1,57.7499982376099,6|0,1:2|1:2,0:0:0:0:
308,48,120346,2,0,L|378:57,1,57.7499982376099,0|0,1:2|1:2,0:0:0:0:
416,67,120662,1,8,1:2:0:0:
498,130,120978,2,0,P|500:163|473:197,1,57.7499982376099,0|8,1:2|1:2,0:0:0:0:
455,213,121294,6,0,B|407:236|349:197|379:176|325:143|259:172,1,197.99999395752,6|6,0:0|1:2,0:0:0:0:
182,318,122557,6,0,B|222:378|278:339|281:323|281:323|302:243,1,197.99999395752,6|6,1:2|1:2,0:0:0:0:
339,74,123820,6,0,B|324:37|277:24|231:41|231:41|144:72,1,197.99999395752,6|6,1:2|1:2,0:0:0:0:
53,206,125083,6,0,L|39:296,2,65.9999979858399,2|2|2,1:2|1:2|1:2,0:0:0:0:
98,167,125715,2,0,L|84:77,2,65.9999979858399,10|2|0,1:2|1:2|0:0,0:0:0:0:
155,205,126346,6,0,L|266:223,1,86.6249973564149,6|8,0:0|0:0,0:0:0:0:
301,267,126820,1,2,1:2:0:0:
301,267,126978,2,0,L|412:285,1,86.6249973564149,2|8,1:2|0:0,0:0:0:0:
446,230,127452,5,2,1:2:0:0:
446,230,127609,2,0,P|468:200|462:149,1,86.6249973564149,2|8,1:2|0:0,0:0:0:0:
459,78,128084,1,2,1:2:0:0:
459,78,128241,2,0,P|429:56|378:62,1,86.6249973564149,2|8,1:2|0:0,0:0:0:0:
326,115,128715,5,2,1:2:0:0:
326,115,128872,2,0,B|310:128|310:128|219:117,1,86.6249973564149,2|8,1:2|0:0,0:0:0:0:
202,60,129346,1,2,1:2:0:0:
202,60,129504,2,0,B|186:47|186:47|95:58,1,86.6249973564149,2|8,1:2|0:0,0:0:0:0:
67,112,129978,1,2,1:2:0:0:
67,112,130136,6,0,L|-2:96,2,57.7499982376099,2|0|2,1:2|0:0|1:2,0:0:0:0:
140,186,130767,1,2,1:2:0:0:
49,237,131083,2,0,P|37:266|46:309,1,57.7499982376099,14|0,1:2|0:0,0:0:0:0:
67,335,131399,6,0,L|191:312,1,115.49999647522,4|8,0:0|0:0,0:0:0:0:
235,304,131873,1,0,1:2:0:0:
235,304,132031,1,2,1:2:0:0:
319,364,132347,1,10,0:0:0:0:
402,302,132662,6,0,P|395:243|335:211,1,115.49999647522,2|10,1:2|0:0,0:0:0:0:
301,197,133136,2,0,L|184:176,1,115.49999647522,2|0,1:2|1:2,0:0:0:0:
84,156,133768,1,2,1:2:0:0:
84,156,133925,6,0,P|53:111|71:40,1,115.49999647522,2|8,0:0|0:0,0:0:0:0:
103,23,134399,1,2,0:0:0:0:
201,69,134715,1,0,1:2:0:0:
201,69,134873,2,0,L|283:54,1,57.7499982376099,8|2,0:0|0:0,0:0:0:0:
306,49,135188,5,6,0:0:0:0:
451,329,136452,6,0,L|340:317,1,98.9999969787599,6|2,0:0|1:2,0:0:0:0:
272,357,137083,1,10,0:0:0:0:
272,357,137241,2,0,L|161:345,1,98.9999969787599,0|0,1:2|1:2,0:0:0:0:
129,339,137715,1,2,1:2:0:0:
81,263,138031,1,2,1:2:0:0:
154,213,138346,2,0,P|178:174|171:109,1,98.9999969787599,10|2,0:0|0:0,0:0:0:0:
152,36,138978,5,6,1:2:0:0:
65,12,139294,1,0,1:2:0:0:
15,85,139609,2,0,L|28:186,1,98.9999969787599,8|2,0:0|0:0,0:0:0:0:
44,230,140083,1,0,1:2:0:0:
44,230,140241,1,2,1:2:0:0:
14,313,140557,1,2,1:2:0:0:
91,356,140873,2,0,P|144:322|193:312,1,98.9999969787599,10|2,0:0|0:0,0:0:0:0:
255,358,141504,5,6,0:0:0:0:
256,192,141662,12,0,150978,0:0:0:0:
