osu file format v14

[General]
AudioFilename: audio.mp3
AudioLeadIn: 0
PreviewTime: 39938
Countdown: 0
SampleSet: Soft
StackLeniency: 0.7
Mode: 0
LetterboxInBreaks: 0
WidescreenStoryboard: 1

[Editor]
Bookmarks: 8873,20241,30346,60662,70767,80873,101083,121294,126346,131399,141504,150978
DistanceSpacing: 0.9
BeatDivisor: 4
GridSize: 8
TimelineZoom: 1.8

[Metadata]
Title:The Title Track
TitleUnicode:The Title Track
Artist:Origami Angel
ArtistUnicode:Origami Angel
Creator:Mimari
Version:Insane
Source:
Tags:somewhere city english rock emo punk mapping to pander contest
BeatmapID:2885272
BeatmapSetID:1396156

[Difficulty]
HPDrainRate:5
CircleSize:4
OverallDifficulty:8
ApproachRate:9
SliderMultiplier:1.72
SliderTickRate:1

[Events]
//Background and Video events
0,0,"ily pishi.jpg",0,0
//Break Periods
//Storyboard Layer 0 (Background)
//Storyboard Layer 1 (Fail)
//Storyboard Layer 2 (Pass)
//Storyboard Layer 3 (Foreground)
//Storyboard Layer 4 (Overlay)
//Storyboard Sound Samples

[TimingPoints]
31,315.789473684211,4,2,1,75,1,0
8873,-133.333333333333,4,2,1,75,0,0
9109,-133.333333333333,4,2,1,5,0,0
9188,-133.333333333333,4,2,1,75,0,0
9346,-100,4,2,1,75,0,0
10373,-100,4,2,1,5,0,0
10452,-100,4,2,1,75,0,0
14004,-100,4,2,1,5,0,0
14083,-100,4,2,1,75,0,0
14636,-100,4,2,1,5,0,0
14715,-100,4,2,1,75,0,0
17162,-100,4,2,1,5,0,0
17241,-100,4,2,1,75,0,0
20241,-117.647058823529,4,2,1,60,0,0
21109,-117.647058823529,4,2,1,5,0,0
21188,-117.647058823529,4,2,1,60,0,0
22373,-117.647058823529,4,2,1,5,0,0
22452,-117.647058823529,4,2,1,60,0,0
23636,-117.647058823529,4,2,1,5,0,0
23715,-117.647058823529,4,2,1,60,0,0
24662,-111.111111111111,4,2,1,60,0,0
24899,-111.111111111111,4,2,1,5,0,0
24978,-86.9565217391304,4,2,1,60,0,0
25215,-86.9565217391304,4,2,1,5,0,0
25294,-100,4,2,1,70,0,0
30346,-117.647058823529,4,2,1,60,0,0
31215,-117.647058823529,4,2,1,5,0,0
31294,-117.647058823529,4,2,1,60,0,0
32478,-117.647058823529,4,2,1,5,0,0
32557,-117.647058823529,4,2,1,60,0,0
33741,-117.647058823529,4,2,1,5,0,0
33820,-117.647058823529,4,2,1,60,0,0
34136,-95.2380952380952,4,2,1,60,0,0
35399,-100,4,2,1,70,0,0
40136,-166.666666666667,4,2,1,70,0,0
40373,-166.666666666667,4,2,1,5,0,0
40452,-90.9090909090909,4,2,1,75,0,1
40688,-90.9090909090909,4,2,1,5,0,1
40767,-90.9090909090909,4,2,1,75,0,1
41794,-90.9090909090909,4,2,1,5,0,1
41873,-90.9090909090909,4,2,1,75,0,1
44083,-100,4,2,1,75,0,0
44320,-100,4,2,1,5,0,0
44399,-100,4,2,1,75,0,0
44952,-100,4,2,1,5,0,0
45031,-100,4,2,1,75,0,0
45820,-90.9090909090909,4,2,1,75,0,1
46846,-90.9090909090909,4,2,1,5,0,1
46925,-90.9090909090909,4,2,1,75,0,1
49373,-90.9090909090909,4,2,1,5,0,1
49452,-90.9090909090909,4,2,1,75,0,1
49925,-90.9090909090909,4,2,1,75,0,0
50873,-90.9090909090909,4,2,1,75,0,1
51899,-90.9090909090909,4,2,1,5,0,1
51978,-90.9090909090909,4,2,1,75,0,1
54188,-100,4,2,1,75,0,0
54425,-100,4,2,1,5,0,0
54504,-100,4,2,1,75,0,0
55057,-100,4,2,1,5,0,0
55136,-100,4,2,1,75,0,0
55925,-90.9090909090909,4,2,1,75,0,1
56952,-90.9090909090909,4,2,1,5,0,1
57031,-90.9090909090909,4,2,1,75,0,1
59241,-100,4,2,1,75,0,0
60662,-100,4,2,1,70,0,0
61609,-90.9090909090909,4,2,1,70,0,0
61846,-90.9090909090909,4,2,1,5,0,0
61925,-100,4,2,1,70,0,0
64136,-90.9090909090909,4,2,1,70,0,0
64373,-90.9090909090909,4,2,1,5,0,0
64452,-100,4,2,1,70,0,0
71715,-90.9090909090909,4,2,1,70,0,0
71952,-90.9090909090909,4,2,1,5,0,0
72031,-100,4,2,1,70,0,0
74241,-90.9090909090909,4,2,1,70,0,0
74478,-90.9090909090909,4,2,1,5,0,0
74557,-100,4,2,1,70,0,0
80873,-111.111111111111,4,2,1,60,0,0
82057,-111.111111111111,4,2,1,5,0,0
82136,-111.111111111111,4,2,1,60,0,0
87109,-111.111111111111,4,2,1,5,0,0
87188,-111.111111111111,4,2,1,60,0,0
92162,-111.111111111111,4,2,1,5,0,0
92241,-111.111111111111,4,2,1,60,0,0
97215,-111.111111111111,4,2,1,5,0,0
97294,-111.111111111111,4,2,1,60,0,0
99820,-100,4,2,1,60,0,0
100057,-100,4,2,1,5,0,0
100136,-100,4,2,1,60,0,0
100767,-90.9090909090909,4,2,1,60,0,0
101004,-90.9090909090909,4,2,1,5,0,0
101083,-90.9090909090909,4,2,1,75,0,1
102583,-90.9090909090909,4,2,1,5,0,1
102662,-90.9090909090909,4,2,1,75,0,1
104873,-100,4,2,1,75,0,0
106136,-90.9090909090909,4,2,1,75,0,1
109925,-90.9090909090909,4,2,1,75,0,0
111188,-90.9090909090909,4,2,1,75,0,1
112688,-90.9090909090909,4,2,1,5,0,1
112767,-90.9090909090909,4,2,1,75,0,1
114978,-100,4,2,1,75,0,0
116241,-90.9090909090909,4,2,1,75,0,1
117741,-90.9090909090909,4,2,1,5,0,1
117820,-90.9090909090909,4,2,1,75,0,1
121294,-133.333333333333,4,2,1,65,0,0
121846,-133.333333333333,4,2,1,5,0,0
121925,-133.333333333333,4,2,1,65,0,0
126346,-95.2380952380951,4,2,1,75,0,0
131083,-117.647058823529,4,2,1,75,0,0
131320,-117.647058823529,4,2,1,5,0,0
131399,-90.9090909090909,4,2,1,70,0,1
132899,-90.9090909090909,4,2,1,5,0,1
132978,-90.9090909090909,4,2,1,70,0,1
135188,-142.857142857143,4,2,1,60,0,0
136452,-133.333333333333,4,2,1,65,0,0
141504,-133.333333333333,4,2,1,60,0,0
142767,-133.333333333333,4,2,1,55,0,0
144031,-133.333333333333,4,2,1,50,0,0
145294,-133.333333333333,4,2,1,45,0,0
146557,-133.333333333333,4,2,1,35,0,0
147820,-133.333333333333,4,2,1,25,0,0
149083,-133.333333333333,4,2,1,15,0,0
150346,-133.333333333333,4,2,1,10,0,0
150978,-133.333333333333,4,2,2,5,0,0

[Colours]
Combo1 : 149,156,219
Combo2 : 223,157,157
Combo3 : 236,173,132
Combo4 : 167,194,228

[HitObjects]
314,21,8873,6,0,P|298:79|299:128,1,96.7500036907198,2|0,0:0|0:0,0:0:0:0:
344,188,9188,5,8,1:2:0:0:
344,188,9267,1,8,1:2:0:0:
344,188,9346,2,0,L|399:178,1,43,8|8,1:2|1:2,0:0:0:0:
305,265,9504,5,8,1:2:0:0:
305,265,9583,1,8,1:2:0:0:
305,265,9662,2,0,L|250:255,1,43,8|8,1:2|1:2,0:0:0:0:
178,158,9820,5,10,1:2:0:0:
145,146,9898,1,10,1:2:0:0:
112,154,9977,1,10,1:2:0:0:
89,180,10056,1,8,1:2:0:0:
86,214,10136,6,0,P|88:267|101:357,1,129,14|0,1:2|0:0,0:0:0:0:
111,361,10452,1,10,0:0:0:0:
171,244,10609,1,0,0:0:0:0:
18,359,10767,1,2,1:2:0:0:
185,321,10925,2,0,P|229:336|271:369,1,86,2|8,1:2|0:0,0:0:0:0:
372,132,11241,6,0,P|320:226|317:330,1,172,6|2,1:2|1:2,0:0:0:0:
259,164,11715,1,8,0:0:0:0:
418,316,11873,2,0,P|411:273|398:232,1,86,2|0,1:2|0:0,0:0:0:0:
295,92,12188,1,2,1:2:0:0:
237,243,12346,1,10,1:2:0:0:
324,224,12504,1,2,1:2:0:0:
157,144,12662,5,6,1:2:0:0:
157,144,12978,6,0,P|144:184|137:227,1,86,10|2,0:0|0:0,0:0:0:0:
195,69,13294,1,2,1:2:0:0:
40,82,13452,2,0,P|51:123|69:162,1,86,2|8,1:2|0:0,0:0:0:0:
194,337,13767,6,0,P|186:292|127:221,1,129,2|0,1:2|0:0,0:0:0:0:
115,232,14083,2,0,L|18:259,1,86,2|8,1:2|0:0,0:0:0:0:
243,137,14399,6,0,P|288:145|359:204,1,129,2|0,1:2|0:0,0:0:0:0:
348,216,14715,2,0,L|321:313,1,86,2|8,1:2|1:2,0:0:0:0:
195,69,15031,5,2,1:2:0:0:
195,69,15346,1,0,1:2:0:0:
260,23,15504,2,0,P|307:48|362:57,1,86,14|0,0:0|0:0,0:0:0:0:
398,120,15820,5,2,1:2:0:0:
259,218,15978,2,0,P|240:172|255:108,1,86,2|8,1:2|0:0,0:0:0:0:
406,26,16294,2,0,P|480:57|513:161,1,172,2|2,1:2|1:2,0:0:0:0:
462,319,16767,1,8,0:0:0:0:
358,240,16925,2,0,P|368:178|411:103,1,129,2|0,1:2|0:0,0:0:0:0:
409,112,17241,5,2,1:2:0:0:
464,230,17399,1,10,1:2:0:0:
305,311,17557,1,2,1:2:0:0:
358,240,17715,5,6,1:2:0:0:
358,240,18031,2,0,P|314:230|242:210,1,86,10|0,0:0|0:0,0:0:0:0:
218,92,18346,1,2,1:2:0:0:
296,54,18504,2,0,P|304:101|305:161,1,86,2|8,1:2|0:0,0:0:0:0:
199,294,18820,6,0,P|111:302|39:214,1,172,6|2,1:2|1:2,0:0:0:0:
49,102,19294,1,8,0:0:0:0:
204,175,19452,2,0,P|152:201|116:208,1,86,2|0,1:2|1:2,0:0:0:0:
77,20,19767,1,2,1:2:0:0:
245,73,19925,1,10,1:2:0:0:
162,110,20083,1,10,1:2:0:0:
162,110,20162,1,8,1:2:0:0:
162,110,20241,6,0,L|155:27,1,73.1000013942719,6|0,1:2|1:2,0:0:0:0:
287,151,20557,2,0,L|280:223,1,73.1000013942719,10|0,0:0|1:2,0:0:0:0:
136,366,20873,6,0,P|157:314|230:285,1,109.650002091408,2|0,1:2|0:0,0:0:0:0:
225,285,21188,2,0,P|260:296|319:315,1,73.1000013942719,10|0,0:0|0:0,0:0:0:0:
454,294,21504,5,2,1:2:0:0:
461,366,21662,1,0,1:2:0:0:
355,243,21820,2,0,P|355:202|385:159,1,73.1000013942719,10|0,0:0|1:2,0:0:0:0:
512,59,22136,6,0,P|490:105|427:120,1,109.650002091408,2|0,1:2|0:0,0:0:0:0:
419,113,22451,2,0,L|317:94,1,73.1000013942719,10|0,0:0|0:0,0:0:0:0:
204,194,22767,5,2,1:2:0:0:
281,176,22925,1,0,1:2:0:0:
245,46,23083,2,0,P|224:109|227:138,1,73.1000013942719,10|0,0:0|1:2,0:0:0:0:
128,247,23399,6,0,P|174:276|227:288,1,109.650002091408,2|0,1:2|0:0,0:0:0:0:
244,302,23715,2,0,P|283:299|329:272,1,73.1000013942719,10|0,0:0|0:0,0:0:0:0:
389,119,24031,5,2,1:2:0:0:
311,100,24188,1,0,1:2:0:0:
430,219,24346,2,0,P|465:209|521:195,1,73.1000013942719,10|0,0:0|1:2,0:0:0:0:
281,176,24662,2,0,P|222:163|160:151,1,116.099996456909,2|0,1:2|0:0,0:0:0:0:
169,72,24978,6,0,P|119:85|98:196,1,148.350002829552,14|0,0:0|0:0,0:0:0:0:
19,267,25294,6,0,P|96:249|196:232,1,172,6|8,1:2|0:0,0:0:0:0:
355,231,25767,1,0,1:2:0:0:
205,316,25925,1,2,1:2:0:0:
271,376,26083,2,0,P|284:330|288:292,1,86,0|8,1:2|0:0,0:0:0:0:
278,113,26399,6,0,P|217:137|190:244,1,172,0|0,1:2|1:2,0:0:0:0:
366,316,26873,2,0,P|417:301|452:277,1,86,10|0,0:0|1:2,0:0:0:0:
477,74,27188,5,2,1:2:0:0:
374,138,27346,1,0,1:2:0:0:
506,232,27504,1,10,0:0:0:0:
461,174,27662,5,0,1:2:0:0:
461,174,27741,1,8,1:2:0:0:
461,174,27820,2,0,L|282:143,1,172,2|8,1:2|0:0,0:0:0:0:
141,62,28294,1,0,1:2:0:0:
205,211,28452,2,0,P|196:167|172:103,1,86,2|0,1:2|1:2,0:0:0:0:
237,4,28767,1,8,0:0:0:0:
291,144,28925,6,0,P|277:228|255:311,1,172,2|0,1:2|1:2,0:0:0:0:
94,384,29399,1,8,0:0:0:0:
149,268,29557,2,0,P|162:308|170:350,1,86,0|0,1:2|1:2,0:0:0:0:
37,255,29873,5,0,1:2:0:0:
205,207,30031,1,8,0:0:0:0:
124,164,30188,1,0,1:2:0:0:
124,164,30267,1,0,0:0:0:0:
124,164,30346,6,0,P|127:125|152:63,1,73.1000013942719,6|0,1:2|1:2,0:0:0:0:
288,96,30662,1,10,0:0:0:0:
217,125,30820,1,0,1:2:0:0:
309,14,30978,6,0,P|369:20|421:51,1,109.650002091408,2|0,1:2|0:0,0:0:0:0:
424,58,31294,2,0,P|435:101|436:129,1,73.1000013942719,10|0,0:0|0:0,0:0:0:0:
360,292,31609,5,2,1:2:0:0:
343,217,31767,1,0,1:2:0:0:
472,291,31925,2,0,P|457:333|443:357,1,73.1000013942719,10|0,0:0|1:2,0:0:0:0:
294,372,32241,6,0,P|234:366|182:335,1,109.650002091408,2|0,1:2|0:0,0:0:0:0:
179,328,32557,2,0,P|168:285|166:256,1,73.1000013942719,10|0,0:0|0:0,0:0:0:0:
261,101,32872,5,2,1:2:0:0:
242,173,33030,1,0,1:2:0:0:
174,31,33188,2,0,P|125:38|86:75,1,73.1000013942719,10|0,0:0|1:2,0:0:0:0:
10,159,33504,6,0,P|73:135|135:124,1,109.650002091408,2|0,1:2|0:0,0:0:0:0:
133,135,33820,2,0,P|155:158|160:208,1,73.1000013942719,10|0,0:0|0:0,0:0:0:0:
46,349,34136,5,10,1:2:0:0:
46,349,34215,1,2,1:2:0:0:
46,349,34294,2,0,L|39:272,1,45.1499986221314,2|0,1:2|1:2,0:0:0:0:
134,363,34452,5,10,1:2:0:0:
134,363,34531,1,2,1:2:0:0:
134,363,34610,2,0,L|127:286,1,45.1499986221314,2|0,1:2|1:2,0:0:0:0:
227,264,34767,6,0,L|220:341,3,45.1499986221314,10|2|2|0,1:2|1:2|1:2|1:2,0:0:0:0:
315,250,35083,2,0,L|308:336,3,45.1499986221314,10|0|0|0,1:2|1:2|1:2|1:2,0:0:0:0:
158,205,35399,6,0,P|146:127|133:18,1,172,6|8,1:2|0:0,0:0:0:0:
287,0,35872,1,0,1:2:0:0:
223,62,36030,1,2,1:2:0:0:
312,120,36188,2,0,P|371:98|390:70,1,86,0|8,1:2|0:0,0:0:0:0:
242,169,36504,6,0,P|229:250|217:339,1,172,0|0,1:2|1:2,0:0:0:0:
382,306,36978,2,0,P|359:267|294:239,1,86,10|0,0:0|1:2,0:0:0:0:
217,339,37293,5,2,1:2:0:0:
284,384,37451,1,0,1:2:0:0:
242,169,37609,1,10,0:0:0:0:
195,243,37767,5,0,1:2:0:0:
195,243,37846,1,8,1:2:0:0:
195,243,37925,2,0,P|117:235|73:160,1,172,2|8,1:2|0:0,0:0:0:0:
213,0,38399,1,0,1:2:0:0:
66,48,38557,2,0,P|125:66|165:98,1,86,2|0,1:2|1:2,0:0:0:0:
242,169,38872,1,8,0:0:0:0:
295,67,39031,6,0,P|228:89|140:160,1,172,2|0,1:2|1:2,0:0:0:0:
91,317,39504,1,8,0:0:0:0:
269,379,39662,1,0,1:2:0:0:
195,243,39820,1,0,1:2:0:0:
195,243,40136,6,0,P|177:276|168:326,1,77.3999976379395,8|0,0:0|0:0,0:0:0:0:
285,270,40452,6,0,P|263:205|249:105,1,141.900004330444,6|0,0:0|0:0,0:0:0:0:
267,111,40767,2,0,P|280:70|329:14,1,94.600002886963,10|2,0:0|0:0,0:0:0:0:
472,110,41083,1,2,1:2:0:0:
367,225,41241,2,0,P|350:180|340:135,1,94.600002886963,2|8,1:2|0:0,0:0:0:0:
512,190,41557,6,0,P|510:251|479:352,1,141.900004330444,6|0,1:2|0:0,0:0:0:0:
473,341,41873,2,0,P|428:357|369:375,1,94.600002886963,2|8,1:2|0:0,0:0:0:0:
182,242,42188,2,0,P|261:225|306:316,1,189.200005773926,2|2,1:2|1:2,0:0:0:0:
149,367,42662,5,10,0:0:0:0:
107,174,42820,1,2,1:2:0:0:
234,301,42978,1,2,0:0:0:0:
234,301,43294,5,10,0:0:0:0:
284,107,43452,1,2,0:0:0:0:
161,244,43609,1,2,1:2:0:0:
307,308,43767,2,0,P|354:301|396:271,1,94.600002886963,2|8,1:2|0:0,0:0:0:0:
409,61,44083,6,0,P|369:117|363:184,1,129,6|0,1:2|0:0,0:0:0:0:
373,201,44399,2,0,P|411:228|458:234,1,86,6|8,1:2|0:0,0:0:0:0:
284,107,44715,6,0,P|215:117|163:159,1,129,6|0,1:2|0:0,0:0:0:0:
146,161,45031,2,0,P|99:161|58:112,1,86,6|8,1:2|0:0,0:0:0:0:
33,0,45346,5,2,1:2:0:0:
33,0,45662,1,0,1:2:0:0:
97,58,45820,6,0,P|77:96|70:163,1,94.600002886963,10|2,0:0|0:0,0:0:0:0:
87,243,46136,1,2,1:2:0:0:
232,194,46294,2,0,P|192:169|133:161,1,94.600002886963,2|8,1:2|0:0,0:0:0:0:
0,217,46609,6,0,P|8:290|36:357,1,141.900004330444,2|0,1:2|0:0,0:0:0:0:
53,362,46925,2,0,P|113:368|145:321,1,94.600002886963,2|8,1:2|0:0,0:0:0:0:
331,348,47241,6,0,P|282:279|164:280,1,189.200005773926,6|2,1:2|1:2,0:0:0:0:
262,384,47715,1,10,0:0:0:0:
313,151,47873,1,2,1:2:0:0:
183,269,48031,1,2,1:2:0:0:
183,269,48346,5,10,0:0:0:0:
368,221,48504,1,2,0:0:0:0:
194,138,48662,1,2,1:2:0:0:
257,306,48820,2,0,P|270:267|268:184,1,94.600002886963,2|8,1:2|0:0,0:0:0:0:
143,0,49136,6,0,P|152:92|193:156,1,141.900004330444,6|0,1:2|0:0,0:0:0:0:
194,138,49452,2,0,P|239:138|299:92,1,94.600002886963,2|8,1:2|0:0,0:0:0:0:
428,62,49767,1,2,1:2:0:0:
339,18,49925,5,0,1:2:0:0:
339,18,50004,1,0,1:2:0:0:
339,18,50083,2,0,L|348:95,1,47.3000014434815,0|0,1:2|1:2,0:0:0:0:
459,144,50241,5,10,1:2:0:0:
459,144,50320,1,0,1:2:0:0:
459,144,50399,2,0,L|450:221,1,47.3000014434815,2|0,1:2|1:2,0:0:0:0:
349,294,50557,5,6,1:2:0:0:
349,294,50873,6,0,P|308:269|262:264,1,94.600002886963,10|2,0:0|0:0,0:0:0:0:
119,341,51189,1,2,1:2:0:0:
226,187,51346,2,0,P|179:192|139:217,1,94.600002886963,2|8,1:2|0:0,0:0:0:0:
286,336,51663,6,0,P|305:267|313:187,1,141.900004330444,6|0,1:2|0:0,0:0:0:0:
332,182,51978,2,0,P|336:133|298:61,1,94.600002886963,2|8,1:2|0:0,0:0:0:0:
182,21,52294,2,0,P|80:35|35:105,1,189.200005773926,2|2,1:2|1:2,0:0:0:0:
14,252,52768,5,10,0:0:0:0:
237,179,52926,1,2,1:2:0:0:
133,104,53084,1,6,1:2:0:0:
133,104,53400,5,10,0:0:0:0:
105,318,53558,1,2,0:0:0:0:
207,258,53715,1,2,1:2:0:0:
67,146,53873,2,0,P|76:194|110:254,1,94.600002886963,2|8,1:2|0:0,0:0:0:0:
276,316,54188,6,0,P|326:297|407:287,1,129,6|0,1:2|0:0,0:0:0:0:
418,269,54504,2,0,P|465:286|485:330,1,86,6|8,1:2|0:0,0:0:0:0:
316,212,54820,6,0,P|297:162|287:81,1,129,6|0,1:2|0:0,0:0:0:0:
269,70,55136,2,0,P|286:23|330:3,1,86,6|8,1:2|0:0,0:0:0:0:
493,133,55452,5,2,1:2:0:0:
493,133,55767,1,0,1:2:0:0:
429,59,55925,6,0,P|409:97|402:164,1,94.600002886963,10|2,0:0|0:0,0:0:0:0:
444,318,56241,1,2,1:2:0:0:
354,269,56399,2,0,P|336:229|325:180,1,94.600002886963,2|8,1:2|0:0,0:0:0:0:
200,32,56715,6,0,P|118:47|97:123,1,141.900004330444,2|0,1:2|0:0,0:0:0:0:
98,114,57031,2,0,P|136:146|201:153,1,94.600002886963,2|8,1:2|0:0,0:0:0:0:
327,48,57346,2,0,P|261:141|239:228,1,189.200005773926,6|2,1:2|1:2,0:0:0:0:
284,380,57820,5,10,0:0:0:0:
355,182,57978,1,2,1:2:0:0:
148,241,58136,1,6,1:2:0:0:
148,241,58451,5,10,0:0:0:0:
263,285,58609,1,2,0:0:0:0:
171,137,58767,1,2,1:2:0:0:
34,235,58925,2,0,P|46:297|68:340,1,94.600002886963,2|8,1:2|0:0,0:0:0:0:
284,380,59241,5,6,1:2:0:0:
256,192,59320,12,2,60504,1:2:0:0:
320,116,60662,5,0,1:2:0:0:
321,106,60741,1,0,1:2:0:0:
323,97,60820,2,0,L|328:41,1,43,0|0,1:2|1:2,0:0:0:0:
398,150,60978,5,2,1:2:0:0:
399,140,61057,1,0,1:2:0:0:
401,131,61136,2,0,L|406:75,1,43,0|0,1:2|1:2,0:0:0:0:
328,194,61294,5,10,1:2:0:0:
468,176,61452,1,2,0:0:0:0:
299,271,61609,6,0,P|227:266|141:229,1,141.900004330444,10|0,1:2|0:0,0:0:0:0:
112,184,61925,6,0,L|122:115,1,43,0|0,1:2|1:2,0:0:0:0:
130,68,62083,2,0,L|140:-1,1,43,0|0,1:2|1:2,0:0:0:0:
196,115,62241,1,10,1:2:0:0:
0,190,62557,6,0,L|10:259,1,43,0|0,1:2|1:2,0:0:0:0:
18,306,62715,2,0,L|28:375,1,43,0|0,1:2|1:2,0:0:0:0:
84,259,62873,1,10,1:2:0:0:
267,80,63188,5,8,1:2:0:0:
292,74,63266,1,8,1:2:0:0:
317,76,63345,1,8,1:2:0:0:
341,84,63424,1,8,1:2:0:0:
362,99,63503,1,10,1:2:0:0:
378,119,63582,1,8,1:2:0:0:
388,143,63661,1,8,1:2:0:0:
391,169,63740,1,8,1:2:0:0:
387,194,63820,6,0,L|285:171,1,86,14|2,1:2|0:0,0:0:0:0:
208,331,64136,2,0,P|258:283|347:269,1,141.900004330444,10|0,1:2|0:0,0:0:0:0:
401,284,64452,6,0,L|466:300,3,43,0|0|0|0,1:2|1:2|1:2|1:2,0:0:0:0:
407,366,64767,1,10,1:2:0:0:
230,198,65083,6,0,L|165:214,3,43,0|0|0|0,1:2|1:2|1:2|1:2,0:0:0:0:
193,125,65398,1,10,1:2:0:0:
400,16,65715,5,8,1:2:0:0:
398,35,65794,1,8,1:2:0:0:
396,54,65873,1,8,1:2:0:0:
314,91,66031,5,8,1:2:0:0:
312,110,66110,1,8,1:2:0:0:
310,129,66189,1,8,1:2:0:0:
437,264,66346,5,10,1:2:0:0:
468,146,66504,1,10,1:2:0:0:
468,146,66820,6,0,L|363:165,1,86,10|0,1:2|1:2,0:0:0:0:
341,236,67136,2,0,L|236:255,1,86,10|0,1:2|1:2,0:0:0:0:
157,101,67452,6,0,P|215:89|282:179,1,172,10|10,1:2|1:2,0:0:0:0:
242,344,67925,1,10,1:2:0:0:
202,170,68083,1,10,1:2:0:0:
256,251,68241,5,0,1:2:0:0:
237,249,68320,1,0,1:2:0:0:
218,247,68399,1,0,1:2:0:0:
130,292,68557,5,0,1:2:0:0:
111,290,68636,1,0,1:2:0:0:
92,288,68715,1,0,1:2:0:0:
48,143,68873,5,10,0:0:0:0:
202,170,69031,1,10,0:0:0:0:
202,170,69346,6,0,L|217:61,1,86,10|0,0:0|1:2,0:0:0:0:
312,1,69662,2,0,L|300:86,1,86,10|0,0:0|1:2,0:0:0:0:
428,154,69978,6,0,P|370:142|303:232,1,172,10|10,0:0|0:0,0:0:0:0:
336,359,70452,1,10,1:2:0:0:
468,269,70609,1,10,1:2:0:0:
382,221,70767,5,0,1:2:0:0:
383,231,70846,1,0,1:2:0:0:
385,240,70925,2,0,L|390:296,1,43,0|0,1:2|1:2,0:0:0:0:
428,154,71083,5,2,1:2:0:0:
429,144,71162,1,0,1:2:0:0:
431,135,71241,2,0,L|436:79,1,43,0|0,1:2|1:2,0:0:0:0:
376,33,71399,5,10,1:2:0:0:
512,110,71557,1,2,0:0:0:0:
347,145,71715,6,0,P|285:123|182:100,1,141.900004330444,10|0,1:2|0:0,0:0:0:0:
134,36,72031,6,0,L|144:111,1,43,0|0,1:2|1:2,0:0:0:0:
152,152,72188,2,0,L|162:221,1,43,0|0,1:2|1:2,0:0:0:0:
73,124,72346,1,10,1:2:0:0:
267,373,72662,6,0,L|277:304,1,43,0|0,1:2|1:2,0:0:0:0:
285,257,72820,2,0,L|295:188,1,43,0|0,1:2|1:2,0:0:0:0:
206,285,72978,1,10,1:2:0:0:
6,360,73294,5,8,1:2:0:0:
0,335,73373,1,8,1:2:0:0:
2,310,73452,1,8,1:2:0:0:
10,286,73531,1,8,1:2:0:0:
25,265,73609,1,10,1:2:0:0:
45,249,73687,1,8,1:2:0:0:
69,239,73767,1,8,1:2:0:0:
95,236,73846,1,8,1:2:0:0:
120,240,73925,6,0,L|97:342,1,86,14|2,1:2|0:0,0:0:0:0:
36,164,74241,2,0,P|22:101|17:14,1,141.900004330444,10|0,1:2|0:0,0:0:0:0:
92,7,74557,6,0,L|157:23,3,43,0|0|0|0,1:2|1:2|1:2|1:2,0:0:0:0:
165,85,74872,1,10,1:2:0:0:
342,141,75188,6,0,L|277:157,3,43,0|0|0|0,1:2|1:2|1:2|1:2,0:0:0:0:
269,219,75503,1,10,1:2:0:0:
181,324,75820,5,8,1:2:0:0:
200,326,75899,1,8,1:2:0:0:
219,328,75978,1,8,1:2:0:0:
299,377,76136,5,8,1:2:0:0:
318,379,76215,1,8,1:2:0:0:
337,381,76294,1,8,1:2:0:0:
439,257,76451,5,10,1:2:0:0:
303,295,76609,1,10,1:2:0:0:
303,295,76925,6,0,L|288:177,1,86,10|0,1:2|1:2,0:0:0:0:
350,146,77241,2,0,L|335:28,1,86,10|0,1:2|1:2,0:0:0:0:
197,7,77557,6,0,P|136:24|104:126,1,172,10|10,1:2|1:2,0:0:0:0:
138,235,78030,1,10,1:2:0:0:
186,96,78188,1,10,1:2:0:0:
53,201,78346,5,0,1:2:0:0:
54,219,78425,1,0,1:2:0:0:
56,238,78504,1,0,1:2:0:0:
100,314,78662,5,0,1:2:0:0:
101,332,78741,1,0,1:2:0:0:
103,351,78820,1,0,1:2:0:0:
187,305,78978,5,10,0:0:0:0:
17,339,79136,1,10,0:0:0:0:
17,339,79451,6,0,L|111:352,1,86,10|0,0:0|1:2,0:0:0:0:
187,305,79767,2,0,L|281:318,1,86,10|0,0:0|1:2,0:0:0:0:
416,374,80083,6,0,P|469:334|444:215,1,172,10|10,0:0|0:0,0:0:0:0:
309,212,80557,1,10,1:2:0:0:
402,293,80714,1,10,1:2:0:0:
480,121,80873,6,0,P|488:87|479:15,1,77.3999976379395,6|0,0:0|0:0,0:0:0:0:
354,134,81188,1,8,0:0:0:0:
391,202,81346,1,0,1:2:0:0:
407,62,81504,2,0,P|389:31|332:-13,1,77.3999976379395,0|0,1:2|0:0,0:0:0:0:
230,39,81820,2,0,P|205:93|207:173,1,116.099996456909,8|0,0:0|0:0,0:0:0:0:
215,164,82136,6,0,P|247:182|299:180,1,77.3999976379395,0|0,1:2|1:2,0:0:0:0:
132,69,82452,2,0,P|93:70|60:88,1,77.3999976379395,8|0,0:0|0:0,0:0:0:0:
98,287,82767,5,2,1:2:0:0:
166,246,82925,1,6,0:0:0:0:
114,148,83083,1,10,0:0:0:0:
10,308,83241,6,0,P|92:325|179:349,1,154.799995275879,6|2,0:0|1:2,0:0:0:0:
351,259,83715,5,10,0:0:0:0:
276,286,83873,1,2,1:2:0:0:
400,378,84031,2,0,P|415:338|418:298,1,77.3999976379395,2|2,1:2|0:0,0:0:0:0:
288,204,84346,2,0,P|273:164|270:124,1,77.3999976379395,10|0,0:0|0:0,0:0:0:0:
453,17,84662,5,0,1:2:0:0:
469,95,84820,1,0,1:2:0:0:
354,26,84978,2,0,P|316:29|283:82,1,77.3999976379395,10|0,0:0|0:0,0:0:0:0:
368,175,85294,2,0,P|383:135|386:95,1,77.3999976379395,0|0,1:2|1:2,0:0:0:0:
212,47,85609,1,10,0:0:0:0:
212,47,85925,6,0,P|170:51|109:72,1,77.3999976379395,2|0,1:2|1:2,0:0:0:0:
273,157,86240,1,8,0:0:0:0:
288,79,86398,1,0,0:0:0:0:
169,152,86557,2,0,P|141:184|112:241,1,77.3999976379395,0|0,1:2|1:2,0:0:0:0:
274,358,86872,2,0,P|268:312|243:234,1,116.099996456909,8|0,0:0|0:0,0:0:0:0:
236,242,87188,6,0,P|196:250|158:297,1,77.3999976379395,0|0,1:2|1:2,0:0:0:0:
351,332,87504,2,0,P|361:297|372:247,1,77.3999976379395,8|0,0:0|0:0,0:0:0:0:
288,79,87819,5,2,1:2:0:0:
309,212,87977,1,6,0:0:0:0:
446,251,88135,1,10,0:0:0:0:
367,88,88293,6,0,P|292:107|216:123,1,154.799995275879,6|2,0:0|1:2,0:0:0:0:
104,17,88767,5,10,0:0:0:0:
183,51,88925,1,2,0:0:0:0:
147,188,89083,2,0,P|132:148|129:108,1,77.3999976379395,2|2,1:2|1:2,0:0:0:0:
230,201,89399,2,0,P|225:239|211:275,1,77.3999976379395,10|2,0:0|0:0,0:0:0:0:
91,362,89714,5,0,1:2:0:0:
101,278,89872,1,0,1:2:0:0:
210,353,90031,2,0,P|250:375|297:371,1,77.3999976379395,10|2,0:0|0:0,0:0:0:0:
402,272,90346,2,0,P|371:295|331:302,1,77.3999976379395,0|0,1:2|1:2,0:0:0:0:
230,201,90662,1,8,0:0:0:0:
230,201,90978,6,0,P|225:159|210:114,1,77.3999976379395,2|0,1:2|1:2,0:0:0:0:
105,214,91293,1,8,0:0:0:0:
169,251,91451,1,0,0:0:0:0:
149,63,91609,2,0,P|139:101|134:139,1,77.3999976379395,0|0,1:2|1:2,0:0:0:0:
245,281,91925,2,0,P|295:268|336:203,1,116.099996456909,8|0,0:0|0:0,0:0:0:0:
337,199,92241,6,0,P|335:161|316:116,1,77.3999976379395,0|0,1:2|1:2,0:0:0:0:
264,13,92557,2,0,P|250:49|248:87,1,77.3999976379395,8|0,0:0|0:0,0:0:0:0:
410,151,92872,5,2,1:2:0:0:
505,85,93030,1,6,0:0:0:0:
411,0,93188,1,10,0:0:0:0:
321,124,93346,6,0,P|346:239|357:296,1,154.799995275879,6|2,0:0|1:2,0:0:0:0:
473,374,93820,5,10,0:0:0:0:
483,293,93978,1,2,1:2:0:0:
342,354,94136,2,0,P|384:345|416:324,1,77.3999976379395,2|2,1:2|1:2,0:0:0:0:
305,209,94452,2,0,P|271:189|234:181,1,77.3999976379395,10|0,0:0|0:0,0:0:0:0:
203,349,94767,5,0,1:2:0:0:
270,315,94925,1,0,1:2:0:0:
149,231,95083,2,0,P|110:236|66:264,1,77.3999976379395,10|0,0:0|0:0,0:0:0:0:
110,384,95399,2,0,P|123:353|132:282,1,77.3999976379395,0|0,1:2|1:2,0:0:0:0:
90,164,95714,5,10,0:0:0:0:
23,192,95873,1,0,0:0:0:0:
236,247,96031,6,0,P|226:211|218:143,1,77.3999976379395,2|0,1:2|1:2,0:0:0:0:
291,18,96346,1,8,0:0:0:0:
334,85,96504,1,0,0:0:0:0:
215,95,96662,2,0,P|176:84|126:44,1,77.3999976379395,0|0,1:2|1:2,0:0:0:0:
316,164,96978,2,0,P|387:151|427:121,1,116.099996456909,8|0,0:0|0:0,0:0:0:0:
431,112,97294,6,0,P|443:62|445:27,1,77.3999976379395,0|0,1:2|1:2,0:0:0:0:
387,188,97609,2,0,P|390:226|400:263,1,77.3999976379395,8|0,0:0|0:0,0:0:0:0:
444,372,97925,5,2,1:2:0:0:
472,201,98083,1,6,0:0:0:0:
306,274,98241,1,10,0:0:0:0:
477,294,98399,6,0,P|406:276|298:257,1,154.799995275879,6|2,0:0|1:2,0:0:0:0:
213,155,98873,5,10,0:0:0:0:
142,189,99031,1,2,0:0:0:0:
194,340,99188,2,0,P|204:292|219:239,1,77.3999976379395,2|2,1:2|1:2,0:0:0:0:
285,101,99504,5,10,0:0:0:0:
302,183,99662,1,0,0:0:0:0:
124,25,99820,6,0,P|59:46|39:123,1,129,4|0,0:0|0:0,0:0:0:0:
41,173,100136,5,8,0:0:0:0:
41,173,100452,6,0,L|51:272,1,86,8|0,0:0|0:0,0:0:0:0:
129,382,100767,6,0,P|138:312|157:212,1,141.900004330444,8|0,0:0|0:0,0:0:0:0:
212,193,101083,6,0,P|302:190|351:290,1,189.200005773926,6|8,0:0|1:2,0:0:0:0:
302,384,101557,5,2,1:2:0:0:
252,260,101715,1,2,0:0:0:0:
434,228,101873,1,2,0:0:0:0:
352,265,102031,2,0,P|352:218|367:173,1,94.600002886963,10|2,1:2|1:2,0:0:0:0:
463,13,102346,6,0,P|490:86|493:154,1,141.900004330444,2|0,1:2|0:0,0:0:0:0:
482,165,102662,1,10,1:2:0:0:
330,53,102820,2,0,P|254:61|209:167,1,189.200005773926,2|0,1:2|1:2,0:0:0:0:
227,289,103294,5,8,1:2:0:0:
297,323,103452,1,2,1:2:0:0:
140,207,103609,2,0,P|84:228|44:263,1,94.600002886963,2|0,1:2|0:0,0:0:0:0:
228,381,103925,1,10,1:2:0:0:
298,239,104083,2,0,P|325:150|331:41,1,189.200005773926,2|2,1:2|1:2,0:0:0:0:
142,8,104557,2,0,P|161:71|181:109,1,94.600002886963,8|0,1:2|1:2,0:0:0:0:
390,199,104873,5,2,1:2:0:0:
331,54,105084,5,2,1:2:0:0:
235,176,105294,5,2,1:2:0:0:
481,72,105504,5,10,1:2:0:0:
326,135,105715,5,2,1:2:0:0:
462,241,105925,5,2,1:2:0:0:
437,155,106136,6,0,P|385:207|366:325,1,189.200005773926,6|8,0:0|0:0,0:0:0:0:
234,309,106609,2,0,P|265:351|305:369,1,94.600002886963,2|0,1:2|0:0,0:0:0:0:
446,349,106925,1,0,1:2:0:0:
326,135,107083,5,8,0:0:0:0:
217,198,107241,1,2,1:2:0:0:
369,322,107399,2,0,P|387:277|374:199,1,94.600002886963,2|2,1:2|1:2,0:0:0:0:
253,88,107715,5,10,0:0:0:0:
297,245,107873,2,0,P|227:173|124:153,1,189.200005773926,2|2,1:2|1:2,0:0:0:0:
80,198,108346,1,10,0:0:0:0:
123,335,108504,1,2,1:2:0:0:
123,335,108583,1,2,0:0:0:0:
123,335,108662,6,0,P|139:300|148:228,1,94.600002886963,2|0,1:2|0:0,0:0:0:0:
108,71,108978,1,8,0:0:0:0:
0,246,109136,6,0,P|35:231|92:186,1,94.600002886963,2|2,1:2|1:2,0:0:0:0:
219,55,109452,5,2,0:0:0:0:
45,8,109609,1,8,0:0:0:0:
152,161,109767,1,2,1:2:0:0:
108,71,109925,5,6,1:2:0:0:
108,71,110004,1,0,0:0:0:0:
108,71,110083,2,0,L|32:88,1,47.3000014434815,0|0,1:2|1:2,0:0:0:0:
238,137,110241,6,0,L|342:155,1,94.600002886963,0|0,1:2|1:2,0:0:0:0:
381,45,110557,5,8,1:2:0:0:
381,45,110636,1,8,1:2:0:0:
381,45,110715,2,0,L|398:121,1,47.3000014434815,8|0,1:2|0:0,0:0:0:0:
433,206,110873,5,0,1:2:0:0:
433,206,110952,1,0,1:2:0:0:
433,206,111031,2,0,L|450:130,1,47.3000014434815,8|8,1:2|1:2,0:0:0:0:
284,60,111188,6,0,P|194:57|145:157,1,189.200005773926,6|8,0:0|1:2,0:0:0:0:
194,307,111662,5,2,1:2:0:0:
238,137,111820,1,2,0:0:0:0:
94,211,111978,1,2,0:0:0:0:
272,252,112136,2,0,P|233:227|168:212,1,94.600002886963,10|2,1:2|1:2,0:0:0:0:
44,339,112451,6,0,P|111:303|183:295,1,141.900004330444,2|0,1:2|0:0,0:0:0:0:
194,307,112767,1,10,1:2:0:0:
359,373,112925,2,0,P|413:341|376:210,1,189.200005773926,2|0,1:2|1:2,0:0:0:0:
215,60,113399,5,8,1:2:0:0:
238,137,113557,1,2,1:2:0:0:
409,90,113715,2,0,P|403:21|384:-10,1,94.600002886963,2|2,1:2|1:2,0:0:0:0:
317,206,114030,1,10,1:2:0:0:
487,143,114188,2,0,P|397:117|302:99,1,189.200005773926,2|2,1:2|1:2,0:0:0:0:
173,0,114662,2,0,P|144:51|154:104,1,94.600002886963,8|0,1:2|1:2,0:0:0:0:
299,281,114978,5,2,1:2:0:0:
238,137,115189,5,2,1:2:0:0:
87,182,115399,5,2,1:2:0:0:
239,226,115609,5,10,1:2:0:0:
382,165,115820,5,2,1:2:0:0:
338,14,116030,5,2,1:2:0:0:
148,123,116241,6,0,P|110:198|110:303,1,189.200005773926,6|8,0:0|0:0,0:0:0:0:
236,376,116715,2,0,P|204:341|184:290,1,94.600002886963,2|0,1:2|0:0,0:0:0:0:
252,142,117031,1,0,1:2:0:0:
356,333,117188,5,8,0:0:0:0:
278,299,117347,1,2,1:2:0:0:
379,86,117504,2,0,P|453:108|498:175,1,141.900004330444,2|0,1:2|0:0,0:0:0:0:
484,168,117821,5,10,0:0:0:0:
349,11,117978,2,0,P|257:31|169:96,1,189.200005773926,2|2,1:2|1:2,0:0:0:0:
141,196,118452,1,10,0:0:0:0:
335,184,118610,1,2,1:2:0:0:
335,184,118689,1,0,0:0:0:0:
335,184,118768,6,0,P|303:161|234:139,1,94.600002886963,2|0,1:2|1:2,0:0:0:0:
81,261,119084,1,8,0:0:0:0:
245,309,119241,6,0,P|239:265|213:203,1,94.600002886963,2|2,1:2|1:2,0:0:0:0:
151,19,119558,5,2,0:0:0:0:
14,180,119715,1,8,0:0:0:0:
221,218,119873,1,2,1:2:0:0:
135,138,120031,5,6,1:2:0:0:
93,352,120188,1,0,1:2:0:0:
93,352,120267,1,0,1:2:0:0:
93,352,120346,2,0,L|77:243,1,94.600002886963,0|0,1:2|1:2,0:0:0:0:
253,108,120662,5,8,1:2:0:0:
179,370,120820,1,8,1:2:0:0:
179,370,120899,1,0,0:0:0:0:
179,370,120978,2,0,L|163:261,1,94.600002886963,0|8,1:2|1:2,0:0:0:0:
369,85,121294,6,0,P|463:93|507:222,1,225.750008611679,6|0,0:0|0:0,0:0:0:0:
500,276,121925,5,6,1:2:0:0:
433,312,122557,5,6,1:2:0:0:
360,265,123188,5,6,1:2:0:0:
275,350,123820,5,6,1:2:0:0:
191,208,124452,5,6,1:2:0:0:
17,376,125083,5,2,1:2:0:0:
169,339,125293,5,2,1:2:0:0:
60,226,125504,5,2,1:2:0:0:
283,300,125715,5,10,1:2:0:0:
131,263,125925,5,2,1:2:0:0:
240,150,126136,5,0,0:0:0:0:
73,10,126346,6,0,P|50:42|56:113,1,90.2999972442628,6|0,0:0|0:0,0:0:0:0:
72,119,126583,1,8,0:0:0:0:
72,119,126662,2,0,P|117:110|174:99,1,90.2999972442628,2|2,1:2|1:2,0:0:0:0:
327,58,126978,6,0,P|350:90|344:161,1,90.2999972442628,2|0,1:2|0:0,0:0:0:0:
328,167,127215,1,8,0:0:0:0:
328,167,127294,2,0,P|283:158|226:147,1,90.2999972442628,2|2,1:2|1:2,0:0:0:0:
45,235,127609,6,0,P|90:226|147:215,1,90.2999972442628,2|0,1:2|0:0,0:0:0:0:
155,231,127846,1,8,0:0:0:0:
155,231,127925,1,2,1:2:0:0:
126,328,128083,1,2,1:2:0:0:
366,291,128241,6,0,P|321:282|264:271,1,90.2999972442628,2|0,1:2|0:0,0:0:0:0:
256,287,128478,1,8,0:0:0:0:
256,287,128557,1,2,1:2:0:0:
285,384,128715,1,2,1:2:0:0:
447,240,128873,6,0,P|445:195|420:158,1,90.2999972442628,2|0,1:2|0:0,0:0:0:0:
406,145,129109,1,8,0:0:0:0:
406,145,129188,2,0,P|407:100|432:63,1,90.2999972442628,2|2,1:2|1:2,0:0:0:0:
258,3,129504,6,0,P|259:47|284:84,1,90.2999972442628,2|0,1:2|0:0,0:0:0:0:
299,98,129740,1,8,0:0:0:0:
299,98,129820,2,0,P|297:142|267:180,1,90.2999972442628,2|2,1:2|1:2,0:0:0:0:
94,238,130136,5,2,1:2:0:0:
178,167,130294,1,0,0:0:0:0:
228,285,130452,1,2,1:2:0:0:
86,149,130609,1,2,1:2:0:0:
189,77,130767,1,2,1:2:0:0:
189,77,131083,6,0,P|245:85|310:97,1,109.650002091408,14|0,1:2|0:0,0:0:0:0:
386,43,131399,6,0,P|320:118|295:215,1,189.200005773926,4|8,0:0|0:0,0:0:0:0:
351,351,131873,5,0,1:2:0:0:
505,384,132031,1,2,1:2:0:0:
461,229,132189,1,0,0:0:0:0:
398,293,132347,2,0,P|381:258|372:192,1,94.600002886963,10|2,0:0|1:2,0:0:0:0:
503,15,132662,6,0,P|489:95|451:149,1,141.900004330444,2|0,1:2|0:0,0:0:0:0:
436,151,132978,1,10,0:0:0:0:
290,196,133136,2,0,P|255:145|136:112,1,189.200005773926,2|0,1:2|1:2,0:0:0:0:
158,325,133610,5,8,0:0:0:0:
230,302,133768,1,2,1:2:0:0:
100,187,133925,2,0,P|53:201|6:247,1,94.600002886963,2|2,0:0|1:2,0:0:0:0:
217,384,134241,1,8,0:0:0:0:
176,238,134399,2,0,P|183:165|227:26,1,189.200005773926,2|0,0:0|0:0,0:0:0:0:
50,31,134873,2,0,P|76:79|115:103,1,94.600002886963,8|2,0:0|0:0,0:0:0:0:
272,156,135188,6,0,B|425:143|425:143|479:143|537:61|413:-31|325:62|372:118,1,421.399987139893,6|0,0:0|0:0,0:0:0:0:
396,228,136452,6,0,L|419:359,1,129.00000492096,6|2,0:0|1:2,0:0:0:0:
272,156,137083,1,10,0:0:0:0:
272,156,137241,6,0,P|212:143|129:127,1,129.00000492096,0|0,1:2|1:2,0:0:0:0:
71,152,137715,1,2,1:2:0:0:
24,273,138031,1,2,1:2:0:0:
146,316,138346,1,10,0:0:0:0:
146,316,138504,6,0,P|206:303|289:287,1,129.00000492096,0|0,1:2|1:2,0:0:0:0:
344,318,138978,1,6,1:2:0:0:
424,208,139294,6,0,P|430:153|398:69,1,129.00000492096,0|8,1:2|0:0,0:0:0:0:
345,39,139767,1,0,1:2:0:0:
345,39,139925,1,2,0:0:0:0:
226,82,140241,5,2,1:2:0:0:
331,210,140557,1,2,1:2:0:0:
198,312,140873,2,0,P|128:299|88:240,1,129.00000492096,10|2,0:0|0:0,0:0:0:0:
235,0,141504,5,6,0:0:0:0:
256,192,141662,12,0,150978,0:0:0:0:
