osu file format v14

[General]
AudioFilename: audio.mp3
AudioLeadIn: 0
PreviewTime: 39938
Countdown: 0
SampleSet: Soft
StackLeniency: 0.7
Mode: 0
LetterboxInBreaks: 0
WidescreenStoryboard: 1

[Editor]
Bookmarks: 8873,20241,30346,60662,70767,80873,101083,121294,126346,131399,141504,150978
DistanceSpacing: 1.1
BeatDivisor: 4
GridSize: 8
TimelineZoom: 1.8

[Metadata]
Title:The Title Track
TitleUnicode:The Title Track
Artist:Origami Angel
ArtistUnicode:Origami Angel
Creator:Mimari
Version:Hard
Source:
Tags:somewhere city english rock emo punk mapping to pander contest
BeatmapID:2883670
BeatmapSetID:1396156

[Difficulty]
HPDrainRate:4
CircleSize:3.8
OverallDifficulty:6
ApproachRate:8
SliderMultiplier:1.42
SliderTickRate:1

[Events]
//Background and Video events
0,0,"ily pishi.jpg",0,0
//Break Periods
//Storyboard Layer 0 (Background)
//Storyboard Layer 1 (Fail)
//Storyboard Layer 2 (Pass)
//Storyboard Layer 3 (Foreground)
//Storyboard Layer 4 (Overlay)
//Storyboard Sound Samples

[TimingPoints]
31,315.789473684211,4,2,1,75,1,0
8873,-100,4,2,1,75,0,0
9109,-100,4,2,1,5,0,0
9188,-100,4,2,1,75,0,0
11478,-100,4,2,1,5,0,0
11557,-100,4,2,1,75,0,0
14004,-100,4,2,1,5,0,0
14083,-100,4,2,1,75,0,0
14636,-100,4,2,1,5,0,0
14715,-100,4,2,1,75,0,0
19057,-100,4,2,1,5,0,0
19136,-100,4,2,1,75,0,0
20241,-111.111111111111,4,2,1,60,0,0
25215,-111.111111111111,4,2,1,5,0,0
25294,-100,4,2,1,70,0,0
30346,-111.111111111111,4,2,1,60,0,0
35399,-100,4,2,1,70,0,0
40452,-95.2380952380952,4,2,1,75,0,1
40688,-95.2380952380952,4,2,1,5,0,1
40767,-95.2380952380952,4,2,1,75,0,1
44083,-100,4,2,1,75,0,0
44320,-100,4,2,1,5,0,0
44399,-100,4,2,1,75,0,0
44952,-100,4,2,1,5,0,0
45031,-100,4,2,1,75,0,0
45820,-95.2380952380951,4,2,1,75,0,1
49925,-95.2380952380951,4,2,1,75,0,0
50873,-95.2380952380951,4,2,1,75,0,1
54188,-100,4,2,1,75,0,0
54425,-100,4,2,1,5,0,0
54504,-100,4,2,1,75,0,0
55057,-100,4,2,1,5,0,0
55136,-100,4,2,1,75,0,0
55925,-95.2380952380951,4,2,1,75,0,1
59241,-117.647058823529,4,2,1,75,0,0
60662,-100,4,2,1,70,0,0
80873,-105.263157894737,4,2,1,60,0,0
99820,-117.64705882353,4,2,1,60,0,0
100767,-100,4,2,1,60,0,0
101004,-100,4,2,1,5,0,0
101083,-95.2380952380951,4,2,1,75,0,1
104873,-105.263157894737,4,2,1,75,0,0
106136,-95.2380952380951,4,2,1,75,0,1
109925,-95.2380952380951,4,2,1,75,0,0
111188,-95.2380952380951,4,2,1,75,0,1
114978,-105.263157894737,4,2,1,75,0,0
116241,-95.2380952380951,4,2,1,75,0,1
121294,-125,4,2,1,65,0,0
126346,-95.2380952380951,4,2,1,75,0,0
131320,-95.2380952380951,4,2,1,5,0,0
131399,-95.2380952380951,4,2,1,70,0,1
135188,-100,4,2,1,60,0,0
136452,-105.263157894737,4,2,1,65,0,0
141504,-105.263157894737,4,2,1,60,0,0
142767,-105.263157894737,4,2,1,55,0,0
144031,-105.263157894737,4,2,1,50,0,0
145294,-105.263157894737,4,2,1,45,0,0
146557,-105.263157894737,4,2,1,35,0,0
147820,-105.263157894737,4,2,1,25,0,0
149083,-105.263157894737,4,2,1,15,0,0
150346,-105.263157894737,4,2,1,10,0,0
150978,-105.263157894737,4,2,2,5,0,0

[Colours]
Combo1 : 149,156,219
Combo2 : 223,157,157
Combo3 : 236,173,132
Combo4 : 167,194,228

[HitObjects]
265,46,8873,6,0,L|155:30,1,106.5,2|0,0:0|0:0,0:0:0:0:
143,45,9188,6,0,L|134:83,2,35.5,8|8|8,1:2|1:2|1:2,0:0:0:0:
205,116,9504,2,0,L|210:158,2,35.5,8|8|8,1:2|1:2|1:2,0:0:0:0:
131,194,9820,1,10,1:2:0:0:
131,194,9899,1,10,1:2:0:0:
131,194,9978,1,10,1:2:0:0:
205,243,10136,6,0,L|366:219,1,142,14|10,1:2|0:0,0:0:0:0:
410,175,10609,1,0,0:0:0:0:
481,207,10767,1,2,1:2:0:0:
491,284,10925,2,0,P|489:323|469:357,1,71,2|8,1:2|0:0,0:0:0:0:
392,365,11241,6,0,L|270:341,1,106.5,6|0,1:2|0:0,0:0:0:0:
269,356,11557,2,0,L|192:368,1,71,2|8,1:2|0:0,0:0:0:0:
113,338,11873,2,0,P|79:295|113:212,1,142,2|2,1:2|1:2,0:0:0:0:
166,167,12346,1,10,1:2:0:0:
208,241,12504,1,2,1:2:0:0:
268,182,12662,1,6,1:2:0:0:
268,182,12978,6,0,P|264:142|256:84,1,71,10|2,0:0|0:0,0:0:0:0:
306,38,13294,1,2,1:2:0:0:
220,33,13452,2,0,L|123:11,1,71,2|8,1:2|0:0,0:0:0:0:
43,33,13767,6,0,P|17:69|25:140,1,106.5,2|0,1:2|0:0,0:0:0:0:
34,140,14083,2,0,P|69:131|112:120,1,71,2|8,1:2|0:0,0:0:0:0:
187,166,14399,6,0,P|213:202|205:273,1,106.5,2|0,1:2|0:0,0:0:0:0:
196,273,14715,2,0,P|160:264|118:253,1,71,2|8,1:2|1:2,0:0:0:0:
44,338,15031,5,2,1:2:0:0:
44,338,15346,5,0,1:2:0:0:
111,372,15504,2,0,L|181:360,1,71,14|0,0:0|0:0,0:0:0:0:
261,378,15820,1,2,1:2:0:0:
329,338,15978,2,0,P|344:310|340:267,1,71,2|8,1:2|0:0,0:0:0:0:
355,191,16294,6,0,B|272:179|298:241|207:233,1,142,2|2,1:2|1:2,0:0:0:0:
70,121,16925,2,0,P|63:74|150:27,1,142,2|2,1:2|1:2,0:0:0:0:
213,0,17399,1,10,1:2:0:0:
239,77,17557,1,2,1:2:0:0:
307,32,17715,1,6,1:2:0:0:
307,32,18031,6,0,L|376:46,1,71,10|0,0:0|0:0,0:0:0:0:
447,82,18346,1,2,1:2:0:0:
490,154,18504,2,0,L|421:169,1,71,2|8,1:2|0:0,0:0:0:0:
339,131,18820,6,0,P|331:183|362:232,1,106.5,6|0,1:2|0:0,0:0:0:0:
377,241,19136,2,0,L|446:255,1,71,2|8,1:2|0:0,0:0:0:0:
386,333,19452,2,0,L|238:356,1,142,2|2,1:2|1:2,0:0:0:0:
168,308,19925,1,10,1:2:0:0:
243,266,20083,1,10,1:2:0:0:
243,266,20162,1,8,1:2:0:0:
243,266,20241,6,0,P|253:205|264:132,1,127.799996099854,6|10,1:2|0:0,0:0:0:0:
280,59,20715,1,0,1:2:0:0:
280,59,20873,2,0,P|247:56|183:128,1,127.799996099854,2|10,1:2|0:0,0:0:0:0:
46,160,21504,6,0,L|37:96,2,63.8999980499268,2|0|10,1:2|1:2|0:0,0:0:0:0:
6,237,21978,1,0,1:2:0:0:
6,237,22136,2,0,L|78:249,1,63.8999980499268,2|0,1:2|0:0,0:0:0:0:
108,320,22452,2,0,L|180:332,1,63.8999980499268,10|0,0:0|0:0,0:0:0:0:
248,373,22767,6,0,P|258:311|212:251,1,127.799996099854,2|10,1:2|0:0,0:0:0:0:
185,184,23241,1,0,1:2:0:0:
185,184,23399,2,0,P|241:179|301:226,1,127.799996099854,2|10,1:2|0:0,0:0:0:0:
439,278,24031,6,0,L|430:342,2,63.8999980499268,2|0|10,1:2|1:2|0:0,0:0:0:0:
494,216,24504,1,0,1:2:0:0:
494,216,24662,2,0,L|484:152,1,63.8999980499268,2|0,1:2|0:0,0:0:0:0:
466,75,24978,2,0,P|427:52|368:57,1,95.8499970748902,14|0,0:0|0:0,0:0:0:0:
364,64,25294,6,0,B|277:50|318:116|215:97,1,142,6|8,1:2|0:0,0:0:0:0:
166,57,25767,1,0,1:2:0:0:
88,80,25925,2,0,P|100:147|111:227,1,142,2|8,1:2|0:0,0:0:0:0:
196,218,26399,6,0,P|184:285|173:365,1,142,0|0,1:2|1:2,0:0:0:0:
90,383,26873,1,10,0:0:0:0:
22,331,27031,1,0,1:2:0:0:
98,290,27188,2,0,P|105:258|114:196,1,71,2|0,1:2|1:2,0:0:0:0:
40,169,27504,2,0,P|24:138|22:98,1,71,10|0,0:0|1:2,0:0:0:0:
34,84,27741,1,8,1:2:0:0:
34,84,27820,6,0,B|70:64|70:64|120:79|190:97,1,142,2|8,1:2|0:0,0:0:0:0:
242,58,28294,1,0,1:2:0:0:
314,98,28452,2,0,L|394:82,2,71,2|0|8,1:2|1:2|0:0,0:0:0:0:
239,142,28925,6,0,P|219:203|221:287,1,142,2|0,1:2|1:2,0:0:0:0:
258,347,29399,1,8,0:0:0:0:
332,319,29557,2,0,B|419:305|378:371|481:352,1,142,0|0,1:2|1:2,0:0:0:0:
510,291,30031,1,8,0:0:0:0:
449,239,30188,1,0,1:2:0:0:
449,239,30267,1,0,0:0:0:0:
449,239,30346,6,0,P|459:178|470:105,1,127.799996099854,6|10,1:2|0:0,0:0:0:0:
484,33,30820,1,0,1:2:0:0:
484,33,30978,2,0,B|411:25|432:83|336:66,1,127.799996099854,2|10,1:2|0:0,0:0:0:0:
214,52,31609,6,0,L|139:42,2,63.8999980499268,2|0|10,1:2|1:2|0:0,0:0:0:0:
283,98,32083,1,0,1:2:0:0:
283,98,32241,2,0,P|293:126|289:166,1,63.8999980499268,2|0,1:2|0:0,0:0:0:0:
362,198,32557,2,0,P|344:222|309:241,1,63.8999980499268,10|0,0:0|0:0,0:0:0:0:
293,322,32873,6,0,L|161:304,1,127.799996099854,2|10,1:2|0:0,0:0:0:0:
119,369,33346,1,0,1:2:0:0:
119,369,33504,2,0,P|84:324|108:245,1,127.799996099854,2|10,1:2|0:0,0:0:0:0:
225,185,34136,6,0,L|269:176,2,31.9499990249634,10|2|2,1:2|1:2|1:2,0:0:0:0:
156,139,34452,2,0,L|112:130,2,31.9499990249634,10|2|2,1:2|1:2|1:2,0:0:0:0:
224,94,34767,2,0,L|268:85,2,31.9499990249634,10|2|2,1:2|1:2|1:2,0:0:0:0:
161,38,35083,2,0,L|89:25,1,63.8999980499268,10|0,1:2|1:2,0:0:0:0:
24,80,35399,6,0,P|34:148|48:221,1,142,6|8,1:2|0:0,0:0:0:0:
13,295,35872,1,0,1:2:0:0:
76,347,36031,2,0,B|163:361|122:295|225:314,1,142,2|8,1:2|0:0,0:0:0:0:
281,376,36504,6,0,P|290:305|303:235,1,142,0|0,1:2|1:2,0:0:0:0:
346,161,36978,1,10,0:0:0:0:
394,231,37136,1,0,1:2:0:0:
432,160,37294,2,0,P|445:100|448:70,1,71,2|0,1:2|1:2,0:0:0:0:
404,12,37609,2,0,P|361:16|332:40,1,71,10|0,0:0|1:2,0:0:0:0:
324,52,37846,1,8,1:2:0:0:
324,52,37925,6,0,B|237:38|278:104|175:85,1,142,2|8,1:2|0:0,0:0:0:0:
126,36,38399,1,0,1:2:0:0:
50,67,38557,2,0,P|43:102|34:140,2,71,2|0|8,1:2|1:2|0:0,0:0:0:0:
119,114,39030,6,0,P|129:192|138:276,1,142,2|0,1:2|1:2,0:0:0:0:
172,322,39504,1,8,0:0:0:0:
253,342,39662,1,0,1:2:0:0:
321,295,39820,1,0,1:2:0:0:
321,295,40136,6,0,P|356:273|406:267,1,71,8|0,0:0|0:0,0:0:0:0:
481,198,40452,6,0,P|426:193|354:165,1,111.824996587372,6|0,0:0|0:0,0:0:0:0:
365,149,40767,2,0,L|349:52,1,74.5499977249146,10|2,0:0|0:0,0:0:0:0:
302,13,41083,1,2,1:2:0:0:
225,45,41241,2,0,P|186:31|130:15,1,74.5499977249146,2|8,1:2|0:0,0:0:0:0:
86,83,41557,6,0,P|96:156|137:228,1,149.099995449829,6|2,1:2|1:2,0:0:0:0:
211,236,42031,1,8,0:0:0:0:
186,317,42188,2,0,P|112:308|46:274,1,149.099995449829,2|2,1:2|1:2,0:0:0:0:
8,202,42662,2,0,P|10:166|37:116,1,74.5499977249146,10|2,0:0|1:2,0:0:0:0:
86,83,42978,1,2,0:0:0:0:
86,83,43294,6,0,L|194:71,1,74.5499977249146,10|2,0:0|0:0,0:0:0:0:
219,16,43609,1,2,1:2:0:0:
302,32,43767,2,0,P|321:61|327:115,1,74.5499977249146,2|8,1:2|0:0,0:0:0:0:
361,202,44083,6,0,P|309:178|245:166,1,106.5,6|0,1:2|0:0,0:0:0:0:
243,157,44399,2,0,P|195:174|168:195,1,71,6|8,1:2|0:0,0:0:0:0:
132,288,44715,6,0,P|184:264|248:252,1,106.5,6|0,1:2|0:0,0:0:0:0:
258,271,45031,2,0,P|306:288|333:309,1,71,6|8,1:2|0:0,0:0:0:0:
372,381,45346,1,2,1:2:0:0:
372,381,45662,1,0,1:2:0:0:
445,350,45820,6,0,P|449:311|458:258,1,74.5499977249146,10|2,0:0|0:0,0:0:0:0:
411,207,46136,1,2,1:2:0:0:
487,180,46294,2,0,P|482:138|474:88,1,74.5499977249146,2|8,1:2|0:0,0:0:0:0:
483,19,46609,6,0,B|397:8|435:91|331:72,1,149.099995449829,2|2,1:2|1:2,0:0:0:0:
281,95,47083,1,8,0:0:0:0:
229,32,47241,2,0,P|245:106|261:189,1,149.099995449829,6|2,1:2|1:2,0:0:0:0:
223,248,47715,1,10,0:0:0:0:
273,308,47873,1,2,1:2:0:0:
225,372,48031,1,2,1:2:0:0:
225,372,48346,6,0,L|136:358,1,74.5499977249146,10|2,0:0|0:0,0:0:0:0:
63,368,48662,1,2,1:2:0:0:
20,296,48820,2,0,P|9:256|5:203,1,74.5499977249146,2|8,1:2|0:0,0:0:0:0:
87,176,49136,6,0,P|122:96|175:31,1,149.099995449829,6|2,1:2|1:2,0:0:0:0:
233,4,49609,1,8,0:0:0:0:
262,80,49767,1,2,1:2:0:0:
332,21,49925,6,0,P|377:41|403:77,1,74.5499977249146,0|0,1:2|1:2,0:0:0:0:
404,81,50162,1,0,1:2:0:0:
404,81,50241,1,10,1:2:0:0:
439,161,50399,1,2,1:2:0:0:
360,190,50557,1,6,1:2:0:0:
360,190,50873,6,0,L|351:264,1,74.5499977249146,10|2,0:0|0:0,0:0:0:0:
405,327,51189,1,2,1:2:0:0:
334,365,51347,2,0,P|295:351|239:335,1,74.5499977249146,2|8,1:2|0:0,0:0:0:0:
179,362,51663,6,0,P|143:296|133:223,1,149.099995449829,6|2,1:2|1:2,0:0:0:0:
190,164,52137,1,8,0:0:0:0:
215,238,52294,2,0,P|234:166|278:106,1,149.099995449829,2|2,1:2|1:2,0:0:0:0:
338,51,52767,2,0,P|288:24|263:28,1,74.5499977249146,10|2,0:0|1:2,0:0:0:0:
203,66,53084,1,6,1:2:0:0:
203,66,53400,6,0,L|128:74,1,74.5499977249146,10|2,0:0|0:0,0:0:0:0:
68,25,53715,1,2,1:2:0:0:
6,79,53873,2,0,P|12:113|45:156,1,74.5499977249146,2|8,1:2|0:0,0:0:0:0:
7,215,54189,6,0,P|55:192|106:180,1,106.5,6|0,1:2|0:0,0:0:0:0:
123,190,54504,2,0,P|165:204|189:216,1,71,6|8,1:2|0:0,0:0:0:0:
271,146,54820,6,0,P|293:194|305:245,1,106.5,6|0,1:2|0:0,0:0:0:0:
296,262,55136,2,0,P|282:304|270:328,1,71,6|8,1:2|0:0,0:0:0:0:
183,373,55452,1,2,1:2:0:0:
183,373,55767,1,0,1:2:0:0:
101,356,55925,6,0,P|85:323|79:267,1,74.5499977249146,10|2,0:0|0:0,0:0:0:0:
85,207,56241,1,2,1:2:0:0:
160,183,56399,2,0,P|192:193|239:205,1,74.5499977249146,2|8,1:2|0:0,0:0:0:0:
296,262,56715,6,0,P|368:229|444:215,1,149.099995449829,2|2,1:2|1:2,0:0:0:0:
512,251,57189,1,8,0:0:0:0:
505,166,57346,2,0,P|461:105|405:56,1,149.099995449829,6|2,1:2|1:2,0:0:0:0:
341,6,57821,1,10,0:0:0:0:
315,80,57979,1,2,1:2:0:0:
244,111,58137,1,6,1:2:0:0:
244,111,58452,6,0,L|155:97,1,74.5499977249146,10|2,0:0|0:0,0:0:0:0:
108,47,58768,1,2,1:2:0:0:
40,106,58926,2,0,P|44:142|54:178,1,74.5499977249146,2|8,1:2|0:0,0:0:0:0:
115,236,59241,6,0,B|155:253|195:228|195:228|239:200|289:220,1,181.050003453255,6|2,1:2|0:0,0:0:0:0:
389,233,60031,1,2,0:0:0:0:
413,323,60346,1,10,0:0:0:0:
320,372,60662,6,0,L|257:360,2,35.5,0|0|0,1:2|1:2|1:2,0:0:0:0:
242,299,60978,2,0,L|179:287,2,35.5,2|0|0,1:2|1:2|1:2,0:0:0:0:
142,346,61294,2,0,L|45:327,1,71,10|2,1:2|0:0,0:0:0:0:
35,259,61609,1,10,1:2:0:0:
35,259,61925,6,0,L|23:158,1,71,0|0,1:2|1:2,0:0:0:0:
26,162,62162,1,0,1:2:0:0:
26,161,62241,1,10,1:2:0:0:
138,98,62557,6,0,L|150:199,1,71,0|0,1:2|1:2,0:0:0:0:
147,195,62794,1,0,1:2:0:0:
147,196,62873,1,10,1:2:0:0:
255,292,63188,5,8,1:2:0:0:
255,292,63267,1,8,1:2:0:0:
255,292,63346,1,8,1:2:0:0:
333,252,63504,2,0,L|367:258,2,35.5,10|8|8,1:2|1:2|1:2,0:0:0:0:
453,286,63820,2,0,L|441:188,1,71,14|2,1:2|0:0,0:0:0:0:
490,144,64136,1,10,1:2:0:0:
490,144,64452,6,0,L|389:132,1,71,0|0,1:2|1:2,0:0:0:0:
393,135,64689,1,0,1:2:0:0:
392,135,64768,1,10,1:2:0:0:
356,11,65083,6,0,L|457:23,1,71,0|0,1:2|1:2,0:0:0:0:
453,20,65320,1,0,1:2:0:0:
453,20,65399,1,10,1:2:0:0:
306,93,65715,5,8,1:2:0:0:
306,93,65794,1,8,1:2:0:0:
306,93,65873,1,8,1:2:0:0:
224,49,66031,2,0,L|233:5,2,35.5,8|8|8,1:2|1:2|1:2,0:0:0:0:
143,84,66346,5,10,1:2:0:0:
59,59,66504,2,0,L|74:153,1,71,10|0,1:2|1:2,0:0:0:0:
145,169,66820,6,0,L|130:263,1,71,10|0,1:2|1:2,0:0:0:0:
46,245,67136,2,0,P|60:281|96:315,1,71,10|0,1:2|1:2,0:0:0:0:
155,365,67452,2,0,B|236:368|202:300|304:304,1,142,10|10,1:2|1:2,0:0:0:0:
356,300,67925,2,0,L|349:385,1,71,10|10,1:2|1:2,0:0:0:0:
442,362,68241,5,0,1:2:0:0:
442,362,68320,1,0,1:2:0:0:
442,362,68399,1,0,1:2:0:0:
449,271,68557,2,0,L|505:285,2,35.5,0|0|0,1:2|1:2|1:2,0:0:0:0:
392,213,68873,5,10,0:0:0:0:
316,224,69031,2,0,L|226:243,1,71,10|0,0:0|1:2,0:0:0:0:
165,256,69346,6,0,P|173:200|189:176,1,71,10|0,0:0|1:2,0:0:0:0:
252,155,69662,2,0,P|244:99|228:75,1,71,10|0,0:0|1:2,0:0:0:0:
199,0,69978,2,0,P|274:6|324:55,1,142,10|10,0:0|0:0,0:0:0:0:
388,95,70452,1,10,1:2:0:0:
331,149,70609,1,10,1:2:0:0:
384,215,70767,6,0,L|418:208,2,35.5,0|0|0,1:2|1:2|1:2,0:0:0:0:
324,270,71083,2,0,L|289:263,2,35.5,2|0|0,1:2|1:2|1:2,0:0:0:0:
349,349,71399,2,0,L|426:330,1,71,10|2,1:2|0:0,0:0:0:0:
479,277,71714,1,10,1:2:0:0:
479,277,72030,6,0,L|491:174,1,71,0|0,1:2|1:2,0:0:0:0:
494,182,72267,1,0,1:2:0:0:
494,181,72346,1,10,1:2:0:0:
350,140,72662,6,0,L|338:37,1,71,0|0,1:2|1:2,0:0:0:0:
335,45,72899,1,0,1:2:0:0:
335,44,72978,1,10,1:2:0:0:
186,8,73294,5,8,1:2:0:0:
186,8,73373,1,8,1:2:0:0:
186,8,73452,1,8,1:2:0:0:
224,78,73609,2,0,L|258:72,2,35.5,10|8|8,1:2|1:2|1:2,0:0:0:0:
178,141,73925,6,0,L|94:126,1,71,14|2,1:2|0:0,0:0:0:0:
32,116,74241,1,10,1:2:0:0:
32,116,74557,6,0,L|40:200,1,71,0|0,1:2|1:2,0:0:0:0:
47,209,74794,1,0,1:2:0:0:
46,209,74873,1,10,1:2:0:0:
149,340,75188,6,0,L|157:256,1,71,0|0,1:2|1:2,0:0:0:0:
164,247,75425,1,0,1:2:0:0:
163,247,75504,1,10,1:2:0:0:
278,196,75820,5,8,1:2:0:0:
278,196,75899,1,8,1:2:0:0:
278,196,75978,1,8,1:2:0:0:
285,275,76136,2,0,L|231:265,2,35.5,8|8|8,1:2|1:2|1:2,0:0:0:0:
342,340,76451,5,10,1:2:0:0:
423,320,76609,2,0,P|434:291|436:252,1,71,10|0,1:2|1:2,0:0:0:0:
487,180,76925,6,0,L|413:167,1,71,10|0,1:2|1:2,0:0:0:0:
347,208,77241,2,0,L|273:195,1,71,10|0,1:2|1:2,0:0:0:0:
197,238,77557,2,0,P|167:175|169:95,1,142,10|10,1:2|1:2,0:0:0:0:
140,22,78031,2,0,L|217:38,1,71,10|10,1:2|1:2,0:0:0:0:
288,7,78346,5,0,1:2:0:0:
288,7,78425,1,0,1:2:0:0:
288,7,78504,1,0,1:2:0:0:
349,57,78662,2,0,L|358:107,2,35.5,0|0|0,1:2|1:2|1:2,0:0:0:0:
268,90,78978,5,10,0:0:0:0:
308,163,79136,2,0,P|303:204|284:260,1,71,10|0,0:0|1:2,0:0:0:0:
285,309,79451,6,0,L|203:322,1,71,10|0,0:0|1:2,0:0:0:0:
170,251,79767,2,0,L|88:238,1,71,10|0,0:0|1:2,0:0:0:0:
15,199,80083,2,0,P|20:260|56:342,1,142,10|10,0:0|0:0,0:0:0:0:
110,383,80557,1,10,1:2:0:0:
173,336,80714,1,10,1:2:0:0:
249,355,80873,6,0,P|308:343|392:330,1,134.899996397781,6|8,0:0|0:0,0:0:0:0:
462,364,81346,1,0,1:2:0:0:
462,364,81504,2,0,P|479:316|475:281,1,67.4499981988907,0|0,1:2|0:0,0:0:0:0:
412,251,81820,2,0,P|395:203|399:168,1,67.4499981988907,8|0,0:0|0:0,0:0:0:0:
451,114,82136,6,0,P|384:103|318:90,1,134.899996397781,0|8,1:2|0:0,0:0:0:0:
194,3,82767,5,2,1:2:0:0:
114,22,82925,1,6,0:0:0:0:
179,87,83083,1,10,0:0:0:0:
97,103,83241,2,0,P|86:167|75:255,1,134.899996397781,6|2,0:0|1:2,0:0:0:0:
24,299,83715,6,0,P|54:319|97:317,1,67.4499981988907,10|2,0:0|1:2,0:0:0:0:
153,357,84031,2,0,P|183:337|226:339,1,67.4499981988907,2|2,1:2|0:0,0:0:0:0:
303,382,84346,2,0,P|294:315|282:248,1,134.899996397781,10|0,0:0|1:2,0:0:0:0:
229,191,84820,1,0,1:2:0:0:
229,191,84978,2,0,L|243:105,1,67.4499981988907,10|0,0:0|0:0,0:0:0:0:
257,48,85294,5,0,1:2:0:0:
323,106,85452,1,0,1:2:0:0:
345,28,85609,1,10,0:0:0:0:
345,28,85925,6,0,P|404:16|454:91,1,134.899996397781,2|8,1:2|0:0,0:0:0:0:
499,131,86398,1,0,0:0:0:0:
499,131,86557,2,0,L|486:219,1,67.4499981988907,0|0,1:2|1:2,0:0:0:0:
415,236,86873,2,0,L|427:313,1,67.4499981988907,8|0,0:0|0:0,0:0:0:0:
488,354,87188,6,0,P|421:343|355:330,1,134.899996397781,0|8,1:2|0:0,0:0:0:0:
220,253,87819,5,2,1:2:0:0:
295,221,87977,1,6,0:0:0:0:
221,167,88135,1,10,0:0:0:0:
299,137,88293,2,0,P|330:92|308:5,1,134.899996397781,6|2,0:0|1:2,0:0:0:0:
240,0,88767,6,0,L|155:14,1,67.4499981988907,10|2,0:0|0:0,0:0:0:0:
92,6,89083,2,0,L|73:78,1,67.4499981988907,2|2,1:2|1:2,0:0:0:0:
10,120,89399,2,0,P|25:183|59:258,1,134.899996397781,10|0,0:0|1:2,0:0:0:0:
122,306,89872,1,0,1:2:0:0:
122,306,90031,2,0,L|195:287,1,67.4499981988907,10|2,0:0|0:0,0:0:0:0:
260,243,90346,5,0,1:2:0:0:
320,302,90504,1,0,1:2:0:0:
406,279,90662,1,8,0:0:0:0:
406,279,90978,6,0,P|417:213|431:138,1,134.899996397781,2|8,1:2|0:0,0:0:0:0:
433,68,91451,1,0,0:0:0:0:
433,68,91609,2,0,P|391:73|362:97,1,67.4499981988907,0|0,1:2|1:2,0:0:0:0:
339,163,91925,2,0,P|310:146|276:144,1,67.4499981988907,8|0,0:0|0:0,0:0:0:0:
184,95,92241,6,0,P|196:161|207:227,1,134.899996397781,0|8,1:2|0:0,0:0:0:0:
295,361,92872,5,2,1:2:0:0:
221,326,93030,1,6,0:0:0:0:
155,374,93188,1,10,0:0:0:0:
75,352,93346,2,0,P|38:308|67:214,1,134.899996397781,6|2,0:0|1:2,0:0:0:0:
38,150,93820,6,0,P|68:162|121:168,1,67.4499981988907,10|2,0:0|1:2,0:0:0:0:
167,223,94136,2,0,P|197:211|250:205,1,67.4499981988907,2|2,1:2|1:2,0:0:0:0:
307,253,94451,2,0,P|320:183|334:116,1,134.899996397781,10|0,0:0|1:2,0:0:0:0:
349,41,94925,1,0,1:2:0:0:
349,41,95083,2,0,P|316:40|280:63,1,67.4499981988907,10|0,0:0|0:0,0:0:0:0:
234,112,95399,5,0,1:2:0:0:
180,50,95557,1,0,1:2:0:0:
101,66,95715,1,10,0:0:0:0:
101,66,96031,6,0,P|90:131|76:207,1,134.899996397781,2|8,1:2|0:0,0:0:0:0:
54,285,96504,1,0,0:0:0:0:
54,285,96662,2,0,L|120:272,1,67.4499981988907,0|0,1:2|1:2,0:0:0:0:
174,330,96978,2,0,L|240:342,1,67.4499981988907,8|0,0:0|0:0,0:0:0:0:
316,361,97294,6,0,P|370:343|386:265,1,134.899996397781,0|8,1:2|0:0,0:0:0:0:
346,113,97925,5,2,1:2:0:0:
285,172,98083,1,6,0:0:0:0:
255,94,98241,1,10,0:0:0:0:
200,159,98399,2,0,P|132:141|65:123,1,134.899996397781,6|2,0:0|1:2,0:0:0:0:
21,47,98873,6,0,L|117:31,1,67.4499981988907,10|2,0:0|0:0,0:0:0:0:
164,60,99188,2,0,P|234:47|313:32,1,134.899996397781,2|10,1:2|0:0,0:0:0:0:
379,58,99662,1,0,0:0:0:0:
379,58,99820,6,0,P|403:105|382:182,1,120.70000230217,4|8,0:0|0:0,0:0:0:0:
266,244,100452,2,0,L|187:227,1,60.3500011510849,8|0,0:0|0:0,0:0:0:0:
152,171,100767,2,0,P|100:182|49:199,1,106.5,8|0,0:0|0:0,0:0:0:0:
37,194,101083,6,0,P|19:253|14:339,1,149.099995449829,6|8,0:0|1:2,0:0:0:0:
85,384,101557,1,2,1:2:0:0:
151,335,101715,1,2,0:0:0:0:
222,376,101873,1,2,0:0:0:0:
294,332,102031,2,0,P|325:337|376:375,1,74.5499977249146,10|2,1:2|1:2,0:0:0:0:
444,380,102346,6,0,P|435:310|416:218,1,149.099995449829,2|10,1:2|1:2,0:0:0:0:
422,157,102820,2,0,B|342:149|369:229|275:214,1,149.099995449829,2|0,1:2|1:2,0:0:0:0:
225,175,103294,1,8,1:2:0:0:
293,132,103452,1,2,1:2:0:0:
222,95,103609,6,0,P|207:53|199:7,1,74.5499977249146,2|0,1:2|0:0,0:0:0:0:
273,0,103925,1,10,1:2:0:0:
339,47,104083,2,0,P|401:30|486:18,1,149.099995449829,2|2,1:2|1:2,0:0:0:0:
512,88,104557,2,0,P|488:143|487:179,1,74.5499977249146,8|0,1:2|1:2,0:0:0:0:
501,241,104873,5,2,1:2:0:0:
393,282,105083,2,0,P|340:302|307:313,1,89.9333309318543,2|2,1:2|1:2,0:0:0:0:
132,173,105504,5,10,1:2:0:0:
240,199,105714,2,0,P|295:212|337:221,1,89.9333309318543,2|2,1:2|1:2,0:0:0:0:
293,45,106136,6,0,P|231:68|139:92,1,149.099995449829,6|8,0:0|0:0,0:0:0:0:
82,42,106609,2,0,P|61:83|75:127,1,74.5499977249146,2|0,1:2|0:0,0:0:0:0:
132,173,106925,2,0,P|153:214|137:255,1,74.5499977249146,0|8,1:2|0:0,0:0:0:0:
92,302,107241,1,2,1:2:0:0:
39,241,107399,6,0,P|111:259|181:285,1,149.099995449829,2|10,1:2|0:0,0:0:0:0:
255,234,107873,2,0,L|269:324,1,74.5499977249146,2|2,1:2|1:2,0:0:0:0:
330,360,108188,1,2,1:2:0:0:
361,277,108346,1,10,0:0:0:0:
419,349,108504,1,2,1:2:0:0:
448,265,108662,6,0,P|466:187|465:106,1,149.099995449829,2|8,1:2|0:0,0:0:0:0:
384,96,109136,2,0,P|364:51|334:24,1,74.5499977249146,2|2,1:2|1:2,0:0:0:0:
266,21,109452,1,2,0:0:0:0:
200,72,109609,2,0,P|175:100|162:134,1,74.5499977249146,8|2,0:0|1:2,0:0:0:0:
222,191,109925,6,0,L|264:183,2,37.2749988624573,6|0|0,1:2|0:0|1:2,0:0:0:0:
157,244,110241,1,0,1:2:0:0:
239,275,110399,2,0,L|339:296,1,74.5499977249146,0|8,1:2|1:2,0:0:0:0:
390,325,110715,2,0,L|432:317,2,37.2749988624573,8|0|0,1:2|0:0|1:2,0:0:0:0:
329,384,111031,1,8,1:2:0:0:
329,384,111109,1,8,1:2:0:0:
329,384,111188,6,0,L|168:348,1,149.099995449829,6|8,0:0|1:2,0:0:0:0:
112,382,111662,1,2,1:2:0:0:
79,303,111820,1,2,0:0:0:0:
140,241,111978,1,2,0:0:0:0:
93,171,112136,2,0,P|76:119|71:79,1,74.5499977249146,10|2,1:2|1:2,0:0:0:0:
67,20,112452,6,0,B|145:16|123:81|196:78,1,149.099995449829,2|10,1:2|1:2,0:0:0:0:
240,16,112925,2,0,P|229:87|221:165,1,149.099995449829,2|0,1:2|1:2,0:0:0:0:
269,225,113399,1,8,1:2:0:0:
323,160,113557,1,2,1:2:0:0:
376,222,113715,6,0,P|387:255|399:302,1,74.5499977249146,2|2,1:2|1:2,0:0:0:0:
412,373,114030,1,10,1:2:0:0:
489,344,114188,2,0,P|502:279|500:184,1,149.099995449829,2|2,1:2|1:2,0:0:0:0:
446,138,114662,2,0,P|431:92|409:66,1,74.5499977249146,8|0,1:2|1:2,0:0:0:0:
352,14,114978,5,2,1:2:0:0:
329,122,115188,2,0,P|276:142|243:153,1,89.9333309318543,2|2,1:2|1:2,0:0:0:0:
111,82,115609,5,10,1:2:0:0:
197,29,115820,2,0,P|250:49|285:63,1,89.9333309318543,2|2,1:2|1:2,0:0:0:0:
375,185,116241,6,0,P|362:257|350:350,1,149.099995449829,6|8,0:0|0:0,0:0:0:0:
275,353,116715,2,0,L|174:371,1,74.5499977249146,2|0,1:2|0:0,0:0:0:0:
140,311,117031,2,0,L|39:293,1,74.5499977249146,0|8,1:2|0:0,0:0:0:0:
27,216,117346,1,2,1:2:0:0:
114,221,117504,6,0,P|178:201|260:152,1,149.099995449829,2|10,1:2|0:0,0:0:0:0:
317,209,117978,2,0,P|343:225|389:238,1,74.5499977249146,2|2,1:2|1:2,0:0:0:0:
465,206,118293,1,2,1:2:0:0:
400,151,118451,1,10,0:0:0:0:
476,124,118609,1,2,1:2:0:0:
413,69,118767,6,0,P|348:31|277:8,1,149.099995449829,2|8,1:2|0:0,0:0:0:0:
187,0,119241,2,0,L|208:71,1,74.5499977249146,2|2,1:2|1:2,0:0:0:0:
291,102,119557,1,2,0:0:0:0:
229,158,119715,2,0,P|189:147|146:136,1,74.5499977249146,8|2,0:0|1:2,0:0:0:0:
81,191,120030,6,0,L|44:197,2,37.2749988624573,6|0|0,1:2|0:0|1:2,0:0:0:0:
159,230,120346,1,0,1:2:0:0:
87,281,120504,1,0,1:2:0:0:
161,325,120662,2,0,L|259:346,1,74.5499977249146,8|8,1:2|1:2,0:0:0:0:
262,352,120899,1,0,0:0:0:0:
262,352,120978,1,0,1:2:0:0:
335,290,121136,1,8,1:2:0:0:
424,326,121294,6,0,P|453:242|468:95,1,227.2,6|6,0:0|1:2,0:0:0:0:
351,2,122557,1,6,1:2:0:0:
257,130,123188,1,6,1:2:0:0:
127,17,123820,2,0,P|98:101|83:248,1,227.2,6|6,1:2|1:2,0:0:0:0:
163,384,125083,5,2,1:2:0:0:
240,321,125293,2,0,P|237:284|222:222,1,75.7333333333333,2|2,1:2|1:2,0:0:0:0:
358,221,125715,5,10,1:2:0:0:
278,163,125925,2,0,P|281:126|299:62,1,75.7333333333333,2|0,1:2|0:0,0:0:0:0:
411,12,126346,6,0,P|447:18|485:54,1,74.5499977249146,6|0,0:0|0:0,0:0:0:0:
485,56,126583,1,8,0:0:0:0:
393,129,126820,5,2,1:2:0:0:
440,189,126978,2,0,L|450:311,1,111.824996587372,2|8,1:2|0:0,0:0:0:0:
330,367,127452,5,2,1:2:0:0:
278,310,127609,2,0,P|242:316|204:352,1,74.5499977249146,2|0,1:2|0:0,0:0:0:0:
204,354,127846,1,8,0:0:0:0:
76,366,128083,5,2,1:2:0:0:
114,297,128241,2,0,L|104:185,1,111.824996587372,2|8,1:2|0:0,0:0:0:0:
9,64,128715,5,2,1:2:0:0:
107,18,128873,2,0,L|206:34,1,74.5499977249146,2|0,1:2|0:0,0:0:0:0:
194,33,129109,1,8,0:0:0:0:
328,97,129346,5,2,1:2:0:0:
294,169,129504,2,0,L|163:187,1,111.824996587372,2|8,1:2|0:0,0:0:0:0:
114,297,129978,1,2,1:2:0:0:
177,345,130136,6,0,P|211:320|245:304,1,74.5499977249146,2|0,1:2|0:0,0:0:0:0:
301,256,130452,1,2,1:2:0:0:
371,282,130609,1,2,1:2:0:0:
413,351,130767,1,2,1:2:0:0:
413,351,131083,6,0,P|421:301|435:220,1,111.824996587372,14|0,1:2|0:0,0:0:0:0:
444,231,131399,6,0,P|441:156|421:85,1,149.099995449829,4|8,0:0|0:0,0:0:0:0:
367,21,131873,1,0,1:2:0:0:
330,94,132031,1,2,1:2:0:0:
282,19,132189,1,0,0:0:0:0:
240,96,132347,2,0,P|203:87|172:69,1,74.5499977249146,10|2,0:0|1:2,0:0:0:0:
83,6,132662,6,0,P|97:79|107:152,1,149.099995449829,2|10,1:2|0:0,0:0:0:0:
31,166,133136,2,0,B|111:158|84:238|178:223,1,149.099995449829,2|0,1:2|1:2,0:0:0:0:
235,185,133610,1,8,0:0:0:0:
289,247,133767,1,2,1:2:0:0:
355,190,133925,6,0,P|376:241|378:285,1,74.5499977249146,2|2,0:0|1:2,0:0:0:0:
348,337,134241,1,8,0:0:0:0:
261,332,134399,2,0,P|187:341|115:360,1,149.099995449829,2|0,0:0|0:0,0:0:0:0:
30,363,134873,2,0,P|37:326|55:294,1,74.5499977249146,8|2,0:0|0:0,0:0:0:0:
137,267,135188,5,6,0:0:0:0:
374,65,136452,5,6,0:0:0:0:
473,100,136767,1,2,1:2:0:0:
437,191,137083,1,10,0:0:0:0:
437,191,137241,2,0,P|449:257|465:338,1,134.899996397781,0|0,1:2|1:2,0:0:0:0:
395,374,137715,5,2,1:2:0:0:
296,339,138030,1,2,1:2:0:0:
332,248,138346,1,10,0:0:0:0:
332,248,138504,2,0,P|320:182|304:101,1,134.899996397781,0|0,1:2|1:2,0:0:0:0:
242,71,138978,6,0,P|211:52|171:45,1,67.4499981988907,6|0,1:2|0:0,0:0:0:0:
128,97,139294,2,0,P|68:118|1:181,1,134.899996397781,0|8,1:2|0:0,0:0:0:0:
113,369,139925,5,2,0:0:0:0:
183,240,140241,1,2,1:2:0:0:
299,313,140557,1,2,1:2:0:0:
345,189,140873,2,0,P|330:123|317:51,1,134.899996397781,10|2,0:0|0:0,0:0:0:0:
512,0,141504,5,6,0:0:0:0:
256,192,141662,12,0,150978,0:0:0:0:
