osu file format v14

[General]
AudioFilename: audio.mp3
AudioLeadIn: 0
PreviewTime: 39938
Countdown: 0
SampleSet: Soft
StackLeniency: 0.7
Mode: 0
LetterboxInBreaks: 0
WidescreenStoryboard: 0

[Editor]
Bookmarks: 8842,20210,30315,60631,70736,80842,101052,121263,126315,131368,141473,150947
DistanceSpacing: 0.3
BeatDivisor: 4
GridSize: 8
TimelineZoom: 1.8

[Metadata]
Title:The Title Track
TitleUnicode:The Title Track
Artist:Origami Angel
ArtistUnicode:Origami Angel
Creator:Mimari
Version:Extra
Source:
Tags:somewhere city english rock emo punk mapping to pander contest
BeatmapID:2881612
BeatmapSetID:1396156

[Difficulty]
HPDrainRate:6
CircleSize:4.2
OverallDifficulty:8.4
ApproachRate:9.2
SliderMultiplier:1.82
SliderTickRate:1

[Events]
//Background and Video events
0,0,"ily pishi.jpg",0,0
//Break Periods
//Storyboard Layer 0 (Background)
//Storyboard Layer 1 (Fail)
//Storyboard Layer 2 (Pass)
//Storyboard Layer 3 (Foreground)
//Storyboard Layer 4 (Overlay)
//Storyboard Sound Samples

[TimingPoints]
31,315.789473684211,4,2,1,75,1,0
8873,-117.647058823529,4,2,1,75,0,0
9109,-117.647058823529,4,2,1,5,0,0
9188,-117.647058823529,4,2,1,75,0,0
9346,-100,4,2,1,75,0,0
10373,-100,4,2,1,5,0,0
10452,-100,4,2,1,75,0,0
14004,-100,4,2,1,5,0,0
14083,-100,4,2,1,75,0,0
14636,-100,4,2,1,5,0,0
14715,-100,4,2,1,75,0,0
16531,-100,4,2,1,5,0,0
16609,-100,4,2,1,75,0,0
19057,-100,4,2,1,5,0,0
19136,-100,4,2,1,75,0,0
20241,-125,4,2,1,60,0,0
21109,-125,4,2,1,5,0,0
21188,-125,4,2,1,60,0,0
22136,-117.647058823529,4,2,1,60,0,0
22373,-117.647058823529,4,2,1,5,0,0
22452,-117.647058823529,4,2,1,60,0,0
23399,-105.263157894737,4,2,1,60,0,0
23636,-105.263157894737,4,2,1,5,0,0
23715,-105.263157894737,4,2,1,60,0,0
24662,-86.9565217391306,4,2,1,60,0,0
24899,-86.9565217391306,4,2,1,5,0,0
24978,-83.3333333333333,4,2,1,60,0,0
25294,-95.2380952380952,4,2,1,70,0,0
30346,-125,4,2,1,60,0,0
31215,-125,4,2,1,5,0,0
31294,-125,4,2,1,60,0,0
32241,-117.647058823529,4,2,1,60,0,0
32478,-117.647058823529,4,2,1,5,0,0
32557,-117.647058823529,4,2,1,60,0,0
33504,-105.263157894737,4,2,1,60,0,0
33741,-105.263157894737,4,2,1,5,0,0
33820,-105.263157894737,4,2,1,60,0,0
35083,-86.9565217391306,4,2,1,60,0,0
35399,-95.2380952380952,4,2,1,70,0,0
40136,-181.818181818182,4,2,1,70,0,0
40373,-181.818181818182,4,2,1,5,0,0
40452,-83.3333333333333,4,2,1,75,0,1
41794,-83.3333333333333,4,2,1,5,0,1
41873,-83.3333333333333,4,2,1,75,0,1
44004,-83.3333333333333,4,2,1,5,0,1
44083,-76.9230769230769,4,2,1,75,0,0
44320,-76.9230769230769,4,2,1,5,0,0
44399,-71.4285714285714,4,2,1,75,0,0
44715,-76.9230769230769,4,2,1,75,0,0
44952,-76.9230769230769,4,2,1,5,0,0
45031,-71.4285714285714,4,2,1,75,0,0
45820,-83.3333333333333,4,2,1,75,0,1
46846,-83.3333333333333,4,2,1,5,0,1
46925,-83.3333333333333,4,2,1,75,0,1
49373,-83.3333333333333,4,2,1,5,0,1
49452,-83.3333333333333,4,2,1,75,0,1
49925,-83.3333333333333,4,2,1,75,0,0
50241,-90.9090909090909,4,2,1,75,0,0
50873,-83.3333333333333,4,2,1,75,0,1
51899,-83.3333333333333,4,2,1,5,0,1
51978,-83.3333333333333,4,2,1,75,0,1
54188,-76.9230769230769,4,2,1,75,0,0
54425,-76.9230769230769,4,2,1,5,0,0
54504,-71.4285714285714,4,2,1,75,0,0
54820,-76.9230769230769,4,2,1,75,0,0
55057,-76.9230769230769,4,2,1,5,0,0
55136,-71.4285714285714,4,2,1,75,0,0
55925,-83.3333333333333,4,2,1,75,0,1
56952,-83.3333333333333,4,2,1,5,0,1
57031,-83.3333333333333,4,2,1,75,0,1
59241,-83.3333333333333,4,2,1,75,0,0
60662,-83.3333333333333,4,2,1,70,0,0
61294,-166.666666666667,4,2,1,70,0,0
61373,-166.666666666667,4,2,1,5,0,0
61452,-166.666666666667,4,2,1,70,0,0
61531,-166.666666666667,4,2,1,5,0,0
61609,-71.4285714285714,4,2,1,70,0,0
61846,-71.4285714285714,4,2,1,5,0,0
61925,-71.4285714285714,4,2,1,70,0,0
62320,-71.4285714285714,4,2,1,5,0,0
62557,-71.4285714285714,4,2,1,70,0,0
62952,-71.4285714285714,4,2,1,5,0,0
63188,-71.4285714285714,4,2,1,70,0,0
63820,-111.111111111111,4,2,1,70,0,0
63899,-111.111111111111,4,2,1,5,0,0
63978,-111.111111111111,4,2,1,70,0,0
64057,-111.111111111111,4,2,1,5,0,0
64136,-71.4285714285714,4,2,1,70,0,0
64373,-71.4285714285714,4,2,1,5,0,0
64452,-71.4285714285714,4,2,1,70,0,0
64846,-71.4285714285714,4,2,1,5,0,0
65083,-71.4285714285714,4,2,1,70,0,0
65478,-71.4285714285714,4,2,1,5,0,0
65715,-71.4285714285714,4,2,1,70,0,0
66820,-100,4,2,1,70,0,0
67688,-100,4,2,1,5,0,0
67767,-100,4,2,1,70,0,0
70215,-100,4,2,1,5,0,0
70294,-100,4,2,1,70,0,0
71399,-166.666666666667,4,2,1,70,0,0
71478,-166.666666666667,4,2,1,5,0,0
71557,-166.666666666667,4,2,1,70,0,0
71636,-166.666666666667,4,2,1,5,0,0
71714,-71.4285714285714,4,2,1,70,0,0
71952,-71.4285714285714,4,2,1,5,0,0
72031,-71.4285714285714,4,2,1,70,0,0
72425,-71.4285714285714,4,2,1,5,0,0
72662,-71.4285714285714,4,2,1,70,0,0
73057,-71.4285714285714,4,2,1,5,0,0
73294,-71.4285714285714,4,2,1,70,0,0
73925,-111.111111111111,4,2,1,70,0,0
74004,-111.111111111111,4,2,1,5,0,0
74083,-111.111111111111,4,2,1,70,0,0
74162,-111.111111111111,4,2,1,5,0,0
74241,-71.4285714285714,4,2,1,70,0,0
74478,-71.4285714285714,4,2,1,5,0,0
74557,-71.4285714285714,4,2,1,70,0,0
74952,-71.4285714285714,4,2,1,5,0,0
75188,-71.4285714285714,4,2,1,70,0,0
75583,-71.4285714285714,4,2,1,5,0,0
75820,-71.4285714285714,4,2,1,70,0,0
76925,-100,4,2,1,70,0,0
77794,-100,4,2,1,5,0,0
77873,-100,4,2,1,70,0,0
80320,-100,4,2,1,5,0,0
80399,-100,4,2,1,70,0,0
80873,-117.647058823529,4,2,1,60,0,0
82057,-117.647058823529,4,2,1,5,0,0
82136,-117.647058823529,4,2,1,60,0,0
83241,-111.111111111111,4,2,1,60,0,0
85925,-117.647058823529,4,2,1,60,0,0
87109,-117.647058823529,4,2,1,5,0,0
87188,-117.647058823529,4,2,1,60,0,0
88294,-111.111111111111,4,2,1,60,0,0
90978,-117.647058823529,4,2,1,60,0,0
92162,-117.647058823529,4,2,1,5,0,0
92241,-117.647058823529,4,2,1,60,0,0
93346,-111.111111111111,4,2,1,60,0,0
96031,-117.647058823529,4,2,1,60,0,0
97215,-117.647058823529,4,2,1,5,0,0
97294,-117.647058823529,4,2,1,60,0,0
98399,-111.111111111111,4,2,1,60,0,0
99820,-99.9999999999999,4,2,1,60,0,0
100057,-99.9999999999999,4,2,1,5,0,0
100136,-99.9999999999999,4,2,1,60,0,0
100452,-111.111111111111,4,2,1,60,0,0
101083,-86.9565217391304,4,2,1,75,0,1
101320,-86.9565217391304,4,2,1,5,0,1
101399,-86.9565217391304,4,2,1,75,0,1
102583,-86.9565217391304,4,2,1,5,0,1
102662,-86.9565217391304,4,2,1,75,0,1
104873,-86.9565217391304,4,2,1,75,0,0
106136,-86.9565217391304,4,2,1,75,0,1
108109,-86.9565217391304,4,2,1,5,0,1
108188,-86.9565217391304,4,2,1,75,0,1
109925,-86.9565217391304,4,2,1,75,0,0
110083,-105.263157894737,4,2,1,75,0,0
110399,-86.9565217391304,4,2,1,75,0,0
111188,-86.9565217391304,4,2,1,75,0,1
111425,-86.9565217391304,4,2,1,75,0,1
111504,-86.9565217391304,4,2,1,75,0,1
112688,-86.9565217391304,4,2,1,5,0,1
112767,-86.9565217391304,4,2,1,75,0,1
114978,-86.9565217391304,4,2,1,75,0,0
116241,-86.9565217391304,4,2,1,75,0,1
118215,-86.9565217391304,4,2,1,5,0,1
118294,-86.9565217391304,4,2,1,75,0,1
121294,-111.111111111111,4,2,1,65,0,0
121846,-111.111111111111,4,2,1,5,0,0
121925,-111.111111111111,4,2,1,65,0,0
126346,-83.3333333333333,4,2,1,75,0,1
126583,-83.3333333333333,4,2,1,75,0,0
126978,-83.3333333333333,4,2,1,75,0,1
127215,-83.3333333333333,4,2,1,75,0,0
127609,-83.3333333333333,4,2,1,75,0,1
127846,-83.3333333333333,4,2,1,75,0,0
128241,-83.3333333333333,4,2,1,75,0,1
128478,-83.3333333333333,4,2,1,75,0,0
128873,-83.3333333333333,4,2,1,75,0,1
129109,-83.3333333333333,4,2,1,75,0,0
129504,-83.3333333333333,4,2,1,75,0,1
129741,-83.3333333333333,4,2,1,75,0,0
131083,-125,4,2,1,75,0,0
131320,-125,4,2,1,5,0,0
131399,-86.9565217391304,4,2,1,70,0,1
131636,-86.9565217391304,4,2,1,5,0,1
131715,-86.9565217391304,4,2,1,70,0,1
132899,-86.9565217391304,4,2,1,5,0,1
132978,-86.9565217391304,4,2,1,70,0,1
135188,-66.6666666666667,4,2,1,60,0,0
135266,-66.6666666666667,4,2,1,5,0,0
135346,-66.6666666666667,4,2,1,60,0,0
136373,-66.6666666666667,4,2,1,5,0,0
136452,-90.9090909090909,4,2,1,65,0,0
137241,-125,4,2,1,65,0,0
141504,-400,4,2,1,60,0,0
141583,-400,4,2,1,60,0,0
142767,-400,4,2,1,55,0,0
144031,-400,4,2,1,50,0,0
145294,-400,4,2,1,45,0,0
146557,-400,4,2,1,35,0,0
147820,-400,4,2,1,25,0,0
149083,-400,4,2,1,15,0,0
150346,-400,4,2,1,10,0,0
150978,-400,4,2,2,5,0,0

[Colours]
Combo1 : 149,156,219
Combo2 : 223,157,157
Combo3 : 236,173,132
Combo4 : 167,194,228

[HitObjects]
35,112,8873,6,0,P|100:125|157:143,1,116.025002213001,2|0,0:0|0:0,0:0:0:0:
213,176,9188,5,8,1:2:0:0:
219,160,9267,1,8,1:2:0:0:
221,141,9346,2,0,P|220:116|197:89,1,45.5,8|8,1:2|1:2,0:0:0:0:
30,191,9504,5,8,1:2:0:0:
32,216,9582,1,8,1:2:0:0:
34,241,9661,1,8,1:2:0:0:
36,267,9740,1,8,1:2:0:0:
38,292,9820,1,10,1:2:0:0:
52,334,9898,1,10,1:2:0:0:
88,362,9977,1,10,1:2:0:0:
132,366,10056,1,8,1:2:0:0:
172,345,10136,6,0,B|201:325|201:325|313:360,1,136.5,14|0,1:2|0:0,0:0:0:0:
315,361,10452,1,10,0:0:0:0:
120,275,10609,1,0,0:0:0:0:
313,187,10767,1,2,1:2:0:0:
244,245,10925,2,0,P|226:186|229:151,1,91,2|8,1:2|0:0,0:0:0:0:
421,60,11241,6,0,B|406:150|406:150|400:154|400:154|384:253,1,182,6|2,1:2|1:2,0:0:0:0:
418,304,11715,1,8,0:0:0:0:
334,101,11873,2,0,B|327:59|327:59|323:56|323:56|312:-1,1,91,2|0,1:2|0:0,0:0:0:0:
475,222,12188,1,2,1:2:0:0:
227,157,12346,1,10,1:2:0:0:
431,52,12504,1,2,1:2:0:0:
502,151,12662,6,0,B|460:144|460:144|457:140|457:140|400:129,1,91,6|0,1:2|0:0,0:0:0:0:
244,245,12978,1,10,0:0:0:0:
334,101,13136,1,2,0:0:0:0:
296,328,13294,1,2,1:2:0:0:
180,302,13452,2,0,P|163:263|158:207,1,91,2|8,1:2|0:0,0:0:0:0:
263,26,13767,6,0,P|231:113|227:185,1,136.5,2|0,1:2|0:0,0:0:0:0:
245,167,14083,2,0,B|287:175|287:175|290:179|290:179|332:186,1,91,2|8,1:2|0:0,0:0:0:0:
168,60,14399,6,0,B|110:74|110:74|106:80|106:80|29:99,1,136.5,2|0,1:2|0:0,0:0:0:0:
25,86,14715,2,0,P|18:38|51:14,1,91,2|8,1:2|1:2,0:0:0:0:
244,245,15031,5,2,1:2:0:0:
246,252,15346,5,0,1:2:0:0:
168,358,15504,1,14,0:0:0:0:
365,275,15661,1,0,0:0:0:0:
181,194,15819,1,2,1:2:0:0:
246,252,15978,2,0,P|264:193|262:162,1,91,2|8,1:2|0:0,0:0:0:0:
25,235,16294,6,0,B|83:249|83:249|87:255|87:255|164:274,1,136.5,2|0,1:2|0:0,0:0:0:0:
169,277,16609,2,0,B|127:285|127:285|124:289|124:289|82:296,1,91,2|8,1:2|0:0,0:0:0:0:
6,149,16925,2,0,P|7:112|54:74,1,91,2|0,1:2|0:0,0:0:0:0:
251,160,17241,1,2,1:2:0:0:
101,216,17399,1,10,1:2:0:0:
176,1,17557,1,2,1:2:0:0:
235,70,17715,6,0,P|194:89|149:90,1,91,6|0,1:2|0:0,0:0:0:0:
364,9,18031,1,10,0:0:0:0:
419,232,18188,1,0,0:0:0:0:
251,160,18346,1,2,1:2:0:0:
323,94,18504,2,0,P|343:134|340:198,1,91,2|8,1:2|0:0,0:0:0:0:
173,384,18820,6,0,P|169:320|196:246,1,136.5,6|0,1:2|0:0,0:0:0:0:
207,249,19136,2,0,B|249:242|249:242|252:238|252:238|294:230,1,91,2|8,1:2|0:0,0:0:0:0:
459,342,19452,6,0,P|410:334|367:299,1,91,2|0,1:2|1:2,0:0:0:0:
397,79,19767,1,2,1:2:0:0:
495,268,19925,1,10,1:2:0:0:
313,358,20083,1,10,1:2:0:0:
313,358,20162,1,8,1:2:0:0:
313,358,20241,6,0,L|238:347,1,72.8,6|0,1:2|1:2,0:0:0:0:
98,289,20557,1,10,0:0:0:0:
75,358,20715,1,0,1:2:0:0:
204,261,20873,6,0,P|198:211|162:128,1,109.2,2|0,1:2|0:0,0:0:0:0:
166,142,21188,2,0,P|130:122|84:119,1,72.8,10|0,0:0|0:0,0:0:0:0:
161,337,21504,5,2,1:2:0:0:
233,360,21662,1,0,1:2:0:0:
278,251,21820,5,10,0:0:0:0:
207,271,21978,1,0,1:2:0:0:
357,328,22136,2,0,P|411:298|482:294,1,116.025002213001,2|0,1:2|0:0,0:0:0:0:
481,304,22452,2,0,P|480:346|457:399,1,77.3500014753342,10|0,0:0|0:0,0:0:0:0:
351,235,22767,5,2,1:2:0:0:
333,162,22925,1,0,1:2:0:0:
459,114,23083,5,10,0:0:0:0:
443,190,23241,1,0,1:2:0:0:
252,45,23399,2,0,P|305:77|380:87,1,129.674996537304,2|0,1:2|0:0,0:0:0:0:
389,78,23715,2,0,P|402:46|411:-19,1,86.449997691536,10|0,0:0|0:0,0:0:0:0:
164,11,24031,5,2,1:2:0:0:
182,81,24188,1,0,1:2:0:0:
242,209,24346,5,10,0:0:0:0:
259,136,24504,1,0,1:2:0:0:
99,61,24662,2,0,P|71:119|58:213,1,156.975002994061,2|0,1:2|0:0,0:0:0:0:
171,309,24978,6,0,P|143:237|147:145,1,163.799995001221,14|0,0:0|0:0,0:0:0:0:
182,81,25294,6,0,B|212:47|258:43|258:43|303:77|356:86,1,191.099994168091,6|8,1:2|0:0,0:0:0:0:
512,59,25767,1,0,1:2:0:0:
352,165,25925,1,2,1:2:0:0:
423,205,26083,2,0,P|436:159|441:111,1,95.5499970840455,0|8,1:2|0:0,0:0:0:0:
258,151,26399,6,0,P|268:233|307:359,1,191.099994168091,0|0,1:2|1:2,0:0:0:0:
472,346,26873,2,0,P|445:311|374:296,1,95.5499970840455,10|0,0:0|1:2,0:0:0:0:
150,320,27188,1,2,1:2:0:0:
237,384,27346,1,0,1:2:0:0:
346,241,27504,5,10,0:0:0:0:
261,304,27662,1,0,1:2:0:0:
261,304,27741,1,8,1:2:0:0:
261,304,27820,6,0,P|187:295|79:229,1,191.099994168091,2|8,1:2|0:0,0:0:0:0:
213,48,28294,1,0,1:2:0:0:
267,124,28452,2,0,P|220:148|177:157,1,95.5499970840455,2|0,1:2|1:2,0:0:0:0:
102,18,28767,1,8,0:0:0:0:
340,32,28925,6,0,B|376:62|367:113|367:113|317:152|327:219,1,191.099994168091,2|0,1:2|1:2,0:0:0:0:
372,327,29399,1,8,0:0:0:0:
202,240,29557,2,0,P|248:250|290:272,1,95.5499970840455,0|0,1:2|1:2,0:0:0:0:
466,302,29873,5,0,1:2:0:0:
294,384,30031,1,8,0:0:0:0:
426,192,30188,1,0,1:2:0:0:
426,192,30267,1,0,1:2:0:0:
426,192,30346,6,0,P|464:187|506:165,1,72.8,6|0,1:2|1:2,0:0:0:0:
317,116,30662,1,10,0:0:0:0:
339,186,30820,1,0,1:2:0:0:
447,115,30978,6,0,P|466:64|479:11,1,109.2,2|0,1:2|0:0,0:0:0:0:
472,3,31294,2,0,P|433:3|394:41,1,72.8,10|0,0:0|0:0,0:0:0:0:
426,192,31609,5,2,1:2:0:0:
498,216,31767,1,0,1:2:0:0:
444,110,31925,5,10,0:0:0:0:
368,126,32083,1,0,1:2:0:0:
253,230,32241,2,0,P|265:283|289:342,1,116.025002213001,2|0,1:2|0:0,0:0:0:0:
301,356,32557,2,0,P|332:373|381:374,1,77.3500014753342,10|0,0:0|0:0,0:0:0:0:
182,292,32873,5,2,1:2:0:0:
166,370,33030,1,0,1:2:0:0:
254,238,33188,5,10,0:0:0:0:
237,161,33346,1,0,1:2:0:0:
135,57,33504,2,0,P|73:63|29:141,1,129.674996537304,2|0,1:2|0:0,0:0:0:0:
30,131,33820,2,0,P|37:181|51:230,1,86.449997691536,10|0,0:0|0:0,0:0:0:0:
182,292,34136,5,10,1:2:0:0:
193,295,34215,1,2,1:2:0:0:
206,299,34294,2,0,L|259:313,1,43.224998845768,2|0,1:2|1:2,0:0:0:0:
364,207,34452,5,10,1:2:0:0:
329,216,34531,1,2,1:2:0:0:
295,226,34610,2,0,L|242:240,1,43.224998845768,2|0,1:2|1:2,0:0:0:0:
135,57,34767,5,10,1:2:0:0:
181,36,34845,1,2,1:2:0:0:
231,49,34924,1,2,1:2:0:0:
260,91,35003,1,0,1:2:0:0:
257,142,35083,2,0,P|212:158|199:90,1,104.65000199604,10|0,1:2|1:2,0:0:0:0:
325,51,35320,1,0,1:2:0:0:
332,44,35399,6,0,P|384:57|442:105,1,95.5499970840455,6|0,1:2|1:2,0:0:0:0:
473,268,35715,1,8,0:0:0:0:
364,207,35872,5,0,1:2:0:0:
429,157,36030,1,2,1:2:0:0:
507,349,36188,2,0,P|455:362|397:410,1,95.5499970840455,0|8,1:2|0:0,0:0:0:0:
201,260,36504,6,0,P|269:301|386:314,1,191.099994168091,0|0,1:2|1:2,0:0:0:0:
207,155,36978,2,0,P|155:168|97:216,1,95.5499970840455,10|0,0:0|1:2,0:0:0:0:
227,374,37293,1,2,1:2:0:0:
288,218,37451,1,0,1:2:0:0:
120,190,37609,5,10,0:0:0:0:
201,260,37767,1,0,1:2:0:0:
201,260,37846,1,8,1:2:0:0:
201,260,37925,6,0,P|216:176|218:57,1,191.099994168091,2|8,1:2|0:0,0:0:0:0:
155,13,38399,1,0,1:2:0:0:
50,130,38557,6,0,P|97:111|152:99,1,95.5499970840455,2|0,1:2|1:2,0:0:0:0:
313,146,38872,1,8,0:0:0:0:
314,26,39031,2,0,P|247:32|232:144,1,191.099994168091,2|0,1:2|1:2,0:0:0:0:
353,323,39504,1,8,0:0:0:0:
392,234,39662,1,0,1:2:0:0:
146,313,39820,5,0,1:2:0:0:
146,313,40136,2,0,P|109:321|77:340,1,75.0750022911072,8|0,0:0|0:0,0:0:0:0:
256,252,40452,6,0,P|175:239|105:197,1,163.799995001221,6|0,0:0|0:0,0:0:0:0:
35,223,40767,2,0,P|12:164|11:87,1,109.199996667481,10|2,0:0|0:0,0:0:0:0:
270,72,41083,5,2,1:2:0:0:
86,121,41241,1,2,1:2:0:0:
111,23,41399,1,8,0:0:0:0:
256,252,41557,6,0,P|323:205|402:186,1,163.799995001221,6|0,1:2|0:0,0:0:0:0:
420,111,41873,2,0,P|477:137|532:194,1,109.199996667481,2|8,1:2|0:0,0:0:0:0:
344,368,42188,6,0,P|358:307|402:243,1,109.199996667481,2|0,1:2|0:0,0:0:0:0:
512,335,42504,1,2,1:2:0:0:
251,384,42662,1,10,0:0:0:0:
319,180,42820,1,2,1:2:0:0:
390,277,42978,5,2,0:0:0:0:
390,277,43294,1,10,0:0:0:0:
182,205,43452,1,2,0:0:0:0:
128,301,43609,1,2,1:2:0:0:
278,257,43767,2,0,P|301:178|296:91,1,163.799995001221,2|0,1:2|0:0,0:0:0:0:
253,32,44083,6,0,P|177:24|149:120,1,177.449991876984,6|0,1:2|0:0,0:0:0:0:
212,93,44399,2,0,P|184:35|93:-25,1,127.399996112061,6|8,1:2|0:0,0:0:0:0:
380,128,44715,6,0,P|456:120|484:216,1,177.449991876984,6|0,1:2|0:0,0:0:0:0:
421,189,45031,2,0,P|449:131|540:71,1,127.399996112061,6|8,1:2|0:0,0:0:0:0:
305,347,45346,5,2,1:2:0:0:
305,347,45662,1,0,1:2:0:0:
335,217,45820,5,10,0:0:0:0:
392,273,45978,1,2,0:0:0:0:
215,356,46136,1,2,1:2:0:0:
218,167,46294,2,0,P|249:215|259:291,1,109.199996667481,2|8,1:2|0:0,0:0:0:0:
30,312,46609,6,0,P|79:274|201:240,1,163.799995001221,2|0,1:2|0:0,0:0:0:0:
128,178,46925,2,0,P|70:197|15:232,1,109.199996667481,2|8,1:2|0:0,0:0:0:0:
259,265,47241,6,0,P|342:234|310:114,1,218.399993334961,6|2,1:2|1:2,0:0:0:0:
162,20,47715,1,10,0:0:0:0:
219,139,47873,1,2,1:2:0:0:
466,65,48031,5,2,1:2:0:0:
466,65,48346,1,10,0:0:0:0:
350,34,48504,1,2,0:0:0:0:
512,182,48662,1,2,1:2:0:0:
356,313,48820,2,0,P|340:246|342:161,1,109.199996667481,2|8,1:2|0:0,0:0:0:0:
504,0,49136,6,0,P|481:84|426:152,1,163.799995001221,6|0,1:2|0:0,0:0:0:0:
357,132,49452,2,0,P|304:98|242:96,1,109.199996667481,2|8,1:2|0:0,0:0:0:0:
141,296,49767,1,2,1:2:0:0:
222,361,49925,5,0,1:2:0:0:
234,334,50003,1,0,1:2:0:0:
243,307,50082,1,0,1:2:0:0:
245,277,50161,1,0,1:2:0:0:
242,249,50241,2,0,P|238:223|221:180,1,50.0500015274048,10|0,1:2|1:2,0:0:0:0:
123,124,50399,5,2,1:2:0:0:
93,148,50478,1,0,1:2:0:0:
87,188,50557,1,6,1:2:0:0:
87,188,50873,5,10,0:0:0:0:
345,120,51031,1,2,0:0:0:0:
247,18,51188,1,2,1:2:0:0:
215,172,51346,2,0,P|267:196|328:203,1,109.199996667481,2|8,1:2|0:0,0:0:0:0:
473,43,51662,6,0,P|426:110|407:189,1,163.799995001221,6|0,1:2|0:0,0:0:0:0:
372,256,51978,2,0,P|398:313|457:370,1,109.199996667481,2|8,1:2|0:0,0:0:0:0:
512,160,52294,6,0,P|395:105|298:108,1,218.399993334961,2|2,1:2|1:2,0:0:0:0:
146,240,52767,1,10,0:0:0:0:
224,299,52925,1,2,1:2:0:0:
263,33,53083,1,6,1:2:0:0:
263,33,53399,5,10,0:0:0:0:
65,145,53557,1,2,0:0:0:0:
307,215,53715,1,2,1:2:0:0:
243,112,53873,2,0,P|184:120|133:154,1,109.199996667481,2|8,1:2|0:0,0:0:0:0:
63,321,54188,6,0,B|76:337|78:360|78:360|153:327|111:247,1,177.449991876984,6|0,1:2|0:0,0:0:0:0:
189,352,54504,2,0,P|194:262|173:214,1,127.399996112061,6|8,1:2|0:0,0:0:0:0:
193,40,54820,6,0,B|206:24|208:1|208:1|283:34|241:114,1,177.449991876984,6|0,1:2|0:0,0:0:0:0:
319,9,55136,2,0,P|324:99|303:147,1,127.399996112061,6|8,1:2|0:0,0:0:0:0:
28,242,55452,5,2,1:2:0:0:
28,242,55767,1,0,1:2:0:0:
147,135,55925,5,10,0:0:0:0:
186,358,56083,1,2,0:0:0:0:
101,312,56241,1,2,1:2:0:0:
310,215,56399,2,0,P|370:216|435:260,1,109.199996667481,2|8,1:2|0:0,0:0:0:0:
267,349,56715,6,0,P|233:273|230:192,1,163.799995001221,2|0,1:2|0:0,0:0:0:0:
284,139,57031,2,0,P|320:87|384:44,1,109.199996667481,2|8,1:2|0:0,0:0:0:0:
77,43,57346,6,0,P|90:136|170:262,1,218.399993334961,6|2,1:2|1:2,0:0:0:0:
375,321,57820,1,10,0:0:0:0:
413,237,57978,1,2,1:2:0:0:
161,319,58136,5,6,1:2:0:0:
161,319,58452,1,10,0:0:0:0:
345,198,58609,1,2,0:0:0:0:
98,146,58767,1,2,1:2:0:0:
220,228,58925,2,0,P|238:159|230:103,1,109.199996667481,2|8,1:2|0:0,0:0:0:0:
36,36,59241,5,6,1:2:0:0:
256,192,59320,12,10,60346,0:0:0:0:
316,129,60504,5,2,1:2:0:0:
353,307,60662,5,0,1:2:0:0:
359,260,60740,1,0,1:2:0:0:
395,231,60819,1,0,1:2:0:0:
441,234,60898,1,0,1:2:0:0:
471,266,60978,1,2,1:2:0:0:
474,278,61056,1,0,1:2:0:0:
473,290,61135,1,0,1:2:0:0:
468,301,61214,1,0,1:2:0:0:
462,309,61294,6,0,L|424:318,1,27.2999991668701,10|0,1:2|0:0,0:0:0:0:
410,153,61452,2,0,L|436:146,1,27.2999991668701,2|0,0:0|0:0,0:0:0:0:
278,251,61609,6,0,P|189:237|95:169,1,191.099994168091,10|0,1:2|0:0,0:0:0:0:
107,106,61925,5,0,1:2:0:0:
106,86,62004,1,0,1:2:0:0:
123,80,62083,1,0,1:2:0:0:
137,94,62162,1,0,1:2:0:0:
128,110,62241,6,0,P|116:85|120:39,1,63.6999980560303,10|0,1:2|0:0,0:0:0:0:
270,333,62557,5,0,1:2:0:0:
265,352,62636,1,0,1:2:0:0:
247,353,62715,1,0,1:2:0:0:
237,336,62794,1,0,1:2:0:0:
250,323,62873,6,0,P|254:350|238:393,1,63.6999980560303,10|0,1:2|0:0,0:0:0:0:
41,216,63188,5,8,1:2:0:0:
94,209,63266,1,8,1:2:0:0:
148,203,63345,1,8,1:2:0:0:
202,197,63424,1,8,1:2:0:0:
256,192,63503,1,10,1:2:0:0:
311,187,63583,1,8,1:2:0:0:
364,180,63661,1,8,1:2:0:0:
418,174,63740,1,8,1:2:0:0:
472,168,63820,6,0,L|485:101,1,40.9499987503052,14|0,1:2|0:0,0:0:0:0:
453,250,63978,2,0,L|445:290,1,40.9499987503052,2|0,0:0|0:0,0:0:0:0:
309,37,64136,6,0,P|220:51|126:119,1,191.099994168091,10|0,1:2|0:0,0:0:0:0:
94,209,64452,5,0,1:2:0:0:
118,203,64531,1,0,1:2:0:0:
113,178,64610,1,0,1:2:0:0:
88,184,64688,1,0,1:2:0:0:
104,193,64767,6,0,L|217:215,1,63.6999980560303,10|0,1:2|0:0,0:0:0:0:
350,355,65083,5,0,1:2:0:0:
326,349,65162,1,0,1:2:0:0:
331,324,65241,1,0,1:2:0:0:
356,330,65319,1,0,1:2:0:0:
340,339,65399,6,0,L|222:361,1,63.6999980560303,10|0,1:2|0:0,0:0:0:0:
250,170,65715,5,8,1:2:0:0:
244,212,65793,1,8,1:2:0:0:
238,254,65872,1,8,1:2:0:0:
25,356,66031,5,8,1:2:0:0:
30,313,66110,1,8,1:2:0:0:
36,272,66188,1,8,1:2:0:0:
197,98,66346,5,10,1:2:0:0:
158,340,66504,1,10,1:2:0:0:
158,340,66820,6,0,L|144:214,1,91,10|0,1:2|1:2,0:0:0:0:
334,202,67136,2,0,L|320:76,1,91,10|0,1:2|1:2,0:0:0:0:
182,2,67452,6,0,P|104:18|46:79,1,136.5,10|0,1:2|0:0,0:0:0:0:
51,63,67767,1,10,1:2:0:0:
254,150,67925,1,10,1:2:0:0:
146,231,68083,1,10,1:2:0:0:
308,23,68241,5,0,1:2:0:0:
341,27,68319,1,0,1:2:0:0:
374,32,68398,1,0,1:2:0:0:
176,137,68557,5,0,1:2:0:0:
143,132,68636,1,0,1:2:0:0:
110,128,68714,1,0,1:2:0:0:
326,101,68873,5,10,0:0:0:0:
287,351,69031,1,10,0:0:0:0:
437,169,69346,6,0,L|447:78,1,91,10|0,0:0|1:2,0:0:0:0:
287,351,69662,2,0,L|297:260,1,91,10|0,0:0|1:2,0:0:0:0:
512,300,69978,6,0,P|458:258|391:248,1,136.5,10|0,0:0|0:0,0:0:0:0:
372,259,70294,1,10,0:0:0:0:
512,192,70452,1,10,1:2:0:0:
415,331,70609,1,10,1:2:0:0:
322,87,70767,5,0,1:2:0:0:
283,59,70845,1,0,1:2:0:0:
236,66,70924,1,0,1:2:0:0:
206,102,71003,1,0,1:2:0:0:
208,149,71083,1,2,1:2:0:0:
221,151,71161,1,0,1:2:0:0:
234,154,71240,1,0,1:2:0:0:
247,157,71319,1,0,1:2:0:0:
261,160,71399,6,0,P|275:174|281:194,1,27.2999991668701,10|0,1:2|0:0,0:0:0:0:
138,68,71557,2,0,P|144:56|155:47,1,27.2999991668701,2|0,0:0|0:0,0:0:0:0:
234,243,71715,6,0,P|155:288|49:288,1,191.099994168091,10|0,1:2|0:0,0:0:0:0:
43,214,72031,5,0,1:2:0:0:
49,190,72110,1,0,1:2:0:0:
74,195,72189,1,0,1:2:0:0:
68,220,72267,1,0,1:2:0:0:
59,204,72346,6,0,L|37:91,1,63.6999980560303,10|0,1:2|0:0,0:0:0:0:
305,293,72662,5,0,1:2:0:0:
311,317,72741,1,0,1:2:0:0:
336,312,72820,1,0,1:2:0:0:
330,287,72898,1,0,1:2:0:0:
321,303,72978,6,0,L|299:416,1,63.6999980560303,10|0,1:2|0:0,0:0:0:0:
164,17,73294,5,8,1:2:0:0:
169,61,73372,1,8,1:2:0:0:
174,106,73451,1,8,1:2:0:0:
179,151,73530,1,8,1:2:0:0:
183,196,73609,1,10,1:2:0:0:
188,241,73689,1,8,1:2:0:0:
193,286,73767,1,8,1:2:0:0:
198,331,73846,1,8,1:2:0:0:
204,376,73925,6,0,L|218:304,1,40.9499987503052,14|0,1:2|0:0,0:0:0:0:
122,320,74083,2,0,L|114:360,1,40.9499987503052,2|0,0:0|0:0,0:0:0:0:
259,155,74241,6,0,P|353:156|436:202,1,191.099994168091,10|0,1:2|0:0,0:0:0:0:
485,296,74557,5,0,1:2:0:0:
465,297,74636,1,0,1:2:0:0:
459,280,74715,1,0,1:2:0:0:
473,266,74794,1,0,1:2:0:0:
489,275,74873,6,0,P|464:287|418:283,1,63.6999980560303,10|0,1:2|0:0,0:0:0:0:
275,45,75188,5,0,1:2:0:0:
295,44,75267,1,0,1:2:0:0:
301,61,75346,1,0,1:2:0:0:
287,75,75425,1,0,1:2:0:0:
271,66,75504,6,0,P|296:54|342:58,1,63.6999980560303,10|0,1:2|0:0,0:0:0:0:
343,341,75820,5,8,1:2:0:0:
336,295,75898,1,8,1:2:0:0:
330,249,75977,1,8,1:2:0:0:
419,102,76136,5,8,1:2:0:0:
425,148,76215,1,8,1:2:0:0:
432,194,76293,1,8,1:2:0:0:
261,304,76452,5,10,1:2:0:0:
288,65,76609,1,10,1:2:0:0:
288,65,76925,6,0,L|304:190,1,91,10|0,1:2|1:2,0:0:0:0:
434,251,77241,2,0,L|450:376,1,91,10|0,1:2|1:2,0:0:0:0:
195,371,77557,6,0,P|112:354|65:276,1,136.5,10|0,1:2|0:0,0:0:0:0:
76,297,77873,1,10,1:2:0:0:
229,189,78031,1,10,1:2:0:0:
285,286,78188,1,10,1:2:0:0:
64,144,78346,5,0,1:2:0:0:
68,111,78425,1,0,1:2:0:0:
73,78,78503,1,0,1:2:0:0:
204,305,78662,5,0,1:2:0:0:
199,338,78740,1,0,1:2:0:0:
195,371,78819,1,0,1:2:0:0:
19,223,78978,5,10,0:0:0:0:
311,186,79136,1,10,0:0:0:0:
311,186,79452,6,0,L|442:211,1,91,10|0,0:0|1:2,0:0:0:0:
156,91,79767,2,0,L|287:116,1,91,10|0,0:0|1:2,0:0:0:0:
467,15,80083,6,0,P|393:55|363:126,1,136.5,10|0,0:0|0:0,0:0:0:0:
366,117,80399,1,10,0:0:0:0:
512,88,80557,1,10,1:2:0:0:
267,6,80715,1,10,1:2:0:0:
267,6,80794,1,2,0:0:0:0:
267,6,80873,6,0,P|270:58|296:104,1,77.3500014753342,6|0,0:0|0:0,0:0:0:0:
360,224,81188,1,8,0:0:0:0:
425,176,81346,1,0,1:2:0:0:
259,152,81504,2,0,P|233:197|228:257,1,77.3500014753342,0|0,1:2|0:0,0:0:0:0:
133,261,81820,2,0,P|152:315|194:364,1,116.025002213001,8|0,0:0|0:0,0:0:0:0:
207,375,82136,6,0,B|243:365|243:365|246:362|246:362|286:352,1,77.3500014753342,0|0,1:2|1:2,0:0:0:0:
462,316,82452,1,8,0:0:0:0:
391,288,82609,1,0,0:0:0:0:
416,384,82767,5,2,1:2:0:0:
487,177,82925,1,6,0:0:0:0:
297,235,83083,1,10,0:0:0:0:
391,288,83241,6,0,P|410:217|408:107,1,163.799995001221,6|2,0:0|1:2,0:0:0:0:
292,0,83715,5,10,0:0:0:0:
216,88,83873,1,2,1:2:0:0:
322,148,84031,1,2,1:2:0:0:
292,77,84188,1,2,0:0:0:0:
184,193,84346,2,0,P|143:184|95:155,1,81.8999975006104,10|0,0:0|0:0,0:0:0:0:
50,40,84662,5,0,1:2:0:0:
121,24,84820,1,0,1:2:0:0:
32,196,84978,2,0,P|16:158|11:117,1,81.8999975006104,10|0,0:0|0:0,0:0:0:0:
141,96,85294,5,0,1:2:0:0:
209,116,85452,1,0,1:2:0:0:
21,294,85609,1,10,0:0:0:0:
21,294,85925,6,0,B|55:303|55:303|58:306|58:306|110:318,1,77.3500014753342,2|0,1:2|1:2,0:0:0:0:
280,228,86240,1,8,0:0:0:0:
126,201,86398,1,0,0:0:0:0:
192,260,86557,2,0,P|203:223|208:181,1,77.3500014753342,0|0,1:2|1:2,0:0:0:0:
116,5,86873,2,0,P|127:70|170:135,1,116.025002213001,8|0,0:0|0:0,0:0:0:0:
166,115,87188,6,0,P|210:112|240:85,1,77.3500014753342,0|0,1:2|1:2,0:0:0:0:
360,9,87504,1,8,0:0:0:0:
339,88,87661,1,0,0:0:0:0:
259,3,87819,5,2,1:2:0:0:
448,82,87977,1,6,0:0:0:0:
268,195,88135,1,10,0:0:0:0:
339,88,88294,6,0,P|357:163|360:265,1,163.799995001221,6|2,0:0|1:2,0:0:0:0:
267,351,88767,5,10,0:0:0:0:
126,301,88925,1,2,0:0:0:0:
213,282,89083,1,2,1:2:0:0:
185,372,89240,1,2,1:2:0:0:
48,255,89399,2,0,P|36:214|35:151,1,81.8999975006104,10|2,0:0|0:0,0:0:0:0:
190,33,89714,5,0,1:2:0:0:
213,101,89873,1,0,1:2:0:0:
52,58,90031,6,0,P|106:75|155:99,1,81.8999975006104,10|2,0:0|0:0,0:0:0:0:
264,224,90346,5,0,1:2:0:0:
297,86,90504,1,0,1:2:0:0:
456,231,90661,1,8,0:0:0:0:
456,231,90978,6,0,P|454:273|427:329,1,77.3500014753342,2|0,1:2|1:2,0:0:0:0:
332,363,91293,1,8,0:0:0:0:
414,380,91451,1,0,0:0:0:0:
372,226,91609,2,0,P|355:191|329:162,1,77.3500014753342,0|0,1:2|1:2,0:0:0:0:
121,258,91925,2,0,P|162:284|245:294,1,116.025002213001,8|0,0:0|0:0,0:0:0:0:
242,284,92241,6,0,P|261:250|269:213,1,77.3500014753342,0|0,1:2|1:2,0:0:0:0:
190,58,92557,1,8,0:0:0:0:
208,129,92714,1,0,0:0:0:0:
274,0,92872,5,2,1:2:0:0:
80,101,93030,1,6,0:0:0:0:
317,154,93188,1,10,0:0:0:0:
190,58,93346,6,0,P|127:96|97:203,1,163.799995001221,6|2,0:0|1:2,0:0:0:0:
255,369,93820,5,10,0:0:0:0:
305,303,93978,1,2,1:2:0:0:
425,335,94136,1,2,1:2:0:0:
349,371,94293,1,2,1:2:0:0:
427,230,94452,2,0,P|474:237|512:269,1,81.8999975006104,10|0,0:0|0:0,0:0:0:0:
220,293,94767,5,0,1:2:0:0:
197,222,94925,1,0,1:2:0:0:
359,44,95083,6,0,P|349:93|329:144,1,81.8999975006104,10|0,0:0|0:0,0:0:0:0:
107,178,95399,5,0,1:2:0:0:
127,104,95557,1,0,1:2:0:0:
278,236,95714,1,10,0:0:0:0:
139,284,95873,1,0,0:0:0:0:
196,135,96031,6,0,B|234:143|234:143|237:145|237:145|301:157,1,77.3500014753342,2|0,1:2|1:2,0:0:0:0:
451,19,96346,1,8,0:0:0:0:
359,44,96504,1,0,0:0:0:0:
406,170,96662,2,0,P|417:139|418:86,1,77.3500014753342,0|0,1:2|1:2,0:0:0:0:
248,17,96978,2,0,P|192:23|141:73,1,116.025002213001,8|0,0:0|0:0,0:0:0:0:
132,78,97294,6,0,P|122:122|128:172,1,77.3500014753342,0|0,1:2|1:2,0:0:0:0:
233,273,97609,1,8,0:0:0:0:
303,229,97767,1,0,0:0:0:0:
203,124,97925,5,2,1:2:0:0:
43,248,98083,1,6,0:0:0:0:
210,351,98241,1,10,0:0:0:0:
135,370,98399,6,0,P|121:298|133:187,1,163.799995001221,6|2,0:0|1:2,0:0:0:0:
249,20,98873,5,10,0:0:0:0:
282,83,99031,1,2,0:0:0:0:
75,138,99188,5,2,1:2:0:0:
126,70,99346,1,2,1:2:0:0:
293,265,99504,5,10,0:0:0:0:
203,223,99662,1,0,0:0:0:0:
407,27,99820,6,0,P|449:51|470:140,1,136.5,4|0,0:0|0:0,0:0:0:0:
460,207,100136,5,8,0:0:0:0:
460,207,100452,6,0,L|448:306,1,81.8999975006104,8|0,0:0|0:0,0:0:0:0:
472,131,100767,5,8,0:0:0:0:
247,184,100925,1,0,1:2:0:0:
355,234,101083,6,0,P|356:168|330:52,1,156.975002994061,6|0,0:0|0:0,0:0:0:0:
274,44,101399,2,0,P|234:14|172:-1,1,104.65000199604,8|2,1:2|1:2,0:0:0:0:
0,152,101715,5,2,0:0:0:0:
222,106,101873,1,2,0:0:0:0:
110,36,102031,1,10,1:2:0:0:
45,266,102188,1,2,1:2:0:0:
134,126,102346,6,0,P|163:198|178:275,1,156.975002994061,2|0,1:2|0:0,0:0:0:0:
168,294,102662,1,10,1:2:0:0:
380,182,102820,2,0,P|332:270|244:349,1,209.300003992081,2|0,1:2|1:2,0:0:0:0:
35,338,103294,5,8,1:2:0:0:
97,384,103452,1,2,1:2:0:0:
246,206,103609,2,0,P|240:155|216:96,1,104.65000199604,2|0,1:2|0:0,0:0:0:0:
144,65,103925,1,10,1:2:0:0:
406,128,104083,2,0,P|335:51|244:0,1,209.300003992081,2|2,1:2|1:2,0:0:0:0:
111,249,104557,2,0,P|134:202|145:151,1,104.65000199604,8|0,1:2|1:2,0:0:0:0:
3,5,104873,5,2,1:2:0:0:
45,193,105083,5,2,1:2:0:0:
244,152,105294,5,2,1:2:0:0:
186,350,105504,5,10,1:2:0:0:
145,151,105715,5,2,1:2:0:0:
333,109,105925,5,2,1:2:0:0:
379,326,106136,6,0,P|302:306|202:209,1,209.300003992081,6|8,0:0|0:0,0:0:0:0:
450,67,106609,2,0,P|472:125|471:209,1,104.65000199604,2|0,1:2|0:0,0:0:0:0:
451,246,106925,1,0,1:2:0:0:
259,78,107083,5,8,0:0:0:0:
321,22,107241,1,2,1:2:0:0:
355,244,107399,2,0,P|377:197|387:145,1,104.65000199604,2|2,1:2|1:2,0:0:0:0:
194,14,107715,5,10,0:0:0:0:
158,251,107873,2,0,P|231:225|313:154,1,156.975002994061,2|0,1:2|0:0,0:0:0:0:
298,167,108188,1,2,1:2:0:0:
101,84,108346,1,10,0:0:0:0:
19,279,108504,1,8,0:0:0:0:
19,279,108583,1,2,0:0:0:0:
19,279,108662,6,0,P|28:337|44:386,1,104.65000199604,2|0,1:2|0:0,0:0:0:0:
185,151,108978,5,8,0:0:0:0:
121,348,109136,2,0,P|135:297|157:250,1,104.65000199604,2|2,1:2|1:2,0:0:0:0:
314,91,109452,5,2,0:0:0:0:
381,358,109609,1,8,0:0:0:0:
222,326,109767,1,2,1:2:0:0:
404,131,109925,5,6,1:2:0:0:
434,135,110003,1,0,0:0:0:0:
461,139,110083,2,0,L|519:125,1,43.224998845768,0|0,1:2|1:2,1:2:0:0:
379,255,110241,6,0,L|285:242,1,86.449997691536,0|0,1:2|1:2,0:0:0:0:
145,165,110557,5,0,1:2:0:0:
150,193,110636,1,0,1:2:0:0:
155,218,110715,2,0,L|165:283,1,52.3250009980202,8|0,1:2|0:0,0:0:0:0:
292,128,110873,1,0,1:2:0:0:
306,84,110951,1,0,1:2:0:0:
288,41,111030,1,8,1:2:0:0:
247,20,111109,1,8,1:2:0:0:
203,33,111188,6,0,P|145:79|58:99,1,156.975002994061,6|0,0:0|0:0,0:0:0:0:
36,0,111504,2,0,P|96:20|134:70,1,104.65000199604,8|2,1:2|1:2,0:0:0:0:
131,370,111820,5,2,0:0:0:0:
60,187,111978,1,2,0:0:0:0:
219,114,112136,1,10,1:2:0:0:
127,284,112293,1,2,1:2:0:0:
5,123,112452,6,0,P|80:141|142:188,1,156.975002994061,2|0,1:2|0:0,0:0:0:0:
150,200,112767,1,10,1:2:0:0:
357,147,112925,2,0,P|267:206|206:298,1,209.300003992081,2|0,1:2|1:2,0:0:0:0:
425,384,113399,5,8,1:2:0:0:
442,285,113557,1,2,1:2:0:0:
234,83,113715,6,0,P|241:140|269:195,1,104.65000199604,2|2,1:2|1:2,0:0:0:0:
357,314,114030,1,10,1:2:0:0:
395,45,114188,2,0,P|337:158|326:278,1,209.300003992081,2|2,1:2|1:2,0:0:0:0:
512,236,114662,2,0,P|467:194|403:189,1,104.65000199604,8|0,1:2|1:2,0:0:0:0:
81,324,114978,5,2,1:2:0:0:
285,371,115188,5,2,1:2:0:0:
339,155,115399,5,2,1:2:0:0:
128,20,115609,5,10,1:2:0:0:
84,205,115819,5,2,1:2:0:0:
280,253,116030,5,2,1:2:0:0:
377,26,116241,6,0,P|300:46|200:143,1,209.300003992081,6|8,0:0|0:0,0:0:0:0:
34,114,116715,2,0,P|69:188|114:227,1,104.65000199604,2|0,1:2|0:0,0:0:0:0:
165,235,117031,1,0,1:2:0:0:
224,0,117189,5,8,0:0:0:0:
128,20,117347,1,2,1:2:0:0:
365,105,117504,2,0,P|422:124|479:169,1,104.65000199604,2|2,1:2|1:2,0:0:0:0:
486,222,117821,5,10,0:0:0:0:
305,306,117978,2,0,P|275:207|285:111,1,156.975002994061,2|0,1:2|0:0,0:0:0:0:
285,127,118294,1,2,1:2:0:0:
411,289,118452,1,10,0:0:0:0:
227,367,118610,1,10,0:0:0:0:
227,367,118689,1,0,0:0:0:0:
227,367,118767,6,0,P|175:359|125:344,1,104.65000199604,2|0,1:2|1:2,0:0:0:0:
203,154,119084,1,8,0:0:0:0:
39,266,119241,2,0,P|90:258|140:243,1,104.65000199604,2|2,1:2|1:2,0:0:0:0:
317,48,119558,5,2,0:0:0:0:
130,11,119715,1,8,0:0:0:0:
257,252,119873,1,2,1:2:0:0:
224,64,120031,5,6,1:2:0:0:
25,152,120188,1,0,1:2:0:0:
25,152,120267,1,0,1:2:0:0:
25,152,120346,1,0,1:2:0:0:
87,343,120504,1,0,1:2:0:0:
318,110,120662,5,8,1:2:0:0:
65,70,120820,1,8,1:2:0:0:
65,70,120899,1,0,0:0:0:0:
65,70,120978,1,0,1:2:0:0:
257,252,121136,1,8,1:2:0:0:
355,23,121294,6,0,P|238:39|166:187,1,286.649991252136,6|0,0:0|0:0,0:0:0:0:
178,253,121925,5,6,1:2:0:0:
195,338,122557,5,6,1:2:0:0:
303,380,123188,5,6,1:2:0:0:
332,178,123820,5,6,1:2:0:0:
479,86,124452,5,6,1:2:0:0:
506,363,125083,5,2,1:2:0:0:
386,313,125294,5,2,1:2:0:0:
435,205,125504,5,2,1:2:0:0:
249,15,125715,5,10,1:2:0:0:
129,65,125926,5,2,1:2:0:0:
178,173,126136,5,0,0:0:0:0:
291,357,126346,6,0,P|304:313|302:225,1,109.199996667481,6|0,0:0|0:0,0:0:0:0:
264,185,126583,1,8,0:0:0:0:
264,185,126662,1,2,1:2:0:0:
49,229,126820,1,2,1:2:0:0:
217,384,126978,6,0,P|203:340|154:267,1,109.199996667481,2|0,1:2|0:0,0:0:0:0:
97,295,127215,1,8,0:0:0:0:
97,295,127294,1,2,1:2:0:0:
291,357,127452,1,2,1:2:0:0:
299,82,127609,6,0,P|277:122|263:209,1,109.199996667481,2|0,1:2|0:0,0:0:0:0:
301,253,127846,1,8,0:0:0:0:
301,253,127925,1,2,1:2:0:0:
241,30,128083,1,2,1:2:0:0:
404,276,128241,6,0,P|382:235|368:148,1,109.199996667481,2|0,1:2|0:0,0:0:0:0:
401,99,128478,1,8,0:0:0:0:
401,99,128557,1,2,1:2:0:0:
372,346,128715,1,2,1:2:0:0:
199,121,128873,6,0,P|158:99|71:85,1,109.199996667481,2|0,1:2|0:0,0:0:0:0:
28,123,129110,1,8,0:0:0:0:
28,123,129189,1,2,1:2:0:0:
241,30,129346,1,2,1:2:0:0:
219,295,129504,6,0,P|204:251|152:180,1,109.199996667481,2|0,1:2|0:0,0:0:0:0:
94,177,129741,1,8,0:0:0:0:
94,177,129820,1,2,1:2:0:0:
57,376,129977,1,2,1:2:0:0:
289,217,130136,5,2,1:2:0:0:
71,279,130294,1,0,0:0:0:0:
297,378,130452,1,2,1:2:0:0:
343,146,130609,1,2,1:2:0:0:
219,295,130767,5,2,1:2:0:0:
219,295,131083,6,0,B|211:245|211:245|215:239|215:239|205:174,1,109.2,14|0,1:2|0:0,0:0:0:0:
137,160,131399,6,0,P|146:77|197:-4,1,156.975002994061,4|0,0:0|0:0,0:0:0:0:
252,44,131715,2,0,P|304:15|369:13,1,104.65000199604,8|0,0:0|1:2,0:0:0:0:
512,190,132031,5,2,1:2:0:0:
302,128,132189,1,0,0:0:0:0:
432,35,132347,1,10,0:0:0:0:
468,268,132504,1,2,1:2:0:0:
399,132,132662,6,0,P|321:161|272:232,1,156.975002994061,2|0,1:2|0:0,0:0:0:0:
281,239,132978,1,10,0:0:0:0:
142,330,133136,2,0,P|117:280|108:103,1,209.300003992081,2|0,1:2|1:2,0:0:0:0:
261,7,133609,5,8,0:0:0:0:
338,36,133768,1,2,1:2:0:0:
165,11,133925,6,0,P|115:24|77:60,1,104.65000199604,2|2,0:0|1:2,0:0:0:0:
300,142,134241,1,8,0:0:0:0:
2,88,134399,2,0,P|90:106|178:184,1,209.300003992081,2|0,0:0|0:0,0:0:0:0:
257,215,134873,2,0,P|245:266|223:312,1,104.65000199604,8|2,0:0|0:0,0:0:0:0:
38,373,135188,6,0,B|27:348|27:348|32:336|32:336|28:326|28:326|26:298,1,68.250002603531,6|0,0:0|0:0,0:0:0:0:
256,192,135346,12,0,136373,0:0:0:0:
408,71,136452,5,6,0:0:0:0:
464,208,136767,1,2,1:2:0:0:
362,313,137083,1,10,0:0:0:0:
362,313,137241,6,0,P|294:294|211:284,1,145.6,0|0,1:2|1:2,0:0:0:0:
143,328,137715,1,2,1:2:0:0:
299,382,138031,1,2,1:2:0:0:
353,219,138346,1,10,0:0:0:0:
353,219,138504,6,0,P|356:155|314:55,1,145.6,0|0,1:2|1:2,0:0:0:0:
254,75,138978,2,0,P|223:56|189:44,1,72.8,6|0,1:2|0:0,0:0:0:0:
6,166,139294,6,0,P|70:130|152:117,1,145.6,0|8,1:2|0:0,0:0:0:0:
215,146,139767,1,0,1:2:0:0:
215,146,139925,2,0,P|213:186|184:238,1,72.8,2|0,0:0|1:2,0:0:0:0:
142,292,140241,5,2,1:2:0:0:
78,48,140557,1,2,1:2:0:0:
336,0,140873,2,0,P|381:1|455:76,1,145.6,10|2,0:0|0:0,0:0:0:0:
82,257,141504,6,0,B|40:311|-53:239|3:175|57:130|152:210|152:210|214:265|291:209|291:209|291:147|341:126|341:126|285:108|270:47|270:47|240:96|188:92|188:92|213:134|196:182|196:182|245:183|245:183|296:221|332:287|500:334|548:249|553:77|402:107|411:189,1,1365,6|0,0:0|0:0,0:0:0:0:
