osu file format v14

[General]
AudioFilename: audio.mp3
AudioLeadIn: 0
PreviewTime: 39938
Countdown: 0
SampleSet: Soft
StackLeniency: 0.7
Mode: 0
LetterboxInBreaks: 0
WidescreenStoryboard: 1

[Editor]
Bookmarks: 8873,20241,30346,60662,70767,80873,101083,121294,126346,131399,141504,150978
DistanceSpacing: 1
BeatDivisor: 4
GridSize: 8
TimelineZoom: 1.8

[Metadata]
Title:The Title Track
TitleUnicode:The Title Track
Artist:Origami Angel
ArtistUnicode:Origami Angel
Creator:Mimari
Version:Easy
Source:
Tags:somewhere city english rock emo punk mapping to pander contest
BeatmapID:2883618
BeatmapSetID:1396156

[Difficulty]
HPDrainRate:2
CircleSize:3.4
OverallDifficulty:2
ApproachRate:4
SliderMultiplier:0.749999999999999
SliderTickRate:1

[Events]
//Background and Video events
0,0,"ily pishi.jpg",0,0
//Break Periods
//Storyboard Layer 0 (Background)
//Storyboard Layer 1 (Fail)
//Storyboard Layer 2 (Pass)
//Storyboard Layer 3 (Foreground)
//Storyboard Layer 4 (Overlay)
//Storyboard Sound Samples

[TimingPoints]
31,315.789473684211,4,2,1,75,1,0
20241,-100,4,2,1,60,0,0
25294,-100,4,2,1,70,0,0
30346,-100,4,2,1,60,0,0
35399,-100,4,2,1,70,0,0
40452,-100,4,2,1,75,0,1
44083,-100,4,2,1,75,0,0
45820,-100,4,2,1,75,0,1
49925,-100,4,2,1,75,0,0
50873,-100,4,2,1,75,0,1
54188,-100,4,2,1,75,0,0
55925,-100,4,2,1,75,0,1
59241,-100,4,2,1,75,0,0
60662,-100,4,2,1,70,0,0
80873,-100,4,2,1,60,0,0
101083,-100,4,2,1,75,0,1
104873,-100,4,2,1,75,0,0
106136,-100,4,2,1,75,0,1
109925,-100,4,2,1,75,0,0
111188,-100,4,2,1,75,0,1
114978,-100,4,2,1,75,0,0
116241,-100,4,2,1,75,0,1
121294,-100,4,2,1,65,0,0
126346,-100,4,2,1,75,0,0
131399,-100,4,2,1,70,0,1
135188,-100,4,2,1,60,0,0
136452,-100,4,2,1,65,0,0
141504,-100,4,2,1,60,0,0
142767,-100,4,2,1,55,0,0
144031,-100,4,2,1,50,0,0
145294,-100,4,2,1,45,0,0
146557,-100,4,2,1,35,0,0
147820,-100,4,2,1,25,0,0
149083,-100,4,2,1,15,0,0
150346,-100,4,2,1,10,0,0
150978,-100,4,2,2,5,0,0

[Colours]
Combo1 : 149,156,219
Combo2 : 223,157,157
Combo3 : 236,173,132
Combo4 : 167,194,228

[HitObjects]
92,340,10136,6,0,B|84:285|84:285|97:254|97:254|87:184,1,150,14|2,1:2|1:2,0:0:0:0:
130,89,11241,2,0,L|56:74,2,74.9999999999999,6|2|2,1:2|1:2|1:2,0:0:0:0:
217,160,12346,1,10,1:2:0:0:
280,120,12662,6,0,B|317:103|317:103|428:140,1,150,6|2,1:2|1:2,0:0:0:0:
490,225,13767,2,0,L|499:312,1,74.9999999999999,2|2,1:2|1:2,0:0:0:0:
440,348,14399,2,0,L|352:328,1,74.9999999999999,2|2,1:2|1:2,0:0:0:0:
301,367,15031,1,2,1:2:0:0:
205,307,15504,6,0,L|219:178,1,112.5,14|2,0:0|1:2,0:0:0:0:
267,139,16294,2,0,L|349:124,2,74.9999999999999,2|2|2,1:2|1:2|1:2,0:0:0:0:
188,57,17399,1,10,1:2:0:0:
118,85,17715,6,0,B|126:145|126:145|113:176|113:176|121:231,1,150,6|2,1:2|1:2,0:0:0:0:
87,338,18820,2,0,L|171:317,1,74.9999999999999,6|2,1:2|1:2,0:0:0:0:
229,348,19452,2,0,L|352:372,1,112.5,2|10,1:2|1:2,0:0:0:0:
408,339,20241,6,0,B|443:297|443:297|405:210,1,150,6|2,1:2|1:2,0:0:0:0:
436,62,21504,2,0,B|347:41|385:114|280:87,1,150,2|2,1:2|1:2,0:0:0:0:
235,45,22452,1,10,0:0:0:0:
160,46,22767,6,0,P|104:77|82:166,1,150,2|2,1:2|1:2,0:0:0:0:
26,296,24031,2,0,L|185:267,1,150,2|2,1:2|1:2,0:0:0:0:
248,269,24978,1,14,0:0:0:0:
285,203,25294,6,0,P|302:132|365:93,1,150,6|2,1:2|1:2,0:0:0:0:
456,27,26399,2,0,L|472:139,1,112.5,0|10,1:2|0:0,0:0:0:0:
483,212,27188,1,2,1:2:0:0:
417,249,27504,1,10,0:0:0:0:
395,320,27820,6,0,P|346:365|260:344,1,150,2|2,1:2|1:2,0:0:0:0:
240,243,28925,2,0,L|256:80,1,150,2|0,1:2|1:2,0:0:0:0:
159,32,30031,1,8,0:0:0:0:
88,7,30346,6,0,B|43:34|43:34|66:135,1,150,6|2,1:2|1:2,0:0:0:0:
28,274,31609,2,0,P|102:274|147:337,1,150,2|2,1:2|1:2,0:0:0:0:
211,366,32557,1,10,0:0:0:0:
282,344,32873,6,0,B|314:256|314:256|274:200,1,150,2|2,1:2|1:2,0:0:0:0:
164,116,34136,1,10,1:2:0:0:
190,45,34452,1,10,1:2:0:0:
261,22,34767,2,0,P|304:23|339:51,1,74.9999999999999,10|10,1:2|1:2,0:0:0:0:
396,3,35399,6,0,L|377:162,1,150,6|2,1:2|1:2,0:0:0:0:
435,248,36504,2,0,B|401:272|401:272|325:251,1,112.5,0|10,1:2|0:0,0:0:0:0:
261,228,37294,1,2,1:2:0:0:
196,266,37609,1,10,0:0:0:0:
124,243,37925,6,0,P|77:191|100:119,1,150,2|2,1:2|1:2,0:0:0:0:
173,36,39030,2,0,B|234:39|234:39|263:62|263:62|331:65,1,150,2|0,1:2|1:2,0:0:0:0:
416,14,40136,1,8,0:0:0:0:
481,50,40452,6,0,P|494:89|483:134,1,74.9999999999999,6|10,0:0|0:0,0:0:0:0:
441,180,41083,2,0,L|322:160,1,112.5,2|6,1:2|1:2,0:0:0:0:
260,190,41873,1,2,1:2:0:0:
218,252,42188,2,0,L|99:272,1,112.5,2|10,1:2|0:0,0:0:0:0:
39,303,42978,6,0,B|5:254|5:254|55:160,1,150,2|2,0:0|1:2,0:0:0:0:
94,71,44083,1,6,1:2:0:0:
160,106,44399,1,6,1:2:0:0:
227,72,44715,2,0,P|265:58|310:60,1,74.9999999999999,6|6,1:2|1:2,0:0:0:0:
355,107,45346,1,2,1:2:0:0:
275,186,45820,6,0,L|262:301,1,112.5,10|2,0:0|1:2,0:0:0:0:
315,350,46609,1,2,1:2:0:0:
383,319,46925,1,2,1:2:0:0:
454,343,47241,2,0,P|482:307|481:234,1,112.5,6|10,1:2|0:0,0:0:0:0:
427,192,48031,6,0,B|419:137|419:137|432:106|432:106|422:36,1,150,2|2,1:2|1:2,0:0:0:0:
317,6,49136,1,6,1:2:0:0:
256,50,49452,1,2,1:2:0:0:
185,75,49767,2,0,P|132:63|71:53,1,112.5,2|10,1:2|1:2,0:0:0:0:
22,108,50557,6,0,P|9:147|20:192,1,74.9999999999999,6|10,1:2|0:0,0:0:0:0:
69,230,51188,2,0,L|179:208,1,112.5,2|6,1:2|1:2,0:0:0:0:
254,212,51978,1,2,1:2:0:0:
294,148,52294,2,0,L|404:169,1,112.5,2|10,1:2|0:0,0:0:0:0:
470,133,53083,6,0,B|512:212|512:212|489:268,1,150,6|2,1:2|1:2,0:0:0:0:
423,359,54188,1,6,1:2:0:0:
358,320,54504,1,6,1:2:0:0:
285,340,54820,2,0,L|206:355,1,74.9999999999999,6|6,1:2|1:2,0:0:0:0:
147,313,55452,1,2,1:2:0:0:
43,357,55925,6,0,L|30:242,1,112.5,10|2,0:0|1:2,0:0:0:0:
46,171,56714,1,2,1:2:0:0:
102,121,57030,1,2,1:2:0:0:
177,120,57346,2,0,P|236:128|279:166,1,112.5,6|10,1:2|0:0,0:0:0:0:
250,231,58136,6,0,B|305:223|305:223|336:236|336:236|406:226,1,150,6|2,1:2|1:2,0:0:0:0:
477,150,59241,2,0,P|484:95|378:44,1,187.5,6|2,1:2|0:0,0:0:0:0:
313,75,60346,1,10,0:0:0:0:
247,38,60662,6,0,B|199:12|199:12|95:45,1,150,0|10,1:2|1:2,0:0:0:0:
13,157,61925,2,0,L|23:236,1,74.9999999999999,0|10,1:2|1:2,0:0:0:0:
79,280,62557,2,0,L|89:359,1,74.9999999999999,0|10,1:2|1:2,0:0:0:0:
160,375,63188,6,0,L|182:215,1,150,8|14,1:2|1:2,0:0:0:0:
113,91,64452,2,0,P|143:73|183:71,1,74.9999999999999,0|10,1:2|1:2,0:0:0:0:
248,106,65083,2,0,P|278:123|318:125,1,74.9999999999999,0|10,1:2|1:2,0:0:0:0:
384,91,65715,5,8,1:2:0:0:
491,195,66346,2,0,L|474:314,1,112.5,10|10,1:2|1:2,0:0:0:0:
416,353,67136,1,10,1:2:0:0:
354,310,67452,2,0,B|322:293|322:293|244:317,1,112.5,10|10,1:2|1:2,0:0:0:0:
182,349,68241,5,0,1:2:0:0:
44,289,68873,2,0,L|29:168,1,112.5,10|10,0:0|0:0,0:0:0:0:
35,102,69662,1,10,0:0:0:0:
99,63,69978,2,0,L|222:81,1,112.5,10|10,0:0|1:2,0:0:0:0:
277,46,70767,6,0,B|269:101|269:101|282:132|282:132|272:202,1,150,0|10,1:2|1:2,0:0:0:0:
232,336,72030,2,0,L|318:319,1,74.9999999999999,0|10,1:2|1:2,0:0:0:0:
371,358,72662,2,0,L|457:341,1,74.9999999999999,0|10,1:2|1:2,0:0:0:0:
480,277,73293,6,0,L|502:117,1,150,8|14,1:2|1:2,0:0:0:0:
400,15,74557,2,0,L|312:30,1,74.9999999999999,0|10,1:2|1:2,0:0:0:0:
293,95,75188,2,0,L|205:110,1,74.9999999999999,0|10,1:2|1:2,0:0:0:0:
149,78,75820,5,8,1:2:0:0:
217,211,76451,2,0,L|338:190,1,112.5,10|10,1:2|1:2,0:0:0:0:
400,171,77241,1,10,1:2:0:0:
461,213,77557,2,0,B|486:250|486:250|463:327,1,112.5,10|10,1:2|1:2,0:0:0:0:
405,359,78346,5,0,1:2:0:0:
254,356,78978,2,0,L|140:336,1,112.5,10|10,0:0|0:0,0:0:0:0:
82,293,79767,1,10,0:0:0:0:
67,219,80083,2,0,B|59:157|59:157|93:107,1,112.5,10|10,0:0|1:2,0:0:0:0:
61,44,80873,6,0,B|140:24|117:87|220:60,2,150,6|0|0,0:0|1:2|1:2,0:0:0:0:
20,188,82767,2,0,L|35:311,1,112.5,2|6,1:2|0:0,0:0:0:0:
128,360,83715,5,10,0:0:0:0:
195,326,84031,1,2,1:2:0:0:
268,339,84346,2,0,L|424:313,1,150,10|10,0:0|0:0,0:0:0:0:
475,267,85294,2,0,P|490:235|484:185,1,74.9999999999999,0|10,1:2|0:0,0:0:0:0:
421,162,85925,6,0,B|342:142|365:205|262:178,2,150,2|0|0,1:2|1:2|1:2,0:0:0:0:
492,30,87820,2,0,L|369:15,1,112.5,2|6,1:2|0:0,0:0:0:0:
273,52,88767,5,10,0:0:0:0:
227,112,89083,1,2,1:2:0:0:
273,170,89399,2,0,P|307:219|288:314,1,150,10|10,0:0|0:0,0:0:0:0:
237,353,90346,2,0,L|148:337,1,74.9999999999999,0|8,1:2|0:0,0:0:0:0:
119,278,90978,6,0,P|52:287|22:364,2,150,2|0|0,1:2|1:2|1:2,0:0:0:0:
257,219,92873,2,0,L|243:94,1,112.5,2|6,1:2|0:0,0:0:0:0:
160,32,93820,5,10,0:0:0:0:
86,16,94136,1,2,1:2:0:0:
35,71,94452,2,0,L|54:223,1,150,10|10,0:0|0:0,0:0:0:0:
69,293,95399,2,0,P|94:313|140:318,1,74.9999999999999,0|10,1:2|0:0,0:0:0:0:
192,269,96031,6,0,B|172:190|235:213|208:110,2,150,2|0|0,1:2|1:2|1:2,0:0:0:0:
313,356,97925,2,0,L|433:333,1,112.5,2|6,1:2|0:0,0:0:0:0:
478,236,98873,5,10,0:0:0:0:
451,165,99188,1,2,1:2:0:0:
377,148,99504,1,10,0:0:0:0:
315,190,99820,1,4,0:0:0:0:
102,262,100767,1,8,0:0:0:0:
55,203,101083,6,0,P|33:149|72:60,1,150,6|2,0:0|0:0,0:0:0:0:
128,27,102031,1,10,1:2:0:0:
198,52,102346,2,0,L|316:38,1,112.5,2|2,1:2|1:2,0:0:0:0:
416,73,103294,1,8,1:2:0:0:
362,125,103609,6,0,P|350:180|340:239,1,112.5,2|2,1:2|1:2,0:0:0:0:
437,292,104557,1,8,1:2:0:0:
387,348,104873,2,0,B|304:333|325:384|241:371,1,150,2|10,1:2|1:2,0:0:0:0:
143,258,106136,6,0,B|122:219|122:219|152:141,1,112.5,6|2,0:0|1:2,0:0:0:0:
181,88,106925,1,0,1:2:0:0:
254,73,107241,2,0,P|333:83|362:156,1,150,2|2,1:2|1:2,0:0:0:0:
412,241,108346,1,10,0:0:0:0:
473,197,108662,6,0,L|490:77,1,112.5,2|2,1:2|1:2,0:0:0:0:
438,29,109452,1,2,0:0:0:0:
329,59,109925,2,0,B|288:71|288:71|217:48,1,112.5,6|0,1:2|1:2,0:0:0:0:
115,12,110873,1,0,1:2:0:0:
52,53,111188,6,0,P|27:105|62:191,1,150,6|2,0:0|0:0,0:0:0:0:
118,231,112136,1,10,1:2:0:0:
187,203,112451,2,0,L|203:331,1,112.5,2|2,1:2|1:2,0:0:0:0:
302,363,113399,1,8,1:2:0:0:
364,320,113715,6,0,P|411:336|487:348,1,112.5,2|2,1:2|1:2,0:0:0:0:
498,237,114662,1,8,1:2:0:0:
443,185,114978,2,0,B|360:170|381:221|297:208,1,150,2|10,1:2|1:2,0:0:0:0:
233,73,116241,6,0,L|121:55,1,112.5,6|2,0:0|1:2,0:0:0:0:
53,85,117030,1,0,1:2:0:0:
16,150,117346,2,0,L|39:309,1,150,2|2,1:2|1:2,0:0:0:0:
135,354,118451,1,10,0:0:0:0:
189,302,118767,6,0,L|206:182,1,112.5,2|2,1:2|1:2,0:0:0:0:
163,127,119557,1,2,0:0:0:0:
234,39,120031,2,0,L|320:32,1,74.9999999999999,6|0,1:2|1:2,0:0:0:0:
383,31,120662,1,8,1:2:0:0:
446,71,120978,1,0,1:2:0:0:
474,140,121294,6,0,P|486:208|448:281,1,150,6|6,0:0|1:2,0:0:0:0:
315,342,122557,2,0,P|240:329|168:317,1,150,6|6,1:2|1:2,0:0:0:0:
46,227,123820,2,0,P|119:214|193:201,1,150,6|6,1:2|1:2,0:0:0:0:
322,125,125083,6,0,P|341:60|271:9,1,150,2|10,1:2|1:2,0:0:0:0:
150,6,126346,6,0,L|143:97,1,74.9999999999999,6|2,0:0|1:2,0:0:0:0:
87,129,126978,2,0,L|80:220,1,74.9999999999999,2|2,1:2|1:2,0:0:0:0:
37,264,127609,2,0,L|195:240,1,150,2|2,1:2|1:2,0:0:0:0:
251,277,128557,1,2,1:2:0:0:
304,329,128873,6,0,L|378:342,1,74.9999999999999,2|2,1:2|1:2,0:0:0:0:
437,296,129504,2,0,L|427:209,1,74.9999999999999,2|2,1:2|1:2,0:0:0:0:
419,146,130136,1,2,1:2:0:0:
361,97,130452,1,2,1:2:0:0:
292,126,130767,2,0,L|217:113,1,74.9999999999999,2|14,1:2|1:2,0:0:0:0:
178,48,131399,6,0,P|123:58|79:138,1,150,4|2,0:0|1:2,0:0:0:0:
94,208,132347,1,10,0:0:0:0:
168,203,132662,2,0,P|222:213|283:230,1,112.5,2|2,1:2|1:2,0:0:0:0:
364,155,133610,1,8,0:0:0:0:
428,193,133925,6,0,P|419:244|409:307,1,112.5,2|2,0:0|0:0,0:0:0:0:
312,361,134873,1,8,0:0:0:0:
241,334,135188,1,6,0:0:0:0:
185,38,136452,6,0,B|271:18|240:78|330:57,1,150,6|10,0:0|0:0,0:0:0:0:
469,6,137715,2,0,L|441:161,1,150,2|10,1:2|0:0,0:0:0:0:
390,207,138662,1,2,0:0:0:0:
321,176,138978,6,0,P|243:172|208:228,1,150,6|8,1:2|0:0,0:0:0:0:
99,330,140241,2,0,L|86:244,1,74.9999999999999,2|2,1:2|1:2,0:0:0:0:
43,194,140873,2,0,L|30:108,1,74.9999999999999,10|2,0:0|0:0,0:0:0:0:
52,47,141504,5,6,0:0:0:0:
256,192,141662,12,0,150978,0:0:0:0:
