osu file format v14

[General]
AudioFilename: audio.mp3
AudioLeadIn: 0
PreviewTime: 25283
Countdown: 0
SampleSet: Soft
StackLeniency: 1
Mode: 0
LetterboxInBreaks: 0
WidescreenStoryboard: 1

[Editor]
Bookmarks: 304,12355,19777,67807,121454,144043
DistanceSpacing: 1.3
BeatDivisor: 4
GridSize: 4
TimelineZoom: 2.1

[Metadata]
Title:Say Less
TitleUnicode:Say Less
Artist:Origami Angel
ArtistUnicode:Origami Angel
Creator:Rektygon
Version:Normal
Source:
Tags:indie rock english punk emo alternative somewhere city fsjallink fa featured artist stacker
BeatmapID:4074102
BeatmapSetID:1772140

[Difficulty]
HPDrainRate:4
CircleSize:3
OverallDifficulty:4
ApproachRate:5
SliderMultiplier:1.4
SliderTickRate:1

[Events]
//Background and Video events
0,0,"alena-aenami-atlast2k2.jpg",0,0
//Break Periods
//Storyboard Layer 0 (Background)
//Storyboard Layer 1 (Fail)
//Storyboard Layer 2 (Pass)
//Storyboard Layer 3 (Foreground)
//Storyboard Layer 4 (Overlay)
//Storyboard Sound Samples

[TimingPoints]
304,390.879478827362,4,2,1,35,1,0
1867,374.414976599064,4,2,1,35,1,0
3364,375,4,2,1,35,1,0
4864,363.636363636364,4,2,1,35,1,0
5954,387.096774193548,4,2,1,35,1,0
6341,375,4,2,1,35,1,0
9341,368.098159509202,4,2,1,35,1,0
9709,428.571428571429,4,2,1,35,1,0
9923,315.789473684211,4,2,1,35,1,0
10396,370.37037037037,4,2,1,35,1,0
10766,397.350993377483,4,2,1,35,1,0
12355,357.142857142857,4,2,1,35,1,0
13069,384.615384615385,4,2,1,35,1,0
13838,434.782608695652,4,2,1,35,1,0
14707,319.148936170213,4,2,1,35,1,0
15345,363.636363636364,4,2,1,35,1,0
16799,368.098159509202,4,2,1,35,1,0
19375,402.684563758389,4,2,1,35,1,0
19777,315.789473684211,4,2,1,40,1,0
20092,382.165605095541,4,2,1,40,1,0
21238,327.868852459016,4,2,1,40,1,0
21565,461.538461538462,4,2,1,40,1,0
21795,346.820809248555,4,2,1,40,1,0
22488,359.281437125748,4,2,1,40,1,0
23206,338.983050847458,4,2,1,40,1,0
23714,340.909090909091,4,2,1,40,1,0
24054,352.941176470588,4,2,1,60,1,0
24054,-100,4,2,1,60,0,0
25112,343.839541547278,4,2,1,50,1,0
25455,352.941176470588,4,2,1,50,1,0
40543,-100,4,2,1,25,0,0
40719,-100,4,2,1,50,0,0
40807,-100,4,2,1,25,0,0
40984,-100,4,2,1,35,0,0
42043,-100,4,2,1,50,0,0
48043,-90.9090909090909,4,2,1,75,0,1
67807,-100,4,2,1,60,0,0
79278,-100,4,2,1,50,0,0
91102,352.941176470588,4,2,1,50,1,0
91102,-100,4,2,1,50,0,0
100278,352.941176470588,4,2,1,50,1,0
101689,-90.9090909090909,4,2,1,75,0,1
116690,-90.9090909090909,4,2,1,45,0,1
117043,-90.9090909090909,4,2,1,75,0,1
120219,-90.9090909090909,4,2,1,25,0,1
120749,-90.9090909090909,4,2,1,75,0,1
121454,-100,4,2,1,60,0,0
136984,-100,4,2,1,35,0,0
138043,-100,4,2,1,60,0,0
144043,-100,4,2,1,5,0,0

[Colours]
Combo1 : 255,228,168
Combo2 : 255,174,255
Combo3 : 125,184,255
Combo4 : 249,142,158

[HitObjects]
256,308,24054,5,6,3:2:0:0:
93,58,25455,5,6,3:2:0:0:
188,156,25807,1,8,0:0:0:0:
289,68,26160,1,0,0:0:0:0:
289,68,26337,2,0,P|340:89|358:135,2,105,2|2|2,3:2|3:2|3:2,0:0:0:0:
273,186,27219,6,0,P|330:170|415:164,1,140,8|0,0:0|0:0,0:0:0:0:
442,200,27749,2,0,P|447:252|466:305,2,105,2|2|2,3:2|3:2|3:2,0:0:0:0:
336,268,28631,5,8,0:0:0:0:
235,208,28984,1,0,0:0:0:0:
235,208,29160,2,0,P|201:252|151:285,2,105,2|2|2,3:2|3:2|2:3,0:0:0:0:
277,94,30043,6,0,P|286:54|304:10,1,70,8|4,3:0|3:0,0:0:0:0:
345,1,30396,2,0,P|377:13|412:20,1,70,8|4,3:0|3:0,0:0:0:0:
429,81,30749,1,8,0:0:0:0:
450,205,31102,6,0,P|420:275|357:291,1,140,6|8,3:2|0:0,0:0:0:0:
255,238,31807,1,0,0:0:0:0:
255,238,31984,2,0,P|225:187|168:191,2,105,2|2|2,3:2|3:2|3:2,0:0:0:0:
193,333,32866,6,0,P|127:305|44:289,1,140,8|0,0:0|0:0,0:0:0:0:
69,241,33396,2,0,P|102:204|160:213,2,105,2|2|2,3:2|3:2|3:2,0:0:0:0:
4,132,34278,5,8,0:0:0:0:
125,71,34631,1,0,0:0:0:0:
125,71,34807,2,0,P|104:115|86:174,2,105,2|2|2,3:2|3:2|3:2,0:0:0:0:
235,162,35690,5,8,0:0:0:0:
235,162,35866,1,8,3:0:0:0:
235,162,36043,1,8,0:0:0:0:
307,64,36396,1,8,0:0:0:0:
398,139,36749,6,0,B|443:163|443:163|421:255,1,140,6|8,3:2|0:0,0:0:0:0:
333,337,37455,1,0,0:0:0:0:
333,337,37631,2,0,P|379:357|444:375,2,105,2|2|2,3:2|3:2|3:2,0:0:0:0:
318,206,38513,6,0,P|309:145|233:121,1,140,8|0,0:0|0:0,0:0:0:0:
202,155,39043,2,0,P|220:203|232:269,2,105,2|2|2,3:2|3:2|3:2,0:0:0:0:
151,51,39925,5,8,0:0:0:0:
42,94,40278,1,0,0:0:0:0:
42,94,40455,2,0,P|63:152|124:167,2,105,2|2|2,3:2|3:2|0:0,0:0:0:0:
176,132,41337,6,0,P|184:170|166:222,1,70,2|2,0:0|0:0,0:0:0:0:
143,240,41690,2,0,P|135:284|146:313,1,70,2|2,0:0|0:0,0:0:0:0:
182,341,42043,1,8,0:0:0:0:
269,257,42396,6,0,P|331:280|339:347,1,140,2|8,3:2|0:0,0:0:0:0:
444,278,43102,1,0,0:0:0:0:
444,278,43278,2,0,P|457:218|476:169,2,105,2|2|2,3:2|3:2|3:2,0:0:0:0:
321,253,44160,6,0,P|259:220|246:139,1,140,8|0,0:0|0:0,0:0:0:0:
201,120,44690,2,0,P|159:124|96:146,2,105,2|2|6,3:2|3:2|3:2,0:0:0:0:
268,31,45572,6,0,P|285:66|326:72,1,70,8|8,0:0|0:0,0:0:0:0:
361,47,45925,1,6,3:2:0:0:
465,36,46278,2,0,P|504:71|507:96,1,70,8|8,0:0|0:0,0:0:0:0:
485,131,46631,1,6,3:2:0:0:
386,156,46984,1,2,0:0:0:0:
439,251,47337,1,2,0:0:0:0:
355,308,47690,2,0,P|323:289|311:246,1,70,10|2,3:2|0:0,0:0:0:0:
326,214,48043,6,0,P|253:224|160:233,1,154.000004699707,6|10,3:2|0:0,0:0:0:0:
67,183,48749,2,0,P|32:151|33:98,1,77.0000023498536,0|0,3:0|3:0,0:0:0:0:
58,85,49102,1,8,0:0:0:0:
58,85,49278,2,0,P|140:108|210:119,1,154.000004699707,4|0,3:2|3:0,0:0:0:0:
241,96,49807,1,8,0:0:0:0:
328,12,50160,2,0,P|334:46|346:98,1,77.0000023498536,2|2,3:2|3:2,0:0:0:0:
355,123,50513,2,0,P|364:165|371:212,1,77.0000023498536,10|2,0:0|3:2,0:0:0:0:
379,239,50866,6,0,P|435:262|507:189,1,154.000004699707,2|10,3:2|0:0,0:0:0:0:
486,94,51572,2,0,P|461:75|404:77,1,77.0000023498536,0|0,3:0|3:0,0:0:0:0:
384,100,51925,1,8,0:0:0:0:
384,100,52102,2,0,P|359:133|243:132,1,154.000004699707,0|0,3:2|3:0,0:0:0:0:
221,108,52631,1,8,0:0:0:0:
208,217,52984,2,0,P|217:246|229:295,2,77.0000023498536,2|2|10,3:2|3:2|0:0,0:0:0:0:
94,173,53690,6,0,B|15:160|15:160|-4:74,2,154.000004699707,6|10|0,3:2|0:0|3:0,0:0:0:0:
132,144,54572,2,0,B|141:127|141:127|207:107,1,77.0000023498536,2|8,3:2|0:0,0:0:0:0:
239,137,54925,1,6,3:2:0:0:
324,68,55278,5,0,3:0:0:0:
324,68,55455,1,8,0:0:0:0:
419,121,55807,2,0,P|456:140|474:189,1,77.0000023498536,2|2,3:2|3:2,0:0:0:0:
506,191,56160,2,0,P|507:231|467:276,1,77.0000023498536,10|2,0:0|3:2,0:0:0:0:
489,302,56513,6,0,P|428:276|334:259,1,154.000004699707,2|10,3:2|0:0,0:0:0:0:
245,309,57219,2,0,P|229:348|187:362,1,77.0000023498536,2|2,3:2|3:2,0:0:0:0:
154,350,57572,1,8,0:0:0:0:
154,350,57749,2,0,P|138:268|107:198,1,154.000004699707,2|0,3:2|3:0,0:0:0:0:
103,156,58278,1,8,0:0:0:0:
223,156,58631,2,0,P|237:187|271:229,1,77.0000023498536,2|2,3:2|3:2,0:0:0:0:
313,242,58984,2,0,P|350:216|392:201,1,77.0000023498536,10|2,0:0|3:2,0:0:0:0:
430,220,59337,6,0,P|474:180|436:80,1,154.000004699707,6|10,3:2|0:0,0:0:0:0:
361,62,60043,2,0,P|342:95|282:107,1,77.0000023498536,0|0,3:0|3:0,0:0:0:0:
270,98,60396,1,8,0:0:0:0:
270,98,60572,2,0,P|220:45|131:64,1,154.000004699707,4|0,3:2|3:0,0:0:0:0:
119,94,61102,1,8,0:0:0:0:
79,197,61455,6,0,P|69:170|37:121,2,77.0000023498536,2|0|10,3:2|3:0|0:2,0:0:0:0:
77,259,61984,1,0,3:0:0:0:
77,259,62160,6,0,P|146:234|225:194,1,154.000004699707,6|10,3:2|0:0,0:0:0:0:
245,231,62690,2,0,P|314:251|396:290,1,154.000004699707,2|2,3:0|3:2,0:0:0:0:
422,257,63219,1,10,0:0:0:0:
422,257,63396,2,0,P|399:167|333:163,2,154.000004699707,2|2|2,3:2|3:2|3:2,0:0:0:0:
358,357,64455,1,2,3:2:0:0:
358,357,64631,2,0,P|318:342|260:331,1,77.0000023498536,10|2,0:0|3:2,0:0:0:0:
244,360,64984,6,0,P|239:284|219:196,1,154.000004699707,2|10,3:2|0:0,0:0:0:0:
250,165,65513,2,0,P|326:160|413:141,1,154.000004699707,2|2,3:2|3:0,0:0:0:0:
431,94,66043,1,10,0:2:0:0:
431,94,66219,5,6,3:2:0:0:
352,24,66573,1,2,3:2:0:0:
296,120,66925,1,2,0:0:0:0:
236,24,67278,1,2,3:0:0:0:
176,128,67631,1,2,3:2:0:0:
112,232,67984,6,0,P|92:272|108:308,2,70,0|8|0,0:0|0:0|3:0,0:0:0:0:
166,222,68513,2,0,P|197:237|233:242,1,70,0|0,3:0|3:0,0:0:0:0:
282,218,68866,1,8,0:0:0:0:
476,361,69396,5,8,0:0:0:0:
476,361,69572,2,0,P|481:326|492:284,1,70,8|0,0:0|0:0,0:0:0:0:
381,219,70102,1,8,0:0:0:0:
381,219,70278,2,0,P|390:254|395:287,1,70,8|0,0:0|0:0,0:0:0:0:
352,328,70631,6,0,P|322:332|286:304,1,70,0|2,3:0|0:0,0:0:0:0:
272,259,70984,1,8,0:0:0:0:
293,150,71337,2,0,P|268:116|223:116,1,70,0|2,3:0|0:0,0:0:0:0:
189,126,71690,1,8,0:0:0:0:
111,221,72043,6,0,P|111:253|119:290,1,70,0|2,3:0|0:0,0:0:0:0:
136,340,72396,1,8,0:0:0:0:
247,371,72749,2,0,P|260:334|283:296,1,70,0|2,3:0|0:0,0:0:0:0:
313,263,73102,1,8,0:0:0:0:
313,263,73278,1,6,0:0:0:0:
423,295,73631,5,0,3:0:0:0:
447,240,73807,2,0,P|436:206|395:186,1,70,8|0,0:0|3:0,0:0:0:0:
353,180,74160,2,0,P|328:153|331:114,1,70,0|0,3:0|3:0,0:0:0:0:
367,80,74513,1,8,0:0:0:0:
202,22,75043,5,8,0:0:0:0:
202,22,75219,2,0,B|236:31|236:31|247:66,1,70,8|0,0:0|0:0,0:0:0:0:
171,154,75749,1,8,0:0:0:0:
171,154,75925,2,0,B|130:145|130:145|110:98,1,70,8|0,0:0|0:0,0:0:0:0:
59,111,76278,6,0,P|24:143|36:190,1,70,0|2,3:0|0:0,0:0:0:0:
48,215,76631,1,8,0:0:0:0:
148,285,76984,2,0,P|161:255|200:244,1,70,0|2,3:0|0:0,0:0:0:0:
250,260,77337,1,8,0:0:0:0:
319,362,77690,6,0,P|332:328|336:280,1,70,0|2,3:0|0:0,0:0:0:0:
378,255,78043,1,8,0:0:0:0:
471,170,78396,2,0,P|487:118|510:83,2,70,0|2|8,3:0|0:0|0:0,0:0:0:0:
459,225,78925,1,6,0:0:0:0:
367,139,79278,6,0,P|340:117|300:117,1,70,2|10,3:2|0:0,0:0:0:0:
261,152,79631,1,2,3:2:0:0:
261,152,79807,2,0,P|259:183|246:234,2,70,2|2|8,3:2|3:2|0:0,0:0:0:0:
135,58,80690,5,10,0:2:0:0:
135,58,80866,1,10,0:2:0:0:
45,203,81396,1,8,0:2:0:0:
45,203,81572,2,0,P|81:190|127:183,1,70,10|0,0:2|0:0,0:0:0:0:
161,199,81925,6,0,P|181:231|163:278,1,70,2|2,3:2|3:2,0:0:0:0:
128,303,82278,2,0,P|121:334|136:367,1,70,10|2,0:2|0:2,0:0:0:0:
195,383,82631,2,0,B|256:365|256:365|262:369|262:369|352:343,1,140,2|10,3:2|0:0,0:0:0:0:
415,265,83337,6,0,P|426:227|429:185,1,70,2|2,3:0|3:0,0:0:0:0:
407,148,83690,2,0,P|398:112|396:65,1,70,10|2,0:0|0:0,0:0:0:0:
418,33,84043,1,2,3:0:0:0:
314,98,84396,1,10,0:0:0:0:
234,7,84749,6,0,P|194:8|166:47,1,70,2|2,0:0|3:2,0:0:0:0:
158,72,85102,1,10,0:0:0:0:
158,72,85278,2,0,P|120:60|75:56,2,70,2|2|2,0:0|3:2|3:2,0:0:0:0:
182,122,85807,1,10,0:0:0:0:
113,234,86337,5,10,0:0:0:0:
113,234,86513,1,10,0:0:0:0:
222,311,87043,1,10,0:0:0:0:
222,311,87219,2,0,B|249:291|249:291|249:255,1,70,10|0,0:0|0:0,0:0:0:0:
214,209,87572,6,0,P|208:171|198:135,1,70,2|2,3:2|3:2,0:0:0:0:
227,87,87925,2,0,P|263:80|313:65,1,70,10|2,0:2|0:2,0:0:0:0:
328,23,88278,2,0,P|367:17|403:44,2,70,2|2|10,3:2|3:2|0:2,0:0:0:0:
341,145,88984,6,0,P|369:120|420:125,1,70,2|2,3:2|3:2,0:0:0:0:
444,168,89337,1,10,0:2:0:0:
444,168,89513,1,2,0:2:0:0:
444,168,89690,2,0,P|431:233|432:317,1,140,2|10,3:2|3:2,0:0:0:0:
305,354,90396,6,0,P|284:326|250:316,1,70,8|8,0:0|0:0,0:0:0:0:
202,337,90749,1,8,0:0:0:0:
202,337,90925,6,0,B|162:332|151:302|157:280|159:278|162:274|156:247|141:229|114:229,1,140,6|0,3:2|3:0,0:0:0:0:
85,224,91455,1,10,0:0:0:0:
55,116,91807,2,0,P|113:138|196:155,1,140,2|10,3:2|0:0,0:0:0:0:
178,269,92513,1,2,3:2:0:0:
291,259,92866,1,10,0:0:0:0:
382,318,93219,2,0,P|452:313|481:255,1,140,2|8,3:2|0:0,0:0:0:0:
452,215,93749,6,2,P|434:178|427:127,1,70,2|0,3:2|0:0,0:0:0:0:
379,117,94102,1,2,3:2:0:0:
379,117,94278,2,0,P|340:119|313:147,1,70,10|2,0:0|0:0,0:0:0:0:
296,185,94631,1,2,3:2:0:0:
200,116,94984,5,10,0:0:0:0:
200,116,95160,2,0,B|136:96|136:96|130:86|130:86|49:61,2,140,2|2|0,3:2|3:2|3:0,0:0:0:0:
220,163,96043,1,6,3:2:0:0:
142,262,96396,1,8,0:0:0:0:
261,319,96749,6,0,P|298:326|335:346,2,70,2|2|8,3:2|3:2|0:0,0:0:0:0:
221,278,97278,2,0,P|231:204|305:180,2,140,2|2|2,3:2|3:2|0:0,0:0:0:0:
126,347,98337,1,2,3:2:0:0:
55,258,98690,1,2,3:2:0:0:
211,126,99219,6,0,P|216:96|192:61,1,70,10|2,0:0|0:0,0:0:0:0:
164,23,99572,2,0,P|196:33|232:34,1,70,2|0,3:2|3:2,0:0:0:0:
283,23,99925,1,10,0:0:0:0:
369,79,100278,1,2,3:2:0:0:
327,275,100984,2,0,B|325:312|325:312|363:344,2,70,8|8|8,0:0|0:0|0:0,0:0:0:0:
234,234,101690,6,0,P|254:144|332:129,1,154.000004699707,6|10,3:2|0:2,0:0:0:0:
410,158,102396,2,0,P|437:192|456:226,1,77.0000023498536,0|0,3:0|3:0,0:0:0:0:
474,267,102749,1,8,0:0:0:0:
474,267,102925,2,0,P|424:329|341:309,1,154.000004699707,4|0,3:2|3:0,0:0:0:0:
318,286,103454,1,8,0:0:0:0:
192,255,103807,2,0,P|180:214|144:197,1,77.0000023498536,2|2,3:2|3:2,0:0:0:0:
98,209,104160,2,0,P|56:174|61:132,1,77.0000023498536,10|2,0:0|3:2,0:0:0:0:
63,103,104513,6,0,P|120:89|205:37,1,154.000004699707,2|10,3:2|0:0,0:0:0:0:
275,117,105219,2,0,P|284:158|260:191,1,77.0000023498536,0|0,3:2|3:2,0:0:0:0:
219,208,105572,1,8,0:0:0:0:
219,208,105749,2,0,P|194:241|233:345,1,154.000004699707,0|0,3:0|3:0,0:0:0:0:
280,348,106278,1,8,0:0:0:0:
367,290,106631,2,0,P|404:296|441:312,2,77.0000023498536,2|2|10,3:2|3:2|0:0,0:0:0:0:
315,188,107337,6,0,B|285:90|285:90|319:52,2,154.000004699707,4|10|0,3:2|0:2|3:2,0:0:0:0:
290,235,108219,2,0,B|273:268|273:268|226:269,1,77.0000023498536,2|8,3:2|0:0,0:0:0:0:
185,248,108572,1,2,3:2:0:0:
121,134,108925,5,0,3:2:0:0:
121,134,109102,1,8,0:0:0:0:
215,41,109454,2,0,P|237:77|270:109,1,77.0000023498536,2|2,3:2|3:2,0:0:0:0:
294,142,109807,2,0,P|322:167|346:203,1,77.0000023498536,10|2,0:2|3:2,0:0:0:0:
369,248,110160,6,0,P|417:199|499:238,1,154.000004699707,2|10,3:2|0:0,0:0:0:0:
439,359,110866,2,0,P|395:342|349:338,1,77.0000023498536,2|2,3:2|3:2,0:0:0:0:
314,345,111219,1,8,0:0:0:0:
314,345,111396,2,0,P|233:313|237:243,1,154.000004699707,2|0,3:2|3:0,0:0:0:0:
189,226,111925,1,8,0:0:0:0:
83,244,112278,6,0,P|70:207|43:179,1,77.0000023498536,10|10,0:0|0:0,0:0:0:0:
38,127,112631,2,0,P|70:98|117:86,1,77.0000023498536,10|10,0:0|0:0,0:0:0:0:
148,113,112984,6,0,P|212:87|299:65,1,154.000004699707,6|2,3:2|3:2,0:0:0:0:
415,119,113690,1,8,0:0:0:0:
415,119,113866,2,0,P|424:160|446:207,1,77.0000023498536,0|0,3:0|0:0,0:0:0:0:
456,244,114219,1,0,3:0:0:0:
456,244,114396,2,0,P|396:223|300:202,1,154.000004699707,0|0,3:0|3:0,0:0:0:0:
179,176,115102,5,10,0:0:0:0:
56,184,115455,2,0,P|36:221|46:269,1,77.0000023498536,10|8,0:0|0:0,0:0:0:0:
72,295,115807,6,0,P|141:308|223:354,1,154.000004699707,6|2,3:2|0:0,0:0:0:0:
252,312,116337,2,0,P|291:294|339:318,1,77.0000023498536,2|8,3:2|0:0,0:0:0:0:
365,336,116690,1,10,0:0:0:0:
365,336,116866,1,10,0:0:0:0:
365,336,117043,2,0,P|360:243|375:181,2,154.000004699707,2|2|2,0:0|0:0|3:2,0:0:0:0:
246,275,118102,2,0,P|212:291|196:338,2,77.0000023498536,2|10|2,3:2|0:0|3:2,0:0:0:0:
272,226,118631,6,0,P|289:158|228:105,1,154.000004699707,2|2,3:2|0:0,0:0:0:0:
267,58,119160,1,2,3:0:0:0:
267,58,119337,2,0,P|304:38|346:50,1,77.0000023498536,8|0,0:0|0:0,0:0:0:0:
388,21,119690,2,0,P|424:43|439:90,1,77.0000023498536,2|2,0:2|3:0,0:0:0:0:
486,93,120043,1,4,0:0:0:0:
345,199,120749,6,0,P|320:147|280:82,2,102.666669799805,10|10|6,0:0|3:0|3:0,0:0:0:0:
392,232,121454,6,0,B|331:246|331:246|326:258|326:258|246:278,1,140,6|0,3:2|0:0,0:0:0:0:
166,213,122160,1,8,0:0:0:0:
166,213,122337,2,0,P|180:173|190:117,1,70,6|0,3:2|0:0,0:0:0:0:
221,117,122690,1,6,3:2:0:0:
210,66,122866,6,0,P|154:47|98:98,1,140,6|0,3:2|0:0,0:0:0:0:
56,116,123396,2,0,P|66:145|42:185,1,70,0|8,3:0|0:0,0:0:0:0:
4,196,123749,1,6,3:2:0:0:
65,308,124102,5,6,3:2:0:0:
65,308,124278,2,0,P|114:314|219:345,1,140,6|0,3:2|0:0,0:0:0:0:
221,379,124807,2,0,P|235:347|239:311,1,70,0|8,3:0|0:0,0:0:0:0:
247,263,125160,1,6,3:2:0:0:
247,263,125337,2,0,P|285:266|330:281,1,70,0|6,0:0|3:2,0:0:0:0:
365,241,125690,6,0,B|392:260|392:260|438:258,2,70,6|0|0,3:2|0:0|0:0,0:0:0:0:
361,185,126219,1,0,3:0:0:0:
361,185,126396,1,8,0:0:0:0:
279,70,126749,5,8,3:0:0:0:
249,101,126925,1,8,3:0:0:0:
213,131,127102,2,0,P|140:163|60:184,1,140,6|0,3:2|0:0,0:0:0:0:
61,218,127631,2,0,P|89:234|105:282,1,70,0|8,3:0|0:0,0:0:0:0:
95,308,127984,1,6,3:2:0:0:
226,283,128337,5,6,3:2:0:0:
226,283,128513,2,0,P|212:197|210:127,1,140,6|0,3:2|0:0,0:0:0:0:
241,112,129043,2,0,P|250:146|277:167,1,70,0|8,3:0|0:0,0:0:0:0:
319,171,129396,1,6,3:2:0:0:
430,137,129749,5,6,3:2:0:0:
430,137,129925,2,0,P|455:72|398:6,1,140,6|0,3:2|0:0,0:0:0:0:
374,2,130455,2,0,P|339:20|291:33,1,70,0|8,3:0|0:0,0:0:0:0:
264,39,130807,1,6,3:2:0:0:
220,144,131160,5,6,3:2:0:0:
220,144,131337,2,0,P|217:182|246:222,1,70,2|2,0:0|0:0,0:0:0:0:
274,244,131690,2,0,P|277:255|240:317,1,70,2|2,0:0|0:0,0:0:0:0:
212,337,132043,6,0,P|262:360|300:394,2,93.3333333333333,8|8|8,0:0|0:0|0:0,0:0:0:0:
155,365,132749,6,0,B|86:369|86:369|51:280,1,140,6|0,3:2|0:0,0:0:0:0:
111,195,133455,1,8,0:0:0:0:
111,195,133631,2,0,P|121:157|103:123,1,70,6|0,3:2|0:0,0:0:0:0:
68,98,133984,1,6,3:2:0:0:
18,101,134160,6,0,B|88:85|88:85|86:73|86:73|160:52,1,140,6|0,3:2|0:0,0:0:0:0:
185,86,134690,1,0,3:0:0:0:
185,86,134866,2,0,P|221:96|257:111,1,70,8|6,0:0|3:2,0:0:0:0:
365,54,135396,5,6,3:2:0:0:
365,54,135572,2,0,P|412:93|388:185,1,140,6|0,3:2|0:0,0:0:0:0:
376,204,136102,2,0,P|334:193|299:189,1,70,0|8,3:0|0:0,0:0:0:0:
262,188,136455,1,6,3:2:0:0:
151,212,136807,5,6,3:2:0:0:
140,161,136984,1,2,0:0:0:0:
23,311,137690,1,2,0:0:0:0:
120,352,138043,2,0,P|144:322|195:326,1,70,8|8,0:0|0:0,0:0:0:0:
212,348,138396,6,0,P|273:318|349:301,1,140,6|0,3:2|0:0,0:0:0:0:
398,305,138925,1,0,3:0:0:0:
398,305,139102,2,0,P|417:262|405:216,1,70,8|6,0:0|3:2,0:0:0:0:
369,143,139631,5,6,3:2:0:0:
369,143,139807,2,0,P|306:202|255:194,1,140,6|0,3:2|0:0,0:0:0:0:
227,164,140337,2,0,P|194:180|143:187,1,70,0|8,3:0|0:0,0:0:0:0:
121,188,140690,1,6,3:2:0:0:
18,120,141043,5,6,3:2:0:0:
18,120,141219,2,0,B|-6:49|64:3|64:3|79:40|119:44,1,210,6|0,3:2|3:0,0:0:0:0:
167,36,141925,1,8,0:0:0:0:
167,36,142102,1,6,3:2:0:0:
291,50,142455,5,6,3:2:0:0:
291,50,142631,2,0,P|323:43|370:84,2,70,2|2|2,0:0|0:0|0:0,0:0:0:0:
269,102,143160,1,2,0:0:0:0:
269,102,143337,2,0,P|257:140|226:190,1,70,8|0,0:0|3:0,0:0:0:0:
268,211,143690,1,8,0:0:0:0:
256,263,143866,1,8,0:0:0:0:
