osu file format v14

[General]
AudioFilename: audio.mp3
AudioLeadIn: 0
PreviewTime: 25283
Countdown: 0
SampleSet: Soft
StackLeniency: 1
Mode: 0
LetterboxInBreaks: 0
WidescreenStoryboard: 1

[Editor]
Bookmarks: 304,12355,19777,25455,48043,67807,79102,90396,101690,121454,144043
DistanceSpacing: 2
BeatDivisor: 4
GridSize: 4
TimelineZoom: 3.599998

[Metadata]
Title:Say Less
TitleUnicode:Say Less
Artist:Origami Angel
ArtistUnicode:Origami Angel
Creator:Rektygon
Version:Collab Hard
Source:
Tags:indie rock english punk emo alternative somewhere city fsjallink fa featured artist stacker
BeatmapID:4080237
BeatmapSetID:1772140

[Difficulty]
HPDrainRate:5
CircleSize:4
OverallDifficulty:6
ApproachRate:7.5
SliderMultiplier:1.4
SliderTickRate:1

[Events]
//Background and Video events
0,0,"alena-aenami-atlast2k2.jpg",0,0
//Break Periods
//Storyboard Layer 0 (Background)
//Storyboard Layer 1 (Fail)
//Storyboard Layer 2 (Pass)
//Storyboard Layer 3 (Foreground)
//Storyboard Layer 4 (Overlay)
//Storyboard Sound Samples

[TimingPoints]
304,390.879478827362,4,2,1,35,1,0
1867,374.414976599064,4,2,1,35,1,0
3364,375,4,2,1,35,1,0
4864,363.636363636364,4,2,1,35,1,0
5954,387.096774193548,4,2,1,35,1,0
6341,375,4,2,1,35,1,0
9341,368.098159509202,4,2,1,35,1,0
9709,428.571428571429,4,2,1,35,1,0
9923,315.789473684211,4,2,1,35,1,0
10396,370.37037037037,4,2,1,35,1,0
10766,397.350993377483,4,2,1,35,1,0
12355,357.142857142857,4,2,1,35,1,0
13069,384.615384615385,4,2,1,35,1,0
13838,434.782608695652,4,2,1,35,1,0
14707,319.148936170213,4,2,1,35,1,0
15345,363.636363636364,4,2,1,35,1,0
16799,368.098159509202,4,2,1,35,1,0
19375,402.684563758389,4,2,1,35,1,0
19777,315.789473684211,4,2,1,40,1,0
20092,382.165605095541,4,2,1,40,1,0
21238,327.868852459016,4,2,1,40,1,0
21565,461.538461538462,4,2,1,40,1,0
21795,346.820809248555,4,2,1,40,1,0
22488,359.281437125748,4,2,1,40,1,0
23206,338.983050847458,4,2,1,40,1,0
23714,340.909090909091,4,2,1,40,1,0
24054,352.941176470588,4,2,1,60,1,0
24054,-66.6666666666667,4,2,1,60,0,0
25112,343.839541547278,4,2,1,50,1,0
25455,352.941176470588,4,2,1,50,1,0
25455,-100,4,2,1,50,0,0
40543,-100,4,2,1,25,0,0
40719,-100,4,2,1,50,0,0
40807,-100,4,2,1,25,0,0
40984,-100,4,2,1,35,0,0
42043,-100,4,2,1,50,0,0
47337,-166.666666666667,4,2,1,50,0,0
48043,-83.3333333333333,4,2,1,75,0,0
67807,-83.3333333333333,4,2,1,60,0,0
68160,-100,4,2,1,60,0,0
79278,-100,4,2,1,50,0,0
91102,352.941176470588,4,2,1,50,1,0
91102,-100,4,2,1,50,0,0
100278,352.941176470588,4,2,1,50,1,0
101689,-83.3333333333333,4,2,1,75,0,0
116690,-83.3333333333333,4,2,1,45,0,0
117043,-83.3333333333333,4,2,1,75,0,0
120219,-83.3333333333333,4,2,1,25,0,0
120749,-71.4285714285714,4,2,1,75,0,0
121454,-100,4,2,1,60,0,0
132043,-166.666666666667,4,2,1,60,0,0
132749,-100,4,2,1,60,0,0
136984,-100,4,2,1,35,0,0
138043,-100,4,2,1,60,0,0
144043,-100,4,2,1,5,0,0

[Colours]
Combo1 : 255,228,168
Combo2 : 255,174,255
Combo3 : 125,184,255
Combo4 : 249,142,158

[HitObjects]
256,192,24054,5,6,3:2:0:0:
464,340,25283,1,8,0:0:0:0:
464,340,25369,1,8,0:0:0:0:
464,340,25455,6,0,P|387:319|304:317,1,140,6|8,3:2|0:0,0:0:0:0:
173,247,26160,1,0,0:0:0:0:
173,247,26337,2,0,P|146:268|115:331,2,105,2|2|2,3:2|3:2|3:2,0:0:0:0:
309,147,27219,6,0,P|309:112|304:64,1,70,8|0,0:0|0:0,0:0:0:0:
223,60,27572,1,0,0:0:0:0:
223,60,27749,2,0,P|222:111|227:163,1,105,2|2,3:2|3:2,0:0:0:0:
293,272,28278,6,0,B|224:249|235:326|167:303,1,140,2|8,3:2|0:0,0:0:0:0:
85,328,28807,1,0,0:0:0:0:
60,246,28984,2,0,P|62:205|59:172,1,70,0|2,0:0|3:2,0:0:0:0:
102,57,29425,1,2,3:2:0:0:
183,152,29690,6,0,B|248:146|248:146|254:151|254:151|320:145,1,140,2|8,2:3|3:0,0:0:0:0:
385,198,30219,1,4,3:0:0:0:
461,165,30396,2,0,B|480:136|480:136|465:105,1,70,8|4,3:0|3:0,0:0:0:0:
409,41,30749,2,0,L|410:4,4,35,8|8|8|8|6,0:0|0:0|0:0|0:0|3:2,0:0:0:0:
331,190,31454,6,0,P|255:163|167:165,1,140,8|0,0:0|0:0,0:0:0:0:
137,221,31984,2,0,P|84:224|35:242,2,105,2|2|2,3:2|3:2|3:2,0:0:0:0:
236,356,32866,6,0,P|237:313|241:273,1,70,8|0,0:0|0:0,0:0:0:0:
300,227,33219,1,0,0:0:0:0:
300,227,33396,2,0,P|299:175|295:123,1,105,2|2,3:2|3:2,0:0:0:0:
247,5,33925,5,2,3:2:0:0:
117,111,34278,2,0,P|80:114|36:123,2,70,8|0|0,0:0|0:0|0:0,0:0:0:0:
190,152,34807,1,2,3:2:0:0:
304,98,35072,1,2,3:2:0:0:
426,126,35337,5,2,3:2:0:0:
395,291,35690,2,0,L|398:328,2,35,8|8|8,0:0|3:0|3:0,0:0:0:0:
479,286,36043,2,0,L|482:323,2,35,8|8|8,0:0|3:0|3:0,0:0:0:0:
474,202,36396,1,8,0:0:0:0:
390,207,36572,1,4,3:0:0:0:
390,207,36660,1,4,3:0:0:0:
390,207,36749,6,0,P|378:133|356:51,1,140,6|8,3:2|0:0,0:0:0:0:
211,144,37454,1,0,0:0:0:0:
211,144,37630,2,0,P|160:130|91:129,1,105,2|2,3:2|3:2,0:0:0:0:
2,196,38160,5,2,3:2:0:0:
144,285,38513,2,0,P|109:286|75:295,2,70,8|0|0,0:0|0:0|0:0,0:0:0:0:
209,230,39043,2,0,P|210:168|199:96,1,105,2|2,3:2|3:2,0:0:0:0:
288,31,39572,6,0,P|360:32|358:98,1,140,2|8,3:2|0:0,0:0:0:0:
419,153,40102,1,0,0:0:0:0:
419,153,40278,2,0,P|418:187|421:221,1,70,0|2,0:0|3:2,0:0:0:0:
413,348,40719,1,2,3:2:0:0:
287,339,40984,6,0,P|257:345|234:356,3,35,2|2|2|2,0:0|0:0|0:0|0:0,0:0:0:0:
214,325,41337,2,0,P|184:319|161:308,3,35,2|2|2|2,0:0|0:0|0:0|0:0,0:0:0:0:
141,339,41690,2,0,P|111:345|88:356,3,35,2|2|2|2,0:0|0:0|0:0|0:0,0:0:0:0:
68,325,42043,1,8,0:0:0:0:
108,251,42219,1,8,0:0:0:0:
108,251,42307,1,8,0:0:0:0:
108,251,42396,5,2,3:2:0:0:
39,97,42749,2,0,B|108:80|91:156|161:139,1,140,8|0,0:0|0:0,0:0:0:0:
241,169,43278,2,0,P|243:123|251:59,2,105,2|2|2,3:2|3:2|3:2,0:0:0:0:
393,97,44160,5,8,0:0:0:0:
465,249,44513,1,0,0:0:0:0:
465,249,44690,2,0,P|412:242|360:239,1,105,2|2,3:2|3:2,0:0:0:0:
236,217,45219,6,0,P|201:221|167:223,1,70,6|0,3:2|0:0,0:0:0:0:
109,285,45572,2,0,L|113:319,3,35,8|8|8|8,0:0|0:0|0:0|0:0,0:0:0:0:
82,252,45925,2,0,P|79:217|75:182,1,70,6|0,3:2|0:0,0:0:0:0:
51,101,46278,2,0,L|16:106,3,35,8|8|8|8,0:0|0:0|0:0|0:0,0:0:0:0:
83,74,46631,5,6,3:2:0:0:
83,74,46984,1,2,0:0:0:0:
208,122,47337,2,0,P|233:117|262:118,2,41.9999987182618,2|6|10,0:0|3:0|3:2,0:0:0:0:
141,153,47866,1,2,0:0:0:0:
202,196,48043,6,0,P|216:242|218:283,1,83.9999974365235,6|0,3:2|0:0,0:0:0:0:
202,360,48396,2,0,P|272:346|398:340,1,167.999994873047,10|0,0:0|3:0,0:0:0:0:
450,355,48925,1,0,3:0:0:0:
450,355,49102,1,8,0:0:0:0:
484,278,49278,6,0,B|511:198|511:198|443:141,1,167.999994873047,4|0,3:2|3:0,0:0:0:0:
411,67,49807,2,0,L|314:79,1,83.9999974365235,8|2,0:0|3:2,0:0:0:0:
249,45,50160,1,2,3:2:0:0:
216,123,50337,1,2,3:2:0:0:
294,155,50513,2,0,P|288:195|302:254,1,83.9999974365235,10|2,0:0|3:2,0:0:0:0:
395,315,50866,6,0,L|312:320,1,83.9999974365235,2|0,3:2|0:0,0:0:0:0:
229,336,51219,2,0,L|59:327,1,167.999994873047,10|0,0:0|3:0,0:0:0:0:
15,256,51749,1,0,3:0:0:0:
15,256,51925,1,8,0:0:0:0:
29,172,52102,5,0,3:2:0:0:
172,85,52454,2,0,P|171:41|167:2,2,83.9999974365235,0|8|2,3:0|0:0|0:2,0:0:0:0:
222,153,52984,2,0,P|221:197|217:236,1,83.9999974365235,2|2,3:2|3:2,0:0:0:0:
200,319,53337,1,10,0:0:0:0:
200,319,53513,1,2,3:2:0:0:
312,376,53690,6,0,P|333:337|392:342,1,83.9999974365235,6|0,3:2|0:0,0:0:0:0:
450,353,54043,2,0,P|444:254|444:149,1,167.999994873047,10|0,0:0|3:0,0:0:0:0:
408,108,54572,1,2,3:2:0:0:
362,178,54749,1,8,0:0:0:0:
310,72,54925,6,0,P|255:51|169:124,1,167.999994873047,6|0,3:2|3:0,0:0:0:0:
176,218,55454,2,0,P|239:199|279:192,1,83.9999974365235,8|0,0:0|0:0,0:0:0:0:
218,298,55807,2,0,P|155:317|115:324,1,83.9999974365235,2|2,3:2|3:2,0:0:0:0:
70,269,56160,1,10,0:0:0:0:
8,326,56337,1,2,3:2:0:0:
11,204,56513,6,0,P|16:142|10:49,1,125.999996154785,2|0,3:2|0:0,0:0:0:0:
13,78,56866,2,0,L|120:83,1,83.9999974365235,10|0,0:0|0:0,0:0:0:0:
179,103,57219,1,2,3:2:0:0:
139,177,57396,1,2,3:2:0:0:
193,240,57572,1,8,0:0:0:0:
277,146,57749,2,0,P|357:139|436:175,1,167.999994873047,2|0,3:2|3:0,0:0:0:0:
500,120,58278,1,8,0:0:0:0:
272,60,58631,6,0,P|207:72|153:78,1,83.9999974365235,2|2,3:2|3:2,0:0:0:0:
112,40,58984,1,10,0:0:0:0:
112,40,59160,1,2,3:2:0:0:
33,128,59337,2,0,P|39:186|42:246,1,83.9999974365235,6|0,3:2|0:0,0:0:0:0:
126,292,59690,2,0,P|198:272|306:257,1,167.999994873047,10|0,0:0|3:0,0:0:0:0:
343,192,60219,1,0,3:0:0:0:
267,154,60396,1,8,0:0:0:0:
337,60,60572,6,0,P|413:57|457:135,1,167.999994873047,4|0,3:2|3:0,0:0:0:0:
491,206,61102,2,0,P|486:272|486:312,1,83.9999974365235,8|0,0:0|0:0,0:0:0:0:
398,367,61454,2,0,P|406:292|407:236,1,125.999996154785,2|0,3:2|0:0,0:0:0:0:
407,241,61807,2,0,L|292:254,1,83.9999974365235,10|0,0:2|3:0,0:0:0:0:
232,163,62160,6,0,L|347:150,1,83.9999974365235,6|0,3:2|0:0,0:0:0:0:
372,91,62513,1,10,0:0:0:0:
267,35,62690,2,0,P|216:37|183:51,1,83.9999974365235,2|0,3:0|0:0,0:0:0:0:
134,115,63043,1,2,3:2:0:0:
134,115,63219,1,10,0:0:0:0:
65,19,63396,6,0,P|19:57|32:169,1,167.999994873047,2|2,3:2|3:2,0:0:0:0:
8,241,63925,1,8,0:2:0:0:
80,283,64102,2,0,P|145:267|187:263,1,83.9999974365235,2|0,3:2|0:0,0:0:0:0:
203,192,64454,1,2,3:2:0:0:
273,237,64631,1,10,0:0:0:0:
352,210,64807,1,2,3:2:0:0:
284,98,64984,6,0,P|186:111|96:133,1,167.999994873047,2|10,3:2|0:0,0:0:0:0:
208,24,65513,2,0,P|311:10|385:-3,1,167.999994873047,2|2,3:2|3:0,0:0:0:0:
483,64,66043,1,10,0:2:0:0:
413,110,66219,2,0,P|408:182|434:215,1,83.9999974365235,6|0,3:2|0:0,0:0:0:0:
473,247,66572,1,2,3:2:0:0:
473,247,66749,1,8,0:0:0:0:
379,284,66925,6,0,P|357:342|379:393,1,83.9999974365235,2|0,0:0|3:0,0:0:0:0:
306,229,67278,2,0,P|299:172|294:134,1,83.9999974365235,2|8,3:0|0:0,0:0:0:0:
282,62,67631,1,2,3:2:0:0:
178,96,67807,1,6,3:2:0:0:
214,207,67984,5,0,0:0:0:0:
214,207,68160,2,0,P|146:223|116:233,2,70,8|0|0,0:0|3:0|3:0,0:0:0:0:
296,187,68690,1,0,3:0:0:0:
280,286,68866,2,0,P|317:344|398:323,1,140,8|0,0:0|3:0,0:0:0:0:
457,355,69396,1,8,0:0:0:0:
429,239,69572,1,8,0:0:0:0:
235,94,70102,5,8,0:0:0:0:
269,207,70278,2,0,P|322:193|366:187,2,70,8|0|0,0:0|0:0|3:0,0:0:0:0:
218,274,70807,1,2,0:0:0:0:
218,274,70984,2,0,P|156:268|96:273,1,105,8|0,0:0|0:0,0:0:0:0:
113,270,71337,2,0,P|119:205|112:170,1,70,0|2,3:0|0:0,0:0:0:0:
24,116,71690,6,0,P|56:46|144:43,1,140,8|0,0:0|3:0,0:0:0:0:
203,118,72219,1,2,0:0:0:0:
254,184,72396,2,0,P|311:174|409:168,1,140,8|0,0:0|3:0,0:0:0:0:
370,86,72925,1,2,0:0:0:0:
331,11,73102,1,8,0:0:0:0:
414,11,73278,1,6,0:0:0:0:
407,178,73631,5,0,3:0:0:0:
407,178,73808,2,0,P|480:187|500:199,2,70,8|0|0,0:0|3:0|3:0,0:0:0:0:
333,219,74337,1,0,3:0:0:0:
401,308,74514,2,0,P|370:334|275:322,1,140,8|0,0:0|3:0,0:0:0:0:
209,360,75043,1,8,0:0:0:0:
99,314,75219,1,8,0:0:0:0:
32,91,75749,5,8,0:0:0:0:
142,137,75925,2,0,P|182:127|234:125,2,70,8|0|0,0:0|0:0|3:0,0:0:0:0:
70,180,76454,1,2,0:0:0:0:
70,180,76631,2,0,P|73:243|69:317,1,105,8|0,0:0|0:0,0:0:0:0:
71,284,76984,2,0,P|138:299|163:307,1,70,0|2,3:0|0:0,0:0:0:0:
246,219,77337,6,0,P|291:182|372:199,1,140,8|0,0:0|3:0,0:0:0:0:
419,128,77866,1,2,0:0:0:0:
490,214,78043,2,0,P|494:277|492:360,1,140,8|0,0:0|3:0,0:0:0:0:
399,290,78572,1,2,0:0:0:0:
333,342,78749,1,8,0:0:0:0:
275,280,78925,1,6,0:0:0:0:
80,358,79278,5,2,3:2:0:0:
35,295,79454,2,0,P|32:257|26:218,1,70,10|2,0:0|3:2,0:0:0:0:
112,288,79807,2,0,P|107:253|104:218,1,70,2|2,3:2|3:2,0:0:0:0:
56,124,80160,2,0,B|122:97|116:175|183:148,1,140,8|0,0:0|3:0,0:0:0:0:
245,63,80690,6,0,B|276:52|276:52|315:77,1,70,10|10,0:2|0:2,0:0:0:0:
462,213,81219,1,0,3:0:0:0:
462,213,81396,2,0,B|430:202|430:202|392:227,1,70,8|10,0:2|0:2,0:0:0:0:
226,341,81925,6,0,P|206:312|158:299,1,70,2|2,3:2|3:2,0:0:0:0:
176,221,82278,2,0,P|140:223|105:258,1,70,10|2,0:2|0:2,0:0:0:0:
67,306,82631,2,0,P|65:246|53:159,1,140,2|10,3:2|0:0,0:0:0:0:
214,29,83337,6,0,P|256:32|295:30,1,70,2|2,3:0|3:0,0:0:0:0:
341,81,83690,2,0,P|383:78|422:80,1,70,10|2,0:0|0:0,0:0:0:0:
468,29,84043,1,2,3:0:0:0:
498,279,84396,5,10,0:0:0:0:
395,259,84572,1,0,0:0:0:0:
327,339,84749,1,2,0:0:0:0:
327,339,84925,6,0,P|320:298|297:247,2,70,2|10|2,3:2|0:0|0:0,0:0:0:0:
252,357,85454,2,0,P|240:323|235:289,1,70,2|2,3:2|3:2,0:0:0:0:
255,215,85807,2,0,B|189:214|189:214|184:208|184:208|118:207,1,140,10|0,0:0|3:0,0:0:0:0:
14,231,86337,6,0,B|3:199|3:199|24:159,1,70,10|10,0:0|0:0,0:0:0:0:
192,47,86866,1,0,3:0:0:0:
192,47,87043,2,0,B|223:36|223:36|264:57,1,70,10|10,0:0|0:0,0:0:0:0:
376,225,87572,6,0,L|379:149,1,70,2|2,3:2|3:2,0:0:0:0:
456,160,87925,2,0,L|453:236,1,70,10|2,0:2|0:2,0:0:0:0:
487,297,88278,1,2,3:2:0:0:
487,297,88454,1,2,3:2:0:0:
444,359,88631,2,0,P|400:347|367:351,1,70,10|2,0:2|0:2,0:0:0:0:
297,290,88984,6,0,P|253:302|220:298,2,70,2|2|10,3:2|3:2|0:2,0:0:0:0:
330,219,89513,1,2,0:2:0:0:
253,226,89690,2,0,P|243:166|270:73,1,140,2|10,3:2|3:2,0:0:0:0:
488,22,90396,5,8,0:0:0:0:
403,15,90572,1,8,0:0:0:0:
397,99,90749,1,8,0:0:0:0:
481,105,90925,6,0,B|413:79|421:157|354:133,1,140,6|0,3:2|3:0,0:0:0:0:
287,185,91454,1,10,0:0:0:0:
136,39,91807,6,0,P|116:83|120:112,1,70,2|0,3:2|3:0,0:0:0:0:
33,112,92160,2,0,P|50:157|74:174,1,70,10|0,0:0|3:0,0:0:0:0:
12,234,92513,2,0,P|56:253|85:249,1,70,2|0,3:2|0:0,0:0:0:0:
84,336,92866,2,0,P|129:318|146:294,1,70,10|0,0:0|0:0,0:0:0:0:
213,224,93219,6,0,P|255:248|351:245,1,140,2|8,3:2|0:0,0:0:0:0:
417,204,93749,1,2,3:2:0:0:
460,276,93925,2,0,L|464:353,2,70,0|2|10,0:0|3:2|0:0,0:0:0:0:
417,204,94454,1,2,0:0:0:0:
489,127,94631,2,0,P|476:93|431:88,1,70,2|0,3:2|0:0,0:0:0:0:
375,37,94984,5,10,0:0:0:0:
375,37,95160,2,0,P|327:46|226:46,2,140,2|2|0,3:2|3:2|3:0,0:0:0:0:
382,142,96043,6,0,P|312:141|243:152,1,140,6|8,3:2|0:0,0:0:0:0:
173,105,96572,1,0,0:0:0:0:
126,174,96749,1,2,3:2:0:0:
56,128,96925,1,2,3:2:0:0:
34,336,97278,6,0,P|75:333|115:321,1,70,2|0,3:2|0:0,0:0:0:0:
186,338,97631,2,0,P|227:341|267:353,1,70,2|8,3:2|0:0,0:0:0:0:
338,336,97984,2,0,P|407:332|474:315,2,140,2|2|2,0:0|3:2|3:2,0:0:0:0:
278,249,98866,5,2,3:0:0:0:
331,89,99219,2,0,P|336:126|336:162,1,70,10|2,0:0|0:0,0:0:0:0:
386,226,99572,1,2,3:2:0:0:
386,226,99749,1,0,3:2:0:0:
427,152,99925,2,0,P|426:117|421:82,1,70,10|0,0:0|3:2,0:0:0:0:
372,15,100278,5,2,3:2:0:0:
456,318,100807,1,0,0:0:0:0:
382,294,100984,2,0,L|379:250,2,35,8|8|8,0:0|0:0|0:0,0:0:0:0:
325,347,101337,1,8,0:0:0:0:
325,347,101425,1,8,0:0:0:0:
325,347,101513,1,8,0:0:0:0:
251,323,101690,6,0,P|196:343|87:318,2,167.999994873047,6|10|0,3:2|0:2|3:0,0:0:0:0:
293,250,102572,1,0,3:0:0:0:
234,189,102749,1,8,0:0:0:0:
316,106,102925,2,0,P|256:52|160:93,1,167.999994873047,4|0,3:2|3:0,0:0:0:0:
100,37,103454,1,8,0:0:0:0:
33,191,103807,5,2,3:2:0:0:
33,191,103984,1,2,3:2:0:0:
106,149,104160,1,10,0:0:0:0:
158,215,104337,1,2,3:2:0:0:
115,287,104513,2,0,P|62:303|26:310,1,83.9999974365235,2|0,3:2|0:0,0:0:0:0:
144,369,104866,2,0,P|197:353|310:333,1,167.999994873047,10|0,0:0|3:2,0:0:0:0:
262,242,105396,1,0,3:2:0:0:
362,239,105572,1,8,0:0:0:0:
455,289,105749,1,0,3:0:0:0:
455,289,105925,6,0,P|461:215|473:122,1,167.999994873047,0|8,3:0|0:0,0:0:0:0:
425,52,106454,1,2,0:0:0:0:
349,90,106631,2,0,P|300:75|276:35,1,83.9999974365235,2|2,3:2|3:2,0:0:0:0:
377,172,106984,2,0,P|353:217|306:235,1,83.9999974365235,10|2,0:0|3:2,0:0:0:0:
239,179,107337,6,0,P|289:226|263:335,2,167.999994873047,4|10|0,3:2|0:2|3:2,0:0:0:0:
157,198,108219,1,2,3:2:0:0:
144,281,108396,1,8,0:0:0:0:
45,233,108572,2,0,P|23:172|89:77,1,167.999994873047,2|0,3:2|3:2,0:0:0:0:
65,1,109102,1,8,0:0:0:0:
239,101,109454,5,2,3:2:0:0:
239,101,109631,1,2,3:2:0:0:
183,163,109807,1,10,0:2:0:0:
223,236,109984,1,2,3:2:0:0:
339,223,110160,2,0,P|357:283|363:355,1,125.999996154785,2|0,3:2|0:0,0:0:0:0:
363,345,110513,2,0,P|445:340|474:340,1,83.9999974365235,10|0,0:0|0:0,0:0:0:0:
493,270,110866,1,2,3:2:0:0:
441,203,111043,1,2,3:2:0:0:
486,132,111219,1,8,0:0:0:0:
388,52,111396,6,0,P|297:44|241:108,1,167.999994873047,2|0,3:2|3:0,0:0:0:0:
257,185,111925,2,0,P|330:171|353:140,1,83.9999974365235,8|2,0:0|3:2,0:0:0:0:
300,288,112278,1,10,0:0:0:0:
300,288,112366,1,8,0:0:0:0:
300,288,112454,1,10,0:0:0:0:
212,258,112631,1,10,0:0:0:0:
158,333,112807,1,10,0:0:0:0:
70,242,112984,6,0,P|60:175|52:75,2,167.999994873047,6|2|8,3:2|3:2|0:0,0:0:0:0:
161,181,113866,2,0,P|223:174|279:173,1,83.9999974365235,0|0,3:0|0:0,0:0:0:0:
308,227,114219,1,0,3:0:0:0:
342,105,114396,2,0,P|423:96|475:176,2,167.999994873047,0|0|10,3:0|3:0|0:0,0:0:0:0:
271,58,115278,1,0,3:0:0:0:
179,116,115454,2,0,P|120:111|68:100,1,83.9999974365235,10|8,0:0|0:0,0:0:0:0:
134,208,115807,6,0,P|218:217|302:235,1,167.999994873047,6|2,3:2|0:0,0:0:0:0:
426,225,116337,2,0,P|421:283|406:325,1,83.9999974365235,2|8,3:2|0:0,0:0:0:0:
287,316,116690,1,10,0:0:0:0:
287,316,116778,1,8,0:0:0:0:
287,316,116866,2,0,P|292:258|307:216,1,83.9999974365235,10|2,0:0|0:0,0:0:0:0:
260,104,117219,5,0,3:0:0:0:
260,104,117396,2,0,P|208:135|98:111,1,167.999994873047,2|2,0:0|3:2,0:0:0:0:
15,192,117925,2,0,P|76:223|100:240,1,83.9999974365235,8|2,0:0|3:2,0:0:0:0:
124,308,118278,1,10,0:0:0:0:
124,308,118454,1,2,3:2:0:0:
233,244,118631,6,0,P|306:239|405:259,1,167.999994873047,2|2,3:2|0:0,0:0:0:0:
487,167,119160,2,0,P|448:82|434:0,1,167.999994873047,2|0,3:0|0:0,0:0:0:0:
349,13,119690,1,2,0:2:0:0:
349,13,119866,1,2,3:0:0:0:
345,122,120043,2,0,P|271:121|163:103,1,167.999994873047,4|0,0:0|0:0,0:0:0:0:
178,106,120749,6,0,B|186:153|186:153|177:180|177:180|186:232,2,130.666662679037,10|10|6,0:0|3:0|3:0,0:0:0:0:
117,20,121454,6,0,L|213:7,1,70,6|0,3:2|0:0,0:0:0:0:
250,65,121807,2,0,L|346:78,1,70,0|0,0:0|3:0,0:0:0:0:
383,20,122160,1,8,0:0:0:0:
383,20,122337,2,0,B|430:67|430:67|412:139,1,140,6|6,3:2|3:2,0:0:0:0:
433,241,122866,5,6,3:2:0:0:
350,222,123043,1,0,0:0:0:0:
267,203,123219,2,0,L|177:209,1,70,0|0,0:0|3:0,0:0:0:0:
114,188,123572,1,8,0:0:0:0:
114,188,123749,2,0,B|82:207|82:207|91:312,1,140,6|6,3:2|3:2,0:0:0:0:
183,358,124278,6,0,L|174:255,2,70,6|0|0,3:2|0:0|0:0,0:0:0:0:
256,317,124807,1,0,3:0:0:0:
328,359,124984,1,8,0:0:0:0:
328,359,125160,1,6,3:2:0:0:
349,192,125513,1,6,3:2:0:0:
316,91,125690,6,0,B|305:60|305:60|326:19,1,70,6|0,3:2|0:0,0:0:0:0:
405,35,126043,2,0,B|416:66|416:66|395:107,1,70,0|0,0:0|3:0,0:0:0:0:
449,166,126396,2,0,L|447:237,1,70,8|0,0:0|3:0,0:0:0:0:
394,301,126749,2,0,L|395:344,3,35,8|8|8|8,3:0|3:0|3:0|3:0,0:0:0:0:
406,376,127102,6,0,B|341:370|341:370|335:375|335:375|269:369,1,140,6|0,3:2|0:0,0:0:0:0:
129,274,127807,1,8,0:0:0:0:
129,274,127984,2,0,B|194:268|194:268|200:273|200:273|266:267,1,140,6|6,3:2|3:2,0:0:0:0:
360,218,128513,6,0,L|430:220,1,70,6|0,3:2|0:0,0:0:0:0:
431,135,128866,2,0,L|361:133,1,70,0|0,0:0|3:0,0:0:0:0:
287,175,129219,1,8,0:0:0:0:
287,175,129396,1,6,3:2:0:0:
173,50,129749,1,6,3:2:0:0:
100,125,129925,6,0,B|102:157|102:157|100:160|100:160|103:192,1,70,6|0,3:2|0:0,0:0:0:0:
180,229,130278,2,0,B|177:261|177:261|179:264|179:264|176:296,1,70,0|0,0:0|3:0,0:0:0:0:
139,373,130631,1,8,0:0:0:0:
139,373,130807,2,0,B|253:376|253:376|283:342,1,140,6|6,3:2|3:2,0:0:0:0:
346,283,131337,5,2,0:0:0:0:
427,303,131513,1,2,0:0:0:0:
447,222,131690,1,2,0:0:0:0:
366,202,131866,1,2,0:0:0:0:
346,283,132043,6,0,L|351:352,2,55.9999982910157,8|8|8,0:0|0:0|0:0,0:0:0:0:
226,209,132749,6,0,L|236:62,1,140,6|0,3:2|0:0,0:0:0:0:
300,15,133278,1,0,3:0:0:0:
354,78,133454,2,0,B|365:109|365:109|344:150,1,70,8|6,0:0|3:2,0:0:0:0:
397,303,133984,1,6,3:2:0:0:
468,226,134160,6,0,L|385:223,1,70,6|0,3:2|0:0,0:0:0:0:
324,264,134513,2,0,L|241:267,1,70,0|0,0:0|3:0,0:0:0:0:
180,226,134866,1,8,0:0:0:0:
180,226,135043,2,0,B|176:109|176:109|202:88,1,140,6|6,3:2|3:2,0:0:0:0:
299,105,135572,6,0,L|302:15,2,70,6|0|0,3:2|0:0|0:0,0:0:0:0:
338,180,136102,1,0,3:0:0:0:
292,251,136278,1,8,0:0:0:0:
292,251,136454,2,0,B|230:225|230:225|170:268,1,140,6|6,3:2|3:2,0:0:0:0:
91,337,136984,6,0,L|87:293,3,35,2|2|2|2,0:0|0:0|0:0|0:0,0:0:0:0:
73,262,137337,2,0,L|77:218,3,35,2|2|2|2,0:0|0:0|0:0|0:0,0:0:0:0:
91,187,137690,2,0,L|87:143,3,35,2|2|2|2,0:0|0:0|0:0|0:0,0:0:0:0:
73,112,138043,1,8,0:0:0:0:
115,15,138219,1,8,0:0:0:0:
115,15,138307,1,8,0:0:0:0:
115,15,138396,5,6,3:2:0:0:
265,89,138749,2,0,L|352:85,2,70,0|0|8,0:0|3:0|0:0,0:0:0:0:
205,148,139278,2,0,B|211:213|211:213|206:219|206:219|212:285,1,140,6|6,3:2|3:2,0:0:0:0:
295,349,139807,6,0,L|382:353,1,70,6|0,3:2|0:0,0:0:0:0:
446,371,140160,1,0,0:0:0:0:
464,289,140337,1,0,3:0:0:0:
382,271,140513,1,8,0:0:0:0:
382,271,140690,2,0,B|376:127,1,140,6|6,3:2|3:2,0:0:0:0:
323,40,141219,6,0,B|294:23|294:23|250:36,1,70,6|0,3:2|0:0,0:0:0:0:
185,73,141572,2,0,B|156:89|156:89|112:76,1,70,0|0,0:0|3:0,0:0:0:0:
47,40,141925,1,8,0:0:0:0:
47,40,142102,2,0,B|13:105|13:105|31:172,1,140,6|6,3:2|3:2,0:0:0:0:
18,274,142631,5,2,0:0:0:0:
106,255,142807,1,2,0:0:0:0:
195,259,142984,1,2,0:0:0:0:
279,285,143160,1,2,0:0:0:0:
353,331,143337,2,0,L|358:246,1,70,8|0,0:0|3:0,0:0:0:0:
398,164,143690,1,8,0:0:0:0:
357,68,143866,1,8,0:0:0:0:
