osu file format v14

[General]
AudioFilename: audio.mp3
AudioLeadIn: 0
PreviewTime: 24034
Countdown: 0
SampleSet: Soft
StackLeniency: 0.7
Mode: 0
LetterboxInBreaks: 0
WidescreenStoryboard: 1

[Editor]
Bookmarks: 192419
DistanceSpacing: 0.7
BeatDivisor: 4
GridSize: 16
TimelineZoom: 2.1

[Metadata]
Title:Noah Fence
TitleUnicode:Noah Fence
Artist:Origami Angel
ArtistUnicode:Origami Angel
Creator:WashedUp Player
Version:They Keep Telling Me 'Bout Kevin
Source:
Tags:hantrik squirrelpascals gami gang english emo alternative punk indie rock fa featured artist
BeatmapID:3990668
BeatmapSetID:1931702

[Difficulty]
HPDrainRate:5
CircleSize:4
OverallDifficulty:9
ApproachRate:9.4
SliderMultiplier:1.4
SliderTickRate:1

[Events]
//Background and Video events
0,0,"ae.jpg",0,0
//Break Periods
//Storyboard Layer 0 (Background)
//Storyboard Layer 1 (Fail)
//Storyboard Layer 2 (Pass)
//Storyboard Layer 3 (Foreground)
//Storyboard Layer 4 (Overlay)
//Storyboard Sound Samples

[TimingPoints]
191,300,4,2,1,70,1,0
491,300,4,2,1,70,1,0
1391,-200,4,2,1,70,0,0
1616,-66.6666666666667,4,2,1,5,0,0
1691,-66.6666666666667,4,2,1,70,0,0
3191,-100,4,2,1,70,0,0
3791,-200,4,2,1,70,0,0
4016,-66.6666666666667,4,2,1,5,0,0
4091,-66.6666666666667,4,2,1,70,0,0
5741,-100,4,2,1,70,0,0
12191,-200,4,2,1,70,0,0
12416,-66.6666666666667,4,2,1,5,0,0
12491,-66.6666666666667,4,2,1,70,0,0
12791,-133.333333333333,4,2,1,70,0,0
14891,-200,4,2,1,65,0,0
15191,-66.6666666666667,4,2,1,65,0,0
15566,-66.6666666666667,4,2,1,5,0,0
15641,-66.6666666666667,4,2,1,65,0,0
15941,-100,4,2,1,65,0,0
17291,-66.6666666666667,4,2,1,65,0,0
18041,-200,4,2,1,65,0,0
18341,-100,4,2,1,65,0,0
19691,-66.6666666666667,4,2,1,65,0,0
19916,-66.6666666666667,4,2,1,5,0,0
19991,-133.333333333333,4,2,1,65,0,0
20366,-66.6666666666667,4,2,1,5,0,0
20441,-66.6666666666667,4,2,1,65,0,0
20741,-100,4,2,1,65,0,0
24191,-80,4,2,1,65,0,0
24491,-80,4,2,1,70,0,0
25916,-66.6666666666667,4,2,1,5,0,0
25991,-80,4,2,1,70,0,0
26216,-66.6666666666667,4,2,1,5,0,0
26291,-80,4,2,1,70,0,0
27116,-66.6666666666667,4,2,1,5,0,0
27191,-58.8235294117647,4,2,1,70,0,0
27491,-100,4,2,1,70,0,0
27716,-66.6666666666667,4,2,1,5,0,0
27791,-100,4,2,1,70,0,0
28091,-80,4,2,1,70,0,0
30116,-66.6666666666667,4,2,1,5,0,0
30191,-80,4,2,1,70,0,0
31391,-181.818181818181,4,2,1,70,0,0
34091,-125,4,2,1,70,0,0
34316,-66.6666666666667,4,2,1,5,0,0
34391,-666.666666666667,4,2,1,70,0,0
36491,-100,4,2,1,70,0,0
36716,-66.6666666666667,4,2,1,5,0,0
36791,-666.666666666667,4,2,1,70,0,0
38891,-100,4,2,1,70,0,0
39116,-66.6666666666667,4,2,1,5,0,0
39191,-881.057268722467,4,2,1,70,0,0
41291,-881.057268722467,4,2,1,68,0,0
41591,-881.057268722467,4,2,1,71,0,0
41891,-881.057268722467,4,2,1,74,0,0
42191,-881.057268722467,4,2,1,77,0,0
42491,-100,4,2,1,80,0,0
43691,-66.6666666666667,4,2,1,80,0,0
43916,-66.6666666666667,4,2,1,5,0,0
43991,-66.6666666666667,4,2,1,80,0,0
44741,-80,4,2,1,80,0,0
48116,-66.6666666666667,4,2,1,5,0,0
48191,-58.8235294117647,4,2,1,80,0,0
48491,-80,4,2,1,80,0,0
49916,-66.6666666666667,4,2,1,5,0,0
49991,-80,4,2,1,80,0,0
55166,-66.6666666666667,4,2,1,5,0,0
55241,-80,4,2,1,80,0,0
56666,-66.6666666666667,4,2,1,5,0,0
56741,-181.818181818181,4,2,1,80,0,0
58091,-181.818181818181,4,2,1,75,0,0
60191,-100,4,2,1,75,0,0
60491,-100,4,2,1,70,0,0
61691,293.398533007335,4,2,1,70,1,0
61691,-66.6666666666667,4,2,1,70,0,0
61984,281.030444964871,4,2,1,70,1,0
61984,-66.6666666666667,4,2,1,70,0,0
62265,295.930949445129,4,2,1,70,1,0
62265,-50,4,2,1,70,0,0
62560,329.67032967033,4,2,1,70,1,0
62560,-50,4,2,1,70,0,0
62891,300,4,2,1,70,1,0
64091,-66.6666666666667,4,2,1,70,0,0
64391,293.040293040293,4,2,1,70,1,0
64391,-66.6666666666667,4,2,1,70,0,0
64684,293.7576499388,4,2,1,70,1,0
64684,-50,4,2,1,70,0,0
64977,314.13612565445,4,2,1,70,1,0
64977,-50,4,2,1,70,0,0
65291,300,4,2,1,70,1,0
65741,-100,4,2,1,70,0,0
70091,-76.9230769230769,4,2,1,70,0,0
70541,-222.222222222221,4,2,1,70,0,0
71291,-153.846153846154,4,2,1,70,0,0
71741,-76.9230769230769,4,2,1,70,0,0
72791,-133.333333333333,4,2,1,70,0,0
73691,-133.333333333333,4,2,1,75,0,0
75191,-66.6666666666667,4,2,1,75,0,0
75416,-66.6666666666667,4,2,1,5,0,0
75491,-66.6666666666667,4,2,1,75,0,0
76991,-100,4,2,1,75,0,0
77216,-66.6666666666667,4,2,1,5,0,0
77291,-100,4,2,1,75,0,0
77591,-66.6666666666667,4,2,1,75,0,0
77816,-66.6666666666667,4,2,1,5,0,0
77891,-66.6666666666667,4,2,1,75,0,0
79691,-200,4,2,1,75,0,0
79991,-66.6666666666667,4,2,1,75,0,0
80966,-66.6666666666667,4,2,1,5,0,0
81041,-66.6666666666667,4,2,1,75,0,0
82991,-100,4,2,1,75,0,0
84491,-303.030303030303,4,2,1,75,0,0
84716,-66.6666666666667,4,2,1,5,0,0
84791,-66.6666666666667,4,2,1,75,0,0
85691,-100,4,2,1,75,0,0
86891,-66.6666666666667,4,2,1,75,0,0
88991,-100,4,2,1,75,0,0
89291,-66.6666666666667,4,2,1,75,0,0
90791,-100,4,2,1,75,0,0
91916,-66.6666666666667,4,2,1,5,0,0
91991,-58.8235294117647,4,2,1,75,0,0
92291,-66.6666666666667,4,2,1,75,0,0
96491,-50,4,2,1,75,0,0
98891,-200,4,2,1,75,0,0
99116,-66.6666666666667,4,2,1,5,0,0
99191,-66.6666666666667,4,2,1,75,0,0
99416,-66.6666666666667,4,2,1,5,0,0
99491,-66.6666666666667,4,2,1,75,0,0
103241,-66.6666666666667,4,2,1,80,0,0
103428,-200,4,2,1,80,0,0
103616,-66.6666666666667,4,2,1,5,0,0
103691,-66.6666666666667,4,2,1,80,0,0
104516,-66.6666666666667,4,2,1,5,0,0
104591,-66.6666666666667,4,2,1,80,0,0
105116,-66.6666666666667,4,2,1,5,0,0
105191,-66.6666666666667,4,2,1,80,0,0
106316,-66.6666666666667,4,2,1,5,0,0
106391,-66.6666666666667,4,2,1,80,0,0
106916,-66.6666666666667,4,2,1,5,0,0
106991,-66.6666666666667,4,2,1,80,0,0
107516,-66.6666666666667,4,2,1,5,0,0
107591,-66.6666666666667,4,2,1,80,0,0
108716,-66.6666666666667,4,2,1,5,0,0
108791,-66.6666666666667,4,2,1,80,0,0
109316,-66.6666666666667,4,2,1,5,0,0
109391,-66.6666666666667,4,2,1,80,0,0
109916,-66.6666666666667,4,2,1,5,0,0
109991,-66.6666666666667,4,2,1,80,0,0
112091,-200,4,2,1,80,0,0
112616,-66.6666666666667,4,2,1,5,0,0
112691,-303.030303030303,4,2,1,80,0,0
113291,-66.6666666666667,4,2,1,80,0,0
113516,-66.6666666666667,4,2,1,5,0,0
113591,-66.6666666666667,4,2,1,80,0,0
122891,-133.333333333333,4,2,1,70,0,0
126491,-175.438596491228,4,2,1,70,0,0
131291,-175.438596491228,4,2,1,35,0,0
131591,-175.438596491228,4,2,1,37,0,0
131891,-153.846153846154,4,2,1,39,0,0
132191,-153.846153846154,4,2,1,41,0,0
132491,-133.333333333333,4,2,1,43,0,0
132791,-117.647058823529,4,2,1,45,0,0
133091,-105.263157894737,4,2,1,47,0,0
133391,-105.263157894737,4,2,1,49,0,0
133691,-83.3333333333333,4,2,1,51,0,0
133991,-80,4,2,1,53,0,0
134291,-76.9230769230769,4,2,1,55,0,0
134591,-76.9230769230769,4,2,1,57,0,0
134891,-68.9655172413793,4,2,1,59,0,0
135191,-66.6666666666667,4,2,1,61,0,0
135491,-64.5161290322581,4,2,1,62,0,0
135791,-64.5161290322581,4,2,1,64,0,0
136091,-58.8235294117647,4,2,1,66,0,0
136391,-57.1428571428571,4,2,1,68,0,0
136691,-54.054054054054,4,2,1,70,0,0
136991,-54.054054054054,4,2,1,72,0,0
137291,-52.6315789473684,4,2,1,74,0,0
137591,-50,4,2,1,76,0,0
137891,-45.4545454545455,4,2,1,78,0,0
138191,-45.4545454545455,4,2,1,80,0,0
138491,-45.4545454545455,4,2,1,82,0,0
138791,-45.4545454545455,4,2,1,84,0,0
139091,-45.4545454545455,4,2,1,86,0,0
139391,-45.4545454545455,4,2,1,88,0,0
139691,-45.4545454545455,4,2,1,90,0,0
140891,-45.4545454545455,4,2,1,95,0,1
143291,-66.6666666666667,4,2,1,95,0,1
151091,-66.6666666666667,4,2,2,95,0,1
151691,-66.6666666666667,4,2,1,95,0,1
152291,-66.6666666666667,4,2,2,95,0,1
152891,-66.6666666666667,4,2,1,95,0,1
153491,-66.6666666666667,4,2,2,95,0,1
154091,-66.6666666666667,4,2,1,95,0,1
154691,-66.6666666666667,4,2,2,95,0,1
155291,-66.6666666666667,4,2,1,95,0,0
159416,-66.6666666666667,4,2,1,5,0,0
159491,-66.6666666666667,4,2,1,75,0,0
160091,-133.333333333333,4,2,1,75,0,0
160316,-66.6666666666667,4,2,1,5,0,0
160391,-66.6666666666667,4,2,1,75,0,0
160616,-66.6666666666667,4,2,1,5,0,0
160691,-66.6666666666667,4,2,1,75,0,0
161141,-200,4,2,1,75,0,0
161516,-66.6666666666667,4,2,1,5,0,0
161591,-66.6666666666667,4,2,1,75,0,0
161816,-66.6666666666667,4,2,1,5,0,0
161891,-66.6666666666667,4,2,1,75,0,0
162341,-200,4,2,1,75,0,0
162716,-66.6666666666667,4,2,1,5,0,0
162791,-66.6666666666667,4,2,1,75,0,0
163016,-66.6666666666667,4,2,1,5,0,0
163091,-66.6666666666667,4,2,1,75,0,0
163541,-200,4,2,1,75,0,0
163916,-66.6666666666667,4,2,1,5,0,0
163991,-66.6666666666667,4,2,1,75,0,0
164216,-66.6666666666667,4,2,1,5,0,0
164291,-400,4,2,1,75,0,0
164741,-66.6666666666667,4,2,1,75,0,0
164891,-133.333333333333,4,2,1,75,0,0
165116,-66.6666666666667,4,2,1,5,0,0
165191,-66.6666666666667,4,2,1,75,0,0
165416,-66.6666666666667,4,2,1,5,0,0
165491,-66.6666666666667,4,2,1,75,0,0
165941,-200,4,2,1,75,0,0
166316,-66.6666666666667,4,2,1,5,0,0
166391,-66.6666666666667,4,2,1,75,0,0
166616,-66.6666666666667,4,2,1,5,0,0
166691,-66.6666666666667,4,2,1,75,0,0
167141,-200,4,2,1,75,0,0
167516,-66.6666666666667,4,2,1,5,0,0
167591,-66.6666666666667,4,2,1,75,0,0
167816,-66.6666666666667,4,2,1,5,0,0
167891,-66.6666666666667,4,2,1,75,0,0
168341,-200,4,2,1,75,0,0
168716,-66.6666666666667,4,2,1,5,0,0
168791,-66.6666666666667,4,2,1,75,0,0
169016,-66.6666666666667,4,2,1,5,0,0
169091,-400,4,2,1,75,0,0
169691,-133.333333333333,4,2,1,75,0,0
169916,-66.6666666666667,4,2,1,5,0,0
169991,-66.6666666666667,4,2,1,75,0,0
170216,-66.6666666666667,4,2,1,5,0,0
170291,-66.6666666666667,4,2,1,75,0,0
170741,-200,4,2,1,75,0,0
171116,-66.6666666666667,4,2,1,5,0,0
171191,-66.6666666666667,4,2,1,75,0,0
171416,-66.6666666666667,4,2,1,5,0,0
171491,-66.6666666666667,4,2,1,75,0,0
171941,-200,4,2,1,75,0,0
172316,-66.6666666666667,4,2,1,5,0,0
172391,-66.6666666666667,4,2,1,75,0,0
172616,-66.6666666666667,4,2,1,5,0,0
172691,-66.6666666666667,4,2,1,75,0,0
173141,-200,4,2,1,75,0,0
173516,-66.6666666666667,4,2,1,5,0,0
173591,-66.6666666666667,4,2,1,75,0,0
173816,-66.6666666666667,4,2,1,5,0,0
173891,-66.6666666666667,4,2,1,75,0,0
174491,-133.333333333333,4,2,1,75,0,0
174716,-66.6666666666667,4,2,1,5,0,0
174791,-66.6666666666667,4,2,1,75,0,0
175016,-66.6666666666667,4,2,1,5,0,0
175091,-66.6666666666667,4,2,1,75,0,0
175541,-200,4,2,1,75,0,0
175916,-66.6666666666667,4,2,1,5,0,0
175991,-66.6666666666667,4,2,1,75,0,0
176216,-66.6666666666667,4,2,1,5,0,0
176291,-66.6666666666667,4,2,1,75,0,0
176741,-200,4,2,1,75,0,0
177116,-66.6666666666667,4,2,1,5,0,0
177191,-66.6666666666667,4,2,1,75,0,0
177416,-66.6666666666667,4,2,1,5,0,0
177491,-66.6666666666667,4,2,1,75,0,0
177941,-200,4,2,1,75,0,0
178316,-66.6666666666667,4,2,1,5,0,0
178391,-66.6666666666667,4,2,1,75,0,0
178608,-66.6666666666667,4,2,1,75,0,0
178616,-66.6666666666667,4,2,1,5,0,0
178691,330.123796423659,4,2,1,100,1,0
178691,-100,4,2,1,100,0,0
182652,300,4,2,1,100,1,0
183852,303.030303030303,4,2,1,100,1,0
184155,324.763193504736,4,2,1,100,1,0
184479,351.390922401171,4,2,1,100,1,0
184596,234.833659491194,4,2,1,100,1,0
184674,363.636363636364,4,2,1,100,1,0
184796,289.156626506024,4,2,1,100,1,0
185012,263.157894736842,4,2,1,100,1,0
185143,266.075388026608,4,2,1,100,1,0
185675,314.13612565445,4,2,1,100,1,0
185832,287.425149700599,4,2,1,100,1,0
186119,264.31718061674,4,2,1,100,1,0
186251,300.751879699248,4,2,1,100,1,0
186702,369.230769230769,4,2,1,100,1,0
186886,355.029585798817,4,2,1,100,1,0
187241,338.983050847458,4,2,1,100,1,0
187579,340.909090909091,4,2,1,100,1,0
187919,427.807486631016,4,2,1,100,1,0
188346,387.096774193548,4,2,1,100,1,0
188539,327.868852459016,4,2,1,100,1,0
188702,352.941176470588,4,2,1,100,1,0
188878,358.744394618834,4,2,1,100,1,0
189057,355.555555555555,4,2,1,100,1,0
189234,361.44578313253,4,2,1,100,1,0
189414,349.344978165939,4,2,1,100,1,0
189588,360.902255639098,4,2,1,100,1,0
189768,273.037542662116,4,2,1,100,1,0
189904,263.736263736263,4,2,1,100,1,0
190035,310.077519379845,4,2,1,100,1,0
190112,368.098159509202,4,2,1,100,1,0
190296,430.10752688172,4,2,1,100,1,0
190511,364.741641337386,4,2,1,100,1,0
190693,393.44262295082,4,2,1,100,1,0
191086,-83.3333333333333,4,2,1,100,0,0

[Colours]
Combo1 : 96,202,197
Combo2 : 255,72,72
Combo3 : 173,83,255
Combo4 : 255,174,53

[HitObjects]
48,15,191,5,8,1:0:0:0:
48,15,491,5,4,3:0:0:0:
124,164,641,1,0,3:0:0:0:
172,90,791,2,0,P|120:79|86:85,1,70,8|0,1:0|0:0,0:0:0:0:
291,98,1091,5,0,3:0:0:0:
291,98,1241,1,0,3:0:0:0:
378,197,1391,2,0,L|372:253,1,52.5,8|0,1:0|0:0,0:0:0:0:
295,311,1691,6,0,P|231:296|156:299,1,105.000004005432,8|0,1:0|0:0,0:0:0:0:
293,331,1991,2,0,P|229:316|154:319,1,105.000004005432,8|0,1:0|0:0,0:0:0:0:
459,181,2291,6,0,P|444:245|447:320,1,105.000004005432,8|0,1:0|0:0,0:0:0:0:
479,183,2591,2,0,P|464:247|467:322,1,105.000004005432,8|0,1:0|0:0,0:0:0:0:
349,19,2891,5,4,3:0:0:0:
184,57,3041,1,0,3:0:0:0:
253,114,3191,2,0,P|270:59|265:19,1,70,8|0,1:0|0:0,0:0:0:0:
310,196,3491,5,0,3:0:0:0:
310,196,3641,1,0,3:0:0:0:
227,234,3791,2,0,L|166:228,1,52.5,8|0,1:0|0:0,0:0:0:0:
104,168,4091,6,0,P|108:115|99:57,1,105.000004005432,8|0,1:0|0:0,0:0:0:0:
97,257,4391,2,0,P|101:310|92:368,1,105.000004005432,8|0,1:0|0:0,0:0:0:0:
238,116,4691,6,0,P|185:112|127:121,1,105.000004005432,8|0,1:0|0:0,0:0:0:0:
133,315,4991,2,0,P|184:322|237:318,1,105.000004005432,8|0,1:0|0:0,0:0:0:0:
420,192,5291,5,4,3:0:0:0:
420,192,5591,1,8,1:0:0:0:
330,218,5741,2,0,L|191:209,1,140,0|0,3:0|3:0,0:0:0:0:
424,114,6191,2,0,P|457:125|486:153,1,70,8|0,1:0|0:0,0:0:0:0:
259,296,6491,6,0,P|184:292|116:273,1,140,4|8,3:0|1:0,0:0:0:0:
258,110,6941,2,0,P|327:103|397:100,1,140,0|0,3:0|3:0,0:0:0:0:
176,134,7391,1,8,1:0:0:0:
193,54,7541,1,0,0:0:0:0:
67,198,7691,5,8,1:0:0:0:
106,346,7891,5,8,3:0:0:0:
53,281,8091,5,8,3:0:0:0:
284,235,8291,5,8,1:0:0:0:
245,383,8491,5,8,3:0:0:0:
298,318,8691,5,8,3:0:0:0:
485,353,8891,5,2,0:1:0:0:
485,353,9641,5,0,3:0:0:0:
498,356,9716,1,0,3:0:0:0:
511,358,9791,1,8,1:0:0:0:
395,338,9941,1,0,0:0:0:0:
470,231,10091,6,0,P|477:155|475:64,1,140,4|8,3:0|1:0,0:0:0:0:
387,29,10541,2,0,B|354:16|313:37|329:41|294:57|252:45,1,140,0|0,3:0|3:0,0:0:0:0:
101,25,10991,1,8,1:0:0:0:
175,64,11141,1,0,0:0:0:0:
203,184,11291,6,0,P|181:243|84:262,1,140,4|8,3:0|1:0,0:0:0:0:
125,192,11741,2,0,P|151:246|122:324,1,140,0|0,3:0|3:0,0:0:0:0:
45,338,12191,6,0,L|-8:332,1,52.5,8|0,1:0|0:0,0:0:0:0:
178,384,12491,6,0,L|321:367,1,105.000004005432,2|0,3:0|0:0,0:0:0:0:
421,283,12791,6,0,L|483:288,1,52.5000020027161,8|0,1:0|3:0,0:0:0:0:
428,269,13091,2,0,L|490:274,1,52.5000020027161,0|0,0:0|3:0,0:0:0:0:
487,109,13391,5,8,1:0:0:0:
434,255,13541,1,0,3:0:0:0:
345,22,13691,5,8,1:0:0:0:
379,169,13841,1,0,3:0:0:0:
111,161,13991,5,8,1:0:0:0:
287,119,14141,1,2,3:1:0:0:
0,56,14291,5,10,1:0:0:0:
176,98,14441,1,2,3:1:0:0:
51,229,14591,5,10,1:0:0:0:
50,234,14666,1,0,3:0:0:0:
49,239,14741,1,2,3:1:0:0:
48,244,14816,1,0,3:0:0:0:
47,249,14891,2,0,L|51:299,1,35,12|0,1:0|3:0,0:0:0:0:
112,30,15191,6,0,B|186:-8|270:29|213:54|291:102|375:62,1,262.500010013581,10|0,1:0|0:0,0:0:0:0:
355,46,15641,2,0,P|295:31|240:48,1,105.000004005432,2|8,3:1|1:0,0:0:0:0:
433,142,15941,6,0,L|440:313,1,140,2|0,3:1|3:0,0:0:0:0:
458,36,16391,1,8,1:0:0:0:
483,28,16541,1,0,0:0:0:0:
344,133,16691,6,0,L|264:126,1,70,2|0,3:1|3:0,0:0:0:0:
457,298,16991,1,10,1:0:0:0:
457,298,17291,6,0,L|351:282,1,105.000004005432,2|0,3:1|0:0,0:0:0:0:
159,332,17591,5,10,1:0:0:0:
264,317,17741,1,2,0:1:0:0:
71,267,17891,5,2,0:0:0:0:
72,278,17966,1,0,0:0:0:0:
75,290,18041,2,0,L|69:334,1,35,0|8,3:1|1:0,0:0:0:0:
0,188,18341,6,0,P|46:175|147:171,1,140,0|0,3:1|3:1,0:0:0:0:
106,10,18791,1,8,1:0:0:0:
106,10,19091,5,2,3:1:0:0:
0,26,19241,1,2,3:1:0:0:
179,114,19391,5,10,1:1:0:0:
72,98,19541,1,2,0:1:0:0:
259,35,19691,6,0,P|333:40|387:116,1,157.500006008148,2|0,3:1|0:0,0:0:0:0:
374,117,19991,2,0,P|352:175|374:245,1,131.25000500679,10|0,1:0|0:0,0:0:0:0:
278,302,20441,6,0,P|320:308|375:353,1,105.000004005432,2|8,3:1|1:0,0:0:0:0:
269,190,20741,2,0,P|242:223|151:250,1,140,2|0,3:1|3:1,0:0:0:0:
362,102,21191,6,0,L|355:20,1,70,8|2,1:0|0:1,0:0:0:0:
444,159,21491,5,2,3:1:0:0:
452,78,21641,1,2,3:1:0:0:
275,26,21791,5,10,1:1:0:0:
283,107,21941,1,2,0:1:0:0:
509,17,22091,5,2,3:1:0:0:
509,17,22391,1,10,1:0:0:0:
452,78,22541,1,0,0:1:0:0:
452,186,22691,2,0,P|451:229|471:282,2,70,2|2|8,0:1|3:1|1:0,0:0:0:0:
297,335,23141,2,0,P|351:320|461:342,1,140,2|0,3:1|3:1,0:0:0:0:
142,306,23591,5,8,1:0:0:0:
214,343,23741,1,0,0:0:0:0:
63,336,23891,5,0,3:1:0:0:
63,336,24041,1,2,3:1:0:0:
206,264,24191,6,0,L|196:160,1,87.5,10|2,1:1|0:1,0:0:0:0:
90,52,24491,5,2,3:1:0:0:
96,85,24641,1,0,3:1:0:0:
129,79,24791,1,10,1:1:0:0:
123,46,24941,1,2,3:1:0:0:
229,133,25091,5,2,3:1:0:0:
240,67,25241,1,0,3:1:0:0:
306,79,25391,1,10,1:1:0:0:
294,144,25541,1,2,3:1:0:0:
421,246,25691,6,0,P|406:187|465:145,1,131.25,2|0,3:1|0:0,0:0:0:0:
429,265,25991,2,0,P|339:247|268:268,1,131.25,10|0,1:1|0:0,0:0:0:0:
280,271,26291,5,0,3:1:0:0:
296,353,26441,1,0,3:1:0:0:
198,287,26591,1,10,1:1:0:0:
214,369,26741,1,2,3:1:0:0:
122,226,26891,6,0,P|98:162|131:105,1,131.25,2|0,3:1|0:0,0:0:0:0:
173,169,27191,2,0,L|51:158,1,119.000002269745,10|2,1:1|3:1,0:0:0:0:
267,136,27491,6,0,L|399:125,1,105,2|0,3:1|0:0,0:0:0:0:
398,124,27791,5,10,1:1:0:0:
380,35,27941,1,2,3:1:0:0:
467,208,28091,6,0,P|451:260|458:334,1,87.5,2|0,3:1|3:1,0:0:0:0:
267,136,28391,2,0,P|283:188|276:262,1,87.5,8|0,1:1|3:1,0:0:0:0:
145,302,28691,5,0,3:1:0:0:
52,273,28841,1,0,3:1:0:0:
123,207,28991,1,8,1:1:0:0:
74,368,29141,1,2,3:1:0:0:
31,179,29291,6,0,P|64:130|123:109,1,87.5,2|0,3:1|3:1,0:0:0:0:
221,264,29591,2,0,P|228:306|216:348,1,87.5,10|2,1:1|3:1,0:0:0:0:
303,136,29891,6,0,B|340:125|366:139|366:139|396:159|435:151,1,131.25,2|0,3:1|0:0,0:0:0:0:
453,131,30191,5,10,1:1:0:0:
436,48,30341,1,2,3:1:0:0:
331,206,30491,5,2,3:1:0:0:
314,289,30641,1,0,3:1:0:0:
392,323,30791,1,10,1:1:0:0:
409,240,30941,1,0,3:1:0:0:
221,293,31091,5,0,3:1:0:0:
265,362,31241,1,2,3:1:0:0:
224,182,31391,6,0,L|219:138,1,38.5000011749268,10|2,1:1|3:1,0:0:0:0:
145,69,31691,5,10,1:0:0:0:
301,62,31841,1,0,3:1:0:0:
125,142,31991,5,10,1:0:0:0:
321,135,32141,1,2,3:1:0:0:
105,215,32291,5,8,1:0:0:0:
341,208,32441,1,2,3:1:0:0:
85,288,32591,5,8,1:0:0:0:
361,281,32741,1,2,3:1:0:0:
223,106,32891,5,8,1:0:0:0:
58,84,33041,1,0,3:1:0:0:
198,188,33191,5,8,1:0:0:0:
33,166,33341,1,2,3:1:0:0:
265,258,33491,5,10,1:0:0:0:
430,236,33641,1,0,3:1:0:0:
290,340,33791,5,10,1:0:0:0:
455,318,33941,1,0,3:1:0:0:
126,384,34091,6,0,P|121:340|120:290,1,84,14|0,1:0|0:0,0:0:0:0:
198,188,34391,2,0,P|202:170|206:83,1,105,14|0,1:0|0:0,0:0:0:0:
28,51,36041,5,0,3:0:0:0:
79,215,36191,5,10,1:0:0:0:
79,215,36341,1,0,3:0:0:0:
221,80,36491,6,0,L|339:69,1,105.000004005432,14|0,1:0|0:0,0:0:0:0:
394,203,36791,2,0,L|289:193,1,105.000004005432,14|0,1:0|0:0,0:0:0:0:
489,157,38441,5,0,3:0:0:0:
451,300,38591,5,10,1:0:0:0:
451,300,38741,1,0,3:0:0:0:
267,186,38891,6,0,P|256:127|256:68,1,105,14|0,1:0|0:0,0:0:0:0:
338,273,39191,2,0,P|336:325|325:375,1,103.285002080325,14|0,1:0|0:0,0:0:0:0:
174,337,41291,5,8,1:0:0:0:
222,305,41441,1,0,3:0:0:0:
225,362,41591,1,0,3:0:0:0:
126,344,41741,1,0,3:0:0:0:
264,224,41891,5,8,1:0:0:0:
412,243,42041,1,8,1:0:0:0:
316,134,42191,5,8,1:0:0:0:
88,153,42341,1,8,1:0:0:0:
402,144,42491,5,10,1:0:0:0:
400,122,42566,1,8,1:0:0:0:
393,101,42641,1,8,1:0:0:0:
382,82,42716,1,8,1:0:0:0:
367,67,42791,1,8,1:0:0:0:
348,55,42866,1,8,1:0:0:0:
327,49,42941,1,8,1:0:0:0:
306,47,43016,1,8,1:0:0:0:
284,51,43091,5,10,1:0:0:0:
284,61,43166,1,8,1:0:0:0:
284,71,43241,1,8,1:0:0:0:
284,81,43316,1,8,1:0:0:0:
284,91,43391,2,0,L|286:132,3,35,8|8|8|8,1:0|3:0|3:0|3:0,0:0:0:0:
340,189,43691,6,0,P|315:227|318:342,1,157.500006008148,14|0,3:0|0:0,0:0:0:0:
341,353,43991,1,10,1:0:0:0:
272,227,44141,2,0,P|212:217|155:214,1,105.000004005432,2|0,3:1|3:1,0:0:0:0:
51,374,44441,2,0,P|103:370|155:361,1,105.000004005432,2|8,3:1|1:0,0:0:0:0:
102,89,44741,6,0,B|123:143|105:182|92:165|77:211|103:258,1,175,2|0,3:1|3:1,0:0:0:0:
36,127,45191,1,10,1:0:0:0:
219,62,45341,6,0,P|275:55|326:59,1,87.5,2|0,3:1|3:1,0:0:0:0:
446,168,45641,2,0,P|402:168|359:162,1,87.5,2|8,3:1|1:0,0:0:0:0:
468,53,45941,5,2,3:1:0:0:
482,161,46091,1,0,3:1:0:0:
328,257,46241,1,2,3:1:0:0:
342,149,46391,1,8,1:0:0:0:
419,329,46541,6,0,P|467:319|530:322,1,87.5,2|0,3:1|3:1,0:0:0:0:
318,371,46841,2,0,P|274:370|231:360,1,87.5,2|8,3:1|1:0,0:0:0:0:
88,258,47141,5,2,3:1:0:0:
188,276,47291,1,0,3:1:0:0:
17,311,47441,2,0,P|-1:269|7:221,2,87.5,2|8|0,3:1|1:0|3:1,0:0:0:0:
63,135,47891,6,0,P|80:95|48:15,1,131.25,2|0,3:1|0:0,0:0:0:0:
5,82,48191,2,0,L|155:68,1,119.000002269745,10|0,1:0|3:1,0:0:0:0:
246,34,48491,5,2,3:1:0:0:
354,50,48641,1,2,3:1:0:0:
280,140,48791,1,8,1:0:0:0:
426,97,48941,6,0,P|440:44|427:4,1,87.5,2|0,3:1|3:1,0:0:0:0:
280,140,49241,2,0,P|272:182|286:223,1,87.5,2|8,3:1|1:0,0:0:0:0:
392,298,49541,1,2,3:1:0:0:
243,193,49691,2,0,P|183:167|91:180,1,131.25,2|0,3:1|0:0,0:0:0:0:
95,187,49991,1,8,1:0:0:0:
158,254,50141,1,2,3:1:0:0:
34,131,50291,6,0,P|16:178|38:250,1,87.5,2|0,3:1|3:1,0:0:0:0:
80,308,50591,1,10,1:0:0:0:
190,138,50741,6,0,L|176:21,1,87.5,2|0,3:1|3:1,0:0:0:0:
309,30,51041,2,0,L|319:116,1,87.5,2|8,3:1|1:0,0:0:0:0:
186,247,51341,6,0,L|175:333,1,87.5,2|0,3:1|3:1,0:0:0:0:
305,355,51641,2,0,L|319:238,1,87.5,2|8,3:1|1:0,0:0:0:0:
190,138,51941,5,2,3:1:0:0:
309,30,52091,1,0,3:1:0:0:
335,27,52241,1,2,3:1:0:0:
396,129,52391,5,8,1:1:0:0:
145,42,52541,1,8,1:1:0:0:
85,129,52691,5,0,3:1:0:0:
91,154,52841,1,0,3:1:0:0:
31,241,52991,5,10,1:1:0:0:
268,186,53141,1,10,1:1:0:0:
376,234,53291,6,0,P|328:280|219:293,1,175,2|10,3:1|1:0,0:0:0:0:
161,139,53741,2,0,P|208:92|317:79,1,175,2|0,3:1|3:1,0:0:0:0:
376,234,54191,5,10,1:0:0:0:
224,294,54341,1,0,3:1:0:0:
432,303,54491,2,0,P|459:256|456:214,1,87.5,2|0,3:1|3:1,0:0:0:0:
394,378,54791,1,10,1:0:0:0:
414,152,54941,6,0,P|356:118|264:136,1,131.25,2|0,3:1|0:0,0:0:0:0:
266,150,55241,2,0,P|216:153|144:141,2,87.5,2|8|0,3:1|1:0|3:1,0:0:0:0:
30,63,55691,6,0,P|68:79|95:125,1,87.5,2|0,3:1|3:1,0:0:0:0:
62,201,55991,1,10,1:0:0:0:
47,50,56141,6,0,L|156:42,1,87.5,2|0,3:1|3:1,0:0:0:0:
242,6,56441,2,0,L|404:16,1,131.25,2|0,3:1|0:0,0:0:0:0:
435,94,56741,6,0,L|425:187,1,77.0000023498536,2|0,3:1|3:1,0:0:0:0:
466,10,57191,5,8,1:0:0:0:
480,8,57341,1,0,3:1:0:0:
406,184,57491,5,0,3:1:0:0:
324,225,57641,1,0,3:1:0:0:
257,157,57791,1,8,1:0:0:0:
183,261,57941,1,2,3:1:0:0:
281,355,58091,5,6,3:1:0:0:
356,85,58391,1,2,3:1:0:0:
57,258,58691,1,2,3:1:0:0:
472,313,58991,1,2,3:1:0:0:
79,1,59291,1,6,3:1:0:0:
79,1,60041,5,0,3:1:0:0:
31,146,60191,2,0,L|28:76,1,70,8|0,1:0|0:0,0:0:0:0:
171,256,60491,5,4,3:0:0:0:
90,274,60641,1,0,3:0:0:0:
23,230,60791,2,0,L|31:152,1,70,8|0,1:0|0:0,0:0:0:0:
240,304,61091,5,0,3:0:0:0:
250,384,61241,1,0,3:0:0:0:
28,328,61391,2,0,L|25:258,1,70,8|0,1:0|0:0,0:0:0:0:
208,122,61691,6,0,P|255:104|303:122,1,105.000004005432,8|0,1:0|0:0,0:0:0:0:
305,205,61984,2,0,P|257:224|210:205,1,105.000004005432,8|0,1:0|0:0,0:0:0:0:
322,50,62265,6,0,P|256:32|188:50,1,140,8|0,1:0|0:0,0:0:0:0:
189,279,62560,2,0,P|257:297|324:279,1,140,8|0,1:0|0:0,0:0:0:0:
137,165,62891,5,4,3:0:0:0:
56,182,63041,1,0,3:0:0:0:
26,266,63191,1,8,1:0:0:0:
77,99,63341,5,0,0:0:0:0:
77,24,63491,1,0,3:0:0:0:
3,4,63641,1,0,3:0:0:0:
12,40,63791,1,8,1:0:0:0:
30,42,63941,1,0,0:0:0:0:
183,92,64091,6,0,L|332:81,1,105.000004005432,8|0,1:0|0:0,0:0:0:0:
306,219,64391,2,0,L|166:229,1,105.000004005432,8|0,1:0|0:0,0:0:0:0:
296,12,64684,6,0,L|156:22,1,140,8|0,1:0|0:0,0:0:0:0:
191,302,64977,2,0,L|331:292,1,140,8|0,1:0|0:0,0:0:0:0:
386,144,65291,5,4,3:0:0:0:
386,144,65591,1,8,1:0:0:0:
461,226,65741,2,0,L|444:375,1,140,0|0,3:0|3:0,0:0:0:0:
370,237,66191,5,8,1:0:0:0:
386,144,66341,1,0,0:0:0:0:
482,316,66491,6,0,L|333:322,1,140,4|8,3:0|1:0,0:0:0:0:
66,379,66941,2,0,L|205:384,1,140,0|0,3:0|3:0,0:0:0:0:
81,283,67391,5,8,1:0:0:0:
0,313,67541,1,0,0:0:0:0:
65,185,67691,5,8,1:0:0:0:
104,37,67891,5,8,3:0:0:0:
51,102,68091,5,8,3:0:0:0:
282,148,68291,5,8,1:0:0:0:
243,0,68491,5,8,3:0:0:0:
296,65,68691,5,8,3:0:0:0:
483,30,68891,5,2,0:1:0:0:
483,30,69641,5,0,3:0:0:0:
456,253,69791,1,8,1:0:0:0:
431,172,69941,1,0,0:0:0:0:
231,337,70091,6,0,P|277:323|414:323,1,181.999991668702,4|8,3:0|1:0,0:0:0:0:
219,361,70541,2,0,P|175:363|146:357,1,62.9999980773926,0|0,3:0|3:0,0:0:0:0:
69,180,70991,5,8,1:0:0:0:
139,253,71141,1,0,0:0:0:0:
80,104,71291,2,0,P|32:112|0:142,1,90.9999958343508,4|8,3:0|1:0,0:0:0:0:
182,43,71741,6,0,L|366:50,1,181.999991668702,0|0,3:0|3:0,0:0:0:0:
97,22,72191,1,8,1:0:0:0:
69,181,72341,1,0,0:0:0:0:
230,119,72491,6,0,L|339:122,1,90.9999958343508,2|0,3:0|0:0,0:0:0:0:
423,217,72791,6,0,L|367:215,1,52.5000020027161,8|0,1:0|3:0,0:0:0:0:
436,233,73091,2,0,L|383:231,1,52.5000020027161,0|0,0:0|3:0,0:0:0:0:
283,280,73391,5,8,1:0:0:0:
449,249,73541,1,0,3:0:0:0:
256,363,73691,5,8,1:0:0:0:
217,339,73766,1,8,1:0:0:0:
197,298,73841,1,8,1:0:0:0:
159,273,73916,1,8,1:0:0:0:
114,267,73991,5,0,3:0:0:0:
99,278,74066,1,0,3:0:0:0:
89,293,74141,1,0,3:0:0:0:
83,310,74216,1,0,3:0:0:0:
83,328,74291,5,8,1:0:0:0:
124,304,74366,1,0,3:0:0:0:
140,259,74441,1,8,1:0:0:0:
130,212,74516,1,8,1:0:0:0:
95,184,74591,5,8,1:0:0:0:
83,183,74666,1,0,3:0:0:0:
72,184,74741,1,0,3:0:0:0:
62,185,74816,1,0,3:0:0:0:
51,186,74891,2,0,L|7:190,2,26.2500010013581,8|0|0,1:0|3:0|3:0,0:0:0:0:
37,96,75116,5,0,3:0:0:0:
44,84,75191,2,0,B|87:60|141:72|111:79|155:93|198:82,1,157.500006008148,12|0,1:0|0:0,0:0:0:0:
213,59,75491,5,4,3:0:0:0:
262,241,75641,2,0,P|273:177|255:133,1,105.000004005432,0|8,3:1|1:1,0:0:0:0:
113,287,75941,6,0,B|190:292|190:292|220:323|220:323|331:329,1,210.000008010865,4|0,3:1|3:1,0:0:0:0:
403,185,76391,2,0,L|287:188,1,105.000004005432,8|0,1:1|0:0,0:0:0:0:
427,296,76691,1,0,3:1:0:0:
488,228,76841,1,0,3:1:0:0:
281,118,76991,2,0,P|231:161|231:213,1,105.000004005432,8|0,1:1|0:0,0:0:0:0:
282,104,77291,5,8,1:1:0:0:
283,93,77366,1,8,1:1:0:0:
283,83,77441,1,0,3:1:0:0:
336,322,77591,2,0,B|290:304|251:323|271:340|219:353|184:331,1,157.500006008148,8|0,1:1|0:0,0:0:0:0:
126,242,77891,5,0,3:1:0:0:
127,220,77966,1,0,0:0:0:0:
129,199,78041,1,0,3:1:0:0:
131,178,78116,1,0,0:0:0:0:
133,157,78191,1,8,1:1:0:0:
190,96,78341,1,0,0:0:0:0:
253,220,78491,5,0,3:1:0:0:
30,243,78641,1,0,3:1:0:0:
112,68,78791,2,0,P|145:28|194:12,1,105.000004005432,8|0,1:1|0:0,0:0:0:0:
420,75,79091,5,0,3:1:0:0:
277,56,79241,1,0,3:1:0:0:
471,141,79391,5,8,1:1:0:0:
469,156,79466,1,8,1:1:0:0:
467,171,79541,1,8,1:1:0:0:
465,186,79616,1,8,1:1:0:0:
464,201,79691,2,0,L|467:252,1,35,4|0,3:1|0:0,0:0:0:0:
287,258,79991,6,0,L|391:267,3,105.000004005432,2|2|2|2,3:1|0:3|3:0|3:0,0:0:0:0:
467,378,80591,1,8,1:0:0:0:
311,187,80741,6,0,B|262:177|234:203|234:203|204:237|149:220,1,157.500006008148,4|0,3:0|0:0,0:0:0:0:
142,213,81041,1,0,3:1:0:0:
287,258,81191,6,0,L|391:267,1,105.000004005432,10|2,1:1|0:3,0:0:0:0:
501,170,81491,2,0,L|396:179,1,105.000004005432,2|2,3:3|3:3,0:0:0:0:
278,331,81791,2,0,L|382:340,1,105.000004005432,8|0,1:1|0:0,0:0:0:0:
190,96,82091,5,8,1:0:0:0:
190,96,82391,1,8,1:0:0:0:
88,78,82541,1,0,0:0:0:0:
158,191,82691,1,2,3:3:0:0:
260,173,82841,1,2,3:3:0:0:
76,169,82991,6,0,P|74:205|102:259,1,70,10|2,1:0|0:3,0:0:0:0:
331,237,83291,5,2,3:3:0:0:
303,96,83441,1,2,3:3:0:0:
350,30,83591,1,10,1:0:0:0:
411,287,83741,2,0,L|267:274,1,140,2|2,0:3|3:3,0:0:0:0:
105,381,84191,5,10,1:0:0:0:
166,373,84266,1,10,1:0:0:0:
188,324,84341,1,10,1:0:0:0:
175,282,84416,1,10,1:0:0:0:
151,267,84491,2,0,L|111:270,1,34.6499998942566,4|0,3:1|0:0,0:0:0:0:
53,199,84791,6,0,L|170:190,3,105.000004005432,2|2|2|2,3:1|0:3|3:0|3:0,0:0:0:0:
184,118,85391,1,10,1:0:0:0:
7,267,85541,1,6,3:0:0:0:
261,98,85691,5,2,0:1:0:0:
265,115,85766,1,2,0:1:0:0:
269,132,85841,1,2,3:1:0:0:
272,149,85916,1,2,0:1:0:0:
245,171,85991,5,10,1:1:0:0:
241,188,86066,1,2,0:1:0:0:
237,205,86141,1,2,0:1:0:0:
234,222,86216,1,2,0:1:0:0:
262,243,86291,6,0,L|265:289,3,35,2|2|2|2,3:1|0:1|3:1|0:1,0:0:0:0:
219,344,86591,6,0,L|169:337,1,35,10|2,1:1|0:1,0:0:0:0:
330,196,86741,2,0,L|364:200,1,35,2|2,3:1|0:1,0:0:0:0:
105,383,86891,6,0,L|91:248,1,105.000004005432,4|0,3:1|0:0,0:0:0:0:
362,85,87191,2,0,L|351:189,3,105.000004005432,2|2|2|2,3:1|0:3|3:0|3:0,0:0:0:0:
432,46,87791,5,8,1:0:0:0:
437,45,87866,1,0,3:0:0:0:
442,44,87941,1,4,3:0:0:0:
447,43,88016,1,2,3:1:0:0:
452,42,88091,5,2,3:1:0:0:
404,38,88166,1,2,0:1:0:0:
356,34,88241,1,2,3:1:0:0:
308,30,88316,1,2,0:1:0:0:
260,26,88391,5,10,1:1:0:0:
234,30,88466,1,2,0:1:0:0:
208,34,88541,1,2,0:1:0:0:
182,38,88616,1,2,0:1:0:0:
156,43,88691,5,2,3:1:0:0:
140,40,88766,1,2,0:1:0:0:
124,37,88841,1,2,3:1:0:0:
108,34,88916,1,2,0:1:0:0:
92,31,88991,6,0,L|24:22,1,35,10|2,1:1|0:1,0:0:0:0:
36,117,89141,2,0,L|88:123,1,35,2|2,3:1|0:1,0:0:0:0:
210,185,89291,6,0,L|333:172,1,105.000004005432,4|0,3:1|0:0,0:0:0:0:
142,339,89591,1,10,1:1:0:0:
134,244,89741,1,0,0:0:0:0:
227,373,89891,6,0,L|350:386,1,105.000004005432,2|2,3:0|3:0,0:0:0:0:
443,313,90191,1,8,1:0:0:0:
315,174,90341,2,0,L|332:391,1,210.000008010865,2|0,3:0|3:0,0:0:0:0:
443,313,90791,2,0,L|538:322,1,70,8|0,1:0|0:0,0:0:0:0:
402,186,91091,5,0,3:0:0:0:
369,103,91241,1,0,3:0:0:0:
315,174,91391,1,8,1:0:0:0:
456,115,91541,1,0,0:0:0:0:
224,67,91691,6,0,L|101:61,1,105,4|0,3:0|0:0,0:0:0:0:
22,82,91991,2,0,P|99:83|136:173,1,178.500003404617,8|0,1:0|0:0,0:0:0:0:
48,262,92291,6,0,L|56:145,1,105.000004005432,0|0,3:0|3:0,0:0:0:0:
0,332,92591,1,8,1:0:0:0:
173,375,92741,6,0,B|242:367|242:367|287:386|287:386|389:375,1,210.000008010865,4|0,3:0|3:0,0:0:0:0:
418,182,93191,5,8,1:0:0:0:
392,361,93341,1,0,0:0:0:0:
333,152,93491,5,0,3:0:0:0:
350,241,93641,1,0,3:0:0:0:
433,51,93791,5,8,1:0:0:0:
433,51,93828,1,8,1:0:0:0:
172,379,94091,5,4,3:0:0:0:
30,226,94391,6,0,L|39:170,1,52.5000020027161,10|0,1:0|0:0,0:0:0:0:
147,153,94541,2,0,L|155:204,1,52.5000020027161,2|0,0:1|0:0,0:0:0:0:
44,242,94691,2,0,L|53:186,1,52.5000020027161,2|0,0:1|0:0,0:0:0:0:
161,169,94841,2,0,L|169:220,1,52.5000020027161
84,99,94991,5,8,1:0:0:0:
80,83,95066,1,0,0:0:0:0:
76,67,95141,1,2,0:1:0:0:
72,51,95216,1,0,0:0:0:0:
68,35,95291,6,0,L|10:28,1,52.5000020027161,2|0,0:1|0:0,0:0:0:0:
166,79,95441,2,0,L|224:72,1,52.5000020027161
56,60,95591,6,0,L|-2:53,1,52.5000020027161,8|0,1:0|0:0,0:0:0:0:
154,104,95741,2,0,L|212:97,1,52.5000020027161,2|0,0:1|0:0,0:0:0:0:
283,21,95891,5,2,0:1:0:0:
298,23,95966,1,0,0:0:0:0:
313,25,96041,1,0,0:0:0:0:
328,27,96116,1,0,0:0:0:0:
343,28,96191,5,8,1:0:0:0:
307,66,96266,1,8,1:0:0:0:
302,118,96341,1,8,1:0:0:0:
324,165,96416,1,8,1:0:0:0:
368,192,96491,2,0,P|394:252|376:345,1,140,6|2,3:1|3:1,0:0:0:0:
388,104,96791,5,8,1:0:0:0:
316,360,96941,1,8,1:0:0:0:
215,228,97091,1,0,3:0:0:0:
187,224,97166,1,0,0:0:0:0:
159,221,97241,1,0,3:0:0:0:
131,217,97316,1,0,0:0:0:0:
103,213,97391,5,8,1:0:0:0:
301,271,97541,1,8,1:0:0:0:
63,131,97691,5,0,3:0:0:0:
92,307,97841,1,0,3:0:0:0:
188,45,97991,5,8,1:0:0:0:
159,221,98141,1,8,1:0:0:0:
95,23,98291,5,0,3:0:0:0:
0,0,98441,1,0,3:0:0:0:
248,138,98591,5,8,1:0:0:0:
424,109,98741,1,8,1:0:0:0:
488,194,98891,6,0,L|484:249,1,52.5,0|0,3:0|0:0,0:0:0:0:
484,348,99191,2,0,P|429:300|321:315,1,157.500006008148,0|0,3:0|0:0,0:0:0:0:
214,360,99491,6,0,L|292:353,1,52.5000020027161,2|0,3:1|0:0,0:0:0:0:
120,317,99641,2,0,L|67:312,1,52.5000020027161,2|0,3:1|0:0,0:0:0:0:
204,338,99791,6,0,L|282:331,1,52.5000020027161,10|0,1:1|0:0,0:0:0:0:
110,295,99941,2,0,L|57:290,1,52.5000020027161
196,228,100091,5,2,3:1:0:0:
227,223,100166,1,0,0:0:0:0:
258,220,100241,1,2,3:1:0:0:
289,216,100316,1,0,0:0:0:0:
320,214,100391,6,0,L|372:209,1,52.5000020027161,10|0,1:1|0:0,0:0:0:0:
231,132,100541,2,0,L|178:127,1,52.5000020027161
324,138,100691,6,0,L|376:133,1,52.5000020027161,2|0,3:1|0:0,0:0:0:0:
222,58,100841,2,0,L|169:53,1,52.5000020027161,2|0,3:1|0:0,0:0:0:0:
439,94,100991,5,10,1:1:0:0:
112,1,101141,1,0,3:0:0:0:
256,352,101291,1,8,1:0:0:0:
59,37,103241,5,0,3:1:0:0:
197,135,103391,1,8,1:1:0:0:
197,135,103428,2,0,L|146:132,1,43.75,8|0,1:1|0:0,0:0:0:0:
117,257,103691,6,0,B|164:260|192:235|192:235|225:206|267:210,1,157.500006008148,4|0,3:1|0:0,0:0:0:0:
295,219,103991,1,8,1:1:0:0:
214,325,104141,1,2,3:1:0:0:
430,178,104291,6,0,B|382:185|353:163|353:163|317:136|276:145,1,157.500006008148,2|0,3:1|0:0,0:0:0:0:
249,156,104591,1,8,1:1:0:0:
291,304,104741,1,2,3:1:0:0:
110,124,104891,6,0,B|157:127|185:102|185:102|218:73|260:77,1,157.500006008148,2|0,3:1|0:0,0:0:0:0:
288,86,105191,1,8,1:1:0:0:
230,239,105341,1,2,3:1:0:0:
405,104,105491,5,2,3:1:0:0:
91,135,105716,5,2,3:1:0:0:
318,212,105941,5,2,3:1:0:0:
177,303,106091,6,0,B|229:322|229:322|336:294,1,157.500006008148,0|0,3:1|0:0,0:0:0:0:
356,287,106391,1,8,1:1:0:0:
292,382,106541,1,2,3:1:0:0:
306,76,106691,6,0,B|263:111|263:111|234:218,1,157.500006008148,2|0,3:1|0:0,0:0:0:0:
230,239,106991,1,8,1:1:0:0:
174,123,107141,1,2,3:1:0:0:
438,301,107291,6,0,B|428:246|428:246|350:167,1,157.500006008148,2|0,3:1|0:0,0:0:0:0:
334,153,107591,1,8,1:1:0:0:
462,163,107741,1,2,3:1:0:0:
292,382,107891,5,2,3:1:0:0:
126,278,108116,5,2,3:1:0:0:
462,163,108341,5,2,3:1:0:0:
319,74,108491,6,0,B|270:69|243:96|243:96|210:124|168:120,1,157.500006008148,4|0,3:1|0:0,0:0:0:0:
141,112,108791,1,8,1:1:0:0:
223,0,108941,1,2,3:1:0:0:
5,145,109091,6,0,B|52:141|80:166|80:166|113:195|155:191,1,157.500006008148,2|0,3:1|0:0,0:0:0:0:
183,183,109391,1,8,1:1:0:0:
150,31,109541,1,2,3:1:0:0:
322,213,109691,6,0,B|274:209|246:234|246:234|213:263|171:259,1,157.500006008148,2|0,3:1|0:0,0:0:0:0:
144,251,109991,1,8,1:1:0:0:
215,97,110141,1,2,3:1:0:0:
338,298,110291,5,2,3:1:0:0:
61,338,110516,5,2,3:1:0:0:
238,383,110741,5,2,3:1:0:0:
380,211,110891,5,2,3:1:0:0:
273,201,111116,5,2,3:1:0:0:
461,147,111341,5,2,3:1:0:0:
128,49,111491,5,2,3:1:0:0:
262,61,111716,5,2,3:1:0:0:
25,129,111941,5,2,3:1:0:0:
0,0,112091,5,8,1:0:0:0:
0,0,112128,2,0,P|58:0|119:-2,1,113.75,8|0,1:0|0:0,0:0:0:0:
197,63,112691,6,0,P|179:96|173:135,1,69.2999997885132,2|0,0:0|0:0,0:0:0:0:
323,178,113291,6,0,P|394:158|489:164,1,157.500006008148,6|0,3:0|0:0,0:0:0:0:
501,177,113591,1,10,1:0:0:0:
232,214,113741,6,0,P|179:214|128:204,1,105.000004005432,2|0,3:1|3:1,0:0:0:0:
345,94,114041,2,0,P|399:84|449:84,1,105.000004005432,2|8,3:1|1:0,0:0:0:0:
232,303,114341,6,0,B|108:277|25:304,1,210.000008010865,2|0,3:1|3:1,0:0:0:0:
0,311,114791,1,10,1:0:0:0:
132,203,114941,1,2,3:1:0:0:
109,102,115091,1,0,3:1:0:0:
234,20,115241,1,2,3:1:0:0:
211,121,115391,1,8,1:0:0:0:
345,119,115541,6,0,P|407:103|451:103,1,105.000004005432,2|0,3:1|3:1,0:0:0:0:
234,219,115841,2,0,P|172:203|128:203,1,105.000004005432,2|8,3:1|1:0,0:0:0:0:
407,233,116141,5,2,3:1:0:0:
490,271,116291,1,0,3:1:0:0:
415,323,116441,1,2,3:1:0:0:
482,181,116591,1,8,1:0:0:0:
349,368,116741,6,0,L|236:368,1,105.000004005432,2|0,3:1|3:1,0:0:0:0:
104,293,117041,2,0,P|162:240|300:221,1,210.000008010865,2|0,3:1|3:1,0:0:0:0:
45,365,117491,6,0,P|18:303|21:240,1,105.000004005432,2|0,3:1|3:1,0:0:0:0:
206,109,117791,2,0,P|200:160|177:207,1,105.000004005432,10|0,1:0|3:1,0:0:0:0:
40,7,118091,5,2,3:1:0:0:
155,17,118241,1,2,3:1:0:0:
91,99,118391,1,8,1:0:0:0:
258,26,118541,6,0,P|314:16|366:14,1,105.000004005432,2|0,3:1|3:1,0:0:0:0:
450,181,118841,2,0,P|388:176|336:174,1,105.000004005432,2|8,3:1|1:0,0:0:0:0:
512,65,119141,1,2,3:1:0:0:
405,263,119291,6,0,P|344:259|176:260,1,210.000008010865,2|8,3:1|1:0,0:0:0:0:
498,260,119741,1,2,3:1:0:0:
321,324,119891,6,0,L|313:213,1,105.000004005432,2|0,3:1|3:1,0:0:0:0:
373,118,120191,1,10,1:0:0:0:
271,24,120341,6,0,L|263:128,1,105.000004005432,2|0,3:1|3:1,0:0:0:0:
90,130,120641,2,0,L|82:25,1,105.000004005432,2|8,3:1|1:0,0:0:0:0:
255,210,120941,2,0,L|247:314,1,105.000004005432,2|0,3:1|3:1,0:0:0:0:
109,315,121241,2,0,L|101:210,1,105.000004005432,2|8,3:1|1:0,0:0:0:0:
180,370,121541,5,2,3:1:0:0:
68,259,121691,1,0,3:1:0:0:
283,265,121841,1,2,3:1:0:0:
181,347,121991,5,8,1:1:0:0:
182,155,122141,1,0,3:1:0:0:
325,116,122291,2,0,L|436:126,1,105.000004005432,0|0,3:1|3:1,0:0:0:0:
148,10,122591,1,10,1:1:0:0:
407,204,122891,6,0,L|512:213,1,105.000004005432,6|2,3:1|3:1,0:0:0:0:
263,324,123491,2,0,L|158:332,1,105.000004005432,8|6,1:1|3:1,0:0:0:0:
92,281,123941,1,0,0:0:0:0:
136,210,124091,2,0,L|144:105,1,105.000004005432,6|2,3:1|3:1,0:0:0:0:
113,27,124541,6,0,L|47:20,1,52.5000020027161,2|8,0:1|1:1,0:0:0:0:
222,81,124841,2,0,L|331:70,1,105.000004005432,2|0,0:1|0:0,0:0:0:0:
463,91,125291,2,0,P|418:102|385:201,1,157.500006008148,6|2,3:1|0:1,0:0:0:0:
461,173,125891,5,8,1:1:0:0:
461,173,125928,1,8,1:1:0:0:
394,27,126191,1,0,3:1:0:0:
287,318,126491,6,0,B|202:369|120:311|183:294|114:223|21:239|-17:292|-20:356|73:486|209:424|165:262|221:229|287:230|324:251,1,611.799992531738,4|0,3:1|0:0,0:0:0:0:
256,192,129491,12,0,131141,0:0:0:0:
405,109,131291,6,0,L|401:147,3,19.9499997564697,10|8|8|8,1:0|1:0|1:0|1:0,0:0:0:0:
340,182,131591,2,0,L|344:220,3,19.9499997564697,8|8|8|8,1:0|1:0|1:0|1:0,0:0:0:0:
413,251,131891,2,0,L|409:289,3,22.7499989585877,8|8|8|8,1:0|1:0|1:0|1:0,0:0:0:0:
349,324,132191,2,0,L|353:362,3,22.7499989585877,8|8|8|8,1:0|1:0|1:0|1:0,0:0:0:0:
230,362,132491,6,0,L|199:357,3,26.2500010013581,10|8|8|8,1:0|1:0|1:0|1:0,0:0:0:0:
150,292,132791,2,0,L|119:287,3,29.7500005674362,8|8|8|8,1:0|1:0|1:0|1:0,0:0:0:0:
75,222,133091,2,0,L|42:216,3,33.2499991121292,8|8|8|8,1:0|1:0|1:0|1:0,0:0:0:0:
157,166,133391,5,8,1:0:0:0:
167,137,133466,1,8,1:0:0:0:
163,108,133541,1,8,1:0:0:0:
141,80,133616,1,8,1:0:0:0:
116,65,133691,6,0,L|68:69,3,41.9999987182618,8|8|8|8,1:0|1:0|1:0|1:0,0:0:0:0:
233,22,133991,2,0,L|185:18,3,43.75,8|8|8|8,1:0|1:0|1:0|1:0,0:0:0:0:
344,78,134291,2,0,L|294:82,3,45.4999979171754,8|8|8|8,1:0|1:0|1:0|1:0,0:0:0:0:
467,112,134591,5,8,1:0:0:0:
433,126,134666,1,8,1:0:0:0:
412,153,134741,1,8,1:0:0:0:
404,192,134816,1,8,1:0:0:0:
408,228,134891,6,0,L|472:221,3,50.7500015487671,8|8|8|8,1:0|1:0|1:0|1:0,0:0:0:0:
359,328,135191,2,0,L|299:321,3,52.5000020027161,10|8|8|8,1:0|1:0|1:0|1:0,0:0:0:0:
225,344,135491,2,0,L|165:337,3,54.2500004138947,10|8|8|8,1:0|1:0|1:0|1:0,0:0:0:0:
39,261,135791,5,10,1:0:0:0:
75,256,135866,1,8,1:0:0:0:
109,240,135941,1,8,1:0:0:0:
139,216,136016,1,8,1:0:0:0:
157,183,136091,6,0,L|147:115,3,59.5000011348725,10|8|8|8,1:0|1:0|1:0|1:0,0:0:0:0:
257,16,136391,2,0,L|248:77,3,61.2500005841255,8|8|8|8,1:0|1:0|1:0|1:0,0:0:0:0:
69,117,136691,2,0,L|59:49,3,64.7499997529984,8|8|8|8,1:0|1:0|1:0|1:0,0:0:0:0:
254,181,136991,5,8,1:0:0:0:
221,223,137066,1,8,1:0:0:0:
170,240,137141,1,8,1:0:0:0:
119,228,137216,1,8,1:0:0:0:
86,194,137291,6,0,L|13:183,3,66.4999982242585,10|8|8|8,1:0|1:0|1:0|1:0,0:0:0:0:
74,324,137591,2,0,L|143:313,3,70,8|8|8|8,1:0|1:0|1:0|1:0,0:0:0:0:
149,114,137891,2,0,L|69:102,3,77.0000023498536,8|8|8|8,1:0|1:0|1:0|1:0,0:0:0:0:
280,162,138191,5,8,1:0:0:0:
331,193,138266,1,8,1:0:0:0:
388,197,138341,1,8,1:0:0:0:
432,158,138416,1,8,1:0:0:0:
447,107,138491,5,8,1:0:0:0:
405,126,138566,1,8,1:0:0:0:
389,161,138641,1,8,1:0:0:0:
388,191,138716,1,8,1:0:0:0:
393,213,138791,1,8,1:0:0:0:
401,226,138866,1,8,1:0:0:0:
412,236,138941,1,8,1:0:0:0:
426,240,139016,1,8,1:0:0:0:
433,240,139091,1,8,1:0:0:0:
440,238,139166,1,8,1:0:0:0:
446,233,139241,1,8,1:0:0:0:
448,225,139316,1,8,1:0:0:0:
447,209,139391,1,8,1:0:0:0:
438,196,139466,1,8,1:0:0:0:
418,182,139541,1,8,1:0:0:0:
395,179,139616,1,8,1:0:0:0:
366,191,139691,5,8,1:1:0:0:
339,221,139766,1,8,1:0:0:0:
328,266,139841,1,8,1:0:0:0:
286,296,139916,1,8,1:0:0:0:
233,298,139991,1,8,1:1:0:0:
184,270,140066,1,8,1:0:0:0:
168,212,140141,1,8,1:0:0:0:
188,154,140216,1,8,1:0:0:0:
184,92,140291,5,8,1:1:0:0:
168,89,140366,1,8,1:0:0:0:
152,86,140441,1,8,1:0:0:0:
136,83,140516,1,8,1:0:0:0:
105,104,140591,5,8,1:1:0:0:
166,97,140666,1,8,1:0:0:0:
227,90,140741,1,8,1:0:0:0:
288,84,140816,1,8,1:0:0:0:
305,90,140891,5,10,1:1:0:0:
180,2,141041,1,0,3:0:0:0:
102,232,141191,5,10,1:0:0:0:
190,107,141341,1,0,3:0:0:0:
332,310,141491,5,10,1:0:0:0:
207,222,141641,1,0,3:0:0:0:
410,80,141791,5,10,1:0:0:0:
322,205,141941,1,0,3:0:0:0:
67,120,142091,5,10,1:0:0:0:
290,83,142241,1,0,3:0:0:0:
57,140,142391,5,10,1:0:0:0:
280,103,142541,1,0,3:0:0:0:
392,258,142691,5,10,1:0:0:0:
169,221,142841,1,0,3:0:0:0:
402,278,142991,5,10,1:0:0:0:
179,241,143141,1,0,3:0:0:0:
494,247,143291,6,0,P|493:302|452:378,1,105.000004005432,10|0,1:0|3:0,0:0:0:0:
410,102,143591,2,0,P|410:49|428:0,1,105.000004005432,10|0,1:0|3:0,0:0:0:0:
179,241,143891,6,0,L|74:246,1,105.000004005432,10|0,1:0|3:0,0:0:0:0:
297,283,144191,2,0,L|401:277,1,105.000004005432,10|0,1:0|3:0,0:0:0:0:
86,116,144491,5,10,1:0:0:0:
46,326,144641,1,0,3:0:0:0:
87,99,144791,5,10,1:0:0:0:
138,364,144941,1,0,3:0:0:0:
205,58,145091,5,10,1:0:0:0:
145,341,145241,1,0,3:0:0:0:
91,120,145391,5,10,1:0:0:0:
148,319,145541,1,0,3:0:0:0:
401,108,145691,5,10,1:0:0:0:
441,318,145841,1,0,3:0:0:0:
400,91,145991,5,10,1:0:0:0:
349,356,146141,1,0,3:0:0:0:
282,50,146291,5,10,1:0:0:0:
342,333,146441,1,0,3:0:0:0:
396,112,146591,5,10,1:0:0:0:
339,311,146741,1,0,3:0:0:0:
72,137,146891,6,0,L|225:126,1,105.000004005432,10|0,1:0|3:0,0:0:0:0:
192,289,147191,2,0,L|39:300,1,105.000004005432,10|0,1:0|3:0,0:0:0:0:
169,56,147491,6,0,L|65:64,1,105.000004005432,10|0,1:0|3:0,0:0:0:0:
93,371,147791,2,0,L|198:364,1,105.000004005432,10|0,1:0|3:0,0:0:0:0:
432,107,148091,5,10,1:0:0:0:
189,63,148241,1,0,3:0:0:0:
441,132,148391,5,10,1:0:0:0:
198,88,148541,1,0,3:0:0:0:
69,245,148691,5,10,1:0:0:0:
312,201,148841,1,0,3:0:0:0:
60,270,148991,5,10,1:0:0:0:
303,226,149141,1,0,3:0:0:0:
146,364,149291,6,0,L|35:353,1,105.000004005432,10|0,1:0|3:0,0:0:0:0:
126,176,149591,2,0,L|237:165,1,105.000004005432,10|0,1:0|3:0,0:0:0:0:
296,354,149891,6,0,L|407:343,1,105.000004005432,10|0,1:0|3:0,0:0:0:0:
506,241,150191,2,0,L|395:230,1,105.000004005432,10|0,1:0|3:0,0:0:0:0:
228,147,150491,5,14,1:0:0:0:
224,126,150566,1,0,0:0:0:0:
221,105,150641,1,0,3:0:0:0:
266,18,150791,5,10,1:0:0:0:
187,231,150941,1,0,3:0:0:0:
169,29,151091,6,0,P|112:15|52:21,1,105.000004005432,14|0,1:1|3:0,0:0:0:0:
278,202,151391,2,0,P|330:204|380:190,1,105.000004005432,10|0,1:0|3:0,0:0:0:0:
60,251,151691,5,14,1:0:0:0:
224,126,151841,1,0,3:0:0:0:
25,163,151991,5,10,1:0:0:0:
278,202,152141,1,0,3:0:0:0:
95,101,152291,6,0,P|91:26|116:-21,1,105.000004005432,14|0,1:0|3:0,0:0:0:0:
216,283,152591,2,0,P|220:358|195:405,1,105.000004005432,10|0,1:0|3:0,0:0:0:0:
278,202,152891,5,14,1:0:0:0:
282,178,152966,1,0,0:0:0:0:
285,155,153041,1,0,3:0:0:0:
235,57,153191,5,10,1:0:0:0:
323,295,153341,1,0,3:0:0:0:
343,70,153491,6,0,P|406:54|473:61,1,105.000004005432,14|0,1:0|3:0,0:0:0:0:
216,283,153791,2,0,P|157:285|101:270,1,105.000004005432,10|0,1:0|3:0,0:0:0:0:
436,206,154091,5,14,1:0:0:0:
144,160,154241,1,0,3:0:0:0:
461,131,154391,5,10,1:0:0:0:
113,232,154541,1,0,3:0:0:0:
295,13,154691,5,14,1:0:0:0:
373,352,154841,1,0,3:0:0:0:
382,47,154991,5,10,1:0:0:0:
284,372,155141,1,0,3:0:0:0:
512,192,155291,5,14,1:0:0:0:
256,192,155366,12,0,159416,0:0:0:0:
391,84,159491,5,8,1:0:0:0:
391,84,159528,1,8,1:0:0:0:
303,352,159791,5,0,3:0:0:0:
69,174,160091,6,0,P|136:201|141:222,1,78.7500030040742,4|0,3:1|0:0,0:0:0:0:
45,173,160391,2,0,P|83:71|127:64,1,157.500006008148,4|0,3:0|0:0,0:0:0:0:
148,68,160691,5,8,1:0:0:0:
69,260,160841,1,8,1:0:0:0:
256,192,160991,1,8,1:0:0:0:
119,63,161141,6,0,L|27:68,1,87.5,4|0,3:1|0:0,0:0:0:0:
213,4,161591,2,0,L|382:13,1,157.500006008148,4|0,3:3|0:0,0:0:0:0:
427,19,161891,1,8,1:0:0:0:
326,157,162041,1,8,1:0:0:0:
505,170,162191,1,8,1:0:0:0:
263,102,162341,6,0,P|248:131|254:198,1,87.5,4|0,3:1|0:0,0:0:0:0:
188,262,162791,2,0,P|159:221|48:224,1,157.500006008148,4|0,3:3|0:0,0:0:0:0:
34,239,163091,5,8,1:0:0:0:
166,130,163241,1,8,1:0:0:0:
96,308,163391,1,8,1:0:0:0:
106,60,163541,6,0,P|56:46|7:46,1,87.5,4|0,3:1|0:0,0:0:0:0:
166,130,163991,2,0,P|227:147|346:125,1,157.500006008148,4|0,3:3|0:0,0:0:0:0:
435,85,164291,6,0,L|476:88,1,35,8|8,1:0|1:0,0:0:0:0:
185,0,164741,5,8,1:0:0:0:
176,8,164816,1,8,1:0:0:0:
169,14,164891,2,0,L|76:19,1,78.7500030040742,4|0,3:1|0:0,0:0:0:0:
184,31,165191,6,0,P|220:84|176:159,1,157.500006008148,4|0,3:0|0:0,0:0:0:0:
151,165,165491,1,8,1:0:0:0:
262,94,165641,1,8,1:0:0:0:
165,253,165791,1,8,1:0:0:0:
7,107,165941,6,0,L|-1:13,1,87.5,4|0,3:1|0:0,0:0:0:0:
59,172,166391,2,0,L|41:335,1,157.500006008148,4|0,3:3|0:0,0:0:0:0:
35,355,166691,1,8,1:0:0:0:
151,165,166841,1,8,1:0:0:0:
20,257,166991,1,8,1:0:0:0:
178,349,167141,6,0,P|222:359|266:360,1,87.5,4|0,3:1|0:0,0:0:0:0:
339,235,167591,2,0,P|387:209|511:211,1,157.500006008148,4|0,3:3|0:0,0:0:0:0:
511,216,167891,1,8,1:0:0:0:
420,83,168041,1,8,1:0:0:0:
431,286,168191,1,8,1:0:0:0:
499,64,168341,6,0,P|476:20|428:3,1,87.5,4|0,3:1|0:0,0:0:0:0:
342,98,168791,2,0,L|172:102,1,157.500006008148,0|0,3:0|0:0,0:0:0:0:
59,22,169091,2,0,L|19:20,1,35,8|0,1:0|3:0,0:0:0:0:
198,294,169691,6,0,P|164:321|108:313,1,78.7500030040742,4|0,3:1|0:0,0:0:0:0:
215,274,169991,2,0,P|308:264|414:285,1,157.500006008148,4|0,3:0|0:0,0:0:0:0:
407,286,170291,1,8,1:0:0:0:
261,166,170441,1,8,1:0:0:0:
295,349,170591,1,8,1:0:0:0:
375,120,170741,6,0,P|381:80|382:29,1,87.5,4|0,3:1|0:0,0:0:0:0:
261,166,171191,2,0,P|221:172|88:171,1,157.500006008148,4|0,3:3|0:0,0:0:0:0:
61,165,171491,1,8,1:0:0:0:
127,29,171641,1,8,1:0:0:0:
125,291,171791,1,8,1:0:0:0:
61,165,171941,6,0,L|56:75,1,87.5,4|0,3:1|0:0,0:0:0:0:
211,43,172391,2,0,L|378:51,1,157.500006008148,4|0,3:3|0:0,0:0:0:0:
402,53,172691,1,8,1:0:0:0:
289,192,172841,1,8,1:0:0:0:
211,43,172991,1,8,1:0:0:0:
371,196,173141,6,0,P|350:250|313:272,1,87.5,4|0,3:1|0:0,0:0:0:0:
280,347,173591,2,0,P|202:312|129:311,1,157.500006008148,0|0,3:0|0:0,0:0:0:0:
38,367,173891,5,8,1:0:0:0:
41,384,174041,1,0,3:0:0:0:
23,144,174191,5,8,1:0:0:0:
50,270,174341,1,8,1:0:0:0:
116,27,174491,6,0,P|67:33|44:73,1,78.7500030040742,4|0,3:3|0:0,0:0:0:0:
140,38,174791,2,0,P|217:59|301:29,1,157.500006008148,4|0,3:3|0:0,0:0:0:0:
312,20,175091,1,8,1:1:0:0:
245,215,175241,1,8,1:1:0:0:
370,155,175391,1,8,1:1:0:0:
164,180,175541,6,0,P|164:252|177:279,1,87.5,4|0,3:1|0:0,0:0:0:0:
159,366,175991,2,0,P|107:318|11:321,1,157.500006008148,4|0,3:3|0:0,0:0:0:0:
0,332,176291,1,8,1:1:0:0:
35,148,176441,1,8,1:1:0:0:
84,235,176591,1,8,1:1:0:0:
234,132,176741,6,0,L|332:126,1,87.5,4|0,3:1|0:0,0:0:0:0:
429,82,177191,2,0,P|410:209|413:238,1,157.500006008148,4|0,3:3|0:0,0:0:0:0:
429,257,177491,1,8,1:1:0:0:
485,23,177641,1,8,1:1:0:0:
321,126,177791,1,8,1:1:0:0:
232,38,177941,6,0,P|189:23|141:17,1,87.5,4|0,3:1|0:0,0:0:0:0:
56,92,178391,2,0,P|78:143|77:251,1,157.500006008148,0|0,3:0|0:0,0:0:0:0:
0,383,178691,5,8,1:0:0:0:
256,192,182652,12,0,190693,3:0:0:0:
235,141,191086,6,0,B|185:187|223:254|223:254|309:243|308:168,1,251.999992309571,4|0,3:0|0:0,0:0:0:0:
