osu file format v14

[General]
AudioFilename: audio.mp3
AudioLeadIn: 0
PreviewTime: 24034
Countdown: 0
SampleSet: Soft
StackLeniency: 0.7
Mode: 0
LetterboxInBreaks: 0
WidescreenStoryboard: 1

[Editor]
Bookmarks: 34084,43684,53284,58084,73684,101284,112084,113284,131284,140884,155284,155584,155884,156184,156484,156784,157084,157384,157684,157984,158284,158584,158884,159184,159484,159784,160084
DistanceSpacing: 1.1
BeatDivisor: 8
GridSize: 32
TimelineZoom: 2.1

[Metadata]
Title:Noah Fence
TitleUnicode:Noah Fence
Artist:Origami Angel
ArtistUnicode:Origami Angel
Creator:WashedUp Player
Version:squirrelp's Extra
Source:
Tags:hantrik squirrelpascals gami gang english emo alternative punk indie rock fa featured artist
BeatmapID:3990667
BeatmapSetID:1931702

[Difficulty]
HPDrainRate:4.8
CircleSize:4.3
OverallDifficulty:9
ApproachRate:9.3
SliderMultiplier:1.7
SliderTickRate:1

[Events]
//Background and Video events
0,0,"adrienne-kaplan.jpg",0,0
//Break Periods
//Storyboard Layer 0 (Background)
//Storyboard Layer 1 (Fail)
//Storyboard Layer 2 (Pass)
//Storyboard Layer 3 (Foreground)
//Storyboard Layer 4 (Overlay)
//Storyboard Sound Samples

[TimingPoints]
191,300,4,2,1,70,1,0
191,-400,4,2,1,70,0,0
341,-400,4,2,1,5,0,0
491,300,4,2,1,70,1,0
2291,-66.6666666666667,4,2,1,70,0,0
2891,-100,4,2,1,70,0,0
5291,-76.9230769230769,4,2,1,70,0,0
5966,-76.9230769230769,4,2,1,5,0,0
6041,-76.9230769230769,4,2,1,70,0,0
6191,-100,4,2,1,70,0,0
6416,-100,4,2,1,5,0,0
6491,-66.6666666666667,4,2,1,70,0,0
6716,-66.6666666666667,4,2,1,5,0,0
6791,-66.6666666666667,4,2,1,70,0,0
6941,-76.9230769230769,4,2,1,70,0,0
7691,-133.333333333333,4,2,1,70,0,0
8291,-166.666666666667,4,2,1,70,0,0
8891,-1000,4,2,1,70,0,0
10091,-76.9230769230769,4,2,1,70,0,0
10766,-76.9230769230769,4,2,1,5,0,0
10841,-76.9230769230769,4,2,1,70,0,0
10991,-100,4,2,1,70,0,0
11291,-66.6666666666667,4,2,1,70,0,0
11516,-66.6666666666667,4,2,1,5,0,0
11591,-66.6666666666667,4,2,1,70,0,0
11741,-100,4,2,1,70,0,0
14891,-58.8235294117647,4,2,1,65,0,0
15191,-100,4,2,1,65,0,0
15941,-76.9230769230769,4,2,1,65,0,0
16691,-100,4,2,1,65,0,0
17291,-58.8235294117647,4,2,1,65,0,0
17591,-100,4,2,1,65,0,0
18341,-76.9230769230769,4,2,1,65,0,0
19691,-58.8235294117647,4,2,1,65,0,0
19991,-100,4,2,1,65,0,0
20741,-76.9230769230769,4,2,1,65,0,0
21191,-100,4,2,1,65,0,0
22091,-66.6666666666667,4,2,1,65,0,0
22841,-86.9565217391304,4,2,1,65,0,0
23066,-86.9565217391304,4,2,1,5,0,0
23141,-76.9230769230769,4,2,1,65,0,0
24491,-100,4,2,1,70,0,0
26891,-76.9230769230769,4,2,1,70,0,0
27491,-100,4,2,1,70,0,0
29291,-76.9230769230769,4,2,1,70,0,0
29891,-100,4,2,1,70,0,0
33791,-55.5555555555556,4,2,1,70,0,0
34391,-333.333333333333,4,2,1,70,0,0
36491,-50,4,2,1,70,0,0
36791,-250,4,2,1,70,0,0
38891,-100,4,2,1,70,0,0
39191,-500,4,2,1,70,0,0
41291,-500,4,2,1,68,0,0
41591,-500,4,2,1,71,0,0
41891,-500,4,2,1,74,0,0
42191,-500,4,2,1,77,0,0
42491,-500,4,2,1,80,0,0
43691,-62.5,4,2,1,80,0,0
44141,-76.9230769230769,4,2,1,80,0,0
44741,-62.5,4,2,1,80,0,0
45191,-76.9230769230769,4,2,1,80,0,0
47141,-62.5,4,2,1,80,0,0
47591,-76.9230769230769,4,2,1,80,0,0
48566,-76.9230769230769,4,2,1,5,0,0
48641,-76.9230769230769,4,2,1,80,0,0
50216,-76.9230769230769,4,2,1,5,0,0
50291,-76.9230769230769,4,2,1,80,0,0
51791,-62.5,4,2,1,80,0,0
52016,-62.5,4,2,1,5,0,0
52091,-133.333333333333,4,2,1,80,0,0
53291,-55.5555555555556,4,2,1,80,0,1
55391,-50,4,2,1,80,0,1
55616,-50,4,2,1,5,0,1
55691,-55.5555555555556,4,2,1,80,0,1
56741,-43.4782608695652,4,2,1,80,0,1
57191,-76.9230769230769,4,2,1,80,0,1
58091,-76.9230769230769,4,2,1,75,0,0
60191,-333.333333333333,4,2,1,75,0,0
60491,-333.333333333333,4,2,1,70,0,0
61691,293.398533007335,4,2,1,70,1,0
61984,281.030444964871,4,2,1,70,1,0
62265,295.930949445129,4,2,1,70,1,0
62265,-66.6666666666667,4,2,1,70,0,0
62560,329.67032967033,4,2,1,70,1,0
62891,300,4,2,1,70,1,0
64391,293.040293040293,4,2,1,70,1,0
64684,293.7576499388,4,2,1,70,1,0
64977,314.13612565445,4,2,1,70,1,0
65291,300,4,2,1,70,1,0
65291,-76.9230769230769,4,2,1,70,0,0
66191,-100,4,2,1,70,0,0
66416,-100,4,2,1,5,0,0
66491,-66.6666666666667,4,2,1,70,0,0
66941,-76.9230769230769,4,2,1,70,0,0
67691,-133.333333333333,4,2,1,70,0,0
68291,-166.666666666667,4,2,1,70,0,0
68891,-1000,4,2,1,70,0,0
69791,-250,4,2,1,70,0,0
70091,-76.9230769230769,4,2,1,70,0,0
70766,-76.9230769230769,4,2,1,5,0,0
70841,-76.9230769230769,4,2,1,70,0,0
70991,-100,4,2,1,70,0,0
71291,-66.6666666666667,4,2,1,70,0,0
71516,-66.6666666666667,4,2,1,5,0,0
71591,-100,4,2,1,70,0,0
73391,-133.333333333333,4,2,1,70,0,0
73466,-133.333333333333,4,2,1,5,0,0
73541,-133.333333333333,4,2,1,70,0,0
73616,-133.333333333333,4,2,1,5,0,0
73691,-133.333333333333,4,2,1,75,0,0
74291,-50,4,2,1,75,0,0
74591,-133.333333333333,4,2,1,75,0,0
75191,-50,4,2,1,75,0,0
75716,-50,4,2,1,5,0,0
75791,-50,4,2,1,75,0,0
75866,-50,4,2,1,5,0,0
75941,-58.8235294117647,4,2,1,75,0,0
76541,-76.9230769230769,4,2,1,75,0,0
76991,-62.5,4,2,1,75,0,0
77216,-62.5,4,2,1,5,0,0
77291,-62.5,4,2,1,75,0,0
77591,-133.333333333333,4,2,1,75,0,0
77666,-133.333333333333,4,2,1,5,0,0
77891,-50,4,2,1,75,0,0
79691,-55.5555555555556,4,2,1,75,0,0
80291,-76.9230769230769,4,2,1,75,0,0
80741,-58.8235294117647,4,2,1,75,0,0
81341,-76.9230769230769,4,2,1,75,0,0
83741,-100,4,2,1,75,0,0
84191,-50,4,2,1,75,0,0
84491,-62.5,4,2,1,75,0,0
85541,-166.666666666667,4,2,1,75,0,0
85616,-166.666666666667,4,2,1,5,0,0
85691,-166.666666666667,4,2,1,75,0,0
86291,-133.333333333333,4,2,1,75,0,0
86891,-55.5555555555556,4,2,1,75,0,0
87791,-76.9230769230769,4,2,1,75,0,0
88091,-200,4,2,1,75,0,0
88691,-100,4,2,1,75,0,0
88991,-76.9230769230769,4,2,1,75,0,0
89591,-55.5555555555556,4,2,1,75,0,0
89816,-55.5555555555556,4,2,1,5,0,0
89891,-55.5555555555556,4,2,1,75,0,0
90041,-66.6666666666667,4,2,1,75,0,0
91691,-76.9230769230769,4,2,1,75,0,0
91991,-55.5555555555556,4,2,1,75,0,0
92216,-55.5555555555556,4,2,1,5,0,0
92291,-55.5555555555556,4,2,1,75,0,0
92441,-66.6666666666667,4,2,1,75,0,0
94391,-50,4,2,1,75,0,1
96491,-50,4,2,1,75,0,0
97091,-133.333333333333,4,2,1,75,0,0
98891,-66.6666666666667,4,2,1,75,0,0
99491,-66.6666666666667,4,2,1,75,0,1
99641,-50,4,2,1,75,0,1
100991,-40,4,2,1,75,0,1
101291,-40,4,2,1,75,0,0
103241,-40,4,2,1,80,0,0
103391,-133.333333333333,4,2,1,80,0,0
103691,-55.5555555555556,4,2,1,80,0,0
105491,-76.9230769230769,4,2,1,80,0,0
106091,-100,4,2,1,80,0,0
108116,-76.9230769230769,4,2,1,80,0,0
108491,-55.5555555555556,4,2,1,80,0,0
110291,-76.9230769230769,4,2,1,80,0,0
110516,-76.9230769230769,4,2,1,80,0,0
112091,-285.714285714286,4,2,1,80,0,0
113291,-62.5,4,2,1,80,0,0
113741,-76.9230769230769,4,2,1,80,0,0
114341,-62.5,4,2,1,80,0,0
114791,-76.9230769230769,4,2,1,80,0,0
116741,-62.5,4,2,1,80,0,0
117791,-250,4,2,1,80,0,0
118091,-100,4,2,1,80,0,0
118166,-100,4,2,1,5,0,0
118241,-76.9230769230769,4,2,1,80,0,0
119816,-76.9230769230769,4,2,1,5,0,0
119891,-76.9230769230769,4,2,1,80,0,0
121616,-76.9230769230769,4,2,1,5,0,0
121691,-200,4,2,1,80,0,0
122891,-100,4,2,1,70,0,0
125291,-133.333333333333,4,2,1,70,0,0
125891,-66.6666666666667,4,2,1,70,0,0
126491,-1000,4,2,1,70,0,0
126528,-1000,4,2,2,5,0,0
129491,-1000,4,2,1,70,0,0
129528,-1000,4,2,2,5,0,0
130091,-1000,4,2,1,70,0,0
130128,-1000,4,2,2,5,0,0
130691,-1000,4,2,1,70,0,0
131291,-333.333333333333,4,2,1,35,0,0
131591,-333.333333333333,4,2,1,37,0,0
131891,-333.333333333333,4,2,1,39,0,0
132191,-333.333333333333,4,2,1,41,0,0
132491,-166.666666666667,4,2,1,43,0,0
132791,-166.666666666667,4,2,1,45,0,0
133091,-133.333333333333,4,2,1,47,0,0
133391,-133.333333333333,4,2,1,49,0,0
133691,-100,4,2,1,51,0,0
133991,-100,4,2,1,53,0,0
134291,-80,4,2,1,55,0,0
134591,-80,4,2,1,57,0,0
134891,-166.666666666667,4,2,1,59,0,0
135191,-166.666666666667,4,2,1,61,0,0
135491,-166.666666666667,4,2,1,62,0,0
135791,-166.666666666667,4,2,1,64,0,0
136091,-333.333333333334,4,2,1,66,0,0
136391,-333.333333333334,4,2,1,68,0,0
136691,-333.333333333334,4,2,1,70,0,0
136991,-333.333333333334,4,2,1,72,0,0
137291,-166.666666666667,4,2,1,74,0,0
137591,-166.666666666667,4,2,1,76,0,0
137891,-133.333333333333,4,2,1,78,0,0
138191,-133.333333333333,4,2,1,80,0,0
138491,-80,4,2,1,82,0,0
138791,-133.333333333333,4,2,1,84,0,0
139091,-80,4,2,1,86,0,0
139391,-57.1428571428571,4,2,1,88,0,0
139691,-71.4285714285714,4,2,1,90,0,0
140891,-500,4,2,1,95,0,0
150491,-50,4,2,1,95,0,0
151091,-50,4,2,2,95,0,0
151391,-500,4,2,2,95,0,0
151691,-58.8235294117647,4,2,1,95,0,0
152291,-58.8235294117647,4,2,2,95,0,0
152591,-500,4,2,2,95,0,0
152891,-45.4545454545455,4,2,1,95,0,0
153491,-45.4545454545455,4,2,2,95,0,0
154091,-45.4545454545455,4,2,1,95,0,0
154691,-45.4545454545455,4,2,2,95,0,0
155291,-50,4,2,1,95,0,0
157541,-250,4,2,1,95,0,0
159491,-250,4,2,1,75,0,0
160091,-55.5555555555556,4,2,1,75,0,0
160316,-55.5555555555556,4,2,1,5,0,0
160391,-55.5555555555556,4,2,1,75,0,0
160616,-55.5555555555556,4,2,1,5,0,0
160691,-55.5555555555556,4,2,1,75,0,0
164291,-133.333333333333,4,2,1,75,0,0
164891,-55.5555555555556,4,2,1,75,0,0
165116,-55.5555555555556,4,2,1,5,0,0
165191,-55.5555555555556,4,2,1,75,0,0
165416,-55.5555555555556,4,2,1,5,0,0
165491,-55.5555555555556,4,2,1,75,0,0
169091,-133.333333333333,4,2,1,75,0,0
169691,-55.5555555555556,4,2,1,75,0,0
169916,-55.5555555555556,4,2,1,5,0,0
169991,-55.5555555555556,4,2,1,75,0,0
170216,-55.5555555555556,4,2,1,5,0,0
170291,-55.5555555555556,4,2,1,75,0,0
173141,-66.6666666666667,4,2,1,75,0,0
174491,-55.5555555555556,4,2,1,75,0,0
174716,-55.5555555555556,4,2,1,5,0,0
174791,-55.5555555555556,4,2,1,75,0,0
175016,-55.5555555555556,4,2,1,5,0,0
175091,-55.5555555555556,4,2,1,75,0,0
176741,-50,4,2,1,75,0,0
178391,-66.6666666666667,4,2,1,75,0,0
178691,330.123796423659,4,2,1,100,1,0
178691,-909.090909090909,4,2,1,100,0,0
178732,-909.090909090909,4,2,2,5,0,0
181414,-909.090909090909,4,2,1,100,0,0
181497,-200,4,2,1,100,0,0
182652,300,4,2,1,100,1,0
183102,-200,4,2,1,100,0,0
183402,-142.857142857143,4,2,1,100,0,0
183702,-125,4,2,1,100,0,0
183852,303.030303030303,4,2,1,100,1,0
183852,-66.6666666666667,4,2,1,100,0,0
184155,324.763193504736,4,2,1,100,1,0
184155,-66.6666666666667,4,2,1,100,0,0
184479,351.390922401171,4,2,1,100,1,0
184596,234.833659491194,4,2,1,100,1,0
184674,363.636363636364,4,2,1,100,1,0
184796,289.156626506024,4,2,1,100,1,0
185012,263.157894736842,4,2,1,100,1,0
185143,266.075388026608,4,2,1,100,1,0
185143,-200,4,2,1,100,0,0
185675,314.13612565445,4,2,1,100,1,0
185832,287.425149700599,4,2,1,100,1,0
185832,-200,4,2,1,100,0,0
186119,264.31718061674,4,2,1,100,1,0
186251,300.751879699248,4,2,1,100,1,0
186251,-200,4,2,1,100,0,0
186702,369.230769230769,4,2,1,100,1,0
186886,355.029585798817,4,2,1,100,1,0
186886,-200,4,2,1,100,0,0
187241,338.983050847458,4,2,1,100,1,0
187579,340.909090909091,4,2,1,100,1,0
187919,427.807486631016,4,2,1,100,1,0
188346,387.096774193548,4,2,1,100,1,0
188442,-50,4,2,1,100,0,0
188539,327.868852459016,4,2,1,100,1,0
188702,352.941176470588,4,2,1,100,1,0
188878,358.744394618834,4,2,1,100,1,0
189057,355.555555555555,4,2,1,100,1,0
189234,361.44578313253,4,2,1,100,1,0
189414,349.344978165939,4,2,1,100,1,0
189588,360.902255639098,4,2,1,100,1,0
189768,273.037542662116,4,2,1,100,1,0
189904,263.736263736263,4,2,1,100,1,0
190035,310.077519379845,4,2,1,100,1,0
190112,368.098159509202,4,2,1,100,1,0
190296,430.10752688172,4,2,1,100,1,0
190511,364.741641337386,4,2,1,100,1,0
190693,393.44262295082,4,2,1,100,1,0
191086,-500,4,2,1,100,0,0
191135,-500,4,2,2,5,0,0

[Colours]
Combo1 : 130,182,206
Combo2 : 225,135,104
Combo3 : 245,242,129
Combo4 : 117,188,92
SliderTrackOverride : 133,59,54

[HitObjects]
494,301,191,6,0,P|474:308|466:315,1,21.25,8|0,1:0|0:0,0:0:0:0:
200,219,491,5,4,3:0:0:0:
275,55,641,1,0,3:0:0:0:
113,114,791,1,8,1:0:0:0:
229,223,941,5,0,0:0:0:0:
256,37,1091,1,0,3:0:0:0:
105,148,1241,1,0,3:0:0:0:
255,204,1391,5,8,1:0:0:0:
188,2,1541,1,0,0:0:0:0:
328,142,1691,6,0,L|442:174,1,85,8|0,1:0|0:0,0:0:0:0:
200,215,1991,2,0,L|90:249,1,85,8|0,1:0|0:0,0:0:0:0:
295,63,2291,2,0,L|315:338,1,255.000009727478,8|8,1:0|1:0,0:0:0:0:
306,342,2891,5,4,3:0:0:0:
508,367,3041,1,0,3:0:0:0:
373,224,3191,1,8,1:0:0:0:
312,366,3341,5,0,0:0:0:0:
512,333,3491,1,0,3:0:0:0:
349,219,3641,1,0,3:0:0:0:
350,384,3791,5,8,1:0:0:0:
495,177,3941,1,0,0:0:0:0:
332,55,4091,6,0,L|339:141,1,85,8|0,1:0|0:0,0:0:0:0:
213,280,4391,2,0,L|207:365,1,85,8|0,1:0|0:0,0:0:0:0:
426,60,4691,6,0,L|339:67,1,85,8|0,1:0|0:0,0:0:0:0:
110,285,4991,2,0,L|196:292,1,85,8|0,1:0|0:0,0:0:0:0:
435,327,5291,6,0,B|437:286|437:286|262:382,1,220.999989883423,4|8,3:0|1:0,0:0:0:0:
76,215,5741,2,0,B|114:212|114:212|203:325,1,165.749992412568,0|0,3:0|0:0,0:0:0:0:
146,372,6041,1,0,3:0:0:0:
167,221,6191,2,0,P|177:151|150:72,1,127.5,8|0,1:0|0:0,0:0:0:0:
79,0,6491,6,0,P|138:70|274:64,1,191.250007295609,4|0,3:0|0:0,0:0:0:0:
307,61,6791,1,8,1:0:0:0:
365,232,6941,2,0,B|167:207|167:207|138:226,1,220.999989883423,0|0,3:0|3:0,0:0:0:0:
379,336,7391,1,8,1:0:0:0:
392,223,7541,1,0,0:0:0:0:
484,99,7691,5,8,1:0:0:0:
391,0,7891,2,0,L|409:114,1,85.0000032424928,8|8,3:0|3:0,0:0:0:0:
331,176,8291,5,8,1:0:0:0:
225,150,8491,2,0,L|289:112,1,67.9999979248048,8|8,3:0|3:0,0:0:0:0:
480,348,8891,6,0,P|466:350|443:367,1,34,2|0,0:1|0:0,0:0:0:0:
487,277,9641,5,0,3:0:0:0:
487,277,9716,1,0,3:0:0:0:
487,277,9791,1,8,1:0:0:0:
415,347,9941,5,0,0:0:0:0:
242,319,10091,6,0,B|193:271|192:167|192:167|180:231,1,220.999989883423,4|8,3:0|1:0,0:0:0:0:
10,101,10541,2,0,L|187:-6,1,165.749992412568,0|0,3:0|0:0,0:0:0:0:
219,46,10841,1,0,3:0:0:0:
178,231,10991,2,0,L|168:147,1,85,8|0,1:0|0:0,0:0:0:0:
359,166,11291,6,0,P|294:183|187:302,1,191.250007295609,4|0,3:0|0:0,0:0:0:0:
178,333,11591,1,8,1:0:0:0:
20,265,11741,6,0,L|126:273,1,85,0|0,3:0|0:0,0:0:0:0:
272,366,12041,1,0,3:0:0:0:
272,366,12191,2,0,L|372:357,1,85,8|0,1:0|0:0,0:0:0:0:
507,303,12491,5,2,3:0:0:0:
448,235,12791,5,8,1:0:0:0:
450,245,12941,1,0,3:0:0:0:
443,238,13091,1,0,0:0:0:0:
453,241,13241,1,0,3:0:0:0:
444,243,13391,1,8,1:0:0:0:
453,236,13541,1,0,3:0:0:0:
409,175,13691,5,8,1:0:0:0:
492,314,13841,1,0,3:0:0:0:
470,129,13991,5,8,1:0:0:0:
432,359,14141,1,2,3:1:0:0:
510,194,14291,5,10,1:0:0:0:
391,295,14441,1,2,3:1:0:0:
476,85,14591,5,10,1:0:0:0:
476,85,14741,1,2,3:1:0:0:
317,230,14891,6,0,P|327:190|238:169,1,144.500002756119,12|0,1:0|3:0,0:0:0:0:
312,221,15191,2,0,P|334:165|320:58,1,170,10|2,1:0|0:1,0:0:0:0:
164,170,15641,5,2,3:1:0:0:
164,170,15791,1,8,1:0:0:0:
218,4,15941,2,0,L|212:246,1,220.999989883423,2|0,3:1|3:0,0:0:0:0:
35,371,16391,5,8,1:0:0:0:
135,316,16541,1,0,0:0:0:0:
34,187,16691,2,0,L|17:285,1,85,2|0,3:1|3:0,0:0:0:0:
43,170,16991,2,0,L|38:274,1,85,10|0,1:0|0:0,0:0:0:0:
247,294,17291,6,0,P|235:325|341:319,1,144.500002756119,2|0,3:1|0:0,0:0:0:0:
212,224,17591,1,10,1:0:0:0:
257,297,17741,2,0,P|306:302|406:375,1,170,2|0,0:1|3:1,0:0:0:0:
402,369,18191,1,8,1:0:0:0:
512,187,18341,6,0,L|265:211,1,220.999989883423,0|0,3:1|3:1,0:0:0:0:
493,231,18791,1,8,1:0:0:0:
493,231,18941,1,2,0:1:0:0:
375,46,19091,5,2,3:1:0:0:
401,128,19241,1,2,3:1:0:0:
437,0,19391,5,10,1:1:0:0:
422,126,19541,1,2,0:1:0:0:
286,95,19691,6,0,P|253:106|263:198,1,144.500002756119,2|0,3:1|0:0,0:0:0:0:
297,91,19991,2,0,P|223:140|92:131,1,170,10|0,1:0|0:0,0:0:0:0:
208,8,20441,5,2,3:1:0:0:
208,8,20591,1,8,1:0:0:0:
36,91,20741,2,0,L|273:27,1,220.999989883423,2|0,3:1|3:1,0:0:0:0:
413,48,21191,6,0,L|424:174,1,85,8|2,1:0|0:1,0:0:0:0:
500,176,21491,1,2,3:1:0:0:
500,176,21641,1,2,3:1:0:0:
407,24,21791,2,0,L|401:108,1,85,10|2,1:1|0:1,0:0:0:0:
390,282,22091,6,0,P|405:309|315:351,1,127.500004863739,2|0,3:1|0:0,0:0:0:0:
380,290,22391,2,0,P|354:283|393:188,1,127.500004863739,10|0,1:0|0:1,0:0:0:0:
459,270,22691,1,2,0:1:0:0:
372,291,22841,2,0,P|320:335|225:346,1,146.62500279665,2|0,3:1|0:0,0:0:0:0:
142,366,23141,6,0,L|164:138,1,220.999989883423,2|0,3:1|3:1,0:0:0:0:
180,305,23591,1,8,1:0:0:0:
39,8,23741,2,0,L|50:239,1,220.999989883423,0|2,0:0|3:1,0:0:0:0:
3,129,24191,1,10,1:1:0:0:
3,129,24341,1,2,0:1:0:0:
183,118,24491,5,2,3:1:0:0:
274,129,24641,1,0,3:1:0:0:
365,140,24791,1,10,1:1:0:0:
457,152,24941,1,2,3:1:0:0:
170,128,25091,5,2,3:1:0:0:
274,118,25241,1,0,3:1:0:0:
368,152,25391,1,10,1:1:0:0:
468,146,25541,1,2,3:1:0:0:
376,24,25691,6,0,L|256:34,1,85,2|0,3:1|3:1,0:0:0:0:
477,174,25991,2,0,L|469:259,1,85,10|0,1:1|3:1,0:0:0:0:
315,200,26291,5,0,3:1:0:0:
461,101,26441,1,0,3:1:0:0:
282,13,26591,2,0,L|321:133,1,85,10|2,1:1|3:1,0:0:0:0:
213,250,26891,6,0,P|161:179|29:144,1,220.999989883423,2|10,3:1|1:1,0:0:0:0:
150,296,27341,1,2,3:1:0:0:
130,49,27491,2,0,P|111:88|113:136,1,85,2|0,3:1|3:1,0:0:0:0:
243,230,27791,5,10,1:1:0:0:
243,230,27941,1,2,3:1:0:0:
223,371,28091,5,2,3:1:0:0:
308,336,28241,1,0,3:1:0:0:
393,302,28391,1,8,1:1:0:0:
478,267,28541,1,0,3:1:0:0:
204,371,28691,5,0,3:1:0:0:
308,346,28841,1,0,3:1:0:0:
389,295,28991,1,8,1:1:0:0:
484,275,29141,1,2,3:1:0:0:
397,203,29291,6,0,P|355:133|209:94,1,220.999989883423,2|10,3:1|1:1,0:0:0:0:
302,223,29741,1,2,3:1:0:0:
415,15,29891,2,0,P|447:85|436:121,1,85,2|0,3:1|3:1,0:0:0:0:
397,203,30191,5,10,1:1:0:0:
396,208,30341,1,2,3:1:0:0:
200,117,30491,6,0,P|167:109|132:70,1,85,2|0,3:1|3:1,0:0:0:0:
369,41,30791,2,0,P|390:14|440:0,1,85,10|0,1:1|3:1,0:0:0:0:
308,249,31091,5,0,3:1:0:0:
335,35,31241,1,2,3:1:0:0:
219,105,31391,2,0,L|237:209,1,85,10|2,1:1|3:1,0:0:0:0:
356,351,31691,5,10,1:0:0:0:
241,366,31991,5,10,1:0:0:0:
242,377,32141,1,2,3:1:0:0:
236,369,32291,1,8,1:0:0:0:
246,373,32441,1,2,3:1:0:0:
236,374,32591,1,8,1:0:0:0:
246,368,32741,1,2,3:1:0:0:
0,232,32891,5,8,1:0:0:0:
138,381,33041,1,0,3:1:0:0:
123,171,33191,5,8,1:0:0:0:
184,315,33341,1,2,3:1:0:0:
265,165,33491,5,10,1:0:0:0:
260,287,33641,1,0,3:1:0:0:
346,331,33791,6,0,L|158:321,1,152.999995330811,10|0,1:0|3:1,0:0:0:0:
459,229,34091,6,0,B|417:263|417:263|482:395,1,152.999995330811,14|0,1:0|0:0,0:0:0:0:
88,249,34391,2,0,B|138:173|138:173|27:38,1,254.999992218018,14|0,1:0|0:0,0:0:0:0:
26,48,36041,5,0,3:0:0:0:
85,176,36191,1,10,1:0:0:0:
49,2,36341,1,0,3:0:0:0:
249,42,36491,6,0,B|280:91|280:91|433:58,1,170,14|0,1:0|0:0,0:0:0:0:
309,361,36791,2,0,B|248:285|248:285|16:356,1,340,14|0,1:0|0:0,0:0:0:0:
21,364,38441,5,0,3:0:0:0:
204,381,38591,1,10,1:0:0:0:
7,287,38741,1,0,3:0:0:0:
236,164,38891,6,0,L|229:279,1,85,14|0,1:0|0:0,0:0:0:0:
111,25,39191,2,0,L|130:242,1,204,14|0,1:0|0:0,0:0:0:0:
446,352,41291,5,8,1:0:0:0:
445,363,41441,1,0,3:0:0:0:
450,355,41591,1,0,3:0:0:0:
440,359,41741,1,0,3:0:0:0:
450,360,41891,1,8,1:0:0:0:
440,354,42041,1,8,1:0:0:0:
386,288,42191,5,8,1:0:0:0:
378,288,42341,1,8,1:0:0:0:
466,252,42491,21,10,1:0:0:0:
409,197,42566,1,8,1:0:0:0:
339,203,42641,1,8,1:0:0:0:
299,239,42716,1,8,1:0:0:0:
288,280,42791,1,8,1:0:0:0:
286,308,42866,1,8,1:0:0:0:
273,325,42941,1,8,1:0:0:0:
259,336,43016,1,8,1:0:0:0:
249,340,43091,5,10,1:0:0:0:
174,336,43166,1,8,1:0:0:0:
121,331,43241,1,8,1:0:0:0:
86,327,43316,1,8,1:0:0:0:
61,325,43391,1,8,1:0:0:0:
44,324,43466,1,8,3:0:0:0:
33,323,43541,5,8,3:0:0:0:
23,345,43616,1,8,3:0:0:0:
29,370,43691,6,0,B|54:346|54:346|89:85,1,272,14|10,3:0|1:0,0:0:0:0:
207,261,44141,2,0,L|92:238,1,110.499994941712,2|0,3:1|3:1,0:0:0:0:
0,44,44441,2,0,L|132:22,1,110.499994941712,2|8,3:1|1:0,0:0:0:0:
291,311,44741,6,0,B|229:237|233:113|233:113|200:195,1,272,2|0,3:1|3:1,0:0:0:0:
401,285,45191,1,10,1:0:0:0:
287,41,45341,2,0,L|165:95,1,110.499994941712,2|0,3:1|3:1,0:0:0:0:
362,207,45641,5,2,3:1:0:0:
371,0,45791,1,8,1:0:0:0:
205,193,45941,6,0,L|187:304,1,110.499994941712,2|0,3:1|3:1,0:0:0:0:
418,384,46241,2,0,L|396:264,1,110.499994941712,2|8,3:1|1:0,0:0:0:0:
85,346,46541,6,0,L|223:315,1,110.499994941712,2|0,3:1|3:1,0:0:0:0:
388,283,46841,2,0,L|493:319,1,110.499994941712,2|8,3:1|1:0,0:0:0:0:
424,55,47141,6,0,B|425:27|425:27|305:89|308:236,1,272,2|2,3:1|3:1,0:0:0:0:
470,133,47591,2,0,L|455:3,1,110.499994941712,8|0,1:0|3:1,0:0:0:0:
274,108,47891,5,2,3:1:0:0:
402,203,48041,1,0,3:1:0:0:
336,0,48191,1,10,1:0:0:0:
336,0,48266,1,0,0:0:0:0:
336,0,48341,1,0,3:1:0:0:
147,137,48491,6,0,L|157:216,1,55.2499974708558,2|0,3:1|0:0,0:0:0:0:
78,21,48641,2,0,L|68:145,1,110.499994941712,2|8,3:1|1:0,0:0:0:0:
201,360,48941,6,0,L|329:345,1,110.499994941712,2|0,3:1|3:1,0:0:0:0:
106,266,49241,2,0,L|42:362,1,110.499994941712,2|8,3:1|1:0,0:0:0:0:
337,264,49541,5,2,3:1:0:0:
201,188,49691,1,2,3:1:0:0:
236,359,49841,1,0,3:1:0:0:
236,359,49991,6,0,L|420:374,1,165.749992412568,8|0,1:0|0:0,0:0:0:0:
479,343,50291,6,0,P|457:294|468:218,1,110.499994941712,2|0,3:1|3:1,0:0:0:0:
294,103,50591,1,10,1:0:0:0:
350,257,50741,6,0,P|372:180|350:114,1,110.499994941712,2|0,3:1|3:1,0:0:0:0:
512,15,51041,2,0,P|453:55|442:118,1,110.499994941712,2|8,3:1|1:0,0:0:0:0:
290,205,51341,6,0,P|349:245|360:308,1,110.499994941712,2|0,3:1|3:1,0:0:0:0:
471,0,51641,1,2,3:1:0:0:
352,120,51791,6,0,L|108:142,1,204,8|0,1:0|0:0,0:0:0:0:
64,151,52091,6,0,L|136:171,1,63.7500024318696,0|2,3:1|3:1,0:0:0:0:
153,21,52391,5,8,1:1:0:0:
153,21,52541,1,8,1:1:0:0:
205,280,52691,5,0,3:1:0:0:
289,267,52841,1,0,3:1:0:0:
262,58,52991,5,10,1:1:0:0:
262,58,53141,1,10,1:1:0:0:
137,216,53291,6,0,P|13:170|46:18,1,305.999990661621,2|10,3:1|1:0,0:0:0:0:
218,285,53741,6,0,P|354:253|402:384,1,305.999990661621,2|0,3:1|3:1,0:0:0:0:
120,226,54191,5,10,1:0:0:0:
127,141,54341,1,0,3:1:0:0:
219,293,54491,6,0,B|301:296|394:262|434:188|434:188|424:252|456:302,1,305.999990661621,2|10,3:1|1:0,0:0:0:0:
252,78,54941,6,0,B|236:79|219:109|219:109|230:55|198:-2|155:-34,1,152.999995330811,2|0,3:1|3:1,0:0:0:0:
471,0,55241,5,2,3:1:0:0:
407,119,55391,2,0,B|421:136|445:138|445:138|377:164|319:241|332:327,1,255,8|0,1:0|0:0,0:0:0:0:
349,376,55691,6,0,P|371:333|175:238,1,305.999990661621,2|10,3:1|1:0,0:0:0:0:
112,291,56141,6,0,P|77:351|-16:352,1,152.999995330811,2|0,3:1|3:1,0:0:0:0:
268,12,56441,2,0,P|303:72|396:73,1,152.999995330811,2|8,3:1|1:0,0:0:0:0:
17,282,56741,6,0,P|38:80|195:84,1,391.000007457733,2|0,3:1|3:1,0:0:0:0:
391,285,57191,6,0,L|522:276,1,110.499994941712,8|0,1:0|3:1,0:0:0:0:
133,181,57491,5,0,3:1:0:0:
243,188,57641,1,0,3:1:0:0:
353,193,57791,1,8,1:0:0:0:
463,200,57941,1,2,3:1:0:0:
420,75,58091,5,6,3:1:0:0:
418,83,58391,5,2,3:1:0:0:
416,91,58691,5,2,3:1:0:0:
414,99,58991,5,2,3:1:0:0:
454,377,59291,5,6,3:1:0:0:
499,278,60041,5,0,3:1:0:0:
499,278,60191,2,0,P|493:298|492:314,1,25.4999992218018,8|0,1:0|0:0,0:0:0:0:
333,354,60491,5,4,3:0:0:0:
144,371,60641,1,0,3:0:0:0:
321,246,60791,1,8,1:0:0:0:
322,380,60941,5,0,0:0:0:0:
123,332,61091,1,0,3:0:0:0:
342,259,61241,1,0,3:0:0:0:
286,383,61391,5,8,1:0:0:0:
129,188,61541,1,0,0:0:0:0:
352,271,61691,6,0,L|345:367,1,85,8|0,1:0|0:0,0:0:0:0:
115,146,61984,2,0,L|122:242,1,85,8|0,1:0|0:0,0:0:0:0:
332,337,62265,6,0,L|46:318,1,255.000009727478,8|8,1:0|1:0,0:0:0:0:
44,169,62891,5,4,3:0:0:0:
76,8,63041,1,0,3:0:0:0:
184,203,63191,1,8,1:0:0:0:
55,186,63341,5,0,0:0:0:0:
26,1,63491,1,0,3:0:0:0:
197,165,63641,1,0,3:0:0:0:
70,204,63791,5,8,1:0:0:0:
220,14,63941,1,0,0:0:0:0:
303,207,64091,6,0,L|295:304,1,85,8|0,1:0|0:0,0:0:0:0:
89,16,64391,2,0,L|101:126,1,85,8|0,1:0|0:0,0:0:0:0:
285,219,64684,6,0,L|369:227,1,85,8|0,1:0|0:0,0:0:0:0:
163,22,64977,2,0,L|78:30,1,85,8|0,1:0|0:0,0:0:0:0:
233,157,65291,6,0,P|294:107|437:67,1,220.999989883423,4|8,3:0|1:0,0:0:0:0:
298,0,65741,2,0,P|325:51|333:126,1,110.499994941712,0|0,3:0|0:0,0:0:0:0:
423,303,66041,1,0,3:0:0:0:
485,201,66191,2,0,B|479:218|482:228|482:228|453:198|450:136|470:98,1,127.5,8|0,1:0|0:0,0:0:0:0:
387,232,66491,6,0,P|331:192|232:190,1,127.500004863739,4|0,3:0|0:0,0:0:0:0:
426,315,66791,1,8,1:0:0:0:
193,118,66941,2,0,P|233:184|246:353,1,220.999989883423,0|0,3:0|3:0,0:0:0:0:
182,371,67391,1,8,1:0:0:0:
182,371,67541,1,0,0:0:0:0:
39,337,67691,5,8,1:0:0:0:
4,224,67891,2,0,L|103:215,1,85.0000032424928,8|8,3:0|3:0,0:0:0:0:
159,99,68291,5,8,1:0:0:0:
188,0,68491,2,0,L|244:58,1,67.9999979248048,8|8,3:0|3:0,0:0:0:0:
2,187,68891,6,0,L|-1:223,1,34,2|0,0:1|0:0,0:0:0:0:
19,170,69641,5,0,3:0:0:0:
5,16,69791,2,0,L|41:28,1,34,8|0,1:0|0:0,0:0:0:0:
246,161,70091,6,0,B|239:175|221:184|221:184|227:139|271:87|356:70,1,220.999989883423,4|8,3:0|1:0,0:0:0:0:
441,0,70541,2,0,P|396:77|404:203,1,165.749992412568,0|0,3:0|0:0,0:0:0:0:
446,207,70841,1,0,3:0:0:0:
247,78,70991,2,0,L|130:71,1,85,8|0,1:0|0:0,0:0:0:0:
276,198,71291,6,0,B|278:178|267:160|267:160|338:209|305:310,1,191.250007295609,4|0,3:0|0:0,0:0:0:0:
259,354,71591,1,8,1:0:0:0:
169,169,71741,2,0,L|178:62,1,85,0|0,3:0|0:0,0:0:0:0:
131,8,72041,5,0,3:0:0:0:
366,168,72191,2,0,L|375:265,1,85,8|0,1:0|0:0,0:0:0:0:
459,308,72491,5,2,3:0:0:0:
460,319,72641,1,0,0:0:0:0:
454,311,72791,1,8,1:0:0:0:
464,315,72941,1,0,3:0:0:0:
454,316,73091,1,0,0:0:0:0:
465,308,73241,1,0,3:0:0:0:
339,241,73391,6,0,L|390:237,1,31.8750012159348,8|0,1:0|0:0,0:0:0:0:
477,147,73541,6,0,L|528:143,1,31.8750012159348,0|0,3:0|0:0,0:0:0:0:
331,0,73691,5,8,1:0:0:0:
337,78,73766,1,8,1:0:0:0:
343,148,73841,1,8,1:0:0:0:
346,194,73916,1,8,1:0:0:0:
350,235,73991,1,0,3:0:0:0:
352,266,74066,1,0,3:0:0:0:
353,285,74141,1,0,3:0:0:0:
354,299,74216,1,0,3:0:0:0:
332,321,74291,6,0,L|425:348,1,85,8|0,1:0|3:0,0:0:0:0:
206,249,74441,6,0,L|115:288,1,85,8|8,1:0|1:0,0:0:0:0:
177,381,74591,6,0,L|182:336,3,31.8750012159348,8|0|0|0,1:0|3:0|3:0|3:0,0:0:0:0:
27,208,74891,5,8,1:0:0:0:
95,222,74966,1,0,3:0:0:0:
123,258,75041,1,0,3:0:0:0:
127,282,75116,1,0,3:0:0:0:
72,340,75191,6,0,B|72:360|58:373|58:373|50:336|62:269|132:171|219:122,1,340,12|4,1:0|3:0,0:0:0:0:
49,0,75641,6,0,L|41:118,1,85,0|0,3:1|0:0,0:0:0:0:
196,164,75791,2,0,L|208:267,1,85,8|0,1:1|0:0,0:0:0:0:
73,38,75941,6,0,B|94:58|94:58|370:87,1,289.000005512238,4|0,3:1|3:1,0:0:0:0:
378,5,76391,1,8,1:1:0:0:
396,226,76541,2,0,L|543:209,2,110.499994941712,0|0|0,0:0|3:1|3:1,0:0:0:0:
310,269,76991,6,0,B|313:284|322:300|322:300|275:268|254:184|271:123,1,204,8|0,1:1|0:0,0:0:0:0:
279,73,77291,1,8,1:1:0:0:
279,73,77366,1,8,1:1:0:0:
279,73,77441,1,0,3:1:0:0:
18,31,77591,6,0,L|8:-7,1,31.8750012159348,8|0,1:1|0:0,0:0:0:0:
87,209,77891,6,0,L|205:222,2,85,0|0|0,3:1|0:0|3:1,0:0:0:0:
142,119,78191,1,8,1:1:0:0:
118,318,78341,1,0,0:0:0:0:
182,370,78491,5,0,3:1:0:0:
331,318,78641,1,0,3:1:0:0:
120,324,78791,5,8,1:1:0:0:
173,384,78941,1,0,0:0:0:0:
290,234,79091,5,0,3:1:0:0:
291,223,79241,1,0,3:1:0:0:
352,151,79391,5,8,1:1:0:0:
358,82,79466,1,8,1:1:0:0:
361,35,79541,1,8,1:1:0:0:
362,18,79616,1,8,1:1:0:0:
363,9,79691,6,0,B|367:-2|363:-17|363:-17|396:0|409:51|403:97,1,152.999995330811,4|0,3:1|0:0,0:0:0:0:
406,265,79991,1,2,3:1:0:0:
436,360,80141,1,2,0:3:0:0:
357,355,80291,6,0,P|276:321|223:319,2,110.499994941712,2|2|8,3:0|3:0|1:0,0:0:0:0:
129,255,80741,6,0,B|190:237|208:173|208:173|196:186|169:199,1,144.500002756119,4|0,3:0|0:0,0:0:0:0:
88,88,81041,2,0,B|27:106|9:170|9:170|21:157|28:154,1,144.500002756119,0|10,3:1|1:1,0:0:0:0:
134,244,81341,6,0,P|136:303|119:357,2,110.499994941712,2|2|2,0:3|3:3|3:3,0:0:0:0:
77,136,81791,2,0,L|60:-14,1,110.499994941712,8|0,1:1|0:0,0:0:0:0:
293,0,82091,6,0,L|325:-14,1,27.6249987354279,8|0,1:0|0:0,0:0:0:0:
268,255,82391,5,8,1:0:0:0:
414,224,82541,1,0,0:0:0:0:
382,76,82691,5,2,3:3:0:0:
239,116,82841,1,2,3:3:0:0:
295,267,82991,5,10,1:0:0:0:
427,201,83141,1,2,0:3:0:0:
245,127,83291,5,2,3:3:0:0:
272,0,83441,1,2,3:3:0:0:
264,113,83591,1,10,1:0:0:0:
171,156,83741,2,0,B|143:233|143:233|170:345,1,170,2|2,0:3|3:3,0:0:0:0:
46,367,84191,5,10,1:0:0:0:
38,384,84266,2,0,P|143:334|232:329,1,170,10|10,1:0|1:0,0:0:0:0:
268,344,84491,6,0,B|271:355|268:370|268:370|299:344|321:260,1,136,4|0,3:1|0:0,0:0:0:0:
484,91,84791,2,0,B|473:79|467:65|467:65|456:104|486:186,1,136,2|2,3:1|0:3,0:0:0:0:
464,294,85091,5,2,3:0:0:0:
277,161,85241,1,2,3:0:0:0:
486,284,85391,1,10,1:0:0:0:
366,379,85541,6,0,L|379:345,1,25.4999992218018,6|0,3:0|0:0,0:0:0:0:
317,273,85691,5,2,0:1:0:0:
322,197,85766,1,2,0:1:0:0:
325,142,85841,1,2,3:1:0:0:
327,102,85916,1,2,0:1:0:0:
329,74,85991,1,10,1:1:0:0:
330,59,86066,1,2,0:1:0:0:
332,42,86141,1,2,0:1:0:0:
332,31,86216,1,2,0:1:0:0:
335,10,86291,6,0,L|384:20,3,31.8750012159348,2|2|2|2,3:1|0:1|3:1|0:1,0:0:0:0:
417,98,86591,6,0,L|462:92,3,31.8750012159348,10|2|2|2,1:1|0:1|3:1|0:1,0:0:0:0:
322,197,86891,6,0,B|309:161|309:161|399:256,1,152.999995330811,4|0,3:1|0:0,0:0:0:0:
140,168,87191,2,0,B|172:180|191:213|191:213|150:98|108:185|38:-19,1,305.999990661621,2|2,3:1|3:0,0:0:0:0:
229,0,87641,1,2,3:0:0:0:
149,113,87791,6,0,L|136:188,3,55.2499974708558,8|0|4|2,1:0|0:0|3:0|0:1,0:0:0:0:
2,52,88091,5,2,0:1:0:0:
7,126,88166,1,2,0:1:0:0:
9,156,88241,2,0,L|11:190,1,21.25,2|2,3:1|0:1,0:0:0:0:
84,251,88391,5,10,1:1:0:0:
64,322,88466,1,2,0:1:0:0:
55,350,88541,2,0,L|25:359,1,21.25,2|2,0:1|0:1,0:0:0:0:
22,182,88691,6,0,P|22:155|14:135,1,42.5,2|2,3:1|0:1,0:0:0:0:
73,369,88841,6,0,P|99:355|130:349,1,42.5,2|2,3:1|0:1,0:0:0:0:
152,275,88991,6,0,L|279:286,1,110.499994941712,10|2,1:1|3:1,0:0:0:0:
455,362,89291,6,0,B|482:343|482:343|456:247,1,110.499994941712,4|0,3:1|0:0,0:0:0:0:
384,27,89591,2,0,B|338:90|338:90|379:200|379:200|382:278,1,229.499992996216,10|0,1:1|0:0,0:0:0:0:
457,257,89891,1,2,3:0:0:0:
428,103,90041,6,0,L|273:88,1,127.500004863739,2|8,3:0|1:0,0:0:0:0:
117,253,90341,6,0,L|76:73,1,127.500004863739,2|0,3:0|0:0,0:0:0:0:
343,258,90641,6,0,L|315:398,1,127.500004863739,0|8,3:0|1:0,0:0:0:0:
77,258,90941,6,0,B|105:239|105:239|347:283,1,255.000009727478,0|0,0:0|3:0,0:0:0:0:
102,348,91391,5,8,1:0:0:0:
102,348,91541,1,0,0:0:0:0:
6,120,91691,6,0,B|20:149|20:149|119:140,1,110.499994941712,4|0,3:0|0:0,0:0:0:0:
338,127,91991,2,0,B|288:66|288:66|171:77|171:77|95:53,1,229.499992996216,8|0,1:0|0:0,0:0:0:0:
97,135,92291,1,0,3:0:0:0:
228,0,92441,6,0,L|240:128,1,127.500004863739,0|8,3:0|1:0,0:0:0:0:
511,194,92741,6,0,L|387:221,1,127.500004863739,4|0,3:0|0:0,0:0:0:0:
135,340,93041,6,0,L|308:375,1,127.500004863739,0|8,3:0|1:0,0:0:0:0:
498,189,93341,5,0,0:0:0:0:
373,40,93491,5,0,3:0:0:0:
213,152,93641,1,0,3:0:0:0:
348,318,93791,2,0,L|339:357,1,31.8750012159348,8|8,1:0|1:0,0:0:0:0:
495,27,94091,5,4,3:0:0:0:
495,27,94391,6,0,P|443:55|387:56,1,85,10|0,1:0|0:0,0:0:0:0:
285,0,94541,6,0,P|243:24|208:63,1,85,2|0,0:1|0:0,0:0:0:0:
132,88,94691,6,0,P|127:119|143:183,1,85,2|0,0:1|0:0,0:0:0:0:
38,79,94841,2,0,P|40:110|18:172,1,85
134,66,94991,6,0,P|131:97|153:159,1,85,8|0,1:0|0:0,0:0:0:0:
38,73,95141,2,0,P|43:104|26:168,1,85,2|0,0:1|0:0,0:0:0:0:
132,46,95291,6,0,P|132:77|159:137,1,85,2|0,0:1|0:0,0:0:0:0:
37,67,95441,2,0,P|44:97|34:162,1,85
159,93,95591,6,0,P|154:124|170:188,1,85,8|0,1:0|0:0,0:0:0:0:
50,83,95741,2,0,P|52:114|30:176,1,85,2|0,0:1|0:0,0:0:0:0:
177,152,95891,6,0,P|166:181|171:247,1,85,2|0,0:1|0:0,0:0:0:0:
58,119,96041,2,0,P|54:150|22:207,1,85
63,328,96191,5,8,1:0:0:0:
141,339,96266,1,8,1:0:0:0:
212,348,96341,1,8,1:0:0:0:
266,356,96416,1,8,1:0:0:0:
296,361,96491,6,0,B|447:342|447:342|502:357,2,170,6|2|8,3:1|3:1|1:0,0:0:0:0:
179,258,96941,1,8,1:0:0:0:
386,244,97091,5,0,3:0:0:0:
390,274,97166,1,0,0:0:0:0:
392,291,97241,2,0,L|398:344,2,31.8750012159348,0|0|8,3:0|0:0|1:0,0:0:0:0:
305,206,97541,5,8,1:0:0:0:
391,124,97691,5,0,3:0:0:0:
379,0,97841,5,0,3:0:0:0:
470,159,97991,5,8,1:0:0:0:
395,143,98141,1,8,1:0:0:0:
272,225,98291,5,0,3:0:0:0:
184,119,98441,1,0,3:0:0:0:
274,213,98591,5,8,1:0:0:0:
217,26,98741,1,8,1:0:0:0:
385,5,98891,6,0,B|353:64|353:64|272:96,1,127.500004863739,0|0,3:0|0:0,0:0:0:0:
86,125,99191,2,0,B|46:181|46:181|57:243,1,127.500004863739,0|0,3:0|0:0,0:0:0:0:
169,378,99491,5,2,3:1:0:0:
161,303,99566,1,0,0:0:0:0:
158,279,99641,6,0,P|197:306|220:363,1,85,2|0,3:1|0:0,0:0:0:0:
274,213,99791,2,0,P|273:254|293:292,1,85,10|0,1:1|0:0,0:0:0:0:
159,269,99941,6,0,P|192:302|205:362,1,85
302,228,100091,2,0,P|294:269|307:310,1,85,2|0,3:1|0:0,0:0:0:0:
163,260,100241,6,0,P|190:298|192:360,1,85,2|0,3:1|0:0,0:0:0:0:
328,256,100391,2,0,P|313:295|318:337,1,85,10|0,1:1|0:0,0:0:0:0:
168,254,100541,6,0,P|188:296|179:357,1,85
339,286,100691,2,0,P|317:322|315:365,1,85,2|0,3:1|0:0,0:0:0:0:
160,335,100841,6,0,P|118:351|76:397,1,85,2|0,3:1|0:0,0:0:0:0:
272,189,100991,6,0,B|283:200|287:224|287:224|230:182|238:48,1,212.5,10|0,1:1|3:0,0:0:0:0:
333,0,101291,5,8,1:0:0:0:
82,244,103241,5,0,3:1:0:0:
19,327,103391,2,0,L|107:314,1,63.7500024318696,8|0,1:1|3:1,0:0:0:0:
338,257,103691,6,0,P|353:182|185:72,1,305.999990661621,4|8,3:1|1:1,0:0:0:0:
171,340,104141,1,2,3:1:0:0:
317,238,104291,6,0,P|372:185|297:0,1,305.999990661621,2|8,3:1|1:1,0:0:0:0:
174,302,104741,1,2,3:1:0:0:
321,205,104891,6,0,P|395:194|442:-2,1,305.999990661621,2|8,3:1|1:1,0:0:0:0:
193,0,105341,1,2,3:1:0:0:
45,91,105491,6,0,P|23:156|31:237,1,110.499994941712,2|0,3:1|0:0,0:0:0:0:
94,254,105716,6,0,P|106:286|101:338,1,55.2499974708558,2|8,3:1|1:1,0:0:0:0:
49,358,105941,5,2,3:1:0:0:
277,239,106091,6,0,P|272:194|143:175,1,170,0|8,3:1|1:1,0:0:0:0:
382,202,106541,1,2,3:1:0:0:
284,259,106691,6,0,P|249:230|148:306,1,170,2|8,3:1|1:1,0:0:0:0:
390,175,107141,1,2,3:1:0:0:
302,274,107291,6,0,P|257:276|239:401,1,170,2|8,3:1|1:1,0:0:0:0:
443,384,107741,1,2,3:1:0:0:
443,384,107891,6,0,P|463:321|451:270,1,85,2|0,3:1|0:0,0:0:0:0:
419,231,108116,6,0,P|412:203|417:176,1,55.2499974708558,2|8,3:1|1:1,0:0:0:0:
455,8,108341,5,2,3:1:0:0:
351,104,108491,6,0,P|276:88|166:256,1,305.999990661621,4|8,3:1|1:1,0:0:0:0:
472,51,108941,1,2,3:1:0:0:
330,114,109091,6,0,P|272:62|93:152,1,305.999990661621,2|8,3:1|1:1,0:0:0:0:
495,91,109541,1,2,3:1:0:0:
309,118,109691,6,0,P|285:44|84:33,1,305.999990661621,2|8,3:1|1:1,0:0:0:0:
14,234,110141,1,2,3:1:0:0:
17,344,110291,6,0,P|82:366|163:358,1,110.499994941712,2|0,3:1|0:0,0:0:0:0:
204,313,110516,6,0,P|234:298|286:299,1,55.2499974708558,2|8,3:1|1:1,0:0:0:0:
317,349,110741,5,2,3:1:0:0:
457,200,110891,6,0,L|326:182,1,110.499994941712,2|0,3:1|0:0,0:0:0:0:
278,158,111116,6,0,L|371:145,1,55.2499974708558,2|0,3:1|0:0,0:0:0:0:
493,130,111341,1,2,3:1:0:0:
213,67,111491,6,0,L|343:84,1,110.499994941712,2|0,3:1|0:0,0:0:0:0:
505,115,111716,6,0,L|412:128,1,55.2499974708558,2|0,3:1|0:0,0:0:0:0:
188,156,111941,1,2,3:1:0:0:
343,256,112091,6,0,L|363:385,1,118.999996368408,8|2,1:0|0:0,0:0:0:0:
361,373,113291,6,0,B|335:352|335:352|64:320,1,272,6|10,3:0|1:0,0:0:0:0:
251,152,113741,2,0,B|252:158|249:170|249:170|292:134|260:42,1,110.499994941712,2|0,3:1|3:1,0:0:0:0:
96,297,114041,2,0,B|100:292|111:288|111:288|61:274|16:336,1,110.499994941712,2|8,3:1|1:0,0:0:0:0:
91,39,114341,6,0,P|196:137|218:285,1,272,2|0,3:1|3:1,0:0:0:0:
138,364,114791,5,10,1:0:0:0:
331,215,114941,2,0,L|456:239,1,110.499994941712,2|0,3:1|3:1,0:0:0:0:
96,194,115241,5,2,3:1:0:0:
231,368,115391,1,8,1:0:0:0:
231,368,115541,6,0,L|376:356,1,110.499994941712,2|0,3:1|3:1,0:0:0:0:
477,100,115841,2,0,L|367:86,1,110.499994941712,2|8,3:1|1:0,0:0:0:0:
340,237,116141,6,0,L|357:382,1,110.499994941712,2|0,3:1|3:1,0:0:0:0:
457,113,116441,2,0,L|444:3,1,110.499994941712,2|8,3:1|1:0,0:0:0:0:
338,208,116741,5,2,3:1:0:0:
338,208,116891,2,0,B|271:210|217:158|252:83|174:58|109:80,1,272,0|8,3:1|1:0,0:0:0:0:
15,76,117341,5,0,3:1:0:0:
243,115,117491,1,2,3:1:0:0:
228,0,117641,1,0,3:1:0:0:
172,179,117791,6,0,L|180:237,1,34,10|0,1:0|3:1,0:0:0:0:
17,342,118091,6,0,L|14:403,1,42.5,2|0,3:1|0:0,0:0:0:0:
84,292,118241,2,0,L|66:163,1,110.499994941712,2|8,3:1|1:0,0:0:0:0:
189,366,118541,6,0,L|348:392,1,110.499994941712,2|0,3:1|3:1,0:0:0:0:
355,90,118841,2,0,L|349:209,1,110.499994941712,2|8,3:1|1:0,0:0:0:0:
271,254,119141,5,2,3:1:0:0:
431,164,119291,1,2,3:1:0:0:
336,12,119441,1,0,3:1:0:0:
336,12,119591,2,0,L|346:215,1,165.749992412568,8|0,1:0|0:0,0:0:0:0:
351,255,119891,6,0,P|414:283|442:337,1,110.499994941712,2|0,3:1|3:1,0:0:0:0:
241,264,120191,1,10,1:0:0:0:
300,100,120341,6,0,P|236:123|209:182,1,110.499994941712,2|0,3:1|3:1,0:0:0:0:
74,278,120641,2,0,P|51:214|-8:187,1,110.499994941712,2|8,3:1|1:0,0:0:0:0:
129,0,120941,6,0,P|117:53|140:102,1,110.499994941712,2|0,3:1|3:1,0:0:0:0:
214,156,121241,1,2,3:1:0:0:
0,332,121391,6,0,L|199:301,1,165.749992412568,8|0,1:0|0:0,0:0:0:0:
241,289,121691,5,0,3:1:0:0:
43,136,121841,1,2,3:1:0:0:
65,294,121991,2,0,L|73:348,1,42.5,8|0,1:1|3:1,0:0:0:0:
347,218,122291,5,0,3:1:0:0:
164,306,122441,1,0,3:1:0:0:
381,351,122591,2,0,L|365:296,1,42.5,10|2,1:1|0:1,0:0:0:0:
450,306,122891,6,0,P|479:234|426:51,1,255,6|2,3:1|0:1,0:0:0:0:
381,15,123491,2,0,P|307:52|268:139,1,170,8|6,1:1|3:1,0:0:0:0:
0,146,124091,6,0,P|77:150|220:275,1,255,6|2,3:1|0:1,0:0:0:0:
234,331,124691,2,0,P|169:382|73:381,1,170,8|0,1:1|3:1,0:0:0:0:
88,240,125291,6,0,L|170:39,1,191.250007295609,6|2,3:1|0:1,0:0:0:0:
88,35,125891,2,0,L|47:54,1,31.8750012159348,8|8,1:1|1:1,0:0:0:0:
235,94,126191,1,0,3:1:0:0:
264,252,126491,6,0,P|379:289|462:372,1,238,4|0,3:1|0:0,0:0:0:0:
388,370,131291,6,0,P|390:361|392:358,15,12.7499996109009,10|8|8|8|8|8|8|8|8|8|8|8|8|8|8|8,1:0|1:0|1:0|1:0|1:0|1:0|1:0|1:0|1:0|1:0|1:0|1:0|1:0|1:0|1:0|1:0,0:0:0:0:
312,336,132491,6,0,P|304:320|291:307,7,25.4999992218018,10|8|8|8|8|8|8|8,1:0|1:0|1:0|1:0|1:0|1:0|1:0|1:0,0:0:0:0:
286,241,133091,6,0,P|282:224|286:187,3,31.8750012159348,8|8|8|8,1:0|1:0|1:0|1:0,0:0:0:0:
207,241,133391,2,0,P|187:258|179:272,3,31.8750012159348,8|8|8|8,1:0|1:0|1:0|1:0,0:0:0:0:
244,133,133691,6,0,P|233:119|221:84,3,42.5,8|8|8|8,1:0|1:0|1:0|1:0,0:0:0:0:
177,205,133991,2,0,P|166:229|164:245,3,42.5,8|8|8|8,1:0|1:0|1:0|1:0,0:0:0:0:
148,62,134291,6,0,P|132:54|106:27,3,53.125,8|8|8|8,1:0|1:0|1:0|1:0,0:0:0:0:
130,184,134591,2,0,P|131:216|137:235,3,53.125,8|8|8|8,1:0|1:0|1:0|1:0,0:0:0:0:
35,117,134891,6,0,L|1:128,3,25.4999992218018,8|8|8|8,1:0|1:0|1:0|1:0,0:0:0:0:
95,174,135191,6,0,L|129:185,3,25.4999992218018,10|8|8|8,1:0|1:0|1:0|1:0,0:0:0:0:
29,229,135491,6,0,L|-5:240,3,25.4999992218018,10|8|8|8,1:0|1:0|1:0|1:0,0:0:0:0:
92,304,135791,5,10,1:0:0:0:
133,317,135866,1,8,1:0:0:0:
163,328,135941,1,8,1:0:0:0:
177,335,136016,1,8,1:0:0:0:
197,359,136091,6,0,P|191:376|190:381,11,12.7499996109009,10|8|8|8|8|8|8|8|8|8|8|8,1:0|1:0|1:0|1:0|1:0|1:0|1:0|1:0|1:0|1:0|1:0|1:0,0:0:0:0:
275,303,136991,5,8,1:0:0:0:
269,260,137066,1,8,1:0:0:0:
263,228,137141,1,8,1:0:0:0:
261,212,137216,1,8,1:0:0:0:
294,176,137291,6,0,P|311:180|325:186,7,25.4999992218018,10|8|8|8|8|8|8|8,1:0|1:0|1:0|1:0|1:0|1:0|1:0|1:0,0:0:0:0:
213,141,137891,6,0,P|194:149|180:159,7,31.8750012159348,8|8|8|8|8|8|8|8,1:0|1:0|1:0|1:0|1:0|1:0|1:0|1:0,0:0:0:0:
76,174,138491,6,0,P|59:200|55:242,3,53.125,8|8|8|8,1:0|1:0|1:0|1:0,0:0:0:0:
60,100,138791,6,0,L|43:51,1,31.8750012159348,8|8,1:0|1:0,0:0:0:0:
68,90,138941,2,0,L|63:42,1,31.8750012159348,8|8,1:0|1:0,0:0:0:0:
169,60,139091,6,0,L|165:-20,1,53.125,8|8,1:0|1:0,0:0:0:0:
181,52,139241,2,0,L|188:-15,1,53.125,8|8,1:0|1:0,0:0:0:0:
307,74,139391,6,0,L|325:-9,1,74.3750007092953,8|8,1:0|1:0,0:0:0:0:
321,74,139541,2,0,L|359:-18,1,74.3750007092953,8|8,1:0|1:0,0:0:0:0:
453,62,139691,6,0,B|486:48|500:3|500:3|450:189|450:189|440:246|464:280,1,356.999989105225,0|8,3:0|1:0,0:0:0:0:
406,339,140291,5,8,3:1:0:0:
411,359,140366,1,8,1:0:0:0:
400,372,140441,5,8,1:0:0:0:
357,366,140516,1,8,1:0:0:0:
298,360,140591,1,8,3:1:0:0:
224,352,140666,1,8,1:0:0:0:
146,344,140741,1,8,1:0:0:0:
0,166,140891,5,10,1:0:0:0:
0,166,141041,1,0,3:0:0:0:
52,93,141191,5,10,1:0:0:0:
52,93,141341,1,0,3:0:0:0:
159,197,141491,5,10,1:0:0:0:
159,197,141641,1,0,3:0:0:0:
257,16,141791,5,10,1:0:0:0:
257,16,141941,1,0,3:0:0:0:
405,232,142091,5,10,1:0:0:0:
405,232,142241,1,0,3:0:0:0:
420,156,142391,5,10,1:0:0:0:
420,156,142541,1,0,3:0:0:0:
423,248,142691,5,10,1:0:0:0:
423,248,142841,1,0,3:0:0:0:
394,141,142991,6,0,L|388:122,1,17,10|0,1:0|3:0,0:0:0:0:
509,198,143291,5,10,1:0:0:0:
509,198,143441,1,0,3:0:0:0:
218,384,143591,5,10,1:0:0:0:
218,384,143741,1,0,3:0:0:0:
4,278,143891,5,10,1:0:0:0:
4,278,144041,1,0,3:0:0:0:
132,257,144191,5,10,1:0:0:0:
132,257,144341,1,0,3:0:0:0:
214,341,144491,5,10,1:0:0:0:
214,341,144641,1,0,3:0:0:0:
305,328,144791,5,10,1:0:0:0:
305,328,144941,1,0,3:0:0:0:
373,384,145091,5,10,1:0:0:0:
373,384,145241,1,0,3:0:0:0:
453,383,145391,6,0,L|456:366,1,17,10|0,1:0|3:0,0:0:0:0:
473,276,145691,5,10,1:0:0:0:
473,276,145841,1,0,3:0:0:0:
383,349,145991,5,10,1:0:0:0:
383,349,146141,1,0,3:0:0:0:
254,168,146291,5,10,1:0:0:0:
254,168,146441,1,0,3:0:0:0:
284,372,146591,5,10,1:0:0:0:
284,372,146741,1,0,3:0:0:0:
0,290,146891,5,10,1:0:0:0:
0,290,147041,1,0,3:0:0:0:
62,205,147191,5,10,1:0:0:0:
62,205,147341,1,0,3:0:0:0:
43,123,147491,5,10,1:0:0:0:
43,123,147641,1,0,3:0:0:0:
99,64,147791,6,0,L|113:52,1,17,10|0,1:0|3:0,0:0:0:0:
21,13,148091,5,10,1:0:0:0:
21,13,148241,1,0,3:0:0:0:
41,146,148391,5,10,1:0:0:0:
41,146,148541,1,0,3:0:0:0:
274,11,148691,5,10,1:0:0:0:
274,11,148841,1,0,3:0:0:0:
126,136,148991,5,10,1:0:0:0:
126,136,149141,1,0,3:0:0:0:
512,238,149291,5,10,1:0:0:0:
512,238,149441,1,0,3:0:0:0:
189,190,149591,5,10,1:0:0:0:
189,190,149741,1,0,3:0:0:0:
453,119,149891,5,10,1:0:0:0:
493,191,150041,1,0,3:0:0:0:
475,104,150191,5,10,1:0:0:0:
485,185,150341,1,0,3:0:0:0:
498,263,150491,6,0,L|110:301,1,340,14|10,1:0|1:0,0:0:0:0:
446,324,150941,1,0,3:0:0:0:
297,235,151091,5,14,1:1:0:0:
325,316,151241,1,0,3:0:0:0:
324,219,151391,6,0,L|343:225,1,17,10|0,1:0|3:0,0:0:0:0:
127,66,151691,6,0,L|102:353,1,289.000005512238,14|10,1:0|1:0,0:0:0:0:
159,296,152141,1,0,3:0:0:0:
83,112,152291,5,14,1:0:0:0:
163,78,152441,1,0,3:0:0:0:
69,85,152591,6,0,L|52:82,1,17,10|0,1:0|3:0,0:0:0:0:
358,12,152891,6,0,L|394:406,1,374.000011413575,14|10,1:0|1:0,0:0:0:0:
425,312,153341,1,0,3:0:0:0:
394,28,153491,5,14,1:0:0:0:
394,28,153641,1,0,3:0:0:0:
379,110,153791,5,10,1:0:0:0:
379,110,153941,1,0,3:0:0:0:
299,179,154091,5,14,1:0:0:0:
299,179,154241,1,0,3:0:0:0:
151,209,154391,5,10,1:0:0:0:
151,209,154541,1,0,3:0:0:0:
441,266,154691,5,14,1:0:0:0:
441,266,154841,1,0,3:0:0:0:
56,159,154991,5,10,1:0:0:0:
56,159,155141,1,0,3:0:0:0:
482,59,155291,5,14,1:0:0:0:
256,192,155366,12,0,157391,0:0:0:0:
75,264,157541,6,0,P|55:273|42:284,1,34
256,192,157766,12,8,159491,1:0:0:0:
258,354,159791,5,0,3:0:0:0:
258,361,160091,6,0,P|184:331|197:169,1,229.499992996216,4|0,3:1|0:0,0:0:0:0:
42,68,160391,2,0,P|135:124|129:233,1,229.499992996216,4|0,3:0|0:0,0:0:0:0:
31,327,160691,5,8,1:0:0:0:
4,197,160841,1,8,1:0:0:0:
71,313,160991,1,8,1:0:0:0:
170,195,161141,6,0,P|273:100|472:68,1,305.999990661621,4|0,3:1|0:0,0:0:0:0:
259,6,161591,2,0,P|337:51|346:147,1,152.999995330811,4|0,3:3|0:0,0:0:0:0:
512,205,161891,5,8,1:0:0:0:
389,232,162041,1,8,1:0:0:0:
498,165,162191,1,8,1:0:0:0:
442,376,162341,6,0,P|424:363|355:102,1,305.999990661621,4|0,3:1|0:0,0:0:0:0:
436,0,162791,2,0,P|412:86|322:120,1,152.999995330811,4|0,3:3|0:0,0:0:0:0:
144,36,163091,5,8,1:0:0:0:
255,95,163241,1,8,1:0:0:0:
172,0,163391,1,8,1:0:0:0:
353,107,163541,6,0,P|195:159|104:278,1,305.999990661621,4|0,3:1|0:0,0:0:0:0:
13,200,163991,2,0,P|82:225|116:321,1,152.999995330811,4|0,3:3|0:0,0:0:0:0:
205,348,164291,6,0,B|221:365|248:368|240:344|265:323|285:350|274:370|300:372|320:359,1,127.500004863739,8|8,1:0|1:0,0:0:0:0:
434,292,164741,5,8,1:0:0:0:
434,292,164816,1,8,1:0:0:0:
434,292,164891,2,0,P|391:289|373:112,1,229.499992996216,4|0,3:1|0:0,0:0:0:0:
276,0,165191,2,0,P|319:3|337:180,1,229.499992996216,4|0,3:0|0:0,0:0:0:0:
215,168,165491,5,8,1:0:0:0:
296,261,165641,1,8,1:0:0:0:
256,143,165791,1,8,1:0:0:0:
153,384,165941,6,0,P|71:247|100:54,1,305.999990661621,4|0,3:1|0:0,0:0:0:0:
100,0,166391,2,0,P|28:50|77:126,1,152.999995330811,4|0,3:3|0:0,0:0:0:0:
121,241,166691,5,8,1:0:0:0:
8,301,166841,1,8,1:0:0:0:
92,209,166991,1,8,1:0:0:0:
242,355,167141,6,0,P|322:261|516:194,1,305.999990661621,4|0,3:1|0:0,0:0:0:0:
424,242,167591,2,0,P|378:209|406:102,1,152.999995330811,4|0,3:3|0:0,0:0:0:0:
245,11,167891,5,8,1:0:0:0:
283,125,168041,1,8,1:0:0:0:
276,0,168191,1,8,1:0:0:0:
83,118,168341,6,0,P|207:210|278:344,1,305.999990661621,4|0,3:1|0:0,0:0:0:0:
163,384,168791,2,0,P|149:311|203:262,1,152.999995330811,0|0,3:0|0:0,0:0:0:0:
373,315,169091,6,0,B|401:331|401:331|432:326|432:326|461:337|461:337|494:328,1,127.500004863739,8|0,1:0|3:0,0:0:0:0:
436,294,169691,6,0,P|439:171|335:150,1,229.499992996216,4|0,3:1|0:0,0:0:0:0:
270,16,169991,2,0,P|276:138|382:150,1,229.499992996216,4|0,3:0|0:0,0:0:0:0:
495,125,170291,5,8,1:0:0:0:
444,1,170441,1,8,1:0:0:0:
454,136,170591,1,8,1:0:0:0:
302,19,170741,6,0,P|201:45|63:217,1,305.999990661621,4|0,3:1|0:0,0:0:0:0:
182,247,171191,2,0,P|189:175|107:147,1,152.999995330811,4|0,3:3|0:0,0:0:0:0:
0,311,171491,5,8,1:0:0:0:
130,336,171641,1,8,1:0:0:0:
11,270,171791,1,8,1:0:0:0:
250,366,171941,6,0,P|298:284|295:49,1,305.999990661621,4|0,3:1|0:0,0:0:0:0:
395,0,172391,2,0,P|404:71|341:106,1,152.999995330811,4|0,3:3|0:0,0:0:0:0:
169,15,172691,5,8,1:0:0:0:
226,134,172841,1,8,1:0:0:0:
207,0,172991,1,8,1:0:0:0:
90,98,173141,6,0,L|126:350,1,255.000009727478,4|0,3:1|0:0,0:0:0:0:
140,356,173591,6,0,L|121:229,1,127.500004863739,0|0,3:0|0:0,0:0:0:0:
18,211,173891,5,8,1:0:0:0:
120,218,174041,1,0,3:0:0:0:
213,176,174191,1,8,1:0:0:0:
298,233,174341,1,8,1:0:0:0:
460,246,174491,6,0,P|479:138|363:96,1,229.499992996216,4|0,3:3|0:0,0:0:0:0:
252,8,174791,2,0,P|359:4|393:106,1,229.499992996216,4|0,3:3|0:0,0:0:0:0:
317,151,175091,5,8,1:1:0:0:
352,377,175241,1,8,1:1:0:0:
337,277,175391,1,8,1:1:0:0:
230,363,175541,6,0,P|174:322|106:41,1,305.999990661621,4|0,3:1|0:0,0:0:0:0:
146,15,175991,2,0,P|110:8|114:120,1,152.999995330811,4|0,3:3|0:0,0:0:0:0:
291,156,176291,5,8,1:1:0:0:
19,197,176441,1,8,1:1:0:0:
137,179,176591,1,8,1:1:0:0:
234,347,176741,6,0,P|368:275|439:98,1,340,4|0,3:1|0:0,0:0:0:0:
512,0,177191,2,0,P|529:32|420:60,1,170,4|0,3:3|0:0,0:0:0:0:
317,151,177491,5,8,1:1:0:0:
352,377,177641,1,8,1:1:0:0:
337,277,177791,1,8,1:1:0:0:
470,377,177941,6,0,L|491:33,1,340,4|0,3:1|0:0,0:0:0:0:
286,98,178391,6,0,L|182:-19,1,127.500004863739,0|0,3:0|0:0,0:0:0:0:
111,177,178691,6,0,B|112:192|105:200|105:200|14:288,1,149.60000456543,8|0,1:0|0:0,0:0:0:0:
68,354,181497,6,0,L|154:375,1,85
155,352,181992,2,0,L|328:339,1,170,0|0,0:0|3:0,0:0:0:0:
333,351,182802,5,0,3:0:0:0:
343,366,182952,5,0,3:0:0:0:
440,305,183102,6,0,P|439:289|429:277,1,21.25,0|0,3:0|0:0,0:0:0:0:
413,280,183252,6,0,P|406:270|404:251,1,21.25,0|0,3:0|0:0,0:0:0:0:
439,218,183402,6,0,P|434:201|423:189,1,29.7499990921021,0|0,3:0|0:0,0:0:0:0:
373,172,183552,6,0,P|363:156|360:137,1,29.7499990921021,0|0,3:0|0:0,0:0:0:0:
425,79,183702,6,0,P|422:67|409:51,1,34,0|0,3:0|0:0,0:0:0:0:
310,21,183852,6,0,L|230:42,1,63.7500024318696,0|0,3:0|0:0,0:0:0:0:
303,30,184003,6,0,L|223:51,1,63.7500024318696,0|0,3:0|0:0,0:0:0:0:
294,39,184155,6,0,L|214:60,1,63.7500024318696,0|0,3:0|3:0,0:0:0:0:
289,45,184317,6,0,L|153:80,1,127.500004863739,0|0,3:0|3:0,0:0:0:0:
172,176,184596,5,8,1:0:0:0:
184,160,184674,1,8,1:0:0:0:
62,8,184796,5,8,1:0:0:0:
36,48,184868,5,8,1:0:0:0:
46,115,184940,1,8,1:0:0:0:
52,152,185012,1,8,3:0:0:0:
56,178,185077,1,0,0:0:0:0:
60,194,185143,6,0,P|76:200|88:210,3,21.25,8|8|8|8,3:0|3:0|3:0|3:0,0:0:0:0:
22,268,185409,6,0,P|6:262|-6:252,3,21.25,8|0|0|0,3:0|3:0|3:0|3:0,0:0:0:0:
103,345,185675,1,8,1:0:0:0:
172,176,185832,6,0,P|164:163|149:151,3,21.25,0|0|0|0,3:0|3:0|3:0|3:0,0:0:0:0:
115,336,186119,1,8,1:0:0:0:
201,361,186251,6,0,P|205:347|205:328,6,21.25,0|0|0|0|0|0|0,3:0|3:0|3:0|3:0|3:0|3:0|3:0,0:0:0:0:
321,282,186886,6,0,P|319:271|315:261,3,21.25,0|0|0|0,3:0|3:0|3:0|3:0,0:0:0:0:
398,284,187241,5,8,1:0:0:0:
429,215,187325,1,0,3:0:0:0:
398,169,187410,1,0,3:0:0:0:
354,163,187495,1,0,3:0:0:0:
344,163,187580,5,8,1:0:0:0:
379,91,187664,1,0,3:0:0:0:
346,45,187749,1,0,3:0:0:0:
292,41,187834,1,0,3:0:0:0:
282,44,187919,5,8,1:0:0:0:
276,54,188025,1,0,3:0:0:0:
220,83,188132,5,0,3:0:0:0:
214,93,188238,1,0,3:0:0:0:
215,152,188346,5,0,3:0:0:0:
209,162,188442,2,0,L|223:278,1,85,0|8,3:0|1:0,0:0:0:0:
165,313,188702,5,8,1:0:0:0:
313,328,188878,5,8,1:0:0:0:
95,262,189057,5,8,1:0:0:0:
422,212,189234,5,8,1:0:0:0:
63,338,189414,5,8,3:0:0:0:
47,353,189588,1,8,3:0:0:0:
32,368,189768,1,8,3:0:0:0:
17,383,189904,1,8,3:0:0:0:
0,268,190035,5,8,1:0:0:0:
2,282,190112,1,8,3:0:0:0:
76,161,190296,5,0,3:0:0:0:
56,85,190511,1,0,3:0:0:0:
38,9,190693,1,0,3:0:0:0:
111,348,191086,6,0,B|123:349|122:338|136:340|136:340|410:375,1,297.5,4|0,3:0|0:0,0:0:0:0:
