osu file format v14

[General]
AudioFilename: audio.mp3
AudioLeadIn: 0
PreviewTime: 24034
Countdown: 0
SampleSet: Soft
StackLeniency: 0.7
Mode: 0
LetterboxInBreaks: 0
WidescreenStoryboard: 1

[Editor]
Bookmarks: 192419
DistanceSpacing: 0.8
BeatDivisor: 2
GridSize: 16
TimelineZoom: 1.2

[Metadata]
Title:Noah Fence
TitleUnicode:Noah Fence
Artist:Origami Angel
ArtistUnicode:Origami Angel
Creator:WashedUp Player
Version:Normal
Source:
Tags:hantrik squirrelpascals gami gang english emo alternative punk indie rock fa featured artist
BeatmapID:3990666
BeatmapSetID:1931702

[Difficulty]
HPDrainRate:4.2
CircleSize:3
OverallDifficulty:4
ApproachRate:6
SliderMultiplier:1.1
SliderTickRate:1

[Events]
//Background and Video events
0,0,"ae.jpg",0,0
//Break Periods
//Storyboard Layer 0 (Background)
//Storyboard Layer 1 (Fail)
//Storyboard Layer 2 (Pass)
//Storyboard Layer 3 (Foreground)
//Storyboard Layer 4 (Overlay)
//Storyboard Sound Samples

[TimingPoints]
191,300,4,2,1,70,1,0
491,300,4,2,1,70,1,0
14141,-100,4,2,3,70,0,0
14891,-100,4,2,3,65,0,0
24491,-100,4,2,3,70,0,0
41291,-100,4,2,3,68,0,0
41591,-100,4,2,3,71,0,0
41891,-100,4,2,3,74,0,0
42191,-100,4,2,3,77,0,0
42491,-100,4,2,3,80,0,0
43691,-95.2380952380952,4,2,3,80,0,0
58091,-95.2380952380952,4,2,3,75,0,0
60491,-100,4,2,3,70,0,0
61691,293.398533007335,4,2,1,70,1,0
61984,281.030444964871,4,2,1,70,1,0
62265,295.930949445129,4,2,1,70,1,0
62560,329.67032967033,4,2,1,70,1,0
62891,300,4,2,1,70,1,0
64391,293.040293040293,4,2,1,70,1,0
64684,293.7576499388,4,2,1,70,1,0
64977,314.13612565445,4,2,1,70,1,0
65291,300,4,2,1,70,1,0
73691,-100,4,2,3,75,0,0
103241,-100,4,2,3,80,0,0
113291,-95.2380952380952,4,2,3,80,0,0
122891,-95.2380952380952,4,2,3,70,0,0
131291,-95.2380952380952,4,2,3,35,0,0
131591,-95.2380952380952,4,2,3,37,0,0
131891,-95.2380952380952,4,2,3,39,0,0
132191,-95.2380952380952,4,2,3,41,0,0
132491,-95.2380952380952,4,2,3,43,0,0
132791,-95.2380952380952,4,2,3,45,0,0
133091,-95.2380952380952,4,2,3,47,0,0
133391,-95.2380952380952,4,2,3,49,0,0
133691,-95.2380952380952,4,2,3,51,0,0
133991,-95.2380952380952,4,2,3,53,0,0
134291,-95.2380952380952,4,2,3,55,0,0
134591,-95.2380952380952,4,2,3,57,0,0
134891,-95.2380952380952,4,2,3,59,0,0
135191,-95.2380952380952,4,2,3,61,0,0
135491,-95.2380952380952,4,2,3,62,0,0
135791,-95.2380952380952,4,2,3,64,0,0
136091,-95.2380952380952,4,2,3,66,0,0
136391,-95.2380952380952,4,2,3,68,0,0
136691,-95.2380952380952,4,2,3,70,0,0
136991,-95.2380952380952,4,2,3,72,0,0
137291,-95.2380952380952,4,2,3,74,0,0
137591,-95.2380952380952,4,2,3,76,0,0
137891,-95.2380952380952,4,2,3,78,0,0
138191,-95.2380952380952,4,2,3,80,0,0
138491,-95.2380952380952,4,2,3,82,0,0
138791,-95.2380952380952,4,2,3,84,0,0
139091,-95.2380952380952,4,2,3,86,0,0
139391,-95.2380952380952,4,2,3,88,0,0
139691,-95.2380952380952,4,2,3,90,0,0
140891,-86.9565217391304,4,2,3,95,0,1
151091,-86.9565217391304,4,2,2,95,0,1
151241,-86.9565217391304,4,2,3,95,0,1
151691,-86.9565217391304,4,2,3,95,0,1
152291,-86.9565217391304,4,2,2,95,0,1
152441,-86.9565217391304,4,2,3,95,0,1
152891,-86.9565217391304,4,2,3,95,0,1
153491,-86.9565217391304,4,2,2,95,0,1
153641,-86.9565217391304,4,2,3,95,0,1
154091,-86.9565217391304,4,2,3,95,0,1
154691,-86.9565217391304,4,2,2,95,0,1
154841,-86.9565217391304,4,2,3,95,0,1
155291,-86.9565217391304,4,2,3,95,0,0
159491,-100,4,2,3,75,0,0
178691,330.123796423659,4,2,1,100,1,0
182652,300,4,2,1,100,1,0
183852,303.030303030303,4,2,1,100,1,0
184155,324.763193504736,4,2,1,100,1,0
184479,351.390922401171,4,2,1,100,1,0
184596,234.833659491194,4,2,1,100,1,0
184674,363.636363636364,4,2,1,100,1,0
184796,289.156626506024,4,2,1,100,1,0
185012,263.157894736842,4,2,1,100,1,0
185143,266.075388026608,4,2,1,100,1,0
185675,314.13612565445,4,2,1,100,1,0
185832,287.425149700599,4,2,1,100,1,0
186119,264.31718061674,4,2,1,100,1,0
186251,300.751879699248,4,2,1,100,1,0
186702,369.230769230769,4,2,1,100,1,0
186886,355.029585798817,4,2,1,100,1,0
187241,338.983050847458,4,2,1,100,1,0
187579,340.909090909091,4,2,1,100,1,0
187919,427.807486631016,4,2,1,100,1,0
188346,387.096774193548,4,2,1,100,1,0
188539,327.868852459016,4,2,1,100,1,0
188702,352.941176470588,4,2,1,100,1,0
188878,358.744394618834,4,2,1,100,1,0
189057,355.555555555555,4,2,1,100,1,0
189234,361.44578313253,4,2,1,100,1,0
189414,349.344978165939,4,2,1,100,1,0
189588,360.902255639098,4,2,1,100,1,0
189768,273.037542662116,4,2,1,100,1,0
189904,263.736263736263,4,2,1,100,1,0
190035,310.077519379845,4,2,1,100,1,0
190112,368.098159509202,4,2,1,100,1,0
190296,430.10752688172,4,2,1,100,1,0
190511,364.741641337386,4,2,1,100,1,0
190693,393.44262295082,4,2,1,100,1,0

[Colours]
Combo1 : 96,202,197
Combo2 : 255,72,72
Combo3 : 173,83,255
Combo4 : 255,174,53

[HitObjects]
33,82,491,6,0,L|96:78,1,55,4|0,3:0|3:0,0:0:0:0:
127,59,791,2,0,L|252:51,2,110,8|0|8,1:0|3:0|1:0,0:0:0:0:
151,143,1691,1,8,1:0:0:0:
128,228,1991,1,8,1:0:0:0:
213,249,2291,1,8,1:0:0:0:
240,165,2591,1,8,1:0:0:0:
325,142,2891,6,0,P|352:204|342:265,1,110,4|8,3:0|1:0,0:0:0:0:
409,308,3491,2,0,L|496:298,2,55,0|0|8,3:0|3:0|1:0,0:0:0:0:
351,375,4091,1,8,1:0:0:0:
263,369,4391,1,8,1:0:0:0:
189,320,4691,1,8,1:0:0:0:
198,232,4991,1,8,1:0:0:0:
126,180,5291,6,0,P|105:121|111:51,1,110,4|8,3:0|1:0,0:0:0:0:
139,46,5741,2,0,P|198:67|268:61,1,110,0|0,3:0|3:0,0:0:0:0:
280,40,6191,1,8,1:0:0:0:
364,14,6491,2,0,L|369:124,1,110,4|8,3:0|1:0,0:0:0:0:
403,151,6941,2,0,L|398:261,1,110,0|0,3:0|3:0,0:0:0:0:
392,304,7391,1,8,1:0:0:0:
309,273,7691,6,0,L|314:199,2,73.3333333333333,8|8|8,1:0|3:0|3:0,0:0:0:0:
262,309,8291,2,0,L|267:382,2,73.3333333333333,8|8|8,1:0|3:0|3:0,0:0:0:0:
210,280,8891,1,2,0:1:0:0:
383,72,10091,6,0,P|324:48|263:47,1,110,4|8,3:0|1:0,0:0:0:0:
238,64,10541,2,0,P|188:76|107:69,1,110,0|0,3:0|3:0,0:0:0:0:
89,57,10991,1,8,1:0:0:0:
8,93,11291,2,0,L|-1:209,1,110,4|8,3:0|1:0,0:0:0:0:
25,238,11741,2,0,L|34:354,1,110,0|0,3:0|3:0,0:0:0:0:
65,378,12191,1,8,1:0:0:0:
152,372,12491,5,2,3:0:0:0:
243,362,12791,1,8,1:0:0:0:
243,362,12941,2,0,L|247:246,1,110,0|0,3:0|3:0,0:0:0:0:
249,208,13391,1,8,1:0:0:0:
289,129,13691,2,0,L|188:117,1,55,8|0,1:0|3:0,0:0:0:0:
207,87,13991,2,0,L|106:99,1,55,8|2,1:0|3:1,0:0:0:0:
118,64,14291,2,0,L|101:215,1,110,10|10,1:0|1:0,0:0:0:0:
28,216,14891,5,12,1:0:0:0:
7,301,15191,2,0,B|30:317|30:317|117:307,1,110,10|2,1:0|0:1,0:0:0:0:
155,303,15641,1,2,3:1:0:0:
242,294,15941,2,0,B|342:279|298:355|400:333,1,165,2|8,3:1|1:0,0:0:0:0:
467,287,16691,2,0,L|475:183,1,55,2|0,3:1|3:0,0:0:0:0:
486,190,16991,2,0,L|494:86,1,55,10|0,1:0|0:0,0:0:0:0:
484,91,17291,5,2,3:1:0:0:
421,38,17591,1,10,1:0:0:0:
421,38,17741,2,0,P|353:23|296:26,1,110,2|0,0:1|3:1,0:0:0:0:
235,65,18341,2,0,P|181:78|126:79,1,110,2|0,3:1|3:1,0:0:0:0:
82,79,18791,1,8,1:0:0:0:
19,140,19091,2,0,L|11:243,1,55,2|2,3:1|3:1,0:0:0:0:
34,234,19391,2,0,L|26:337,1,55,10|2,1:1|0:1,0:0:0:0:
48,329,19691,5,2,3:1:0:0:
135,327,19991,2,0,L|269:322,1,110,10|0,1:0|0:0,0:0:0:0:
288,319,20441,1,2,3:1:0:0:
367,355,20741,2,0,L|372:221,1,110,2|0,3:1|3:1,0:0:0:0:
406,218,21191,1,8,1:0:0:0:
441,137,21491,2,0,P|386:119|347:114,1,55,2|2,3:1|3:1,0:0:0:0:
359,86,21791,2,0,P|307:112|276:136,1,55,10|2,1:1|0:1,0:0:0:0:
272,134,22091,5,2,3:1:0:0:
309,213,22391,1,10,1:0:0:0:
291,299,22691,2,0,L|195:292,2,55,2|2|8,0:1|3:1|1:0,0:0:0:0:
290,342,23141,2,0,L|147:331,1,110,2|0,3:1|3:1,0:0:0:0:
136,333,23591,1,8,1:0:0:0:
61,286,23891,2,0,L|56:153,1,110,0|10,3:1|1:1,0:0:0:0:
53,88,24491,5,2,3:1:0:0:
124,36,24791,2,0,L|233:30,1,110,10|2,1:1|3:1,0:0:0:0:
318,54,25391,2,0,L|397:47,1,55,10|2,1:1|3:1,0:0:0:0:
416,45,25691,1,2,3:1:0:0:
406,132,25991,1,10,1:1:0:0:
443,211,26291,2,0,L|444:270,2,55,0|0|10,3:1|3:1|1:1,0:0:0:0:
363,250,26891,6,0,L|241:242,1,110,2|10,3:1|1:1,0:0:0:0:
218,268,27341,1,2,3:1:0:0:
218,268,27491,2,0,L|96:260,1,110,2|10,3:1|1:1,0:0:0:0:
33,213,28091,2,0,B|13:152|68:154|25:79,2,110,2|8|0,3:1|1:1|3:1,0:0:0:0:
115,181,28991,1,8,1:1:0:0:
161,106,29291,6,0,L|276:103,1,110,2|10,3:1|1:1,0:0:0:0:
307,76,29741,1,2,3:1:0:0:
307,76,29891,2,0,L|422:73,1,110,2|10,3:1|1:1,0:0:0:0:
433,159,30491,2,0,L|323:161,1,110,2|10,3:1|1:1,0:0:0:0:
260,223,31091,2,0,L|193:224,2,55,0|2|10,3:1|3:1|1:1,0:0:0:0:
242,309,31691,6,0,P|186:338|97:309,1,110,10|10,1:0|1:0,0:0:0:0:
88,263,32291,2,0,P|90:200|160:137,1,110,8|8,1:0|1:0,0:0:0:0:
204,153,32891,2,0,P|257:186|276:278,1,110,8|8,1:0|1:0,0:0:0:0:
365,222,33491,2,0,P|391:174|438:147,1,110,10|10,1:0|1:0,0:0:0:0:
485,72,34091,5,14,1:0:0:0:
485,72,34391,1,14,1:0:0:0:
148,208,36041,2,0,L|224:203,2,55,0|10|0,3:0|1:0|3:0,0:0:0:0:
103,210,36491,5,14,1:0:0:0:
103,210,36791,1,14,1:0:0:0:
411,346,38441,2,0,L|335:341,2,55,0|10|0,3:0|1:0|3:0,0:0:0:0:
456,348,38891,5,14,1:0:0:0:
456,348,39191,1,14,1:0:0:0:
103,0,41291,6,0,L|98:79,1,55,8|0,1:0|3:0,0:0:0:0:
67,85,41591,2,0,L|62:164,1,55,0|0,3:0|3:0,0:0:0:0:
38,176,41891,2,0,L|29:312,1,110,8|8,1:0|1:0,0:0:0:0:
85,354,42491,2,0,B|153:386|206:362|175:343|239:319|304:348,2,220,10|10|14,1:0|1:0|3:0,0:0:0:0:
31,285,43991,5,10,1:0:0:0:
31,285,44141,2,0,L|39:166,1,115.49999647522,2|2,3:1|3:1,0:0:0:0:
47,77,44741,2,0,L|232:60,1,173.24999471283,2|10,3:1|1:0,0:0:0:0:
265,54,45341,1,2,3:1:0:0:
350,19,45641,1,2,3:1:0:0:
434,56,45941,6,0,P|415:107|417:172,1,115.49999647522,2|2,3:1|3:1,0:0:0:0:
489,223,46541,2,0,P|507:281|506:339,1,115.49999647522,2|2,3:1|3:1,0:0:0:0:
422,374,47141,1,2,3:1:0:0:
329,371,47441,2,0,L|180:364,1,115.49999647522,2|0,3:1|3:1,0:0:0:0:
191,324,47891,2,0,L|188:226,1,57.7499982376099,2|0,3:1|3:1,0:0:0:0:
227,240,48191,2,0,L|230:142,1,57.7499982376099,10|0,1:0|3:1,0:0:0:0:
266,155,48491,5,2,3:1:0:0:
260,67,48791,1,8,1:0:0:0:
260,67,48941,2,0,P|210:49|129:48,1,115.49999647522,2|2,3:1|3:1,0:0:0:0:
68,88,49541,1,2,3:1:0:0:
68,88,49691,2,0,P|49:142|61:199,1,115.49999647522,2|8,3:1|1:0,0:0:0:0:
152,199,50291,2,0,P|171:253|159:310,1,115.49999647522,2|10,3:1|1:0,0:0:0:0:
179,350,50741,6,0,L|306:352,1,115.49999647522,2|2,3:1|3:1,0:0:0:0:
377,310,51341,2,0,L|492:312,2,115.49999647522,2|2|2,3:1|3:1|3:1,0:0:0:0:
341,280,52091,1,0,3:1:0:0:
400,209,52391,1,8,1:1:0:0:
400,209,52541,2,0,L|406:96,1,57.7499982376099,8|0,1:1|3:1,0:0:0:0:
413,59,52991,1,10,1:1:0:0:
330,17,53291,6,0,P|267:0|189:21,1,115.49999647522,2|10,3:1|1:0,0:0:0:0:
188,42,53741,2,0,P|125:59|47:38,1,115.49999647522,2|0,3:1|3:1,0:0:0:0:
30,60,54191,1,10,1:0:0:0:
68,144,54491,2,0,L|74:269,1,115.49999647522,2|10,3:1|1:0,0:0:0:0:
105,293,54941,2,0,L|238:283,2,115.49999647522,2|2|0,3:1|3:1|3:1,0:0:0:0:
80,332,55691,5,2,3:1:0:0:
157,381,55991,1,10,1:0:0:0:
157,381,56141,2,0,L|240:375,1,57.7499982376099,2|0,3:1|3:1,0:0:0:0:
260,370,56441,2,0,L|393:360,1,115.49999647522,2|2,3:1|3:1,0:0:0:0:
421,357,56891,2,0,P|442:301|433:205,1,115.49999647522,0|8,3:1|1:0,0:0:0:0:
357,212,57491,2,0,P|336:158|334:100,1,115.49999647522,0|8,3:1|1:0,0:0:0:0:
312,10,58091,5,6,3:1:0:0:
220,22,58391,1,2,3:1:0:0:
128,34,58691,1,2,3:1:0:0:
36,46,58991,1,2,3:1:0:0:
48,138,59291,1,6,3:1:0:0:
10,359,60491,6,0,L|122:355,1,110,4|8,3:0|1:0,0:0:0:0:
207,352,61091,2,0,L|304:348,2,55,0|0|8,3:0|3:0|1:0,0:0:0:0:
151,280,61691,2,0,P|129:229|154:157,1,110,8|8,1:0|1:0,0:0:0:0:
227,166,62265,2,0,P|249:217|224:289,1,110,8|8,1:0|1:0,0:0:0:0:
207,352,62891,5,4,3:0:0:0:
294,357,63191,1,8,1:0:0:0:
381,361,63491,2,0,L|472:363,2,55,0|0|8,3:0|3:0|1:0,0:0:0:0:
339,283,64091,2,0,L|340:152,1,110,8|8,1:0|1:0,0:0:0:0:
287,102,64684,2,0,L|156:101,1,110,8|8,1:0|1:0,0:0:0:0:
93,62,65291,6,0,P|70:129|74:190,1,110,4|8,3:0|1:0,0:0:0:0:
100,199,65741,2,0,P|123:266|119:327,1,110,0|0,3:0|3:0,0:0:0:0:
97,340,66191,1,8,1:0:0:0:
174,381,66491,2,0,L|294:372,1,110,4|8,3:0|1:0,0:0:0:0:
317,345,66941,2,0,L|325:207,1,110,0|0,3:0|3:0,0:0:0:0:
325,191,67391,1,8,1:0:0:0:
379,121,67691,6,0,L|460:129,2,73.3333333333333,8|8|8,1:0|3:0|3:0,0:0:0:0:
355,67,68291,2,0,L|274:75,2,73.3333333333333,8|8|8,1:0|3:0|3:0,0:0:0:0:
387,18,68891,1,2,0:1:0:0:
168,42,69641,2,0,L|109:39,2,55,0|8|0,3:0|1:0|0:0,0:0:0:0:
211,46,70091,6,0,L|197:172,1,110,4|8,3:0|1:0,0:0:0:0:
222,192,70541,2,0,L|348:206,1,110,0|0,3:0|3:0,0:0:0:0:
369,182,70991,1,8,1:0:0:0:
443,228,71291,2,0,P|446:283|429:354,1,110,4|8,3:0|1:0,0:0:0:0:
395,354,71741,2,0,P|333:340|273:345,1,110,0|0,3:0|3:0,0:0:0:0:
249,364,72191,1,8,1:0:0:0:
161,359,72491,5,2,3:0:0:0:
73,354,72791,1,8,1:0:0:0:
73,354,72941,2,0,L|70:221,1,110,0|0,3:0|3:0,0:0:0:0:
67,200,73391,1,8,1:0:0:0:
16,127,73691,2,0,B|65:103|65:103|127:127,1,110,8|0,1:0|3:0,0:0:0:0:
177,59,74291,2,0,B|226:83|226:83|288:59,1,110,8|8,1:0|1:0,0:0:0:0:
365,69,74891,5,8,1:0:0:0:
358,156,75191,1,12,1:0:0:0:
351,243,75491,1,4,3:0:0:0:
351,243,75641,2,0,L|347:298,1,55,0|8,3:1|1:1,0:0:0:0:
314,328,75941,2,0,B|253:348|255:293|180:336,1,110,4|0,3:1|3:1,0:0:0:0:
165,340,76391,1,8,1:1:0:0:
77,340,76691,2,0,L|-4:342,2,55,0|0|8,3:1|3:1|1:1,0:0:0:0:
79,252,77291,5,8,1:1:0:0:
79,164,77591,2,0,L|77:26,1,110,8|0,1:1|3:1,0:0:0:0:
153,9,78191,1,8,1:1:0:0:
228,54,78491,2,0,L|226:163,1,110,0|8,3:1|1:1,0:0:0:0:
286,228,79091,2,0,L|367:227,1,55,0|0,3:1|3:1,0:0:0:0:
369,193,79391,2,0,L|450:192,1,55,8|8,1:1|1:1,0:0:0:0:
467,192,79691,5,4,3:1:0:0:
474,104,79991,1,2,3:1:0:0:
485,16,80291,2,0,P|434:-4|381:6,1,110,2|8,3:0|1:0,0:0:0:0:
351,38,80741,2,0,P|300:58|247:48,1,110,4|0,3:0|3:1,0:0:0:0:
214,18,81191,1,10,1:1:0:0:
126,6,81491,2,0,L|29:0,2,55,2|2|8,3:3|3:3|1:1,0:0:0:0:
88,86,82091,6,0,B|83:123|83:123|111:148|111:148|116:188,1,110,8|8,1:0|1:0,0:0:0:0:
49,239,82691,2,0,B|36:270|36:270|39:307,2,55,2|2|10,3:3|3:3|1:0,0:0:0:0:
125,282,83291,2,0,B|162:286|162:286|202:266|202:266|241:268,1,110,2|10,3:3|1:0,0:0:0:0:
268,288,83741,2,0,B|300:293|300:293|290:340|290:340|340:353,1,110,2|2,0:3|3:3,0:0:0:0:
359,361,84191,1,10,1:0:0:0:
447,359,84491,6,0,L|456:218,1,110,4|2,3:1|3:1,0:0:0:0:
437,168,85091,1,2,3:0:0:0:
437,168,85241,2,0,L|446:27,1,110,2|6,3:0|3:0,0:0:0:0:
407,33,85691,2,0,B|361:20|361:20|351:35|351:35|305:39,1,110,2|10,0:1|1:1,0:0:0:0:
219,31,86291,2,0,B|207:57|207:57|212:87,1,55,2|2,3:1|3:1,0:0:0:0:
236,119,86591,2,0,B|248:145|248:145|243:175,1,55,10|2,1:1|3:1,0:0:0:0:
209,198,86891,6,0,L|72:191,1,110,4|2,3:1|3:1,0:0:0:0:
15,204,87491,1,2,3:0:0:0:
15,204,87641,2,0,L|9:301,2,55,2|8|4,3:0|1:0|3:0,0:0:0:0:
18,159,88091,2,0,B|8:102|8:102|30:24,1,110,2|10,0:1|1:1,0:0:0:0:
110,56,88691,2,0,B|124:106|124:106|114:163,1,110,2|10,3:1|1:1,0:0:0:0:
131,249,89291,6,0,L|248:244,1,110,4|10,3:1|1:1,0:0:0:0:
326,280,89891,1,2,3:0:0:0:
326,280,90041,2,0,L|323:221,1,55,2|8,3:0|1:0,0:0:0:0:
354,193,90341,2,0,L|347:41,1,110,2|0,3:0|3:0,0:0:0:0:
347,39,90791,1,8,1:0:0:0:
434,30,91091,2,0,L|509:26,2,55,0|0|8,3:0|3:0|1:0,0:0:0:0:
471,110,91691,6,0,P|478:148|476:202,1,55,4|0,3:0|0:0,0:0:0:0:
443,190,91991,2,0,P|436:228|438:282,1,55,8|0,1:0|0:0,0:0:0:0:
457,288,92291,1,0,3:0:0:0:
457,288,92441,1,0,3:0:0:0:
388,342,92741,2,0,B|329:373|339:316|267:351,1,110,4|0,3:0|3:0,0:0:0:0:
242,362,93191,1,8,1:0:0:0:
159,332,93491,2,0,L|85:333,1,55,0|0,3:0|3:0,0:0:0:0:
60,335,93791,1,8,1:0:0:0:
4,266,94091,5,4,3:0:0:0:
57,196,94391,2,0,L|59:118,1,55,10|2,1:0|0:1,0:0:0:0:
66,97,94691,2,0,P|121:77|175:98,1,110,2|8,0:1|1:0,0:0:0:0:
237,147,95291,1,2,0:1:0:0:
303,204,95591,2,0,P|358:224|412:203,1,110,8|2,1:0|0:1,0:0:0:0:
474,154,96191,2,0,L|471:84,1,55,8|8,1:0|1:0,0:0:0:0:
468,55,96491,5,6,3:1:0:0:
387,19,96791,1,8,1:0:0:0:
387,19,96941,2,0,P|329:10|274:15,1,110,8|0,1:0|3:0,0:0:0:0:
245,44,97391,1,8,1:0:0:0:
245,44,97541,2,0,P|187:53|132:48,1,110,8|0,1:0|3:0,0:0:0:0:
94,35,97991,1,8,1:0:0:0:
22,86,98291,2,0,P|11:132|31:178,1,55,0|0,3:0|3:0,0:0:0:0:
43,170,98591,2,0,P|53:216|33:262,1,55,8|8,1:0|1:0,0:0:0:0:
31,261,98891,5,0,3:0:0:0:
22,348,99191,1,0,3:0:0:0:
109,356,99491,2,0,L|192:360,1,55,2|2,3:1|3:1,0:0:0:0:
207,358,99791,2,0,P|235:298|209:243,1,110,10|2,1:1|3:1,0:0:0:0:
178,183,100391,1,10,1:1:0:0:
98,144,100691,2,0,P|70:84|96:29,1,110,2|10,3:1|1:1,0:0:0:0:
159,3,101291,5,8,1:0:0:0:
451,97,103241,2,0,L|456:42,2,55,0|8|0,3:1|1:1|3:1,0:0:0:0:
451,141,103691,6,0,P|356:117|318:120,1,110,4|8,3:1|1:1,0:0:0:0:
305,130,104141,1,2,3:1:0:0:
305,130,104291,2,0,P|319:217|307:261,1,110,2|8,3:1|1:1,0:0:0:0:
298,280,104741,1,2,3:1:0:0:
298,280,104891,1,2,3:1:0:0:
192,208,105341,1,2,3:1:0:0:
192,208,105491,2,0,L|100:206,2,82.5,2|2|2,3:1|3:1|3:1,0:0:0:0:
218,172,106091,6,0,L|214:47,1,110,0|8,3:1|1:1,0:0:0:0:
248,34,106541,1,2,3:1:0:0:
248,34,106691,2,0,L|357:30,1,110,2|8,3:1|1:1,0:0:0:0:
401,31,107141,1,2,3:1:0:0:
401,31,107291,1,2,3:1:0:0:
468,150,107741,1,2,3:1:0:0:
468,150,107891,2,0,L|461:236,2,82.5,2|2|2,3:1|3:1|3:1,0:0:0:0:
427,133,108491,6,0,P|367:118|303:138,1,110,4|8,3:1|1:1,0:0:0:0:
287,156,108941,1,2,3:1:0:0:
287,156,109091,2,0,P|227:171|163:151,1,110,2|8,3:1|1:1,0:0:0:0:
141,141,109541,1,2,3:1:0:0:
141,141,109691,1,2,3:1:0:0:
25,204,110141,1,2,3:1:0:0:
25,204,110291,2,0,L|13:288,2,82.5,2|2|2,3:1|3:1|3:1,0:0:0:0:
59,177,110891,6,0,L|47:95,2,82.5,2|2|2,3:1|3:1|3:1,0:0:0:0:
100,190,111491,1,2,3:1:0:0:
163,206,111716,1,2,3:1:0:0:
226,224,111941,2,0,L|220:285,1,55,2|8,3:1|1:0,0:0:0:0:
403,67,113291,6,0,P|350:54|273:53,1,115.49999647522,6|10,3:0|1:0,0:0:0:0:
254,82,113741,2,0,P|201:95|124:96,1,115.49999647522,2|2,3:1|3:1,0:0:0:0:
54,63,114341,2,0,B|21:95|21:95|21:222,1,173.24999471283,2|10,3:1|1:0,0:0:0:0:
21,268,114941,1,2,3:1:0:0:
82,336,115241,1,2,3:1:0:0:
164,293,115541,6,0,P|213:272|290:274,1,115.49999647522,2|2,3:1|3:1,0:0:0:0:
335,340,116141,2,0,P|384:361|461:359,1,115.49999647522,2|2,3:1|3:1,0:0:0:0:
484,278,116741,2,0,L|489:193,1,57.7499982376099,2|0,3:1|3:1,0:0:0:0:
462,181,117041,2,0,L|468:65,1,115.49999647522,2|0,3:1|3:1,0:0:0:0:
472,19,117491,5,2,3:1:0:0:
379,15,117791,1,10,1:0:0:0:
287,29,118091,2,0,P|268:89|266:117,1,57.7499982376099,2|2,3:1|3:1,0:0:0:0:
290,131,118391,1,8,1:0:0:0:
290,131,118541,2,0,P|309:191|302:253,1,115.49999647522,2|2,3:1|3:1,0:0:0:0:
248,315,119141,2,0,P|190:318|136:299,1,115.49999647522,2|0,3:1|3:1,0:0:0:0:
94,279,119591,1,8,1:0:0:0:
55,195,119891,2,0,L|52:70,1,115.49999647522,2|10,3:1|1:0,0:0:0:0:
51,33,120341,5,2,3:1:0:0:
142,20,120641,1,2,3:1:0:0:
227,55,120941,2,0,L|355:67,2,115.49999647522,2|2|2,3:1|3:1|3:1,0:0:0:0:
190,83,121691,1,0,3:1:0:0:
190,83,121841,2,0,L|183:163,1,57.7499982376099,2|8,3:1|1:1,0:0:0:0:
250,206,122291,1,0,3:1:0:0:
185,272,122591,2,0,L|178:352,1,57.7499982376099,10|2,1:1|0:1,0:0:0:0:
218,356,122891,6,0,P|340:314|437:354,1,230.99999295044,6|8,3:1|1:1,0:0:0:0:
502,290,123791,1,6,3:1:0:0:
427,234,124091,2,0,P|385:112|425:15,1,230.99999295044,6|8,3:1|1:1,0:0:0:0:
329,2,124991,1,0,3:1:0:0:
261,64,125291,6,0,B|197:26|134:61|169:79|107:122|37:77,1,230.99999295044,6|8,3:1|1:1,0:0:0:0:
93,3,126191,1,0,3:1:0:0:
0,0,126491,1,4,3:1:0:0:
0,370,131291,6,0,L|87:367,1,57.7499982376099,10|8,1:0|1:0,0:0:0:0:
103,367,131591,2,0,L|256:358,1,115.49999647522,8|8,1:0|1:0,0:0:0:0:
310,355,132191,1,8,1:0:0:0:
341,268,132491,2,0,L|254:265,1,57.7499982376099,10|8,1:0|1:0,0:0:0:0:
238,265,132791,2,0,L|85:256,1,115.49999647522,8|8,1:0|1:0,0:0:0:0:
31,253,133391,1,8,1:0:0:0:
68,168,133691,6,0,P|91:111|91:100,1,57.7499982376099,8|8,1:0|1:0,0:0:0:0:
88,69,133991,2,0,P|165:48|226:48,1,115.49999647522,8|8,1:0|1:0,0:0:0:0:
274,100,134591,1,8,1:0:0:0:
349,46,134891,2,0,P|394:50|438:64,1,57.7499982376099,8|8,1:0|1:0,0:0:0:0:
426,94,135191,2,0,L|419:253,2,115.49999647522,10|10|10,1:0|1:0|1:0,0:0:0:0:
349,46,136091,6,0,L|265:44,1,57.7499982376099,10|8,1:0|1:0,0:0:0:0:
251,21,136391,2,0,L|103:24,1,115.49999647522,8|8,1:0|1:0,0:0:0:0:
42,24,136991,1,8,1:0:0:0:
41,116,137291,2,0,L|39:200,1,57.7499982376099,10|8,1:0|1:0,0:0:0:0:
16,214,137591,2,0,L|19:361,1,115.49999647522,8|8,1:0|1:0,0:0:0:0:
95,381,138191,1,8,1:0:0:0:
179,342,138491,6,0,L|261:336,1,57.7499982376099,8|8,1:0|1:0,0:0:0:0:
282,335,138791,2,0,P|373:348|418:390,2,115.49999647522,8|8|8,1:0|1:0|1:0,0:0:0:0:
252,247,139691,1,0,3:0:0:0:
251,154,139991,1,0,3:0:0:0:
250,61,140291,2,0,L|131:62,1,115.49999647522,0|0,3:0|3:0,0:0:0:0:
33,64,140891,5,10,1:0:0:0:
84,151,141191,1,10,1:0:0:0:
56,253,141491,1,10,1:0:0:0:
56,253,141641,1,0,3:0:0:0:
56,253,141791,1,10,1:0:0:0:
111,337,142091,2,0,P|170:296|230:294,1,126.500002412796,10|10,1:0|1:0,0:0:0:0:
270,322,142541,1,0,3:0:0:0:
270,322,142691,2,0,P|329:363|389:365,1,126.500002412796,10|10,1:0|1:0,0:0:0:0:
464,307,143291,5,10,1:0:0:0:
464,307,143441,1,0,3:0:0:0:
464,307,143591,1,10,1:0:0:0:
442,208,143891,1,10,1:0:0:0:
486,117,144191,1,10,1:0:0:0:
425,36,144491,2,0,P|348:22|289:24,1,126.500002412796,10|10,1:0|1:0,0:0:0:0:
260,55,144941,1,0,3:0:0:0:
260,55,145091,2,0,P|183:69|124:67,1,126.500002412796,10|10,1:0|1:0,0:0:0:0:
38,37,145691,5,10,1:0:0:0:
58,136,145991,1,10,1:0:0:0:
25,236,146291,1,10,1:0:0:0:
25,236,146441,1,0,3:0:0:0:
25,236,146591,1,10,1:0:0:0:
55,332,146891,2,0,L|190:321,1,126.500002412796,10|10,1:0|1:0,0:0:0:0:
227,342,147341,1,0,3:0:0:0:
227,342,147491,2,0,L|353:352,1,126.500002412796,10|10,1:0|1:0,0:0:0:0:
451,327,148091,5,10,1:0:0:0:
484,231,148391,1,10,1:0:0:0:
427,146,148691,1,10,1:0:0:0:
427,146,148841,1,0,3:0:0:0:
427,146,148991,1,10,1:0:0:0:
465,52,149291,2,0,P|392:30|333:30,1,126.500002412796,10|10,1:0|1:0,0:0:0:0:
303,60,149741,1,0,3:0:0:0:
303,60,149891,2,0,P|289:121|293:184,1,126.500002412796,10|10,1:0|1:0,0:0:0:0:
261,280,150491,5,14,1:0:0:0:
169,303,150791,1,10,1:0:0:0:
169,303,150941,1,0,3:0:0:0:
169,303,151091,2,0,L|178:133,1,126.500002412796,14|10,1:1|1:0,0:0:0:0:
161,76,151691,1,14,1:0:0:0:
262,79,151991,1,10,1:0:0:0:
360,55,152291,2,0,L|351:225,1,126.500002412796,14|10,1:0|1:0,0:0:0:0:
379,279,152891,5,14,1:0:0:0:
437,374,153191,1,10,1:0:0:0:
437,374,153341,1,0,3:0:0:0:
437,374,153491,2,0,L|294:376,1,126.500002412796,14|10,1:0|1:0,0:0:0:0:
224,321,154091,1,14,1:0:0:0:
127,353,154391,1,10,1:0:0:0:
37,306,154691,2,0,L|35:163,1,126.500002412796,14|10,1:0|1:0,0:0:0:0:
39,132,155141,1,0,3:0:0:0:
39,132,155291,1,14,1:0:0:0:
109,83,159491,5,8,1:0:0:0:
29,120,159791,1,0,3:0:0:0:
60,202,160091,2,0,L|66:319,1,110,4|4,3:1|3:0,0:0:0:0:
134,367,160691,2,0,L|188:363,1,55,8|8,1:0|1:0,0:0:0:0:
231,342,160991,1,8,1:0:0:0:
231,342,161141,2,0,B|274:336|301:308|301:308|325:338|385:345,1,165,4|4,3:1|3:3,0:0:0:0:
460,311,161891,1,8,1:0:0:0:
460,311,162041,2,0,L|466:221,1,55,8|8,1:0|1:0,0:0:0:0:
465,211,162341,6,0,B|459:168|431:141|431:141|461:117|468:57,1,165,4|4,3:1|3:3,0:0:0:0:
400,7,163091,2,0,L|345:4,1,55,8|8,1:0|1:0,0:0:0:0:
302,15,163391,1,8,1:0:0:0:
302,15,163541,2,0,B|259:4|211:23|247:49|194:79|127:50,1,165,4|4,3:1|3:3,0:0:0:0:
67,33,164291,2,0,B|50:55|50:55|64:106|64:106|50:175,1,110,8|8,1:0|1:0,0:0:0:0:
22,215,164891,6,0,P|66:231|146:214,1,110,4|4,3:1|3:0,0:0:0:0:
184,156,165491,1,8,1:0:0:0:
184,156,165641,2,0,P|241:130|258:130,1,55,8|8,1:0|1:0,0:0:0:0:
275,138,165941,2,0,P|365:120|456:153,1,165,4|4,3:1|3:3,0:0:0:0:
459,229,166691,1,8,1:0:0:0:
459,229,166841,2,0,L|454:302,1,55,8|8,1:0|1:0,0:0:0:0:
438,324,167141,6,0,P|358:343|279:325,1,165,4|4,3:1|3:3,0:0:0:0:
200,360,167891,2,0,L|124:363,2,55,8|8|8,1:0|1:0|1:0,0:0:0:0:
170,327,168341,2,0,B|183:286|160:252|140:262|114:222|132:167,1,165,4|0,3:1|3:0,0:0:0:0:
86,98,169091,1,8,1:0:0:0:
132,23,169391,1,0,3:0:0:0:
215,49,169691,6,0,L|371:46,1,110,4|4,3:1|3:0,0:0:0:0:
415,45,170291,1,8,1:0:0:0:
415,45,170441,2,0,L|418:113,1,55,8|8,1:0|1:0,0:0:0:0:
450,129,170741,6,0,B|444:180|414:204|414:204|442:231|448:274,1,165,4|4,3:1|3:3,0:0:0:0:
394,344,171491,2,0,L|339:342,1,55,8|8,1:0|1:0,0:0:0:0:
301,365,171790,1,8,1:0:0:0:
301,365,171941,2,0,B|253:359|227:329|227:329|197:357|151:362,1,165,4|4,3:1|3:3,0:0:0:0:
69,338,172691,1,8,1:0:0:0:
69,338,172841,2,0,L|68:253,1,55,8|8,1:0|1:0,0:0:0:0:
47,244,173141,6,0,B|34:203|57:169|77:179|103:139|85:84,1,165,4|0,3:1|3:0,0:0:0:0:
65,6,173891,1,8,1:0:0:0:
152,1,174191,1,8,1:0:0:0:
226,48,174491,2,0,L|214:161,1,110,4|4,3:3|3:3,0:0:0:0:
264,236,175091,1,8,1:1:0:0:
264,236,175241,2,0,L|328:240,1,55,8|8,1:1|1:1,0:0:0:0:
363,242,175541,6,0,P|400:175|364:90,1,165,4|4,3:1|3:3,0:0:0:0:
302,41,176291,2,0,P|278:55|252:62,1,55,8|8,1:1|1:1,0:0:0:0:
218,44,176590,1,8,1:1:0:0:
218,44,176741,2,0,P|149:21|54:19,1,165,4|4,3:1|3:3,0:0:0:0:
7,93,177491,1,8,1:1:0:0:
7,93,177641,2,0,L|10:170,1,55,8|8,1:1|1:1,0:0:0:0:
43,175,177941,2,0,B|27:221|53:261|73:251|96:285|83:326,1,165,4|0,3:1|3:0,0:0:0:0:
17,370,178691,1,8,1:0:0:0:
256,192,182652,12,4,191086,3:0:0:0:
