osu file format v14

[General]
AudioFilename: audio.mp3
AudioLeadIn: 0
PreviewTime: 24034
Countdown: 0
SampleSet: Soft
StackLeniency: 0.7
Mode: 0
LetterboxInBreaks: 0
WidescreenStoryboard: 1

[Editor]
Bookmarks: 43684,154684,192419
DistanceSpacing: 1.2
BeatDivisor: 4
GridSize: 16
TimelineZoom: 1.9

[Metadata]
Title:Noah Fence
TitleUnicode:Noah Fence
Artist:Origami Angel
ArtistUnicode:Origami Angel
Creator:WashedUp Player
Version:Hantrik's Hard
Source:
Tags:hantrik squirrelpascals gami gang english emo alternative punk indie rock fa featured artist
BeatmapID:3990663
BeatmapSetID:1931702

[Difficulty]
HPDrainRate:4.4
CircleSize:3.5
OverallDifficulty:6
ApproachRate:7.5
SliderMultiplier:1.2
SliderTickRate:1

[Events]
//Background and Video events
0,0,"ae.jpg",0,0
//Break Periods
//Storyboard Layer 0 (Background)
//Storyboard Layer 1 (Fail)
//Storyboard Layer 2 (Pass)
//Storyboard Layer 3 (Foreground)
//Storyboard Layer 4 (Overlay)
//Storyboard Sound Samples

[TimingPoints]
191,300,4,2,1,70,1,0
491,300,4,2,1,70,1,0
491,-83.3333333333333,4,2,1,70,0,0
7691,-100,4,2,1,70,0,0
8891,-250,4,2,1,70,0,0
9641,-100,4,2,1,70,0,0
10091,-83.3333333333333,4,2,1,70,0,0
12491,-125,4,2,1,70,0,0
14891,-83.3333333333333,4,2,1,65,0,0
24491,-83.3333333333333,4,2,1,70,0,0
34091,-62.5,4,2,1,70,0,0
34391,-166.666666666667,4,2,1,70,0,0
36041,-83.3333333333334,4,2,1,70,0,0
36191,-83.3333333333333,4,2,1,70,0,0
36491,-62.5,4,2,1,70,0,0
36791,-166.666666666667,4,2,1,70,0,0
38441,-83.3333333333334,4,2,1,70,0,0
38591,-83.3333333333333,4,2,1,70,0,0
38891,-62.5,4,2,1,70,0,0
39191,-200,4,2,1,70,0,0
41291,-166.666666666667,4,2,1,68,0,0
41591,-125,4,2,1,71,0,0
41891,-125,4,2,1,74,0,0
42191,-125,4,2,1,77,0,0
42491,-100,4,2,1,80,0,0
43691,-83.3333333333333,4,2,1,80,0,0
58091,-100,4,2,1,75,0,0
59291,-125,4,2,1,75,0,0
60491,-83.3333333333333,4,2,1,70,0,0
61691,293.398533007335,4,2,1,70,1,0
61984,281.030444964871,4,2,1,70,1,0
62265,295.930949445129,4,2,1,70,1,0
62560,329.67032967033,4,2,1,70,1,0
62891,300,4,2,1,70,1,0
62891,-83.3333333333333,4,2,1,70,0,0
64391,293.040293040293,4,2,1,70,1,0
64684,293.7576499388,4,2,1,70,1,0
64977,314.13612565445,4,2,1,70,1,0
65291,300,4,2,1,70,1,0
65291,-83.3333333333333,4,2,1,70,0,0
67691,-125,4,2,1,70,0,0
68891,-250,4,2,1,70,0,0
70091,-83.3333333333333,4,2,1,70,0,0
72491,-100,4,2,1,70,0,0
73691,-100,4,2,1,75,0,0
74891,-83.3333333333333,4,2,1,75,0,0
94091,-125,4,2,1,75,0,0
96191,-83.3333333333333,4,2,1,75,0,0
103241,-83.3333333333333,4,2,1,80,0,0
103691,-83.3333333333333,4,2,1,80,0,0
113291,-83.3333333333333,4,2,1,80,0,0
122891,-125,4,2,1,70,0,0
126491,-192.307692307692,4,2,1,70,0,0
126528,-192.307692307692,4,2,1,5,0,0
129491,-192.307692307692,4,2,1,55,0,0
129566,-192.307692307692,4,2,1,5,0,0
130091,-192.307692307692,4,2,1,55,0,0
130166,-192.307692307692,4,2,1,5,0,0
130691,-192.307692307692,4,2,1,55,0,0
130766,-192.307692307692,4,2,1,5,0,0
131291,-111.111111111111,4,2,1,35,0,0
131591,-111.111111111111,4,2,1,37,0,0
131891,-111.111111111111,4,2,1,39,0,0
132191,-111.111111111111,4,2,1,41,0,0
132491,-111.111111111111,4,2,1,43,0,0
132791,-111.111111111111,4,2,1,45,0,0
133091,-111.111111111111,4,2,1,47,0,0
133391,-111.111111111111,4,2,1,49,0,0
133691,-111.111111111111,4,2,1,51,0,0
133991,-111.111111111111,4,2,1,53,0,0
134291,-111.111111111111,4,2,1,55,0,0
134591,-111.111111111111,4,2,1,57,0,0
134891,-111.111111111111,4,2,1,59,0,0
135191,-111.111111111111,4,2,1,61,0,0
135491,-111.111111111111,4,2,1,62,0,0
135791,-111.111111111111,4,2,1,64,0,0
136091,-111.111111111111,4,2,1,66,0,0
136391,-111.111111111111,4,2,1,68,0,0
136691,-111.111111111111,4,2,1,70,0,0
136991,-111.111111111111,4,2,1,72,0,0
137291,-111.111111111111,4,2,1,74,0,0
137591,-111.111111111111,4,2,1,76,0,0
137891,-111.111111111111,4,2,1,78,0,0
138191,-111.111111111111,4,2,1,80,0,0
138491,-111.111111111111,4,2,1,82,0,0
138791,-111.111111111111,4,2,1,84,0,0
139091,-111.111111111111,4,2,1,86,0,0
139391,-111.111111111111,4,2,1,88,0,0
139691,-90.9090909090909,4,2,1,90,0,0
139991,-76.9230769230769,4,2,1,90,0,0
140891,-76.9230769230769,4,2,1,95,0,1
151091,-76.9230769230769,4,2,2,95,0,1
151691,-76.9230769230769,4,2,1,95,0,1
152291,-76.9230769230769,4,2,2,95,0,1
152891,-76.9230769230769,4,2,1,95,0,1
153491,-76.9230769230769,4,2,2,95,0,1
154091,-76.9230769230769,4,2,1,95,0,1
154691,-76.9230769230769,4,2,2,95,0,1
155291,-277.777777777778,4,2,1,95,0,0
155366,-277.777777777778,4,2,1,5,0,0
159191,-100,4,2,1,75,0,0
160091,-71.4285714285714,4,2,1,75,0,0
169091,-250,4,2,1,75,0,0
169691,-71.4285714285714,4,2,1,75,0,0
178691,330.123796423659,4,2,1,100,1,0
178691,-454.545454545455,4,2,1,100,0,0
178773,-454.545454545455,4,2,1,5,0,0
182652,300,4,2,1,100,1,0
183852,303.030303030303,4,2,1,100,1,0
184155,324.763193504736,4,2,1,100,1,0
184479,351.390922401171,4,2,1,100,1,0
184596,234.833659491194,4,2,1,100,1,0
184674,363.636363636364,4,2,1,100,1,0
184796,289.156626506024,4,2,1,100,1,0
185012,263.157894736842,4,2,1,100,1,0
185143,266.075388026608,4,2,1,100,1,0
185675,314.13612565445,4,2,1,100,1,0
185832,287.425149700599,4,2,1,100,1,0
186119,264.31718061674,4,2,1,100,1,0
186251,300.751879699248,4,2,1,100,1,0
186702,369.230769230769,4,2,1,100,1,0
186886,355.029585798817,4,2,1,100,1,0
187241,338.983050847458,4,2,1,100,1,0
187579,340.909090909091,4,2,1,100,1,0
187919,427.807486631016,4,2,1,100,1,0
188346,387.096774193548,4,2,1,100,1,0
188539,327.868852459016,4,2,1,100,1,0
188702,352.941176470588,4,2,1,100,1,0
188878,358.744394618834,4,2,1,100,1,0
189057,355.555555555555,4,2,1,100,1,0
189234,361.44578313253,4,2,1,100,1,0
189414,349.344978165939,4,2,1,100,1,0
189588,360.902255639098,4,2,1,100,1,0
189768,273.037542662116,4,2,1,100,1,0
189904,263.736263736263,4,2,1,100,1,0
190035,310.077519379845,4,2,1,100,1,0
190112,368.098159509202,4,2,1,100,1,0
190296,430.10752688172,4,2,1,100,1,0
190511,364.741641337386,4,2,1,100,1,0
190693,393.44262295082,4,2,1,100,1,0

[Colours]
Combo1 : 96,202,197
Combo2 : 255,72,72
Combo3 : 173,83,255
Combo4 : 255,174,53

[HitObjects]
63,52,191,5,8,1:0:0:0:
63,52,491,2,0,B|150:40|117:101|210:88,1,143.999995605469,4|8,3:0|1:0,0:0:0:0:
279,58,941,1,0,0:0:0:0:
279,58,1091,2,0,P|338:45|373:39,1,71.9999978027345,0|0,3:0|3:0,0:0:0:0:
426,84,1391,1,8,1:0:0:0:
312,214,1691,6,0,P|336:171|436:185,1,143.999995605469,8|8,1:0|1:0,0:0:0:0:
499,325,2291,2,0,P|475:282|375:296,1,143.999995605469,8|8,1:0|1:0,0:0:0:0:
388,281,2891,6,0,P|321:296|224:314,1,143.999995605469,4|8,3:0|1:0,0:0:0:0:
169,286,3341,1,0,0:0:0:0:
169,286,3491,2,0,P|156:242|168:210,1,71.9999978027345,0|0,3:0|3:0,0:0:0:0:
224,156,3791,1,8,1:0:0:0:
85,52,4091,6,0,P|73:112|57:206,1,143.999995605469,8|8,1:0|1:0,0:0:0:0:
224,156,4691,2,0,P|211:85|197:14,1,143.999995605469,8|8,1:0|1:0,0:0:0:0:
370,15,5291,6,0,P|439:44|432:123,1,143.999995605469,4|8,3:0|1:0,0:0:0:0:
376,160,5741,2,0,P|370:217|361:315,1,143.999995605469,0|0,3:0|3:0,0:0:0:0:
425,361,6191,1,8,1:0:0:0:
252,374,6491,6,0,P|245:302|237:230,1,143.999995605469,4|8,3:0|1:0,0:0:0:0:
186,161,6941,2,0,P|132:126|43:167,1,143.999995605469,0|0,3:0|3:0,0:0:0:0:
10,218,7391,1,8,1:0:0:0:
91,336,7691,6,0,P|137:323|186:309,2,80,8|8|8,1:0|3:0|3:0,0:0:0:0:
10,218,8291,2,0,P|56:231|105:245,2,80,8|8|8,1:0|3:0|3:0,0:0:0:0:
170,181,8891,6,0,P|182:143|156:94,1,96,2|0,0:1|0:0,0:0:0:0:
73,56,9641,2,0,L|67:6,2,30,0|0|8,3:0|3:0|1:0,0:0:0:0:
73,56,10091,6,0,P|149:41|232:27,1,143.999995605469,4|8,3:0|1:0,0:0:0:0:
265,101,10541,2,0,P|303:108|344:115,1,71.9999978027344,0|0,3:0|0:0,0:0:0:0:
397,52,10841,1,0,3:0:0:0:
397,52,10991,2,0,P|378:88|391:131,1,71.9999978027344,8|0,1:0|0:0,0:0:0:0:
449,173,11291,6,0,P|390:164|339:227,1,143.999995605469,4|8,3:0|1:0,0:0:0:0:
363,306,11741,2,0,P|327:312|292:318,1,71.9999978027344,0|0,3:0|0:0,0:0:0:0:
219,271,12041,1,0,3:0:0:0:
219,271,12191,2,0,P|183:264|148:258,1,71.9999978027344,8|0,1:0|0:0,0:0:0:0:
65,234,12491,6,0,P|57:179|48:125,1,96,2|8,3:0|1:0,0:0:0:0:
11,61,12941,1,0,3:0:0:0:
149,10,13241,1,0,3:0:0:0:
149,10,13391,2,0,P|145:33|141:57,1,48,8|0,1:0|3:0,0:0:0:0:
136,151,13691,6,0,L|191:140,1,48,8|0,1:0|3:0,0:0:0:0:
225,71,13991,2,0,L|280:82,1,48,8|2,1:0|3:1,0:0:0:0:
307,153,14291,2,0,L|354:143,1,48,10|2,1:0|3:1,0:0:0:0:
413,77,14591,1,10,1:0:0:0:
413,77,14741,1,2,3:1:0:0:
477,130,14891,6,0,B|496:157|510:176|510:176|490:216|473:262,1,143.999995605469,12|10,1:0|1:0,0:0:0:0:
349,236,15491,1,2,0:1:0:0:
349,236,15641,2,0,P|356:280|360:312,1,71.9999978027344,2|8,3:1|1:0,0:0:0:0:
292,359,15941,2,0,P|236:376|180:297,1,143.999995605469,2|0,3:1|3:0,0:0:0:0:
212,240,16391,1,8,1:0:0:0:
60,202,16691,2,0,P|54:162|48:125,1,71.9999978027344,2|0,3:1|3:0,0:0:0:0:
104,59,16991,1,10,1:0:0:0:
104,59,17141,1,0,0:0:0:0:
173,115,17291,6,0,B|260:103|227:164|320:151,1,143.999995605469,2|10,3:1|1:0,0:0:0:0:
403,228,17741,2,0,P|346:223|300:308,1,143.999995605469,2|0,0:1|3:1,0:0:0:0:
285,373,18191,5,8,1:0:0:0:
285,373,18341,2,0,P|224:356|134:334,1,143.999995605469,0|0,3:1|3:1,0:0:0:0:
61,357,18791,1,8,1:0:0:0:
10,108,19091,2,0,P|45:116|66:148,1,71.9999978027344,2|2,3:1|3:1,0:0:0:0:
148,169,19391,2,0,P|196:159|247:150,1,71.9999978027344,10|2,1:1|0:1,0:0:0:0:
228,72,19691,6,0,B|138:38|138:38|86:67,1,143.999995605469,2|10,3:1|1:0,0:0:0:0:
13,169,20291,1,0,0:0:0:0:
13,169,20441,2,0,P|24:217|31:257,1,71.9999978027344,2|8,3:1|1:0,0:0:0:0:
74,338,20741,2,0,P|102:289|191:309,1,143.999995605469,2|0,3:1|3:1,0:0:0:0:
241,357,21191,1,8,1:0:0:0:
324,235,21491,2,0,P|368:247|410:257,1,71.9999978027344,2|2,3:1|3:1,0:0:0:0:
474,206,21791,1,10,1:1:0:0:
474,206,21941,1,2,0:1:0:0:
484,120,22091,6,0,B|396:106|430:169|337:156,1,143.999995605469,2|10,3:1|1:0,0:0:0:0:
292,33,22691,2,0,P|257:41|222:51,1,71.9999978027344,2|2,0:1|3:1,0:0:0:0:
125,26,22991,1,8,1:0:0:0:
125,26,23141,2,0,B|114:75|114:75|132:114|132:114|120:172,1,143.999995605469,2|0,3:1|3:1,0:0:0:0:
46,234,23591,1,8,1:0:0:0:
183,346,23891,2,0,P|177:303|172:264,1,71.9999978027344,0|2,3:1|3:1,0:0:0:0:
233,199,24191,1,10,1:1:0:0:
233,199,24341,1,2,0:1:0:0:
297,263,24491,6,0,P|360:248|449:226,1,143.999995605469,2|10,3:1|1:1,0:0:0:0:
477,143,24941,1,2,3:1:0:0:
477,143,25091,2,0,P|449:136|396:123,1,71.9999978027344,2|0,3:1|3:1,0:0:0:0:
362,51,25391,2,0,P|334:57|281:71,1,71.9999978027344,10|2,1:1|3:1,0:0:0:0:
219,20,25691,6,0,P|270:63|259:147,2,143.999995605469,2|10|0,3:1|1:1|3:1,0:0:0:0:
147,68,26441,1,0,3:1:0:0:
147,68,26591,2,0,P|101:59|60:52,1,71.9999978027344,10|2,1:1|3:1,0:0:0:0:
10,124,26891,6,0,P|22:176|44:274,1,143.999995605469,2|10,3:1|1:1,0:0:0:0:
124,319,27341,1,2,3:1:0:0:
124,319,27491,2,0,P|131:283|139:248,1,71.9999978027344,2|0,3:1|3:1,0:0:0:0:
223,188,27791,2,0,P|231:223|238:258,1,71.9999978027344,10|2,1:1|3:1,0:0:0:0:
301,323,28091,6,0,P|343:313|385:304,2,71.9999978027344,2|0|8,3:1|3:1|1:1,0:0:0:0:
429,244,28691,2,0,P|439:198|424:175,2,71.9999978027344,0|0|8,3:1|3:1|1:1,0:0:0:0:
336,194,29141,5,2,3:1:0:0:
336,194,29291,2,0,P|343:158|351:123,1,71.9999978027344,2|0,3:1|3:1,0:0:0:0:
237,48,29591,2,0,P|245:83|252:118,1,71.9999978027344,10|2,1:1|3:1,0:0:0:0:
172,161,29891,2,0,P|101:142|15:124,1,143.999995605469,2|10,3:1|1:1,0:0:0:0:
26,249,30341,5,2,3:1:0:0:
26,249,30491,2,0,P|61:239|104:230,1,71.9999978027344,2|0,3:1|3:1,0:0:0:0:
171,162,30791,2,0,P|227:173|255:261,1,143.999995605469,10|0,1:1|3:1,0:0:0:0:
198,333,31241,1,2,3:1:0:0:
198,333,31391,2,0,P|162:323|119:314,1,71.9999978027344,10|2,1:1|3:1,0:0:0:0:
28,313,31691,6,0,B|10:276|10:276|27:246,1,71.9999978027344,10|0,1:0|3:1,0:0:0:0:
113,242,31991,2,0,B|128:268|128:268|110:305,1,71.9999978027344,10|2,1:0|3:1,0:0:0:0:
218,355,32291,6,0,B|200:318|200:318|217:288,1,71.9999978027344,8|2,1:0|3:1,0:0:0:0:
303,284,32591,2,0,B|318:310|318:310|300:347,1,71.9999978027344,8|2,1:0|3:1,0:0:0:0:
401,303,32891,6,0,B|383:266|383:266|400:236,1,71.9999978027344,8|0,1:0|3:1,0:0:0:0:
486,232,33191,2,0,B|501:258|501:258|483:295,1,71.9999978027344,8|2,1:0|3:1,0:0:0:0:
491,140,33491,6,0,P|453:144|407:152,1,71.9999978027344,10|0,1:0|3:1,0:0:0:0:
381,79,33791,2,0,P|343:74|297:67,1,71.9999978027344,10|0,1:0|3:1,0:0:0:0:
245,16,34091,6,0,P|219:62|243:119,1,96,14|0,1:0|0:0,0:0:0:0:
241,184,34391,6,0,B|269:154|307:150|307:150|157:111|218:275|56:229,1,359.999989013672,14|0,1:0|0:0,0:0:0:0:
15,144,36041,2,0,P|65:133|106:124,1,71.9999978027344,0|10,3:0|1:0,0:0:0:0:
207,13,36341,5,0,3:0:0:0:
207,13,36491,2,0,P|162:27|147:70,1,96,14|0,1:0|0:0,0:0:0:0:
207,154,36791,6,0,B|269:145|269:145|298:92|298:92|383:164|383:164|408:119|408:119|487:109,1,359.999989013672,14|0,1:0|0:0,0:0:0:0:
458,198,38441,2,0,P|466:244|473:281,1,71.9999978027344,0|10,3:0|1:0,0:0:0:0:
448,362,38741,5,0,3:0:0:0:
448,362,38891,2,0,P|416:329|359:338,1,96,14|0,1:0|0:0,0:0:0:0:
305,380,39191,6,0,P|321:292|130:310,1,360,14|0,1:0|0:0,0:0:0:0:
130,308,41291,6,0,L|86:318,1,35.9999989013672,8|0,1:0|3:0,0:0:0:0:
26,227,41591,2,0,L|76:238,1,48,0|0,3:0|3:0,0:0:0:0:
139,173,41891,5,8,1:0:0:0:
139,173,42041,1,8,1:0:0:0:
67,111,42191,5,8,1:0:0:0:
67,111,42341,1,8,1:0:0:0:
140,41,42491,6,0,L|148:85,2,30,10|8|8,1:0|1:0|1:0,0:0:0:0:
213,108,42791,2,0,L|249:101,3,30,8|8|8|8,1:0|1:0|1:0|1:0,0:0:0:0:
271,78,43091,2,0,L|302:83,3,30,10|8|8|8,1:0|1:0|1:0|1:0,0:0:0:0:
368,43,43391,2,0,P|338:78|364:128,1,90,8|8,1:0|3:0,0:0:0:0:
418,160,43691,6,0,P|350:146|287:211,1,143.999995605469,14|10,3:0|1:0,0:0:0:0:
298,295,44141,2,0,P|257:285|221:276,1,71.9999978027344,2|0,3:1|3:1,0:0:0:0:
177,204,44441,2,0,P|136:213|100:222,1,71.9999978027344,2|8,3:1|1:0,0:0:0:0:
26,177,44741,2,0,B|11:143|-7:114|-7:114|16:83|38:29,1,143.999995605469,2|0,3:1|3:1,0:0:0:0:
111,18,45191,1,10,1:0:0:0:
170,78,45341,2,0,P|210:68|246:59,1,71.9999978027344,2|0,3:1|3:1,0:0:0:0:
308,16,45641,2,0,P|348:25|384:34,1,71.9999978027344,2|8,3:1|1:0,0:0:0:0:
466,14,45941,6,0,B|456:66|456:66|476:102|476:102|465:175,1,143.999995605469,2|2,3:1|3:1,0:0:0:0:
392,205,46391,1,8,1:0:0:0:
311,173,46541,2,0,P|306:130|302:90,1,71.9999978027344,2|0,3:1|3:1,0:0:0:0:
219,39,46841,2,0,P|215:74|211:110,1,71.9999978027344,2|8,3:1|1:0,0:0:0:0:
132,160,47141,6,0,P|82:153|55:61,1,143.999995605469,2|2,3:1|3:1,0:0:0:0:
111,10,47591,1,8,1:0:0:0:
17,223,47891,2,0,P|61:235|99:245,1,71.9999978027344,2|0,3:1|3:1,0:0:0:0:
116,322,48191,2,0,P|160:310|198:300,1,71.9999978027344,10|0,1:0|3:1,0:0:0:0:
238,227,48491,6,0,B|325:215|292:276|385:263,1,143.999995605469,2|8,3:1|1:0,0:0:0:0:
443,214,48941,1,2,3:1:0:0:
486,141,49091,2,0,P|442:129|404:119,1,71.9999978027344,0|2,3:1|3:1,0:0:0:0:
374,50,49391,2,0,P|330:62|292:72,1,71.9999978027344,8|2,1:0|3:1,0:0:0:0:
203,24,49691,6,0,P|214:87|231:179,1,143.999995605469,2|8,3:1|1:0,0:0:0:0:
314,204,50141,1,2,3:1:0:0:
279,284,50291,2,0,P|223:269|187:262,1,71.9999978027344,2|0,3:1|3:1,0:0:0:0:
155,196,50591,2,0,P|119:204|85:213,1,71.9999978027344,10|2,1:0|3:1,0:0:0:0:
20,272,50891,6,0,P|-2:226|11:172,1,107.999996704102,0|0,3:1|0:0,0:0:0:0:
43,142,51191,1,8,1:0:0:0:
134,108,51341,2,0,P|200:124|286:146,1,143.999995605469,2|2,3:1|3:1,0:0:0:0:
348,86,51791,1,8,1:0:0:0:
430,126,51941,6,0,P|422:168|414:210,1,71.9999978027344,2|0,3:1|3:1,0:0:0:0:
468,270,52241,1,2,3:1:0:0:
412,340,52391,2,0,P|374:350|341:334,1,71.9999978027344,8|8,1:1|1:1,0:0:0:0:
288,263,52691,2,0,P|250:253|217:269,1,71.9999978027344,0|0,3:1|3:1,0:0:0:0:
170,344,52991,1,10,1:1:0:0:
170,344,53141,1,10,1:1:0:0:
75,338,53291,6,0,B|63:302|44:267|44:267|67:244|92:213,1,143.999995605469,2|10,3:1|1:0,0:0:0:0:
158,160,53741,2,0,P|150:115|143:73,1,71.9999978027344,2|0,3:1|3:1,0:0:0:0:
208,26,54041,1,0,3:1:0:0:
275,83,54191,2,0,P|314:94|347:83,1,71.9999978027344,10|0,1:0|3:1,0:0:0:0:
399,22,54491,6,0,P|461:40|466:133,1,143.999995605469,2|10,3:1|1:0,0:0:0:0:
411,173,54941,2,0,P|418:216|425:259,1,71.9999978027344,2|0,3:1|3:1,0:0:0:0:
500,298,55241,1,2,3:1:0:0:
425,354,55391,2,0,P|383:343|336:331,1,71.9999978027344,8|0,1:0|3:1,0:0:0:0:
301,269,55691,6,0,B|214:257|247:318|154:305,1,143.999995605469,2|10,3:1|1:0,0:0:0:0:
81,274,56141,2,0,P|55:227|105:151,1,143.999995605469,2|2,3:1|3:1,0:0:0:0:
177,112,56591,1,8,1:0:0:0:
247,165,56741,6,0,P|292:156|334:149,1,71.9999978027344,2|0,3:1|3:1,0:0:0:0:
390,87,57041,1,0,3:1:0:0:
325,20,57191,2,0,P|280:11|238:4,1,71.9999978027344,8|0,1:0|3:1,0:0:0:0:
169,10,57491,1,0,3:1:0:0:
169,10,57641,1,0,3:1:0:0:
95,58,57791,2,0,P|84:91|98:123,1,71.9999978027344,8|2,1:0|3:1,0:0:0:0:
181,177,58091,6,0,P|187:227|197:312,1,120,6|2,3:1|3:1,0:0:0:0:
348,359,58691,2,0,P|355:299|362:239,1,120,2|2,3:1|3:1,0:0:0:0:
485,93,59291,6,0,B|374:70|412:159|305:135,1,192,6|0,3:1|0:0,0:0:0:0:
308,136,60041,5,0,3:1:0:0:
227,169,60191,1,8,1:0:0:0:
88,38,60491,5,4,3:0:0:0:
88,38,60641,1,0,3:0:0:0:
21,93,60791,2,0,P|7:129|21:162,1,71.9999978027344,8|0,1:0|0:0,0:0:0:0:
57,233,61091,2,0,P|103:224|138:217,1,71.9999978027344,0|0,3:0|3:0,0:0:0:0:
195,154,61391,2,0,P|241:163|276:170,1,71.9999978027344,8|0,1:0|0:0,0:0:0:0:
337,108,61691,5,8,1:0:0:0:
440,80,61984,5,8,1:0:0:0:
509,163,62265,5,8,1:0:0:0:
479,261,62560,5,8,1:0:0:0:
378,278,62891,5,4,3:0:0:0:
378,278,63041,1,0,3:0:0:0:
309,346,63191,2,0,P|263:335|216:325,1,71.9999978027344,8|0,1:0|0:0,0:0:0:0:
151,315,63491,2,0,P|137:269|156:234,1,71.9999978027344,0|0,3:0|3:0,0:0:0:0:
215,187,63791,2,0,P|229:141|210:106,1,71.9999978027344,8|0,1:0|0:0,0:0:0:0:
156,56,64091,5,8,1:0:0:0:
48,68,64391,5,8,1:0:0:0:
4,163,64684,5,8,1:0:0:0:
70,245,64977,5,8,1:0:0:0:
172,226,65291,6,0,B|259:214|226:275|319:262,1,143.999995605469,4|8,3:0|1:0,0:0:0:0:
371,205,65741,2,0,P|384:146|404:57,1,143.999995605469,0|0,3:0|3:0,0:0:0:0:
314,18,66191,1,8,1:0:0:0:
111,162,66491,6,0,P|124:221|144:310,1,143.999995605469,4|8,3:0|1:0,0:0:0:0:
233,347,66941,2,0,P|278:331|271:232,1,143.999995605469,0|0,3:0|3:0,0:0:0:0:
221,178,67391,1,8,1:0:0:0:
415,44,67691,6,0,P|450:53|503:65,2,64,8|8|8,1:0|3:0|3:0,0:0:0:0:
389,157,68291,2,0,P|424:148|477:136,2,64,8|8|8,1:0|3:0|3:0,0:0:0:0:
335,229,68891,2,0,P|327:257|353:320,1,96,2|0,0:1|0:0,0:0:0:0:
350,317,69641,5,0,3:0:0:0:
435,289,69791,1,8,1:0:0:0:
283,165,70091,6,0,P|224:181|126:208,1,143.999995605469,4|8,3:0|1:0,0:0:0:0:
62,152,70541,2,0,P|44:113|61:70,1,71.9999978027344,0|0,3:0|0:0,0:0:0:0:
109,21,70841,1,0,3:0:0:0:
195,40,70991,2,0,P|188:82|181:134,1,71.9999978027344,8|0,1:0|0:0,0:0:0:0:
235,180,71291,6,0,B|322:168|289:229|382:216,1,143.999995605469,4|8,3:0|1:0,0:0:0:0:
432,152,71741,2,0,P|446:112|427:76,1,71.9999978027344,0|0,3:0|0:0,0:0:0:0:
363,35,72041,1,0,3:0:0:0:
285,81,72191,2,0,P|292:136|296:168,1,71.9999978027344,8|0,1:0|0:0,0:0:0:0:
219,218,72491,6,0,P|182:210|153:204,1,60,2|0,3:0|0:0,0:0:0:0:
90,265,72791,1,8,1:0:0:0:
148,332,72941,2,0,P|184:324|213:318,1,60,0|0,3:0|0:0,0:0:0:0:
284,367,73241,1,0,3:0:0:0:
367,330,73391,2,0,P|377:294|361:263,1,60,8|0,1:0|3:0,0:0:0:0:
297,218,73691,6,0,L|293:182,3,30,8|8|8|8,1:0|1:0|1:0|1:0,0:0:0:0:
327,158,73991,2,0,B|358:154|358:154|369:146|369:146|386:150|386:150|426:143,1,90,0|0,3:0|3:0,0:0:0:0:
444,117,74291,2,0,L|448:81,3,30,8|8|8|8,1:0|1:0|1:0|1:0,0:0:0:0:
484,60,74591,2,0,B|485:31|485:31|478:24|478:24|476:-4,1,60,8|0,1:0|3:0,0:0:0:0:
372,18,74891,5,8,1:0:0:0:
372,18,74966,1,0,3:0:0:0:
372,18,75041,1,0,3:0:0:0:
281,75,75191,2,0,B|242:93|242:93|195:75,1,71.9999978027344,12|0,1:0|0:0,0:0:0:0:
100,17,75491,1,4,3:0:0:0:
100,17,75641,2,0,B|135:-3|135:-3|186:17,1,71.9999978027344,0|8,3:1|1:1,0:0:0:0:
214,82,75941,6,0,P|146:98|47:125,1,143.999995605469,4|0,3:1|3:1,0:0:0:0:
15,188,76391,2,0,P|2:228|18:264,1,71.9999978027344,8|0,1:1|0:0,0:0:0:0:
68,328,76691,1,0,3:1:0:0:
68,328,76841,1,0,3:1:0:0:
153,292,76991,2,0,P|198:280|237:271,1,71.9999978027344,8|0,1:1|3:1,0:0:0:0:
279,217,77291,6,0,L|320:227,2,35.9999989013672,8|8|0,1:1|1:1|3:1,0:0:0:0:
385,183,77591,2,0,P|400:223|392:254,1,71.9999978027344,8|0,1:1|0:0,0:0:0:0:
317,310,77891,1,0,3:1:0:0:
317,310,78041,1,0,3:1:0:0:
395,360,78191,2,0,P|443:351|488:344,1,71.9999978027344,8|0,1:1|0:0,0:0:0:0:
490,266,78491,5,0,3:1:0:0:
490,266,78641,1,0,3:1:0:0:
434,194,78791,2,0,P|386:203|341:210,1,71.9999978027344,8|0,1:1|0:0,0:0:0:0:
301,269,79091,1,0,3:1:0:0:
301,269,79241,1,0,3:1:0:0:
284,178,79391,2,0,L|248:173,3,35.9999989013672,8|8|8|8,1:1|1:1|1:1|1:1,0:0:0:0:
224,135,79691,6,0,P|167:135|128:233,2,143.999995605469,4|2|2,3:1|3:1|3:0,0:0:0:0:
302,78,80441,1,2,3:0:0:0:
302,78,80591,1,8,1:0:0:0:
244,10,80741,6,0,P|178:22|95:40,1,143.999995605469,4|0,3:0|3:1,0:0:0:0:
34,100,81191,1,10,1:1:0:0:
21,263,81491,1,2,3:3:0:0:
21,263,81641,1,2,3:3:0:0:
94,214,81791,2,0,P|126:220|168:229,1,71.9999978027344,8|0,1:1|0:0,0:0:0:0:
228,298,82091,5,8,1:0:0:0:
392,165,82391,2,0,B|305:153|338:214|245:201,1,143.999995605469,8|2,1:0|3:3,0:0:0:0:
190,139,82841,1,2,3:3:0:0:
190,139,82991,1,10,1:0:0:0:
313,13,83291,6,0,P|319:52|324:85,2,71.9999978027344,2|2|10,3:3|3:3|1:0,0:0:0:0:
426,94,83891,2,0,P|419:133|414:166,1,71.9999978027344,2|2,3:3|3:3,0:0:0:0:
472,249,84191,2,0,P|451:254|356:281,1,107.999996704102,10|10,1:0|1:0,0:0:0:0:
350,307,84491,2,0,P|343:254|329:156,2,143.999995605469,4|2|2,3:1|3:1|3:0,0:0:0:0:
269,358,85241,1,2,3:0:0:0:
190,306,85391,2,0,P|194:270|199:234,1,71.9999978027344,10|6,1:0|3:0,0:0:0:0:
154,157,85691,6,0,P|99:145|35:209,1,143.999995605469,2|10,0:1|1:1,0:0:0:0:
18,278,86141,1,2,0:1:0:0:
75,339,86291,2,0,P|115:327|160:314,1,71.9999978027344,2|2,3:1|3:1,0:0:0:0:
205,258,86591,1,10,1:1:0:0:
205,258,86741,1,2,3:1:0:0:
197,166,86891,6,0,P|114:141|31:116,2,143.999995605469,4|2|2,3:1|3:1|3:0,0:0:0:0:
268,104,87641,1,2,3:0:0:0:
333,168,87791,2,0,P|373:156|418:143,1,71.9999978027344,8|4,1:0|3:0,0:0:0:0:
468,75,88091,6,0,B|444:103|421:123|421:123|439:155|459:207,1,143.999995605469,2|10,0:1|1:1,0:0:0:0:
501,268,88541,1,2,0:1:0:0:
436,327,88691,2,0,P|379:312|344:305,1,71.9999978027344,2|2,3:1|3:1,0:0:0:0:
278,352,88991,1,10,1:1:0:0:
278,352,89141,1,2,3:1:0:0:
204,285,89291,6,0,B|117:273|150:334|57:321,2,143.999995605469,4|10|2,3:1|1:1|3:0,0:0:0:0:
267,217,90041,1,2,3:0:0:0:
201,156,90191,2,0,P|144:171|110:178,1,71.9999978027344,8|2,1:0|3:0,0:0:0:0:
46,143,90491,6,0,P|15:89|63:18,1,143.999995605469,0|8,0:0|1:0,0:0:0:0:
139,26,90941,1,0,0:0:0:0:
210,78,91091,2,0,P|245:69|279:60,1,71.9999978027344,0|0,3:0|3:0,0:0:0:0:
343,8,91391,2,0,P|378:16|412:25,1,71.9999978027344,8|0,1:0|0:0,0:0:0:0:
480,92,91691,6,0,P|487:147|500:248,2,143.999995605469,4|8|0,3:0|1:0|3:0,0:0:0:0:
402,135,92441,1,0,3:0:0:0:
402,135,92591,1,8,1:0:0:0:
319,94,92741,2,0,B|286:106|253:127|253:127|219:109|163:89,1,143.999995605469,4|0,3:0|3:0,0:0:0:0:
100,122,93191,1,8,1:0:0:0:
14,288,93491,2,0,P|57:299|102:308,1,71.9999978027344,0|0,3:0|3:0,0:0:0:0:
183,250,93791,1,8,1:0:0:0:
183,250,94091,6,0,P|209:243|237:237,1,48,4|0,3:0|0:0,0:0:0:0:
302,178,94391,2,0,P|322:185|334:189,3,24,10|0|2|0,1:0|0:0|0:1|0:0,0:0:0:0:
366,185,94691,2,0,P|377:181|388:177,3,24,2|0|0|0,0:1|0:0|0:0|0:0,0:0:0:0:
423,162,94991,2,0,P|443:169|455:173,3,24,8|0|2|0,1:0|0:0|0:1|0:0,0:0:0:0:
487,166,95291,6,0,B|502:204|502:204|486:238,1,72,2|0,0:1|0:0,0:0:0:0:
448,261,95591,2,0,P|436:263|424:267,3,24,8|0|2|0,1:0|0:0|0:1|0:0,0:0:0:0:
386,285,95891,2,0,P|374:282|362:278,3,24,2|0|0|0,0:1|0:0|0:0|0:0,0:0:0:0:
332,295,96191,5,8,1:0:0:0:
332,295,96266,1,8,1:0:0:0:
332,295,96341,1,8,1:0:0:0:
230,261,96491,2,0,B|143:249|176:310|83:297,1,143.999995605469,6|8,3:1|1:0,0:0:0:0:
42,369,96941,1,8,1:0:0:0:
9,290,97091,2,0,P|2:241|-3:203,1,71.9999978027344,0|0,3:0|3:0,0:0:0:0:
80,175,97391,1,8,1:0:0:0:
80,175,97541,1,8,1:0:0:0:
173,213,97691,6,0,P|180:164|185:126,1,71.9999978027344,0|0,3:0|3:0,0:0:0:0:
134,74,97991,1,8,1:0:0:0:
134,74,98141,1,8,1:0:0:0:
195,15,98291,2,0,P|239:26|273:33,1,71.9999978027344,0|0,3:0|3:0,0:0:0:0:
311,110,98591,1,8,1:0:0:0:
311,110,98741,1,8,1:0:0:0:
382,51,98891,6,0,P|438:87|422:169,1,143.999995605469,0|0,3:0|3:0,0:0:0:0:
354,279,99491,2,0,P|331:273|306:267,3,35.9999989013672,2|0|2|0,3:1|0:0|3:1|0:0,0:0:0:0:
284,247,99791,2,0,P|261:253|236:259,3,35.9999989013672,10|0|0|0,1:1|0:0|0:0|0:0,0:0:0:0:
203,240,100091,6,0,P|197:218|196:197,3,35.9999989013672,2|0|2|0,3:1|0:0|3:1|0:0,0:0:0:0:
226,173,100391,2,0,P|232:151|233:130,3,35.9999989013672,10|0|0|0,1:1|0:0|0:0|0:0,0:0:0:0:
196,114,100691,2,0,P|190:92|189:71,3,35.9999989013672,2|0|2|0,3:1|0:0|3:1|0:0,0:0:0:0:
210,44,100991,2,0,P|170:37|124:31,1,71.9999978027344,10|0,1:1|3:0,0:0:0:0:
32,91,101291,5,8,1:0:0:0:
474,267,103241,5,0,3:1:0:0:
412,332,103391,2,0,P|367:323|320:315,1,71.9999978027344,8|0,1:1|3:1,0:0:0:0:
263,274,103691,6,0,P|239:210|290:147,1,143.999995605469,4|8,3:1|1:1,0:0:0:0:
264,39,104141,5,2,3:1:0:0:
264,39,104291,2,0,P|331:50|360:125,1,143.999995605469,2|8,3:1|1:1,0:0:0:0:
463,156,104741,5,2,3:1:0:0:
463,156,104891,2,0,P|419:208|339:196,1,143.999995605469,2|8,3:1|1:1,0:0:0:0:
264,223,105341,5,2,3:1:0:0:
264,223,105491,2,0,P|244:170|286:118,2,107.999996704102,2|2|2,3:1|3:1|3:1,0:0:0:0:
303,306,106091,6,0,P|228:313|146:323,1,143.999995605469,0|8,3:1|1:1,0:0:0:0:
120,207,106541,5,2,3:1:0:0:
120,207,106691,2,0,P|195:214|277:224,1,143.999995605469,2|8,3:1|1:1,0:0:0:0:
297,117,107141,5,2,3:1:0:0:
297,117,107291,2,0,P|221:124|139:134,1,143.999995605469,2|8,3:1|1:1,0:0:0:0:
149,27,107741,5,2,3:1:0:0:
149,27,107891,2,0,P|210:32|278:41,2,107.999996704102,2|2|2,3:1|3:1|3:1,0:0:0:0:
81,86,108491,6,0,B|123:139|123:139|89:219,1,143.999995605469,4|8,3:1|1:1,0:0:0:0:
201,316,108941,5,2,3:1:0:0:
201,316,109091,2,0,B|172:245|172:245|196:178,1,143.999995605469,2|8,3:1|1:1,0:0:0:0:
85,67,109541,5,2,3:1:0:0:
85,67,109691,2,0,B|127:120|127:120|93:200,1,143.999995605469,2|8,3:1|1:1,0:0:0:0:
208,294,110141,5,2,3:1:0:0:
208,294,110291,2,0,B|186:240|186:240|204:189,2,107.999996704102,2|2|2,3:1|3:1|3:1,0:0:0:0:
290,322,110891,6,0,P|342:313|428:298,2,107.999996704102,2|2|2,3:1|3:1|3:1,0:0:0:0:
226,218,111491,2,0,P|174:209|88:194,2,107.999996704102,2|2|2,3:1|3:1|3:1,0:0:0:0:
307,104,112091,5,8,1:0:0:0:
228,151,113291,6,0,P|236:209|252:309,1,143.999995605469,6|10,3:0|1:0,0:0:0:0:
329,353,113741,2,0,P|372:362|401:347,1,71.9999978027344,2|0,3:1|3:1,0:0:0:0:
454,277,114041,2,0,P|459:241|464:205,1,71.9999978027344,2|8,3:1|1:0,0:0:0:0:
478,115,114341,6,0,B|391:103|424:164|331:151,1,143.999995605469,2|0,3:1|3:1,0:0:0:0:
284,90,114791,1,10,1:0:0:0:
230,162,114941,2,0,P|184:153|143:146,1,71.9999978027344,2|0,3:1|3:1,0:0:0:0:
72,102,115241,2,0,P|59:57|81:17,1,71.9999978027344,2|8,3:1|1:0,0:0:0:0:
164,4,115541,6,0,P|221:16|320:35,1,143.999995605469,2|2,3:1|3:1,0:0:0:0:
390,3,115991,1,8,1:0:0:0:
465,52,116141,2,0,P|480:85|471:120,1,71.9999978027344,2|0,3:1|3:1,0:0:0:0:
395,167,116441,2,0,P|380:200|389:235,1,71.9999978027344,2|8,3:1|1:0,0:0:0:0:
446,307,116741,6,0,P|408:266|316:285,1,143.999995605469,2|2,3:1|3:1,0:0:0:0:
264,344,117191,1,8,1:0:0:0:
52,338,117491,2,0,P|36:297|59:257,1,71.9999978027344,2|0,3:1|3:1,0:0:0:0:
109,215,117791,2,0,P|125:174|102:134,1,71.9999978027344,10|0,1:0|3:1,0:0:0:0:
38,75,118091,6,0,B|125:63|92:124|185:111,1,143.999995605469,2|8,3:1|1:0,0:0:0:0:
237,41,118541,1,2,3:1:0:0:
319,79,118691,2,0,P|326:121|332:156,1,71.9999978027344,0|2,3:1|3:1,0:0:0:0:
411,202,118991,1,8,1:0:0:0:
348,274,119141,6,0,P|275:263|194:253,1,143.999995605469,2|0,3:1|3:1,0:0:0:0:
126,317,119591,1,8,1:0:0:0:
126,317,119741,1,2,3:1:0:0:
34,276,119891,2,0,P|17:237|32:193,1,71.9999978027344,2|0,3:1|3:1,0:0:0:0:
84,139,120191,2,0,P|143:130|179:125,1,71.9999978027344,10|2,1:0|3:1,0:0:0:0:
212,53,120491,6,0,P|252:80|250:142,1,107.999996704102,0|0,3:1|0:0,0:0:0:0:
228,170,120791,1,8,1:0:0:0:
280,249,120941,2,0,P|359:260|426:269,1,143.999995605469,2|2,3:1|3:1,0:0:0:0:
485,200,121391,1,8,1:0:0:0:
437,130,121541,6,0,P|401:134|365:139,1,71.9999978027344,2|0,3:1|3:1,0:0:0:0:
298,84,121841,1,2,3:1:0:0:
217,125,121991,2,0,P|202:165|215:197,1,71.9999978027344,8|0,1:1|3:1,0:0:0:0:
280,249,122291,1,0,3:1:0:0:
280,249,122441,1,0,3:1:0:0:
212,328,122591,2,0,P|155:338|113:345,1,71.9999978027344,10|2,1:1|0:1,0:0:0:0:
36,362,122891,6,0,B|27:311|-5:276|-5:276|30:237|39:180,1,192,6|8,3:1|1:1,0:0:0:0:
13,73,123791,1,6,3:1:0:0:
125,31,124091,6,0,B|236:7|192:106|311:75,1,192,6|8,3:1|1:1,0:0:0:0:
299,77,125291,6,0,P|216:91|195:192,1,192,6|8,3:1|1:1,0:0:0:0:
276,284,126191,1,0,3:1:0:0:
294,201,126491,6,0,B|264:196|228:215|228:215|243:130|317:193|371:95|359:22|285:-46|177:-31|179:38|165:51|159:73|159:73|145:57|125:52|102:-9|5:3|-49:69|-30:193|40:220|105:169|125:245|125:245|93:232|60:238,1,936,4|0,3:1|0:0,0:0:0:0:
58,325,131291,6,0,P|77:321|98:317,3,26.9999991760254,10|8|8|8,1:0|1:0|1:0|1:0,0:0:0:0:
129,333,131591,2,0,P|148:336|169:341,3,26.9999991760254,8|8|8|8,1:0|1:0|1:0|1:0,0:0:0:0:
192,319,131891,2,0,P|211:315|232:311,3,26.9999991760254,8|8|8|8,1:0|1:0|1:0|1:0,0:0:0:0:
253,336,132191,2,0,P|272:339|293:344,3,26.9999991760254,8|8|8|8,1:0|1:0|1:0|1:0,0:0:0:0:
308,327,132491,5,10,1:0:0:0:
308,327,132641,1,8,1:0:0:0:
274,239,132791,2,0,P|266:196|261:162,1,53.9999983520508,8|8,1:0|1:0,0:0:0:0:
327,132,133091,1,8,1:0:0:0:
327,132,133241,1,8,1:0:0:0:
273,61,133391,2,0,P|237:52|212:60,1,53.9999983520508,8|8,1:0|1:0,0:0:0:0:
165,118,133691,6,0,P|145:114|125:110,3,26.9999991760254,8|8|8|8,1:0|1:0|1:0|1:0,0:0:0:0:
106,83,133991,2,0,P|86:86|66:91,3,26.9999991760254,8|8|8|8,1:0|1:0|1:0|1:0,0:0:0:0:
36,118,134291,2,0,P|39:137|44:157,3,26.9999991760254,8|8|8|8,1:0|1:0|1:0|1:0,0:0:0:0:
71,177,134591,2,0,P|67:196|63:216,3,26.9999991760254,8|8|8|8,1:0|1:0|1:0|1:0,0:0:0:0:
43,230,134891,5,8,1:0:0:0:
43,230,135041,1,8,1:0:0:0:
73,318,135191,2,0,P|124:306|149:301,1,53.9999983520508,10|8,1:0|1:0,0:0:0:0:
194,373,135491,1,10,1:0:0:0:
194,373,135641,1,8,1:0:0:0:
267,322,135791,2,0,P|274:292|262:259,1,53.9999983520508,10|8,1:0|1:0,0:0:0:0:
187,225,136091,6,0,P|183:205|178:185,3,26.9999991760254,10|8|8|8,1:0|1:0|1:0|1:0,0:0:0:0:
194,154,136391,2,0,P|197:134|202:114,3,26.9999991760254,8|8|8|8,1:0|1:0|1:0|1:0,0:0:0:0:
180,91,136691,2,0,P|176:71|172:51,3,26.9999991760254,8|8|8|8,1:0|1:0|1:0|1:0,0:0:0:0:
198,30,136991,2,0,P|201:10|205:-9,3,26.9999991760254,8|8|8|8,1:0|1:0|1:0|1:0,0:0:0:0:
232,0,137291,5,10,1:0:0:0:
232,0,137441,1,8,1:0:0:0:
325,28,137591,2,0,P|331:67|336:96,1,53.9999983520508,8|8,1:0|1:0,0:0:0:0:
426,97,137891,1,8,1:0:0:0:
426,97,138041,1,8,1:0:0:0:
364,161,138191,2,0,P|359:187|355:214,1,53.9999983520508,8|8,1:0|1:0,0:0:0:0:
411,306,138491,6,0,P|391:302|371:298,3,26.9999991760254,8|8|8|8,1:0|1:0|1:0|1:0,0:0:0:0:
347,303,138791,2,0,P|327:306|307:311,3,26.9999991760254,8|8|8|8,1:0|1:0|1:0|1:0,0:0:0:0:
284,289,139091,2,0,P|264:285|244:281,3,26.9999991760254,8|8|8|8,1:0|1:0|1:0|1:0,0:0:0:0:
223,306,139391,2,0,P|203:309|183:314,3,26.9999991760254,8|8|8|8,1:0|1:0|1:0|1:0,0:0:0:0:
144,368,139691,6,0,P|115:323|120:297,1,66.0000020141602,0|8,3:0|1:0,0:0:0:0:
24,210,139991,6,0,P|80:208|102:233,1,77.9999964294435,0|8,3:0|1:0,0:0:0:0:
211,217,140291,5,0,3:0:0:0:
211,217,140366,1,8,1:0:0:0:
211,217,140441,1,8,1:0:0:0:
178,126,140591,2,0,L|169:85,3,38.9999982147218,0|8|8|8,3:0|1:0|1:0|1:0,0:0:0:0:
219,115,140891,6,0,P|209:61|203:31,1,77.9999964294435,10|0,1:0|3:0,0:0:0:0:
307,131,141191,2,0,P|297:77|291:47,1,77.9999964294435,10|0,1:0|3:0,0:0:0:0:
381,76,141491,6,0,P|391:130|397:160,1,77.9999964294435,10|0,1:0|3:0,0:0:0:0:
456,29,141791,2,0,P|466:83|472:113,1,77.9999964294435,10|0,1:0|3:0,0:0:0:0:
505,195,142091,5,10,1:0:0:0:
505,195,142241,1,0,3:0:0:0:
444,256,142391,5,10,1:0:0:0:
444,256,142541,1,0,3:0:0:0:
363,200,142691,6,0,B|326:178|326:178|293:199,1,77.9999964294435,10|0,1:0|3:0,0:0:0:0:
291,283,142991,2,0,B|328:305|328:305|361:284,1,77.9999964294435,10|0,1:0|3:0,0:0:0:0:
216,209,143291,6,0,P|161:199|131:195,1,77.9999964294435,10|0,1:0|3:0,0:0:0:0:
253,131,143591,2,0,P|198:121|168:117,1,77.9999964294435,10|0,1:0|3:0,0:0:0:0:
350,153,143891,6,0,P|404:162|434:166,1,77.9999964294435,10|0,1:0|3:0,0:0:0:0:
331,68,144191,2,0,P|385:77|415:81,1,77.9999964294435,10|0,1:0|3:0,0:0:0:0:
239,48,144491,5,10,1:0:0:0:
239,48,144641,1,0,3:0:0:0:
176,118,144791,5,10,1:0:0:0:
176,118,144941,1,0,3:0:0:0:
113,49,145091,6,0,P|85:76|83:130,1,77.9999964294435,10|0,1:0|3:0,0:0:0:0:
202,205,145391,2,0,P|195:167|167:140,1,77.9999964294435,10|0,1:0|3:0,0:0:0:0:
24,212,145691,6,0,P|70:202|115:192,1,77.9999964294435,10|0,1:0|3:0,0:0:0:0:
13,297,145991,2,0,P|59:287|104:277,1,77.9999964294435,10|0,1:0|3:0,0:0:0:0:
249,352,146291,6,0,P|210:343|172:335,1,77.9999964294435,10|0,1:0|3:0,0:0:0:0:
238,267,146591,2,0,P|199:258|161:250,1,77.9999964294435,10|0,1:0|3:0,0:0:0:0:
286,191,146891,5,10,1:0:0:0:
286,191,147041,1,0,3:0:0:0:
363,251,147191,5,10,1:0:0:0:
363,251,147341,1,0,3:0:0:0:
421,179,147491,6,0,P|450:214|450:254,1,77.9999964294435,10|0,1:0|3:0,0:0:0:0:
308,329,147791,2,0,P|313:290|339:262,1,77.9999964294435,10|0,1:0|3:0,0:0:0:0:
476,334,148091,6,0,P|436:328|398:323,1,77.9999964294435,10|0,1:0|3:0,0:0:0:0:
496,251,148391,2,0,P|457:245|418:240,1,77.9999964294435,10|0,1:0|3:0,0:0:0:0:
353,166,148691,6,0,P|393:160|431:155,1,77.9999964294435,10|0,1:0|3:0,0:0:0:0:
333,83,148991,2,0,P|371:77|410:72,1,77.9999964294435,10|0,1:0|3:0,0:0:0:0:
259,137,149291,5,10,1:0:0:0:
259,137,149441,1,0,3:0:0:0:
190,73,149591,5,10,1:0:0:0:
190,73,149741,1,0,3:0:0:0:
112,123,149891,6,0,P|119:173|124:213,1,77.9999964294435,10|0,1:0|3:0,0:0:0:0:
25,116,150191,2,0,P|30:154|35:193,1,77.9999964294435,10|0,1:0|3:0,0:0:0:0:
20,309,150491,6,0,P|62:275|98:282,1,77.9999964294435,14|0,1:0|3:0,0:0:0:0:
122,200,150791,2,0,P|172:219|184:254,1,77.9999964294435,10|0,1:0|3:0,0:0:0:0:
268,200,151091,6,0,P|276:253|252:281,1,77.9999964294435,14|0,1:1|3:0,0:0:0:0:
357,320,151391,2,0,P|315:354|279:346,1,77.9999964294435,10|0,1:0|3:0,0:0:0:0:
186,338,151691,5,14,1:0:0:0:
186,338,151841,1,0,3:0:0:0:
151,255,151991,5,10,1:0:0:0:
151,255,152141,1,0,3:0:0:0:
228,204,152291,6,0,P|233:153|237:115,1,77.9999964294435,14|0,1:0|3:0,0:0:0:0:
317,231,152591,2,0,P|322:180|326:142,1,77.9999964294435,10|0,1:0|3:0,0:0:0:0:
414,277,152891,6,0,P|409:226|405:188,1,77.9999964294435,14|0,1:0|3:0,0:0:0:0:
503,250,153191,2,0,P|498:199|494:161,1,77.9999964294435,10|0,1:0|3:0,0:0:0:0:
454,81,153491,5,14,1:0:0:0:
454,81,153641,1,0,3:0:0:0:
405,161,153791,5,10,1:0:0:0:
405,161,153941,1,0,3:0:0:0:
335,95,154091,6,0,P|292:86|238:76,1,77.9999964294435,14|0,1:0|3:0,0:0:0:0:
321,178,154391,2,0,P|278:169|224:159,1,77.9999964294435,10|0,1:0|3:0,0:0:0:0:
315,261,154691,6,0,P|358:252|412:242,1,77.9999964294435,14|0,1:0|3:0,0:0:0:0:
329,344,154991,2,0,P|372:335|426:325,1,77.9999964294435,10|0,1:0|3:0,0:0:0:0:
486,249,155291,6,0,B|328:335|246:189|246:189|163:45|4:124,1,561.600013710938,14|0,1:0|0:0,0:0:0:0:
8,121,159491,5,8,1:0:0:0:
95,211,159791,5,0,3:0:0:0:
13,324,160091,6,0,P|73:306|211:265,1,167.999994873047,4|4,3:1|3:0,0:0:0:0:
229,344,160691,6,0,P|259:353|328:373,1,83.9999974365235,8|8,1:0|1:0,0:0:0:0:
370,299,160991,1,8,1:0:0:0:
370,299,161141,2,0,P|426:242|340:96,1,251.999992309571,4|4,3:1|3:3,0:0:0:0:
305,3,161891,6,0,P|272:38|232:43,1,83.9999974365235,8|8,1:0|1:0,0:0:0:0:
201,122,162191,1,8,1:0:0:0:
201,122,162341,2,0,P|273:153|384:37,1,251.999992309571,4|4,3:1|3:3,0:0:0:0:
477,16,163091,6,0,L|494:111,1,83.9999974365235,8|8,1:0|1:0,0:0:0:0:
401,135,163391,1,8,1:0:0:0:
401,135,163541,2,0,P|386:240|366:389,1,251.999992309571,4|4,3:1|3:3,0:0:0:0:
241,151,164291,6,0,P|179:135|119:218,1,167.999994873047,8|8,1:0|1:0,0:0:0:0:
181,296,164741,1,8,1:0:0:0:
181,296,164816,1,8,1:0:0:0:
181,296,164891,2,0,P|257:309|381:329,1,167.999994873047,4|4,3:1|3:0,0:0:0:0:
484,346,165491,6,0,L|465:260,1,83.9999974365235,8|8,1:0|1:0,0:0:0:0:
481,166,165791,1,8,1:0:0:0:
481,166,165941,2,0,P|401:189|269:94,1,251.999992309571,4|4,3:1|3:3,0:0:0:0:
260,22,166691,6,0,P|299:-3|339:4,1,83.9999974365235,8|8,1:0|1:0,0:0:0:0:
390,93,166991,1,8,1:0:0:0:
390,93,167141,2,0,B|245:56|303:204|143:159,1,251.999992309571,4|4,3:1|3:3,0:0:0:0:
83,123,167891,6,0,L|-2:105,1,83.9999974365235,8|8,1:0|1:0,0:0:0:0:
41,222,168191,1,8,1:0:0:0:
41,222,168341,2,0,P|131:203|298:170,1,251.999992309571,4|0,3:1|3:0,0:0:0:0:
384,232,169091,6,0,L|378:285,1,48,8|0,1:0|3:0,0:0:0:0:
318,335,169691,2,0,P|356:292|416:362,1,167.999994873047,4|4,3:1|3:0,0:0:0:0:
512,111,170291,6,0,L|416:135,1,83.9999974365235,8|8,1:0|1:0,0:0:0:0:
397,214,170591,1,8,1:0:0:0:
397,214,170741,2,0,P|290:190|136:156,1,251.999992309571,4|4,3:1|3:3,0:0:0:0:
25,202,171491,6,0,P|81:212|98:246,1,83.9999974365235,8|8,1:0|1:0,0:0:0:0:
52,305,171791,1,8,1:0:0:0:
52,305,171941,2,0,P|107:252|10:111,1,251.999992309571,4|4,3:1|3:3,0:0:0:0:
60,20,172691,6,0,P|102:36|145:11,1,83.9999974365235,8|8,1:0|1:0,0:0:0:0:
186,94,172991,1,8,1:0:0:0:
186,94,173141,2,0,B|330:57|272:205|432:160,1,251.999992309571,4|0,3:1|3:0,0:0:0:0:
487,105,173891,5,8,1:0:0:0:
414,281,174191,5,8,1:0:0:0:
414,281,174341,1,8,1:0:0:0:
492,239,174491,2,0,P|428:193|339:221,1,167.999994873047,4|4,3:3|3:3,0:0:0:0:
325,315,175091,6,0,L|241:344,1,83.9999974365235,8|8,1:1|1:1,0:0:0:0:
183,272,175391,1,8,1:1:0:0:
183,272,175541,2,0,P|171:188|144:12,1,251.999992309571,4|4,3:1|3:3,0:0:0:0:
253,14,176291,6,0,P|299:30|341:12,1,83.9999974365235,8|8,1:1|1:1,0:0:0:0:
358,110,176591,1,8,1:1:0:0:
358,110,176741,2,0,P|263:158|177:55,1,251.999992309571,4|4,3:1|3:3,0:0:0:0:
36,55,177491,6,0,L|17:144,1,83.9999974365235,8|8,1:1|1:1,0:0:0:0:
81,211,177791,1,8,1:1:0:0:
81,211,177941,2,0,P|171:189|263:168,1,167.999994873047,4|0,3:1|0:0,0:0:0:0:
345,223,178391,1,0,3:0:0:0:
226,311,178691,6,0,B|220:284|231:266|231:266|224:245|204:227|204:227|217:201|244:173|244:173|233:143|213:125|213:125|221:97|240:86|240:86|235:75|230:65|230:65|237:53,1,303.600009265137,8|0,1:0|0:0,0:0:0:0:
256,192,182652,12,4,191086,3:0:0:0:
