osu file format v14

[General]
AudioFilename: audio.mp3
AudioLeadIn: 0
PreviewTime: 37791
Countdown: 0
SampleSet: Soft
StackLeniency: 1
Mode: 0
LetterboxInBreaks: 0
WidescreenStoryboard: 1

[Editor]
Bookmarks: 74,21545,39229,61966,72074,82179,99863,112494,120637,145080,162156,173464
DistanceSpacing: 0.7
BeatDivisor: 4
GridSize: 8
TimelineZoom: 1.4

[Metadata]
Title:Neutrogena Spektor
TitleUnicode:Neutrogena Spektor
Artist:Origami Angel
ArtistUnicode:Origami Angel
Creator:Rektygon
Version:Normal
Source:
Tags:Gami Gang origami angel [karcher] down togetic bazzla indie rock punk emo alternative english
BeatmapID:3379490
BeatmapSetID:1654912

[Difficulty]
HPDrainRate:4
CircleSize:3.4
OverallDifficulty:4
ApproachRate:6
SliderMultiplier:1.2
SliderTickRate:1

[Events]
//Background and Video events
0,0,"alena-aenami-cold-1k.jpg",0,0
//Break Periods
2,102549,108586
2,120633,125763
//Storyboard Layer 0 (Background)
//Storyboard Layer 1 (Fail)
//Storyboard Layer 2 (Pass)
//Storyboard Layer 3 (Foreground)
//Storyboard Layer 4 (Overlay)
//Storyboard Sound Samples

[TimingPoints]
57,315.789473684211,4,2,1,80,1,0
530,315.789473684211,4,2,1,80,1,0
1003,315.789473684211,4,2,1,80,1,0
1318,315.789473684211,4,2,1,65,1,0
19318,-100,4,2,1,35,0,0
19633,-100,4,2,1,40,0,0
19949,-100,4,2,1,45,0,0
20265,-100,4,2,1,50,0,0
20581,-100,4,2,1,55,0,0
20896,-100,4,2,1,60,0,0
21212,-100,4,2,1,65,0,0
21528,-100,4,2,1,80,0,0
39212,-100,4,2,1,75,0,0
39215,-100,4,2,1,75,0,0
61949,-100,4,2,1,60,0,0
61952,-100,4,2,1,60,0,0
62563,307.692307692308,4,2,1,60,1,0
64101,-100,4,2,1,75,0,0
64457,315.789473684211,4,2,1,75,1,0
64794,315.789473684211,4,2,1,85,1,0
65109,315.789473684211,4,2,1,85,1,0
72057,315.789473684211,4,2,1,70,1,0
80899,-100,4,2,1,25,0,0
81846,-100,4,2,1,70,0,0
82162,-100,4,2,1,75,0,0
92267,-100,4,2,1,85,0,0
102349,625,4,2,1,20,1,0
104224,689.655172413793,4,2,1,80,1,0
104913,612.244897959184,4,2,1,80,1,0
106749,652.173913043478,4,2,1,80,1,0
107401,625,4,2,1,80,1,0
109636,315.789473684211,4,2,1,70,1,0
109951,315.789473684211,4,2,1,70,1,0
112478,-100,4,2,1,80,0,0
117531,352.941176470587,4,2,1,60,1,0
118778,400,4,2,1,60,1,0
119607,413.793103448276,4,2,1,60,1,0
120620,387.096774193548,4,2,1,65,1,0
125265,-100,4,2,1,70,0,0
126813,-166.666666666667,4,2,1,35,0,0
127587,-142.857142857143,4,2,1,40,0,0
128361,-125,4,2,1,45,0,0
129136,-111.111111111111,4,2,1,50,0,0
129910,-100,4,2,1,55,0,0
130684,-100,4,2,1,60,0,0
131458,-76.9230769230769,4,2,1,70,0,0
133007,-76.9230769230769,4,2,1,60,0,0
137652,-76.9230769230769,4,2,1,70,0,0
139200,-76.9230769230769,4,2,1,60,0,0
143845,-76.9230769230769,4,2,1,70,0,0
145063,461.538461538462,4,2,1,65,1,0
145524,461.538461538462,4,2,1,60,1,0
145524,-66.6666666666667,4,2,1,60,0,0
151063,-66.6666666666667,4,2,1,70,0,0
152909,-66.6666666666667,4,2,1,60,0,0
158447,-66.6666666666667,4,2,1,70,0,0

[Colours]
Combo1 : 174,168,255
Combo2 : 255,166,166
Combo3 : 159,203,255
Combo4 : 255,185,255

[HitObjects]
302,31,57,6,0,P|282:10|231:1,2,60,8|4|4,0:2|3:2|3:2,0:0:0:0:
344,70,530,2,0,P|376:66|408:39,2,60,8|4|4,0:2|3:2|3:2,0:0:0:0:
326,115,1003,2,0,B|342:144|341:173|341:173|358:197|411:189,1,120,8|0,0:2|3:0,0:0:0:0:
448,256,1633,6,0,P|433:297|349:316,1,120,10|2,0:2|3:2,0:0:0:0:
308,259,2265,2,0,P|283:237|246:240,1,60,10|2,0:2|0:2,0:0:0:0:
222,260,2581,2,0,P|196:320|163:366,2,120,2|10|2,3:2|0:2|3:2,0:0:0:0:
242,178,3528,2,0,P|223:147|211:116,1,60,10|2,0:2|0:2,0:0:0:0:
178,102,3844,6,0,P|108:113|85:162,2,120,2|10|2,3:2|0:2|3:2,0:0:0:0:
246,53,4791,2,0,P|271:25|309:23,1,60,10|2,0:2|0:2,0:0:0:0:
330,38,5107,2,0,P|303:97|290:161,1,120,2|10,3:2|0:2,0:0:0:0:
299,234,5739,1,2,3:2:0:0:
229,281,6054,2,0,P|197:261|164:254,1,60,10|2,0:2|0:2,0:0:0:0:
149,254,6370,6,0,P|116:204|97:141,1,120,2|10,3:2|0:2,0:0:0:0:
136,71,7002,2,0,P|180:57|238:102,1,120,2|10,3:2|0:2,0:0:0:0:
236,147,7475,1,2,0:2:0:0:
236,147,7633,1,2,3:2:0:0:
282,221,7949,2,0,P|292:253|294:280,2,60,10|2|2,0:2|0:2|3:2,0:0:0:0:
363,191,8581,1,10,0:2:0:0:
427,245,8896,5,2,3:2:0:0:
382,321,9212,2,0,P|399:347|433:359,2,60,10|2|2,0:2|0:2|3:2,0:0:0:0:
302,292,9844,1,10,0:2:0:0:
233,333,10160,2,0,P|202:347|158:349,1,60,2|2,3:2|3:2,0:0:0:0:
139,348,10475,1,10,0:2:0:0:
62,311,10791,1,2,3:2:0:0:
106,240,11107,1,10,0:2:0:0:
51,180,11423,6,0,P|35:153|21:111,2,60,0|0|8,3:0|3:0|0:2,0:0:0:0:
137,200,12054,2,0,P|161:191|186:153,1,60,2|2,3:2|3:2,0:0:0:0:
197,128,12370,2,0,P|195:87|205:55,1,60,14|2,0:2|0:2,0:0:0:0:
236,40,12686,2,0,P|280:45|326:117,1,120,2|10,3:2|0:2,0:0:0:0:
310,144,13160,2,0,P|285:201|278:267,1,120,2|2,3:2|3:2,0:0:0:0:
354,307,13791,6,0,P|411:291|443:241,2,120,0|2|6,0:0|3:2|2:3,0:0:0:0:
277,257,14739,1,2,3:2:0:0:
356,218,15054,1,0,0:0:0:0:
365,129,15370,2,0,P|341:93|331:60,1,60,0|8,3:0|0:2,0:0:0:0:
450,144,15844,2,0,P|483:123|495:92,2,60,0|0|12,3:0|3:0|0:2,0:0:0:0:
396,210,16475,6,0,P|423:227|462:228,2,60,2|2|8,3:2|3:2|0:2,0:0:0:0:
355,186,16949,2,0,P|311:207|311:292,1,120,6|2,2:3|3:2,0:0:0:0:
277,303,17423,1,12,0:2:0:0:
202,338,17739,2,0,P|189:366|156:386,2,60,2|2|8,3:2|3:2|0:2,0:0:0:0:
183,300,18212,2,0,P|160:239|148:176,1,120,2|2,0:2|3:2,0:0:0:0:
155,138,18686,2,0,P|134:113|106:103,2,60,12|2|12,0:2|3:2|0:2,0:0:0:0:
256,192,19633,12,8,20896,0:2:0:0:
127,140,21528,5,4,3:2:0:0:
150,220,21844,1,8,0:2:0:0:
111,294,22160,2,0,P|77:278|38:270,2,60,0|0|8,3:0|3:0|0:2,0:0:0:0:
128,336,22633,2,0,P|165:355|231:320,1,120,2|0,3:2|3:0,0:0:0:0:
243,280,23107,1,8,0:2:0:0:
326,259,23423,2,0,P|346:278|374:298,2,60,0|0|8,3:0|3:0|0:2,0:0:0:0:
308,171,24054,6,0,P|331:136|372:131,1,60,6|2,3:2|0:2,0:0:0:0:
389,127,24370,1,10,0:2:0:0:
460,181,24686,2,0,P|449:209|446:239,2,60,2|2|8,3:2|3:2|0:2,0:0:0:0:
499,142,25160,2,0,P|501:91|429:41,1,120,6|2,3:2|3:2,0:0:0:0:
407,49,25633,1,8,0:2:0:0:
373,126,25949,2,0,P|335:137|301:125,1,60,0|2,3:0|3:2,0:0:0:0:
289,111,26265,1,10,0:2:0:0:
234,36,26581,6,0,P|168:48|110:70,1,120,4|8,3:2|0:2,0:0:0:0:
56,126,27212,2,0,P|31:118|12:87,2,60,0|0|8,3:0|3:0|0:2,0:0:0:0:
78,160,27686,2,0,P|126:209|123:267,1,120,2|0,3:2|3:0,0:0:0:0:
101,298,28160,1,8,0:2:0:0:
174,345,28475,2,0,P|153:368|114:386,2,60,0|0|10,3:0|3:0|0:2,0:0:0:0:
221,273,29107,5,6,3:2:0:0:
221,273,29265,1,0,0:0:0:0:
266,341,29581,1,2,0:2:0:0:
345,320,29896,1,2,3:2:0:0:
351,234,30212,2,0,P|418:249|479:238,1,120,6|2,3:2|3:2,0:0:0:0:
512,174,30686,1,8,0:2:0:0:
448,123,31002,2,0,P|417:115|394:80,1,60,4|0,3:2|3:0,0:0:0:0:
401,53,31318,1,10,0:2:0:0:
315,78,31633,6,0,P|275:119|311:185,2,120,6|10|2,3:2|0:2|3:2,0:0:0:0:
376,143,32581,1,10,0:2:0:0:
359,230,32896,2,0,P|295:226|232:240,2,120,2|10|2,3:2|0:2|3:2,0:0:0:0:
433,270,33844,1,10,0:2:0:0:
407,348,34160,6,0,P|346:353|312:296,1,120,14|2,0:2|3:2,0:0:0:0:
274,287,34633,2,0,P|212:295|152:314,2,120,14|14|14,0:2|0:2|0:2,0:0:0:0:
303,207,35581,2,0,P|288:182|246:172,1,60,0|8,3:0|0:2,0:0:0:0:
176,174,36054,2,0,P|142:161|125:119,1,60,0|0,3:0|3:0,0:0:0:0:
121,100,36370,1,8,0:2:0:0:
256,192,37002,12,6,37949,3:2:0:0:
14,186,38896,5,10,0:2:0:0:
75,242,39212,6,0,P|136:230|212:232,1,120,6|10,3:2|0:2,0:0:0:0:
273,266,39844,2,0,P|328:251|351:197,1,120,2|10,3:2|0:2,0:0:0:0:
318,121,40475,1,6,3:2:0:0:
237,123,40791,1,12,0:2:0:0:
186,58,41107,2,0,P|191:25|209:0,2,60,4|0|12,3:2|3:0|0:2,0:0:0:0:
237,123,41739,6,0,P|300:108|354:105,1,120,2|10,3:2|0:2,0:0:0:0:
436,134,42370,2,0,P|448:179|416:246,1,120,2|10,3:2|0:2,0:0:0:0:
341,267,43002,1,6,3:2:0:0:
284,208,43318,1,12,0:2:0:0:
204,231,43633,2,0,P|174:209|169:176,2,60,4|0|12,3:2|3:0|0:2,0:0:0:0:
284,208,44265,6,0,P|309:171|290:94,1,120,2|10,3:2|0:2,0:0:0:0:
218,59,44896,2,0,P|171:81|88:99,1,120,2|10,3:2|0:2,0:0:0:0:
63,170,45528,1,6,3:2:0:0:
129,229,45844,1,12,0:2:0:0:
89,302,46160,2,0,P|48:302|24:285,2,60,4|0|12,3:2|3:0|0:2,0:0:0:0:
163,347,46791,5,8,3:2:0:0:
163,347,46949,2,0,B|181:319|181:319|273:335,1,120,6|6,3:2|3:2,0:0:0:0:
296,312,47423,2,0,B|387:298|387:298|397:259,1,120,6|8,3:2|0:2,0:0:0:0:
454,211,48054,5,8,3:2:0:0:
454,211,48212,2,0,B|400:177|400:177|429:119,1,120,6|6,3:2|3:2,0:0:0:0:
431,97,48686,2,0,B|419:36|419:36|348:51,1,120,6|8,3:2|0:2,0:0:0:0:
280,34,49318,6,0,P|230:48|152:55,1,120,6|10,3:2|0:2,0:0:0:0:
112,124,49949,2,0,P|135:168|209:179,1,120,2|10,3:2|0:2,0:0:0:0:
263,131,50581,1,6,3:2:0:0:
304,207,50896,1,12,0:2:0:0:
385,186,51212,2,0,P|404:164|408:132,2,60,4|0|12,3:2|3:0|0:2,0:0:0:0:
304,207,51844,6,0,P|302:281|350:312,1,120,2|10,3:2|0:2,0:0:0:0:
415,314,52475,2,0,P|378:343|305:367,1,120,2|10,3:2|0:2,0:0:0:0:
227,364,53107,1,6,3:2:0:0:
167,310,53423,1,12,0:2:0:0:
171,228,53739,2,0,P|196:209|238:206,2,60,4|0|12,3:2|3:0|0:2,0:0:0:0:
86,240,54370,6,0,P|63:213|89:127,1,120,2|10,3:2|0:2,0:0:0:0:
143,83,55002,2,0,P|217:85|281:108,1,120,2|10,3:2|0:2,0:0:0:0:
310,166,55633,1,6,3:2:0:0:
253,227,55949,1,12,0:2:0:0:
181,186,56265,2,0,P|179:145|202:116,2,60,4|0|12,3:2|3:0|0:2,0:0:0:0:
136,258,56896,5,8,3:2:0:0:
136,258,57054,2,0,B|108:342|108:342|152:359,1,120,6|6,3:2|3:2,0:0:0:0:
173,375,57528,2,0,B|254:340|254:340|281:377,1,120,6|8,3:2|0:2,0:0:0:0:
345,313,58160,5,8,3:2:0:0:
345,313,58318,2,0,B|357:271|357:271|333:243|333:243|346:190,1,120,6|6,3:2|3:2,0:0:0:0:
300,176,58791,2,0,B|281:132|281:132|253:129|253:129|227:72,1,120,6|8,3:2|0:2,0:0:0:0:
153,52,59423,6,0,P|87:69|66:127,3,120,6|6|6|6,3:2|3:2|3:2|3:2,0:0:0:0:
116,178,60686,2,0,P|182:161|203:103,3,120,6|6|6|6,3:2|3:2|3:2|3:2,0:0:0:0:
234,43,61949,1,6,3:2:0:0:
256,192,62563,12,2,64101,0:2:0:0:
360,149,64794,6,0,P|334:122|324:80,2,60,12|2|10,0:2|3:2|0:2,0:0:0:0:
443,160,65424,1,10,0:2:0:0:
462,240,65740,1,10,0:2:0:0:
415,307,66056,2,0,P|403:335|395:365,2,60,10|2|10,0:2|3:2|0:2,0:0:0:0:
380,274,66530,1,2,3:2:0:0:
380,274,66687,2,0,P|335:271|277:326,2,120,10|10|8,0:2|0:2|0:2,0:0:0:0:
424,203,67635,2,0,P|416:165|392:143,1,60,10|2,0:2|3:2,0:0:0:0:
371,132,67951,1,10,0:2:0:0:
323,65,68266,2,0,P|268:80|189:82,1,120,10|10,0:2|0:2,0:0:0:0:
168,113,68740,1,2,3:2:0:0:
168,113,68898,1,10,0:2:0:0:
112,176,69214,2,0,P|86:190|41:198,1,60,10|2,0:2|3:2,0:0:0:0:
7,209,69530,2,0,P|15:253|92:293,2,120,10|10|10,0:2|0:2|0:2,0:0:0:0:
20,127,70477,1,10,0:2:0:0:
92,82,70793,6,0,P|100:44|81:11,2,60,10|2|10,0:2|3:2|0:2,0:0:0:0:
143,157,71424,1,10,0:2:0:0:
143,157,71582,2,0,P|205:153|275:134,1,120,2|2,3:2|3:2,0:0:0:0:
304,123,72057,6,0,P|318:93|318:66,2,60,0|0|10,3:0|3:0|0:2,0:0:0:0:
328,207,72688,2,0,P|364:214|396:200,2,60,2|2|14,3:2|3:2|0:2,0:0:0:0:
295,241,73162,1,0,0:0:0:0:
295,241,73320,2,0,P|295:273|370:323,1,120,2|10,3:2|0:2,0:0:0:0:
398,344,73793,2,0,P|406:281|430:215,1,120,2|2,3:2|3:2,0:0:0:0:
462,201,74267,1,12,0:2:0:0:
462,201,74425,2,0,P|488:160|464:87,1,120,0|2,0:0|3:2,0:0:0:0:
389,62,75057,2,0,P|338:82|319:150,1,120,6|2,2:3|3:2,0:0:0:0:
292,180,75530,1,12,0:2:0:0:
213,217,75846,2,0,P|208:244|214:278,2,60,0|0|8,3:0|3:0|0:2,0:0:0:0:
161,146,76478,2,0,P|168:112|192:94,2,60,0|0|12,3:0|3:0|0:2,0:0:0:0:
76,165,77109,6,0,P|57:188|11:200,2,60,2|2|8,3:2|3:2|0:2,0:0:0:0:
83,119,77583,2,0,P|117:193|130:243,1,120,6|2,2:3|3:2,0:0:0:0:
127,279,78057,1,14,0:2:0:0:
195,335,78372,6,0,P|165:360|151:381,2,60,2|2|8,3:2|3:2|0:2,0:0:0:0:
219,296,78846,2,0,P|266:291|304:228,1,120,2|2,3:2|3:2,0:0:0:0:
293,189,79320,1,14,0:2:0:0:
339,114,79635,6,0,P|390:116|432:179,1,120,2|10,3:2|0:2,0:0:0:0:
487,228,80267,2,0,P|476:271|390:304,1,120,2|14,3:2|0:2,0:0:0:0:
365,294,80741,2,0,B|350:212|400:159|400:159|255:78|149:191,1,420,2|10,3:2|0:2,0:0:0:0:
100,259,82162,6,0,P|152:241|228:243,1,120,6|10,3:2|0:2,0:0:0:0:
298,222,82793,2,0,P|333:164|309:105,1,120,2|10,3:2|0:2,0:0:0:0:
246,86,83425,1,2,3:2:0:0:
234,4,83741,1,10,0:2:0:0:
167,56,84057,1,2,3:2:0:0:
89,23,84372,1,10,0:2:0:0:
57,103,84688,6,0,P|14:163|27:220,1,120,2|8,3:2|0:2,0:0:0:0:
88,266,85320,2,0,P|123:264|188:210,1,120,2|10,3:2|0:2,0:0:0:0:
197,128,85951,1,2,3:2:0:0:
279,131,86267,1,10,0:2:0:0:
268,46,86583,1,2,3:2:0:0:
343,81,86899,1,10,0:2:0:0:
352,0,87214,6,0,P|405:28|426:96,1,120,2|10,3:2|0:2,0:0:0:0:
474,144,87846,2,0,P|454:186|370:214,1,120,2|10,3:2|0:2,0:0:0:0:
321,258,88478,2,0,P|281:246|192:252,2,120,2|10|2,3:2|0:2|3:2,0:0:0:0:
389,215,89425,2,0,P|399:180|399:154,1,60,8|2,0:2|3:2,0:0:0:0:
379,117,89741,5,2,3:2:0:0:
314,171,90057,1,10,0:2:0:0:
231,196,90372,1,2,3:2:0:0:
147,182,90688,1,14,0:2:0:0:
81,128,91004,2,0,P|46:132|20:161,2,60,10|4|8,0:2|3:0|3:0,0:0:0:0:
139,64,91635,2,0,P|118:13|101:7,2,60,4|4|14,3:0|3:0|0:2,0:0:0:0:
211,112,92267,5,14,0:2:0:0:
258,37,92583,1,10,0:2:0:0:
342,66,92899,1,10,0:2:0:0:
296,138,93214,1,10,0:2:0:0:
377,167,93530,2,0,P|359:220|348:290,3,120,10|10|10|10,0:2|0:2|0:2|0:2,0:0:0:0:
288,339,94793,5,10,0:2:0:0:
214,376,95109,1,10,0:2:0:0:
175,301,95425,1,10,0:2:0:0:
251,264,95741,1,10,0:2:0:0:
175,217,96057,2,0,P|126:230|91:305,3,120,10|10|10|10,0:2|0:2|0:2|0:2,0:0:0:0:
131,358,97320,6,0,P|202:331|256:324,1,120,10|10,0:2|0:2,0:0:0:0:
267,293,97793,2,0,P|309:288|349:210,1,120,2|0,3:2|3:0,0:0:0:0:
341,185,98267,1,10,0:2:0:0:
341,185,98425,2,0,P|347:143|379:73,1,120,2|0,3:2|3:0,0:0:0:0:
411,38,98899,1,10,0:2:0:0:
411,38,99057,2,0,P|464:42|508:113,2,120,2|2|2,3:2|3:2|3:2,0:0:0:0:
256,192,100478,12,0,102349,0:0:0:0:
89,205,109636,6,0,P|118:214|151:235,1,60,10|10,0:2|0:2,0:0:0:0:
163,267,109951,1,6,3:2:0:0:
163,267,110108,1,6,3:2:0:0:
249,248,110424,1,6,3:2:0:0:
282,173,110740,1,6,3:2:0:0:
246,99,111056,1,6,3:2:0:0:
492,120,112161,1,2,0:2:0:0:
417,162,112477,6,0,P|332:147|288:147,2,120,6|10|2,3:2|0:2|3:2,0:0:0:0:
488,209,113424,1,10,0:2:0:0:
461,287,113740,2,0,P|383:267|367:220,1,120,2|10,0:2|0:2,0:0:0:0:
284,240,114372,1,0,0:2:0:0:
264,323,114687,1,10,0:2:0:0:
178,341,115004,6,0,P|132:315|118:247,1,120,14|2,0:2|3:2,0:0:0:0:
93,210,115477,2,0,P|82:145|50:81,2,120,14|14|14,0:2|0:2|0:2,0:0:0:0:
296,353,117529,5,2,0:2:0:0:
175,136,118766,1,0,0:0:0:0:
175,136,118978,2,0,P|206:147|252:156,3,60,2|2|2|0,0:2|0:2|0:2|0:0,0:0:0:0:
276,153,119813,2,0,P|308:144|339:140,1,60,2|2,0:2|0:2,0:0:0:0:
381,136,120227,2,0,P|408:144|448:149,1,60,2|2,0:2|0:2,0:0:0:0:
181,329,126813,6,0,L|167:372,2,35.9999989013672,8|8|8,3:2|3:2|3:2,0:0:0:0:
268,303,127587,2,0,L|280:357,2,41.9999987182618,10|8|10,3:2|3:2|3:2,0:0:0:0:
377,277,128361,2,0,L|354:331,2,48,8|8|8,3:2|3:2|3:2,0:0:0:0:
462,288,129136,2,0,L|513:318,2,53.9999983520508,10|8|10,3:2|3:2|3:2,0:0:0:0:
429,208,129910,6,0,L|503:187,2,60,8|8|8,3:2|3:2|3:2,0:0:0:0:
378,102,130684,2,0,L|455:125,2,60,10|8|10,3:2|3:2|3:2,0:0:0:0:
321,39,131458,6,0,B|267:58|267:58|263:66|263:66|214:81,1,116.999994644165,14|14,0:2|0:2,0:0:0:0:
141,165,132039,1,14,0:2:0:0:
141,165,132232,2,0,B|94:158|94:158|67:224,1,116.999994644165,14|14,0:2|0:2,0:0:0:0:
180,279,132813,1,14,0:2:0:0:
180,279,133007,6,0,L|264:253,1,77.9999964294435,0|0,3:0|3:0,0:0:0:0:
285,295,133394,2,0,L|379:319,1,77.9999964294435,8|0,0:2|3:0,0:0:0:0:
400,347,133781,1,0,3:0:0:0:
461,281,134168,1,8,0:2:0:0:
417,209,134555,1,0,3:0:0:0:
417,209,134749,2,0,B|422:187|422:187|422:173|422:173|426:155|426:155|426:147|426:147|431:127,2,77.9999964294435,6|10|2,2:3|0:2|3:2,0:0:0:0:
376,234,135329,2,0,B|364:232|364:232|351:232|351:232|336:229|336:229|320:229|320:229|312:220|312:220|305:215|305:215|299:208|299:208|293:202|293:202|281:202|281:202|272:199|272:199|254:200|254:200|233:198|233:198|213:197,1,155.999992858887,2|10,3:2|0:2,0:0:0:0:
169,140,136103,6,0,L|149:64,1,77.9999964294435,0|0,3:0|3:0,0:0:0:0:
180,32,136490,2,0,L|282:57,1,77.9999964294435,8|0,0:2|3:0,0:0:0:0:
300,28,136878,1,0,3:0:0:0:
359,90,137265,2,0,B|384:72|384:72|448:90,1,77.9999964294435,8|0,0:2|3:0,0:0:0:0:
457,113,137652,6,0,B|465:146|465:146|428:188|428:188|428:237,1,116.999994644165,14|14,0:2|0:2,0:0:0:0:
379,314,138232,1,14,0:2:0:0:
379,314,138426,2,0,B|353:292|353:292|299:306|299:306|256:285,1,116.999994644165,14|14,0:2|0:2,0:0:0:0:
207,370,139007,1,14,0:2:0:0:
207,370,139200,6,0,L|118:347,1,77.9999964294435,0|0,3:0|3:0,0:0:0:0:
85,351,139587,2,0,L|120:261,1,77.9999964294435,8|0,0:2|3:0,0:0:0:0:
103,233,139974,1,0,3:0:0:0:
29,187,140361,1,8,0:2:0:0:
80,116,140749,5,0,3:0:0:0:
80,116,140942,2,0,B|74:98|74:98|70:82|70:82|63:68|63:68|59:53|59:53|55:47|55:47|51:30,2,77.9999964294435,6|10|2,2:3|0:2|3:2,0:0:0:0:
121,134,141523,2,0,B|133:133|133:133|142:129|142:129|152:127|152:127|162:124|162:124|176:130|176:130|189:133|189:133|200:137|200:137|219:142|219:142|232:146|232:146|245:143|245:143|257:141|257:141|271:137|271:137|287:136,1,155.999992858887,2|10,3:2|0:2,0:0:0:0:
334,72,142297,6,0,L|414:91,1,77.9999964294435,0|0,3:0|3:0,0:0:0:0:
421,129,142684,2,0,L|441:222,1,77.9999964294435,8|0,0:2|3:0,0:0:0:0:
448,250,143071,1,0,3:0:0:0:
399,320,143458,2,0,L|308:292,1,77.9999964294435,8|0,0:2|3:0,0:0:0:0:
281,313,143845,1,10,0:2:0:0:
166,56,145063,1,6,0:2:0:0:
166,56,145524,6,0,B|139:130|139:130|128:132|128:132|91:231,2,180.000006866455,4|0|12,3:2|3:0|0:2,0:0:0:0:
266,47,146908,2,0,B|270:37|270:37|274:25|274:25|281:12|281:12|284:0|284:0|305:11|305:11|315:11|315:11|346:22|346:22|353:23|353:23|378:36|378:36|403:41|403:41|430:51,1,180.000006866455,2|4,0:2|0:2,0:0:0:0:
423,97,147600,2,0,B|436:97|436:97|452:92|452:92|473:89|473:89|489:85|489:85|507:82|507:82|528:74,2,90.0000034332277,2|2|2,3:2|3:2|3:2,0:0:0:0:
401,145,148293,2,0,B|385:143|385:143|372:137|372:137|348:133|348:133|339:129|339:129|315:123|315:123|301:115,1,90.0000034332277,14|2,0:2|3:2,0:0:0:0:
263,146,148754,1,2,3:2:0:0:
245,200,148985,1,10,0:2:0:0:
278,248,149216,6,0,B|292:223|292:223|374:207,2,90.0000034332277,4|0|0,3:2|3:0|3:0,0:0:0:0:
259,298,149908,1,0,3:0:0:0:
213,316,150139,2,0,L|107:283,1,90.0000034332277,12|0,0:2|0:0,0:0:0:0:
88,217,150600,2,0,L|121:113,1,90.0000034332277,0|0,3:0|3:0,0:0:0:0:
194,86,151062,2,0,B|223:0|223:0|266:12,2,135.000005149841,10|10|10,3:2|3:2|3:2,0:0:0:0:
163,128,151985,2,0,B|96:145|96:145|46:95,2,135.000005149841,10|10|10,3:2|3:2|3:2,0:0:0:0:
190,175,152908,6,0,B|266:194|266:194|282:180|282:180|380:201,2,180.000006866455,4|0|12,3:2|3:0|0:2,0:0:0:0:
122,226,154293,2,0,B|125:242|125:242|124:258|124:258|126:266|126:266|128:284|128:284|131:293|131:293|133:312|133:312|154:309|154:309|181:310|181:310|188:308|188:308|210:309|210:309|228:304,1,180.000006866455,2|4,3:2|0:2,0:0:0:0:
266,262,154985,2,0,B|272:250|272:250|277:234|277:234|285:215|285:215|290:199|290:199|297:182|297:182|302:160,2,90.0000034332277,2|2|2,3:2|3:2|3:2,0:0:0:0:
308,294,155678,2,0,B|308:293|308:293|332:285|332:285|341:284|341:284|364:274|364:274|378:272|378:272|392:265,1,90.0000034332277,14|2,0:2|3:2,0:0:0:0:
418,220,156139,1,2,3:2:0:0:
377,182,156370,1,10,3:2:0:0:
404,136,156601,6,0,B|427:122|427:122|447:62,2,90.0000034332277,4|0|0,3:2|3:0|3:0,0:0:0:0:
372,96,157293,1,0,3:0:0:0:
325,106,157524,2,0,L|219:73,1,90.0000034332277,12|0,0:2|0:0,0:0:0:0:
158,107,157985,2,0,L|130:192,1,90.0000034332277,0|0,3:0|3:0,0:0:0:0:
139,240,158447,6,0,B|78:223|78:223|74:214|74:214|-2:195,2,135.000005149841,10|10|10,3:2|3:2|3:2,0:0:0:0:
156,283,159370,2,0,B|160:334|160:334|67:375,2,135.000005149841,10|10|10,3:2|3:2|3:2,0:0:0:0:
208,284,160293,1,10,3:2:0:0:
429,145,161677,5,8,3:2:0:0:
256,192,162139,12,0,173447,0:0:0:0:
