osu file format v14

[General]
AudioFilename: audio.mp3
AudioLeadIn: 0
PreviewTime: 37791
Countdown: 0
SampleSet: Soft
StackLeniency: 1
Mode: 0
LetterboxInBreaks: 0
WidescreenStoryboard: 0

[Editor]
Bookmarks: 74,21545,39229,61966,72074,82179,99863,112494,120637,145080,162156,173464
DistanceSpacing: 0.7
BeatDivisor: 4
GridSize: 8
TimelineZoom: 2.3

[Metadata]
Title:Neutrogena Spektor
TitleUnicode:Neutrogena Spektor
Artist:Origami Angel
ArtistUnicode:Origami Angel
Creator:Rektygon
Version:Mental Healthcare
Source:
Tags:Gami Gang origami angel [karcher] down togetic bazzla indie rock punk emo alternative english
BeatmapID:3378073
BeatmapSetID:1654912

[Difficulty]
HPDrainRate:7
CircleSize:4
OverallDifficulty:9.2
ApproachRate:9.6
SliderMultiplier:2.5
SliderTickRate:1

[Events]
//Background and Video events
0,0,"alena-aenami-cold-1k.jpg",0,0
//Break Periods
2,102549,109082
2,120634,126259
//Storyboard Layer 0 (Background)
//Storyboard Layer 1 (Fail)
//Storyboard Layer 2 (Pass)
//Storyboard Layer 3 (Foreground)
//Storyboard Layer 4 (Overlay)
//Storyboard Sound Samples

[TimingPoints]
57,315.789473684211,4,2,1,80,1,0
57,-83.3333333333333,4,2,1,80,0,0
530,315.789473684211,4,2,1,80,1,0
530,-83.3333333333333,4,2,1,80,0,0
1003,315.789473684211,4,2,1,80,1,0
1003,-83.3333333333333,4,2,1,80,0,0
1318,315.789473684211,4,2,1,65,1,0
11423,-111.111111111111,4,2,1,65,0,0
19002,-222.222222222222,4,2,1,65,0,0
19320,-222.222222222222,4,2,1,35,0,0
19633,-222.222222222222,4,2,1,40,0,0
19949,-222.222222222222,4,2,1,45,0,0
20267,-222.222222222222,4,2,1,50,0,0
20583,-222.222222222222,4,2,1,55,0,0
20896,-222.222222222222,4,2,1,60,0,0
21212,-222.222222222222,4,2,1,65,0,0
21528,-83.3333333333333,4,2,1,80,0,0
36686,-71.4285714285714,4,2,1,80,0,0
39212,-83.3333333333333,4,2,1,75,0,0
39215,-83.3333333333333,4,2,1,75,0,0
61949,-83.3333333333333,4,2,1,60,0,0
61952,-83.3333333333333,4,2,1,60,0,0
62563,307.692307692308,4,2,1,60,1,0
64101,-66.6666666666667,4,2,1,75,0,0
64457,315.789473684211,4,2,1,75,1,0
64457,-66.6666666666667,4,2,1,75,0,0
64794,315.789473684211,4,2,1,85,1,0
65109,315.789473684211,4,2,1,85,1,0
65109,-83.3333333333333,4,2,1,85,0,0
72057,315.789473684211,4,2,1,70,1,0
80899,-100,4,2,1,25,0,0
81214,-100,4,2,1,80,0,0
81293,-100,4,2,1,25,0,0
81530,-100,4,2,1,80,0,0
81609,-100,4,2,1,25,0,0
81688,-100,4,2,1,80,0,0
81767,-100,4,2,1,25,0,0
82004,-100,4,2,1,70,0,0
82162,-83.3333333333333,4,2,1,75,0,0
91951,-111.111111111111,4,2,1,75,0,0
92109,-95.2380952380952,4,2,1,75,0,0
92267,-100,4,2,1,85,0,0
97320,-71.4285714285714,4,2,1,85,0,0
102349,625,4,2,1,20,1,0
104224,689.655172413793,4,2,1,80,1,0
104913,612.244897959184,4,2,1,80,1,0
106749,652.173913043478,4,2,1,80,1,0
107401,625,4,2,1,80,1,0
109636,315.789473684211,4,2,1,70,1,0
109951,315.789473684211,4,2,1,70,1,0
109951,-83.3333333333333,4,2,1,70,0,0
112161,-142.857142857143,4,2,1,70,0,0
112474,-83.3333333333333,4,2,1,70,0,0
112478,-83.3333333333333,4,2,1,80,0,0
117531,352.941176470587,4,2,1,60,1,0
117531,-200,4,2,1,60,0,0
118778,400,4,2,1,60,1,0
118878,-100,4,2,1,60,0,0
118978,-100,4,2,1,60,0,0
119607,413.793103448276,4,2,1,60,1,0
120620,387.096774193548,4,2,1,65,1,0
125265,-100,4,2,1,70,0,0
126813,-100,4,2,1,35,0,0
127587,-100,4,2,1,40,0,0
128361,-100,4,2,1,45,0,0
129136,-100,4,2,1,50,0,0
129910,-100,4,2,1,55,0,0
130684,-100,4,2,1,60,0,0
131458,-66.6666666666667,4,2,1,70,0,0
133007,-83.3333333333333,4,2,1,60,0,0
134749,-66.6666666666667,4,2,1,60,0,0
136103,-83.3333333333333,4,2,1,60,0,0
137652,-66.6666666666667,4,2,1,70,0,0
139200,-83.3333333333333,4,2,1,60,0,0
140942,-66.6666666666667,4,2,1,60,0,0
142297,-83.3333333333333,4,2,1,60,0,0
143845,-66.6666666666667,4,2,1,70,0,0
145063,461.538461538462,4,2,1,65,1,0
145063,-250,4,2,1,65,0,0
145524,461.538461538462,4,2,1,60,1,0
145524,-55.5555555555556,4,2,1,60,0,0
151063,-47.6190476190476,4,2,1,70,0,0
152908,-55.5555555555556,4,2,1,60,0,0
158447,-47.6190476190476,4,2,1,70,0,0
160293,-40,4,2,1,70,0,0
162139,-333.333333333333,4,2,1,70,0,0

[Colours]
Combo1 : 174,168,255
Combo2 : 255,166,166
Combo3 : 159,203,255
Combo4 : 255,185,255

[HitObjects]
164,114,57,5,8,0:2:0:0:
164,114,135,1,8,0:2:0:0:
164,114,214,2,0,P|143:144|148:187,1,74.9999977111817,4|0,3:2|0:0,0:0:0:0:
267,255,371,2,0,P|280:280|271:327,1,74.9999977111817,4|0,3:2|0:0,0:0:0:0:
66,276,530,5,8,0:2:0:0:
66,276,608,1,8,0:2:0:0:
66,276,687,2,0,P|106:277|140:252,1,74.9999977111817,4|0,3:2|0:0,0:0:0:0:
227,56,845,2,0,P|257:54|300:86,1,74.9999977111817,4|0,3:2|0:0,0:0:0:0:
461,327,1003,1,8,0:2:0:0:
412,317,1081,1,8,0:2:0:0:
376,282,1160,1,8,0:2:0:0:
366,230,1239,1,8,0:2:0:0:
389,179,1318,6,0,P|407:224|314:318,1,187.5,0|0,3:0|0:0,0:0:0:0:
245,171,1633,2,0,P|183:176|125:199,1,125,10|0,0:2|0:0,0:0:0:0:
80,291,1949,2,0,P|99:348|155:370,1,125,2|0,3:2|3:0,0:0:0:0:
45,193,2265,5,10,0:2:0:0:
205,256,2423,1,2,0:2:0:0:
239,90,2581,2,0,P|280:46|351:39,1,125,2|0,3:2|3:0,0:0:0:0:
492,113,2896,5,10,0:2:0:0:
346,256,3054,1,2,0:2:0:0:
387,101,3212,2,0,P|415:139|451:235,1,125,2|0,3:2|3:0,0:0:0:0:
214,171,3527,5,10,0:2:0:0:
214,171,3685,1,2,0:2:0:0:
36,325,3844,2,0,P|47:247|143:204,1,187.5,2|0,3:2|0:0,0:0:0:0:
200,252,4159,1,10,0:2:0:0:
326,338,4318,1,2,0:2:0:0:
402,166,4475,2,0,P|340:132|276:163,1,125,2|0,3:2|3:0,0:0:0:0:
204,341,4791,5,10,0:2:0:0:
377,269,4948,1,2,0:2:0:0:
214,171,5106,1,2,3:2:0:0:
293,348,5264,1,2,3:2:0:0:
424,206,5422,2,0,P|440:146|348:40,1,187.5,10|0,0:2|0:0,0:0:0:0:
383,20,5738,2,0,B|354:65|294:45|312:39|240:15|206:85,1,187.5,2|0,3:2|0:0,0:0:0:0:
281,117,6054,5,10,0:2:0:0:
151,209,6212,1,2,0:2:0:0:
36,79,6369,1,2,3:2:0:0:
204,148,6527,1,2,3:2:0:0:
38,269,6685,2,0,P|120:323|199:258,1,187.5,10|0,0:2|0:0,0:0:0:0:
182,64,7001,2,0,P|138:148|116:244,1,187.5,2|0,3:2|0:0,0:0:0:0:
110,106,7318,5,10,0:2:0:0:
110,106,7476,1,2,0:2:0:0:
243,235,7633,1,2,3:2:0:0:
243,235,7792,1,2,3:2:0:0:
296,54,7949,6,0,P|288:88|305:127,1,62.5,10|0,0:2|0:0,0:0:0:0:
302,191,8107,2,0,P|331:208|378:202,1,62.5,2|0,0:2|0:0,0:0:0:0:
437,28,8265,2,0,B|415:11|371:16|363:62|369:67|375:69|376:102|339:136|309:116,1,187.5,2|0,3:2|0:0,0:0:0:0:
127,25,8581,6,0,P|145:45|139:87,1,62.5,10|0,0:2|0:0,0:0:0:0:
155,156,8739,2,0,P|131:177|92:181,1,62.5
231,153,8895,2,0,P|185:123|38:87,1,187.5,2|0,3:2|0:0,0:0:0:0:
201,310,9212,1,10,0:2:0:0:
194,82,9369,1,2,0:2:0:0:
350,319,9527,6,0,P|268:323|251:214,1,187.5,2|0,3:2|0:0,0:0:0:0:
331,189,9843,2,0,P|307:259|292:408,1,187.5,10|0,0:2|0:0,0:0:0:0:
202,166,10159,1,2,3:2:0:0:
403,249,10318,1,2,3:2:0:0:
161,241,10475,1,10,0:2:0:0:
296,50,10633,1,2,0:2:0:0:
287,265,10791,6,0,P|250:253|234:224,1,62.5,2|0,3:2|0:0,0:0:0:0:
361,135,10948,2,0,P|357:167|313:204,1,62.5,0|0,3:0|0:0,0:0:0:0:
213,75,11106,2,0,B|246:67|272:87|278:124|274:126|272:129|262:161|290:197|333:188,1,187.5,10|0,0:2|0:0,0:0:0:0:
141,117,11422,5,0,3:0:0:0:
141,117,11580,1,0,3:0:0:0:
195,300,11739,1,8,0:2:0:0:
128,251,11896,5,4,3:0:0:0:
128,251,11975,1,4,3:0:0:0:
128,251,12054,2,0,P|128:213|153:188,1,56.2499982833863,2|0,3:2|0:0,0:0:0:0:
270,185,12212,2,0,P|301:192|332:214,1,56.2499982833863,2|0,3:2|0:0,0:0:0:0:
395,172,12369,1,14,0:2:0:0:
395,172,12527,1,2,0:2:0:0:
507,304,12685,5,2,3:2:0:0:
326,358,12843,1,0,3:0:0:0:
388,253,13002,1,10,0:2:0:0:
433,324,13159,5,2,3:2:0:0:
435,336,13239,1,0,3:0:0:0:
437,350,13317,1,0,3:0:0:0:
240,306,13475,1,2,3:2:0:0:
303,120,13633,2,0,B|312:197|312:197|304:205|304:205|313:293,1,168.749994850159,12|0,0:2|0:0,0:0:0:0:
309,293,13948,6,0,P|282:271|239:268,1,56.2499982833863,0|0,3:0|0:0,0:0:0:0:
167,354,14106,2,0,P|138:369|96:379,1,56.2499982833863,2|0,3:2|0:0,0:0:0:0:
36,238,14265,1,8,0:2:0:0:
35,317,14422,5,6,2:3:0:0:
46,322,14502,1,4,3:0:0:0:
57,327,14580,1,0,3:0:0:0:
178,233,14739,1,2,3:2:0:0:
83,107,14896,2,0,B|59:104|42:84|42:84|40:156|117:181,1,168.749994850159,12|0,0:2|0:0,0:0:0:0:
167,113,15212,5,0,3:0:0:0:
167,113,15369,1,0,3:0:0:0:
98,257,15527,1,8,0:2:0:0:
292,244,15685,5,0,3:0:0:0:
304,244,15764,1,0,3:0:0:0:
316,244,15843,1,0,3:0:0:0:
237,186,16002,1,0,3:0:0:0:
425,83,16160,2,0,B|428:101|428:101|410:149,1,56.2499982833863,12|0,0:2|0:0,0:0:0:0:
389,207,16317,1,2,0:2:0:0:
352,60,16475,5,2,3:2:0:0:
508,171,16633,1,2,3:2:0:0:
316,244,16791,1,8,0:2:0:0:
460,241,16948,5,6,2:3:0:0:
470,247,17027,1,4,3:0:0:0:
479,252,17106,1,0,3:0:0:0:
487,332,17264,1,2,3:2:0:0:
282,305,17423,2,0,B|300:271|290:241|290:241|331:192|394:196,1,168.749994850159,12|0,0:2|0:0,0:0:0:0:
216,264,17738,5,2,3:2:0:0:
46,130,17896,2,0,P|107:142|155:188,1,112.499996566773,2|8,3:2|0:2,0:0:0:0:
160,362,18212,2,0,P|125:309|155:226,1,112.499996566773,2|0,0:2|3:0,0:0:0:0:
329,118,18527,2,0,P|288:144|217:162,1,112.499996566773,2|12,3:2|0:2,0:0:0:0:
28,239,18843,2,0,P|54:207|89:197,1,56.2499982833863,2|0,3:2|0:0,0:0:0:0:
266,232,19002,2,0,B|280:245|292:267|292:267|278:247|246:240,1,84.3749974250794,12|0,0:2|0:0,0:0:0:0:
260,244,19317,5,8,0:2:0:0:
264,251,19396,1,8,0:0:0:0:
260,261,19474,1,10,0:2:0:0:
245,268,19554,1,8,0:0:0:0:
222,261,19633,1,8,0:2:0:0:
207,236,19712,1,8,0:0:0:0:
219,202,19791,1,10,0:2:0:0:
248,189,19869,1,8,0:0:0:0:
287,202,19948,1,8,0:2:0:0:
314,240,20027,1,8,0:0:0:0:
355,253,20106,1,10,0:2:0:0:
407,242,20186,1,8,0:0:0:0:
448,201,20264,5,8,0:2:0:0:
460,146,20343,1,8,0:0:0:0:
448,90,20423,1,10,0:2:0:0:
401,54,20501,1,8,0:0:0:0:
340,45,20580,1,8,0:2:0:0:
284,75,20660,1,8,0:0:0:0:
258,134,20738,1,8,0:0:0:0:
265,198,20818,1,8,0:0:0:0:
245,257,20896,1,8,0:2:0:0:
195,295,20974,1,8,0:0:0:0:
126,299,21054,1,10,0:2:0:0:
67,258,21133,1,8,0:0:0:0:
46,189,21211,1,10,0:2:0:0:
75,122,21291,1,8,0:0:0:0:
143,86,21369,1,10,0:2:0:0:
213,100,21448,1,8,0:0:0:0:
266,180,21528,6,0,B|280:233|260:284|199:304|199:304|225:276|222:239,1,224.999993133545,4|0,3:2|0:0,0:0:0:0:
38,140,21844,2,0,P|80:200|168:258,1,149.999995422363,8|0,0:2|0:0,0:0:0:0:
354,39,22160,1,0,3:0:0:0:
161,131,22318,1,0,3:0:0:0:
375,268,22474,1,8,0:2:0:0:
110,59,22634,6,0,P|112:138|238:210,1,224.999993133545,2|0,3:2|0:0,0:0:0:0:
151,223,22948,1,0,3:0:0:0:
303,103,23106,2,0,P|364:77|453:69,1,149.999995422363,8|0,0:2|0:0,0:0:0:0:
242,38,23422,1,0,3:0:0:0:
456,219,23581,1,0,3:0:0:0:
203,313,23738,1,8,0:2:0:0:
376,192,23896,1,2,3:2:0:0:
127,123,24054,5,6,3:2:0:0:
304,312,24212,1,2,0:2:0:0:
488,136,24369,5,10,0:2:0:0:
261,223,24527,1,2,0:2:0:0:
413,379,24685,5,2,3:2:0:0:
319,131,24844,1,2,3:2:0:0:
113,312,25001,1,8,0:2:0:0:
170,46,25159,6,0,B|216:45|237:86|224:124|218:127|208:129|199:179|223:216|276:209,1,224.999993133545,6|0,3:2|0:0,0:0:0:0:
279,209,25475,1,2,3:2:0:0:
52,252,25633,2,0,P|118:218|191:201,1,149.999995422363,8|0,0:2|0:0,0:0:0:0:
420,76,25948,2,0,P|352:60|271:21,1,149.999995422363,0|2,3:0|3:2,0:0:0:0:
371,309,26264,1,10,0:2:0:0:
137,125,26422,5,10,0:2:0:0:
137,125,26501,1,8,0:2:0:0:
137,125,26581,2,0,P|225:165|326:67,1,224.999993133545,4|0,3:2|0:0,0:0:0:0:
208,238,26895,2,0,P|256:128|280:22,1,224.999993133545,8|0,0:2|0:0,0:0:0:0:
362,268,27212,1,0,3:0:0:0:
200,52,27369,1,0,3:0:0:0:
114,334,27527,1,8,0:2:0:0:
433,195,27685,6,0,B|475:195|492:234|492:234|466:286|395:290|354:242,1,224.999993133545,2|0,3:2|0:0,0:0:0:0:
317,191,28001,1,0,3:0:0:0:
125,60,28159,2,0,P|51:91|43:171,1,149.999995422363,8|0,0:2|0:0,0:0:0:0:
201,273,28475,1,0,3:0:0:0:
365,87,28632,1,0,3:0:0:0:
118,141,28791,1,10,0:2:0:0:
263,325,28948,1,2,3:2:0:0:
136,64,29106,6,0,P|109:107|122:149,1,74.9999977111817,6|0,3:2|0:0,0:0:0:0:
98,290,29264,2,0,B|102:336|149:354|191:323|187:311|192:305|220:275|266:286|278:324,1,224.999993133545
282,338,29581,2,0,P|294:294|332:265,1,74.9999977111817,2|0,0:2|0:0,0:0:0:0:
483,264,29739,5,0,3:0:0:0:
203,365,29895,1,2,3:2:0:0:
378,87,30054,1,8,0:2:0:0:
382,384,30212,6,0,P|342:278|322:160,1,224.999993133545,6|0,3:2|0:0,0:0:0:0:
441,186,30527,2,0,P|411:216|366:221,1,74.9999977111817,2|0,3:2|0:0,0:0:0:0:
236,173,30685,2,0,P|193:110|96:112,1,149.999995422363,8|0,0:2|3:0,0:0:0:0:
61,384,31002,2,0,P|115:286|156:162,1,224.999993133545,4|0,3:2|0:0,0:0:0:0:
411,250,31318,5,10,0:2:0:0:
377,284,31395,1,8,0:2:0:0:
329,290,31475,1,8,0:2:0:0:
286,264,31554,1,8,0:2:0:0:
279,217,31633,6,0,B|274:262|230:272|187:247|195:240|192:231|173:199|115:183|82:240,1,224.999993133545,6|0,3:2|0:0,0:0:0:0:
80,232,31948,2,0,P|-2:206|-1:150,1,149.999995422363,10|0,0:2|3:0,0:0:0:0:
293,5,32265,6,0,P|270:117|226:236,1,224.999993133545,2|0,3:2|0:0,0:0:0:0:
223,141,32580,2,0,P|302:86|377:109,1,149.999995422363,10|0,0:2|3:0,0:0:0:0:
512,246,32896,6,0,B|477:237|464:201|464:201|375:214|350:315,1,224.999993133545,2|0,3:2|0:0,0:0:0:0:
417,357,33212,2,0,P|377:281|357:215,1,149.999995422363,10|0,0:2|3:0,0:0:0:0:
351,14,33527,6,0,P|434:9|472:143,1,224.999993133545,2|0,3:2|0:0,0:0:0:0:
277,199,33843,2,0,P|218:170|105:153,1,149.999995422363,10|0,0:2|3:0,0:0:0:0:
4,290,34159,6,0,B|40:263|81:287|92:322|91:331|87:335|97:375|146:396|181:362,1,224.999993133545,14|0,0:2|0:0,0:0:0:0:
192,365,34475,2,0,P|174:328|206:284,1,74.9999977111817,2|0,3:2|0:0,0:0:0:0:
392,146,34633,5,14,0:2:0:0:
262,327,34791,1,0,3:0:0:0:
104,65,34950,1,14,0:2:0:0:
332,216,35108,1,0,3:0:0:0:
497,31,35265,6,0,B|462:1|414:18|401:59|405:65|411:73|400:99|349:137|311:99,1,224.999993133545,14|0,0:2|0:0,0:0:0:0:
312,112,35581,2,0,P|346:146|353:190,1,74.9999977111817,0|0,3:0|0:0,0:0:0:0:
264,351,35740,1,8,0:2:0:0:
443,204,35897,1,0,3:0:0:0:
174,139,36054,5,0,3:0:0:0:
174,139,36213,1,0,3:0:0:0:
121,200,36370,5,8,0:2:0:0:
394,135,36528,1,2,3:2:0:0:
98,22,36686,6,0,B|149:24|189:41|189:41|212:103|198:219,1,262.499991989136,6|0,3:2|0:0,0:0:0:0:
154,76,37002,2,0,B|248:88|322:111|322:111|334:73|322:2,1,262.499991989136,0|0,3:0|0:0,0:0:0:0:
202,377,37317,2,0,P|217:247|253:121,1,262.499991989136,4|0,3:2|0:0,0:0:0:0:
338,323,37633,2,0,B|277:318|228:303|228:303|228:258|239:217|239:217|277:215|319:227,1,262.499991989136,0|0,3:0|0:0,0:0:0:0:
378,227,37949,1,6,3:2:0:0:
96,364,38740,5,2,3:2:0:0:
378,227,38897,1,10,0:2:0:0:
428,24,39213,6,0,P|397:53|392:108,1,74.9999977111817,6|0,3:2|0:0,0:0:0:0:
326,131,39370,2,0,P|337:171|371:194,1,74.9999977111817
469,156,39528,6,0,P|436:130|384:124,1,74.9999977111817,10|0,0:2|0:0,0:0:0:0:
363,204,39687,2,0,P|319:217|296:251,1,74.9999977111817,0|0,3:0|0:0,0:0:0:0:
233,359,39844,6,0,P|192:344|170:291,1,74.9999977111817,2|0,3:2|0:0,0:0:0:0:
102,294,40003,2,0,P|98:253|128:204,1,74.9999977111817,0|0,3:0|0:0,0:0:0:0:
178,171,40160,6,0,P|160:197|97:211,1,74.9999977111817,10|0,0:2|0:0,0:0:0:0:
58,162,40317,2,0,P|18:134|8:99,1,74.9999977111817,0|0,3:0|0:0,0:0:0:0:
226,91,40474,5,6,3:2:0:0:
226,91,40633,1,0,3:0:0:0:
9,225,40791,2,0,B|44:195|92:212|105:253|101:259|95:267|106:293|157:331|195:293,1,224.999993133545,12|0,0:2|0:0,0:0:0:0:
246,352,41106,5,4,3:2:0:0:
246,352,41264,1,0,3:0:0:0:
427,220,41423,2,0,P|415:91|383:-16,1,224.999993133545,12|0,0:2|0:0,0:0:0:0:
132,52,41738,6,0,P|122:85|147:136,1,74.9999977111817,2|0,3:2|0:0,0:0:0:0:
210,132,41896,2,0,P|238:153|286:152,1,74.9999977111817,0|0,3:0|0:0,0:0:0:0:
262,67,42054,6,0,P|224:88|207:139,1,74.9999977111817,10|0,0:2|0:0,0:0:0:0:
273,170,42211,2,0,P|284:207|313:237,1,74.9999977111817,0|0,3:0|0:0,0:0:0:0:
512,149,42369,6,0,P|472:122|424:130,1,74.9999977111817,2|0,3:2|0:0,0:0:0:0:
386,77,42527,2,0,P|347:103|335:136,1,74.9999977111817,0|0,3:0|0:0,0:0:0:0:
352,237,42685,6,0,P|374:262|438:274,1,74.9999977111817,10|0,0:2|0:0,0:0:0:0:
464,213,42843,2,0,P|495:195|513:139,1,74.9999977111817,0|0,3:0|0:0,0:0:0:0:
308,48,43001,5,6,3:2:0:0:
308,48,43160,1,0,3:0:0:0:
358,337,43318,2,0,P|440:313|470:168,1,224.999993133545,12|0,0:2|0:0,0:0:0:0:
510,262,43633,5,4,3:2:0:0:
510,262,43791,1,0,3:0:0:0:
305,153,43948,2,0,B|249:151|201:179|196:245|196:245|212:212|249:200,1,224.999993133545,12|0,0:2|0:0,0:0:0:0:
268,279,44264,6,0,P|263:321|243:348,1,74.9999977111817,2|0,3:2|0:0,0:0:0:0:
171,323,44422,2,0,P|120:326|94:307,1,74.9999977111817,0|0,3:0|0:0,0:0:0:0:
117,186,44581,6,0,P|146:160|190:153,1,74.9999977111817,10|0,0:2|0:0,0:0:0:0:
234,208,44738,2,0,P|254:242|256:284,1,74.9999977111817,0|0,3:0|0:0,0:0:0:0:
437,286,44896,6,0,P|392:272|370:227,1,74.9999977111817,2|0,3:2|0:0,0:0:0:0:
402,176,45054,2,0,P|395:140|419:91,1,74.9999977111817,0|0,3:0|0:0,0:0:0:0:
480,156,45212,6,0,P|455:177|415:185,1,74.9999977111817,10|0,0:2|0:0,0:0:0:0:
367,120,45369,2,0,P|351:80|364:30,1,74.9999977111817,0|0,3:0|0:0,0:0:0:0:
221,181,45527,6,0,B|269:190|297:147|295:111|286:106|280:103|274:60|309:24|354:36,1,224.999993133545,6|0,3:2|0:0,0:0:0:0:
154,134,45844,1,12,0:2:0:0:
341,244,46001,1,0,3:0:0:0:
268,30,46159,1,4,3:2:0:0:
114,208,46318,1,0,3:0:0:0:
397,194,46475,2,0,P|294:204|174:252,1,224.999993133545,12|0,0:2|0:0,0:0:0:0:
246,368,46791,6,0,P|257:333|237:278,1,74.9999977111817,8|0,3:2|0:0,0:0:0:0:
93,185,46948,2,0,B|118:348|118:348|195:320,1,224.999993133545,6|0,3:2|0:0,0:0:0:0:
263,216,47264,2,0,L|343:245,1,74.9999977111817,6|0,3:2|0:0,0:0:0:0:
397,194,47422,2,0,L|477:166,1,74.9999977111817,6|0,3:2|0:0,0:0:0:0:
286,10,47581,5,8,0:2:0:0:
242,71,47659,1,8,0:2:0:0:
303,150,47738,1,8,0:2:0:0:
303,150,47818,1,8,3:0:0:0:
303,150,47895,1,4,3:0:0:0:
303,150,47975,1,4,3:0:0:0:
303,150,48055,1,8,3:2:0:0:
472,37,48213,6,0,B|406:49|406:49|381:206,1,224.999993133545,6|0,3:2|0:0,0:0:0:0:
254,364,48528,2,0,L|278:281,1,74.9999977111817,6|0,3:2|0:0,0:0:0:0:
226,227,48686,2,0,L|209:132,1,74.9999977111817,6|0,3:2|0:0,0:0:0:0:
24,113,48845,5,8,0:2:0:0:
86,164,48923,1,8,0:2:0:0:
99,88,49002,2,0,B|86:117|50:135|50:135|45:210|125:274,1,224.999993133545,8|0,0:2|0:0,0:0:0:0:
305,5,49318,6,0,P|263:11|227:52,1,74.9999977111817,6|0,3:2|0:0,0:0:0:0:
160,30,49475,2,0,P|144:69|152:117,1,74.9999977111817
306,203,49632,6,0,P|334:179|353:129,1,74.9999977111817,10|0,0:2|0:0,0:0:0:0:
295,88,49791,2,0,P|273:49|216:27,1,74.9999977111817,0|0,3:0|0:0,0:0:0:0:
68,281,49948,6,0,P|100:253|152:249,1,74.9999977111817,2|0,3:2|0:0,0:0:0:0:
206,220,50106,2,0,P|232:242|240:295,1,74.9999977111817,0|0,3:0|0:0,0:0:0:0:
173,322,50264,6,0,P|144:289|140:249,1,74.9999977111817,10|0,0:2|0:0,0:0:0:0:
202,204,50422,2,0,P|220:169|263:147,1,74.9999977111817,0|0,3:0|0:0,0:0:0:0:
466,225,50581,5,6,3:2:0:0:
466,225,50739,1,0,3:0:0:0:
312,365,50895,2,0,B|265:373|237:330|239:295|247:290|254:287|260:244|224:208|187:218,1,224.999993133545,12|0,0:2|0:0,0:0:0:0:
114,246,51212,1,4,3:2:0:0:
114,246,51369,1,0,3:0:0:0:
191,19,51527,2,0,P|271:26|312:161,1,224.999993133545,12|0,0:2|0:0,0:0:0:0:
304,227,51843,6,0,P|344:224|380:194,1,74.9999977111817,2|0,3:2|0:0,0:0:0:0:
448,189,52002,2,0,P|461:153|450:111,1,74.9999977111817,0|0,3:0|0:0,0:0:0:0:
305,2,52159,6,0,P|296:43|314:85,1,74.9999977111817,10|0,0:2|0:0,0:0:0:0:
380,76,52318,2,0,P|404:101|454:113,1,74.9999977111817,0|0,3:0|0:0,0:0:0:0:
482,314,52475,6,0,P|451:279|398:268,1,74.9999977111817,2|0,3:2|0:0,0:0:0:0:
361,221,52633,2,0,P|327:241|308:281,1,74.9999977111817,0|0,3:0|0:0,0:0:0:0:
329,353,52791,6,0,P|326:306|299:270,1,74.9999977111817,10|0,0:2|0:0,0:0:0:0:
266,203,52948,2,0,P|218:212|185:249,1,74.9999977111817,0|0,3:0|0:0,0:0:0:0:
88,32,53106,5,6,3:2:0:0:
88,32,53265,1,0,3:0:0:0:
112,252,53422,2,0,B|159:235|188:173|169:123|169:123|162:163|125:179,1,224.999993133545,12|0,0:2|0:0,0:0:0:0:
52,189,53739,5,4,3:2:0:0:
52,189,53896,1,0,3:0:0:0:
290,336,54054,2,0,B|367:315|323:198|208:243|208:327,1,224.999993133545,12|0,0:2|0:0,0:0:0:0:
144,349,54369,6,0,P|177:329|201:281,1,74.9999977111817,2|0,3:2|0:0,0:0:0:0:
151,236,54528,2,0,P|148:199|120:160,1,74.9999977111817,0|0,3:0|0:0,0:0:0:0:
71,260,54685,6,0,P|110:258|140:236,1,74.9999977111817,10|0,0:2|0:0,0:0:0:0:
143,159,54843,2,0,P|158:125|149:77,1,74.9999977111817,0|0,3:0|0:0,0:0:0:0:
288,24,55002,6,0,P|328:37|358:75,1,74.9999977111817,2|0,3:2|0:0,0:0:0:0:
425,87,55159,2,0,P|435:125|405:192,1,74.9999977111817,0|0,3:0|0:0,0:0:0:0:
299,305,55317,6,0,P|282:271|295:214,1,74.9999977111817,10|0,0:2|0:0,0:0:0:0:
357,205,55475,2,0,P|385:173|425:157,1,74.9999977111817,0|0,3:0|0:0,0:0:0:0:
254,134,55633,6,0,B|291:123|327:160|321:202|314:206|305:210|304:246|332:289|378:280,1,224.999993133545,6|0,3:2|0:0,0:0:0:0:
299,77,55950,2,0,P|283:109|229:127,1,74.9999977111817,12|0,0:2|0:0,0:0:0:0:
172,107,56108,1,0,3:0:0:0:
342,6,56266,1,4,3:2:0:0:
303,268,56423,1,0,3:0:0:0:
179,24,56580,6,0,P|254:29|307:81,1,149.999995422363,12|0,0:2|0:0,0:0:0:0:
252,207,56817,1,0,3:0:0:0:
252,207,56896,1,8,3:2:0:0:
49,100,57053,2,0,B|82:96|111:87|111:87|118:137|102:252,1,224.999993133545,6|0,3:2|0:0,0:0:0:0:
105,260,57369,2,0,P|141:244|188:233,1,74.9999977111817,6|0,3:2|0:0,0:0:0:0:
232,72,57527,2,0,P|265:84|316:96,1,74.9999977111817,6|0,3:2|0:0,0:0:0:0:
361,187,57685,5,8,0:2:0:0:
283,172,57764,1,8,0:2:0:0:
263,256,57843,1,8,0:2:0:0:
263,256,57923,1,8,3:0:0:0:
263,256,58001,1,4,3:0:0:0:
263,256,58080,1,4,3:0:0:0:
263,256,58160,1,8,3:2:0:0:
457,321,58318,6,0,B|423:308|396:292|396:292|418:253|427:206|427:206|392:200|359:168,1,224.999993133545,6|0,3:2|0:0,0:0:0:0:
340,31,58633,2,0,P|343:66|333:120,1,74.9999977111817,6|0,3:2|0:0,0:0:0:0:
293,168,58792,2,0,P|257:151|205:142,1,74.9999977111817,6|0,3:2|0:0,0:0:0:0:
46,303,58949,5,8,0:2:0:0:
108,348,59028,1,8,0:2:0:0:
167,301,59107,1,8,0:2:0:0:
142,229,59186,1,8,3:0:0:0:
70,233,59265,1,4,3:0:0:0:
30,169,59344,1,4,3:0:0:0:
60,100,59424,6,0,P|147:105|275:36,1,224.999993133545,6|0,3:2|0:0,0:0:0:0:
269,35,59739,6,0,B|275:-33|174:-40|163:32|180:85|239:121,1,224.999993133545,6|0,3:2|0:0,0:0:0:0:
249,328,60053,6,0,P|284:260|305:101,1,224.999993133545,6|0,3:2|0:0,0:0:0:0:
342,39,60369,6,0,B|304:28|268:65|274:107|281:111|290:115|291:151|263:194|217:185,1,224.999993133545,6|0,3:2|0:0,0:0:0:0:
23,260,60686,6,0,P|41:355|171:357,1,224.999993133545,6|0,3:2|0:0,0:0:0:0:
211,312,61001,6,0,P|203:227|159:83,1,224.999993133545,6|0,3:2|0:0,0:0:0:0:
137,268,61318,6,0,B|120:232|144:188|186:181|192:186|199:193|233:184|266:145|248:105,1,224.999993133545,6|0,3:2|0:0,0:0:0:0:
376,16,61632,6,0,P|465:63|452:187,1,224.999993133545,6|0,3:2|0:0,0:0:0:0:
256,378,61949,5,6,3:2:0:0:
77,15,62265,5,2,0:2:0:0:
318,326,62563,5,2,0:2:0:0:
41,91,62870,5,2,0:2:0:0:
329,250,63024,5,2,0:2:0:0:
68,174,63178,5,2,0:2:0:0:
287,184,63486,5,2,0:2:0:0:
136,212,63639,5,2,0:2:0:0:
216,229,63793,5,2,0:2:0:0:
216,229,64101,6,0,P|346:201|329:46,1,281.250010728836,2|0,0:2|0:0,0:0:0:0:
276,318,64457,2,0,P|238:185|224:31,1,281.250010728836,2|0,0:2|0:0,0:0:0:0:
163,339,64794,5,12,0:2:0:0:
313,140,64951,1,2,3:2:0:0:
460,353,65109,5,10,0:2:0:0:
241,295,65266,1,2,3:2:0:0:
387,82,65424,5,10,0:2:0:0:
152,180,65582,1,0,3:0:0:0:
298,376,65740,6,0,P|387:332|384:193,1,224.999993133545,10|0,0:2|0:0,0:0:0:0:
30,199,66056,5,10,0:2:0:0:
233,316,66214,1,2,3:2:0:0:
402,111,66372,5,10,0:2:0:0:
176,260,66530,1,2,3:2:0:0:
33,37,66687,5,10,0:2:0:0:
316,189,66845,1,0,3:0:0:0:
144,347,67002,6,0,B|153:296|196:275|196:275|222:203|182:142,1,224.999993133545,10|0,0:2|0:0,0:0:0:0:
15,253,67319,5,8,0:2:0:0:
226,348,67477,1,0,3:0:0:0:
166,126,67634,5,10,0:2:0:0:
391,78,67793,1,2,3:2:0:0:
296,303,67951,5,10,0:2:0:0:
104,174,68109,1,2,3:2:0:0:
368,256,68266,6,0,P|401:153|421:26,1,224.999993133545,10|0,0:2|0:0,0:0:0:0:
452,269,68583,5,10,0:2:0:0:
243,126,68740,1,2,3:2:0:0:
117,347,68898,5,10,0:2:0:0:
310,186,69057,1,2,3:2:0:0:
101,49,69215,5,10,0:2:0:0:
358,121,69372,1,2,3:2:0:0:
276,347,69529,6,0,B|237:358|201:324|202:286|213:280|218:270|206:222|167:197|121:223,1,224.999993133545,10|0,0:2|0:0,0:0:0:0:
334,294,69844,5,10,0:2:0:0:
445,49,70002,1,2,3:2:0:0:
410,279,70160,5,10,0:2:0:0:
193,162,70319,1,2,3:2:0:0:
372,0,70477,5,10,0:2:0:0:
475,223,70634,1,2,3:2:0:0:
215,333,70793,5,10,0:2:0:0:
266,107,70951,1,2,3:2:0:0:
31,38,71108,5,10,0:2:0:0:
251,255,71265,1,2,3:2:0:0:
496,109,71423,5,10,0:2:0:0:
96,160,71581,2,0,B|133:185|176:170|176:170|218:227|184:317,1,224.999993133545,2|0,3:2|0:0,0:0:0:0:
261,359,71897,2,0,P|287:322|331:306,1,74.9999977111817,2|0,3:2|0:0,0:0:0:0:
395,332,72057,5,0,3:0:0:0:
250,201,72214,1,0,3:0:0:0:
373,56,72372,1,10,0:2:0:0:
388,136,72530,5,4,3:0:0:0:
376,145,72608,1,4,3:0:0:0:
366,154,72687,1,2,3:2:0:0:
465,147,72845,1,2,3:2:0:0:
221,23,73004,2,0,P|233:108|269:213,1,187.5,14|0,0:2|0:0,0:0:0:0:
204,100,73319,6,0,P|245:113|266:138,1,62.5,2|0,3:2|0:0,0:0:0:0:
339,227,73478,2,0,P|338:260|326:295,1,62.5,0|0,3:0|0:0,0:0:0:0:
167,352,73635,1,10,0:2:0:0:
194,283,73793,5,2,3:2:0:0:
207,281,73872,1,0,3:0:0:0:
219,280,73951,1,0,3:0:0:0:
282,328,74108,1,2,3:2:0:0:
179,119,74267,2,0,B|263:140|263:140|269:151|269:151|366:175,1,187.5,12|0,0:2|0:0,0:0:0:0:
364,176,74582,6,0,P|329:183|300:221,1,62.5,0|0,3:0|0:0,0:0:0:0:
474,313,74741,2,0,P|479:280|477:243,1,62.5,2|0,3:2|0:0,0:0:0:0:
368,92,74898,1,8,0:2:0:0:
446,80,75056,5,6,2:3:0:0:
453,69,75136,1,4,3:0:0:0:
462,59,75215,1,0,3:0:0:0:
325,25,75372,1,2,3:2:0:0:
398,251,75530,2,0,B|431:233|461:234|461:234|407:218|343:191,1,187.5,12|0,0:2|0:0,0:0:0:0:
240,304,75845,6,0,P|209:311|168:327,1,62.5,0|0,3:0|0:0,0:0:0:0:
131,192,76004,2,0,P|90:181|47:161,1,62.5,0|0,3:0|0:0,0:0:0:0:
14,22,76161,1,8,0:2:0:0:
98,50,76319,5,0,3:0:0:0:
98,50,76399,1,0,3:0:0:0:
98,50,76478,2,0,P|115:80|113:124,1,62.5,0|0,3:0|0:0,0:0:0:0:
63,178,76635,2,0,P|52:211|9:246,1,62.5,0|0,3:0|0:0,0:0:0:0:
182,370,76792,2,0,B|165:285|165:285|171:274|171:274|154:179,1,187.5,12|0,0:2|0:0,0:0:0:0:
256,68,77108,6,0,P|291:73|324:103,1,62.5,2|0,3:2|0:0,0:0:0:0:
353,207,77266,2,0,P|339:237|328:273,1,62.5,2|0,3:2|0:0,0:0:0:0:
410,366,77424,1,8,0:2:0:0:
331,344,77582,5,6,2:3:0:0:
322,350,77662,1,4,3:0:0:0:
314,354,77741,1,0,3:0:0:0:
257,296,77899,1,2,3:2:0:0:
381,127,78056,2,0,P|470:133|513:215,1,187.5,14|0,0:2|0:0,0:0:0:0:
448,250,78372,6,0,P|419:254|389:291,1,62.5,2|0,3:2|0:0,0:0:0:0:
250,199,78530,2,0,P|251:161|270:115,1,62.5,2|0,3:2|0:0,0:0:0:0:
313,83,78687,1,8,0:2:0:0:
184,96,78845,5,2,3:2:0:0:
171,91,78924,1,0,3:0:0:0:
158,85,79003,1,0,3:0:0:0:
242,33,79162,1,2,3:2:0:0:
79,198,79319,2,0,B|165:177|165:177|177:183|177:183|270:162,1,187.5,14|0,0:2|0:0,0:0:0:0:
416,216,79635,6,0,P|420:252|397:299,1,62.5,2|0,3:2|0:0,0:0:0:0:
349,323,79793,1,0,3:0:0:0:
148,260,79951,1,10,0:2:0:0:
200,324,80108,5,4,3:0:0:0:
211,322,80187,1,4,3:0:0:0:
222,320,80266,1,2,3:2:0:0:
282,372,80425,1,0,3:0:0:0:
79,307,80582,1,14,0:2:0:0:
287,199,80740,1,2,3:2:0:0:
184,16,80899,6,0,P|163:42|163:95,1,62.5,8|8,0:0|0:0,0:0:0:0:
318,119,81057,1,10,0:2:0:0:
346,144,81135,1,8,0:0:0:0:
386,140,81213,2,0,P|407:165|412:217,1,62.5,8|8,0:2|0:0,0:0:0:0:
147,187,81371,1,8,0:0:0:0:
100,220,81450,1,8,0:0:0:0:
46,213,81530,2,0,P|25:238|20:290,1,62.5,8|8,0:2|0:0,0:0:0:0:
159,384,81688,2,0,P|193:372|215:356,1,62.5,8|8,0:2|0:0,0:0:0:0:
350,196,81846,5,10,0:2:0:0:
406,201,81925,1,8,0:0:0:0:
450,235,82004,1,8,0:2:0:0:
461,293,82083,1,8,0:2:0:0:
440,344,82162,6,0,B|401:323|394:282|394:282|316:249|251:300,1,224.999993133545,6|0,3:2|0:0,0:0:0:0:
478,267,82478,1,10,0:2:0:0:
296,45,82636,1,0,3:0:0:0:
99,251,82794,2,0,P|159:337|207:339,1,149.999995422363,2|0,3:2|3:0,0:0:0:0:
343,196,83109,2,0,P|335:119|297:27,1,149.999995422363,10|0,0:2|3:0,0:0:0:0:
183,256,83424,6,0,B|222:267|258:233|257:195|246:189|241:179|253:131|292:106|337:130,1,224.999993133545,2|0,3:2|0:0,0:0:0:0:
146,180,83741,1,10,0:2:0:0:
359,337,83900,1,0,3:0:0:0:
464,104,84058,1,2,3:2:0:0:
464,104,84214,1,0,3:0:0:0:
139,100,84371,2,0,B|127:138|146:174|146:174|161:138|201:124,1,149.999995422363,10|0,0:2|3:2,0:0:0:0:
410,3,84688,6,0,P|464:33|450:209,1,224.999993133545,2|0,3:2|0:0,0:0:0:0:
260,311,85004,2,0,P|208:285|120:258,1,149.999995422363,8|0,0:2|3:0,0:0:0:0:
386,207,85320,1,2,3:2:0:0:
131,342,85477,1,0,3:0:0:0:
218,69,85635,1,10,0:2:0:0:
326,261,85793,1,0,3:0:0:0:
55,171,85950,6,0,P|104:76|227:84,1,224.999993133545,2|0,3:2|0:0,0:0:0:0:
409,336,86267,2,0,P|353:315|242:303,1,149.999995422363,10|0,0:2|3:0,0:0:0:0:
83,2,86583,2,0,P|154:28|244:37,1,149.999995422363,2|0,3:2|3:0,0:0:0:0:
68,261,86899,1,10,0:2:0:0:
321,127,87057,1,0,3:0:0:0:
289,375,87213,6,0,B|250:386|214:352|215:314|226:308|231:298|219:250|180:225|135:249,1,224.999993133545,2|0,3:2|0:0,0:0:0:0:
140,236,87529,2,0,P|176:232|216:199,1,74.9999977111817,10|0,0:2|0:0,0:0:0:0:
291,62,87688,1,0,3:0:0:0:
345,315,87847,1,2,3:2:0:0:
345,315,88004,1,0,3:0:0:0:
72,178,88162,2,0,P|178:182|317:222,1,224.999993133545,10|0,0:2|0:0,0:0:0:0:
481,37,88477,6,0,P|370:53|341:156,1,224.999993133545,2|0,3:2|0:0,0:0:0:0:
126,345,88792,2,0,P|215:342|251:283,1,149.999995422363,10|0,0:2|3:0,0:0:0:0:
0,50,89109,1,2,3:2:0:0:
53,311,89267,1,0,3:0:0:0:
0,50,89425,1,8,0:2:0:0:
53,311,89584,2,0,P|64:272|83:239,1,74.9999977111817,2|0,3:2|0:0,0:0:0:0:
269,353,89741,6,0,B|302:377|344:356|358:307|353:302|347:297|362:248|399:235|433:258,1,224.999993133545,2|0,3:2|0:0,0:0:0:0:
443,257,90056,2,0,P|415:230|413:173,1,74.9999977111817,10|0,0:2|0:0,0:0:0:0:
443,127,90213,1,0,3:0:0:0:
256,253,90372,5,2,3:2:0:0:
369,102,90531,1,0,3:0:0:0:
108,128,90688,5,14,0:2:0:0:
334,25,90846,1,0,3:0:0:0:
338,261,91003,5,10,0:2:0:0:
294,293,91083,1,8,0:2:0:0:
239,284,91161,1,4,3:0:0:0:
196,240,91241,1,4,3:0:0:0:
121,232,91320,5,8,3:0:0:0:
76,264,91398,1,8,3:0:0:0:
71,314,91478,1,4,3:0:0:0:
99,349,91557,1,4,3:0:0:0:
168,323,91634,5,4,3:0:0:0:
180,308,91714,1,4,3:0:0:0:
181,291,91793,1,4,3:0:0:0:
178,278,91872,1,4,3:0:0:0:
108,247,91951,6,0,P|81:223|79:191,1,56.2499982833863,14|0,0:2|0:0,0:0:0:0:
18,114,92109,2,0,P|27:80|71:58,1,65.624997997284,0|0,3:0|0:0,0:0:0:0:
362,30,92266,5,14,0:2:0:0:
172,195,92424,1,0,3:0:0:0:
366,337,92582,5,10,0:2:0:0:
251,134,92741,1,0,3:0:0:0:
62,310,92898,5,10,0:2:0:0:
308,196,93057,1,0,3:0:0:0:
60,128,93214,5,10,0:2:0:0:
146,313,93372,1,0,3:0:0:0:
308,68,93530,5,10,0:2:0:0:
186,382,93688,1,0,3:0:0:0:
370,127,93845,5,10,0:2:0:0:
487,336,94004,1,0,3:0:0:0:
256,339,94161,5,10,0:2:0:0:
443,165,94319,1,0,3:0:0:0:
229,80,94478,5,10,0:2:0:0:
318,288,94635,1,0,3:0:0:0:
13,188,94792,5,10,0:2:0:0:
323,96,94950,1,0,3:0:0:0:
301,370,95109,5,10,0:2:0:0:
88,222,95267,1,0,3:0:0:0:
394,180,95424,5,10,0:2:0:0:
214,383,95582,1,0,3:0:0:0:
39,118,95741,5,10,0:2:0:0:
149,335,95898,1,0,3:0:0:0:
326,156,96056,5,10,0:2:0:0:
37,41,96214,1,0,3:0:0:0:
395,59,96371,5,10,0:2:0:0:
107,200,96529,1,0,3:0:0:0:
480,174,96688,5,10,0:2:0:0:
161,37,96846,1,0,3:0:0:0:
53,348,97003,5,10,0:2:0:0:
258,54,97162,1,0,3:0:0:0:
53,348,97320,6,0,B|92:376|141:351|158:294|152:288|145:282|163:224|206:209|246:236,1,262.499991989136,10|0,0:2|0:0,0:0:0:0:
252,238,97635,2,0,P|231:179|242:138,1,87.499997329712,10|0,0:2|0:0,0:0:0:0:
55,190,97793,2,0,P|76:227|73:282,1,87.499997329712,2|0,3:2|0:0,0:0:0:0:
320,178,97950,5,8,0:2:0:0:
109,21,98109,1,0,3:0:0:0:
408,48,98266,5,10,0:2:0:0:
287,323,98424,2,0,P|182:301|105:275,2,174.999994659424,2|8|0,3:2|0:2|3:0,0:0:0:0:
138,142,98899,6,0,P|100:165|91:226,1,87.499997329712,10|0,0:2|0:0,0:0:0:0:
175,348,99056,1,2,3:2:0:0:
331,81,99214,5,8,0:2:0:0:
255,367,99372,1,2,3:2:0:0:
21,151,99531,5,8,0:2:0:0:
496,286,99688,1,2,3:2:0:0:
21,151,99846,5,12,0:2:0:0:
256,192,99925,12,0,102349,0:0:0:0:
117,240,109636,5,10,0:2:0:0:
391,109,109793,1,10,0:2:0:0:
117,240,109951,6,0,P|144:216|192:188,1,74.9999977111817,6|0,3:2|0:0,0:0:0:0:
391,109,110108,6,0,B|392:52|301:40|278:100|302:163|358:188,1,224.999993133545,6|0,3:2|0:0,0:0:0:0:
447,158,110424,6,0,P|381:134|202:99,1,224.999993133545,6|0,3:2|0:0,0:0:0:0:
198,318,110740,6,0,B|254:307|281:246|241:188|241:188|249:221|222:253,1,224.999993133545,6|0,3:2|0:0,0:0:0:0:
97,20,111056,5,6,3:2:0:0:
256,192,111135,12,0,112003,0:0:0:0:
344,343,112161,6,0,P|336:371|341:338,1,131.249995994568,2|0,0:2|0:0,0:0:0:0:
180,343,112477,6,0,P|111:302|16:275,1,149.999995422363,6|0,3:2|3:0,0:0:0:0:
373,119,112793,2,0,P|435:160|512:194,1,149.999995422363,10|0,0:2|3:0,0:0:0:0:
257,64,113108,1,2,3:2:0:0:
305,384,113266,1,0,3:0:0:0:
257,64,113424,1,10,0:2:0:0:
305,384,113582,1,0,3:0:0:0:
52,191,113740,6,0,B|85:167|126:181|145:229|141:234|135:240|155:288|193:298|225:272,1,224.999993133545,2|0,0:2|0:0,0:0:0:0:
237,277,114056,2,0,P|202:303|192:349,1,74.9999977111817,10|0,0:2|0:0,0:0:0:0:
60,104,114214,1,0,3:0:0:0:
127,368,114372,5,2,0:2:0:0:
367,249,114529,1,0,3:0:0:0:
121,47,114687,5,10,0:2:0:0:
269,350,114845,1,0,3:0:0:0:
511,186,115003,2,0,B|440:165|372:136|372:136|412:157|425:207,1,224.999993133545,14|0,0:2|0:0,0:0:0:0:
195,302,115319,5,2,3:2:0:0:
68,41,115477,1,14,0:2:0:0:
349,55,115635,5,0,3:0:0:0:
476,316,115793,1,14,0:2:0:0:
254,23,115951,5,0,3:0:0:0:
106,354,116108,1,14,0:2:0:0:
256,192,116187,12,0,117372,0:0:0:0:
269,142,117531,6,0,P|351:124|422:346,1,375,2|0,0:2|0:0,0:0:0:0:
417,349,118778,2,0,P|419:310|409:284,1,62.5,2|0,0:2|0:0,0:0:0:0:
354,237,118978,5,2,0:2:0:0:
281,257,119178,1,2,0:2:0:0:
175,372,119378,5,2,0:2:0:0:
104,344,119607,1,2,0:2:0:0:
187,136,119813,5,2,0:2:0:0:
178,212,120020,1,2,0:2:0:0:
188,289,120227,1,2,0:2:0:0:
220,356,120434,1,2,0:2:0:0:
102,143,126813,5,8,3:2:0:0:
96,149,127007,1,8,3:2:0:0:
94,165,127200,1,8,3:2:0:0:
102,179,127394,1,8,3:2:0:0:
123,191,127587,1,10,3:2:0:0:
149,187,127781,1,8,3:2:0:0:
169,166,127975,1,10,3:2:0:0:
173,133,128168,1,8,3:2:0:0:
158,99,128362,1,8,3:2:0:0:
154,64,128555,1,8,3:2:0:0:
164,35,128749,1,8,3:2:0:0:
192,13,128942,1,8,3:2:0:0:
237,10,129136,1,10,3:2:0:0:
272,29,129329,1,8,3:2:0:0:
300,73,129523,1,10,3:2:0:0:
290,125,129716,1,10,3:2:0:0:
250,168,129910,1,8,3:2:0:0:
234,229,130104,1,8,3:2:0:0:
252,297,130297,1,8,3:2:0:0:
314,337,130491,1,8,3:2:0:0:
395,329,130684,1,10,3:2:0:0:
456,271,130878,1,8,3:2:0:0:
456,169,131071,1,10,3:2:0:0:
378,96,131265,1,8,3:2:0:0:
251,121,131458,6,0,B|234:207|234:207|239:215|239:215|224:320,1,187.500007152558,14|0,0:2|0:0,0:0:0:0:
167,368,131749,2,0,B|144:313|144:313|140:311|140:311|110:243|110:243|174:229,1,187.500007152558,14|0,0:2|0:0,0:0:0:0:
295,344,132039,1,14,0:2:0:0:
292,43,132232,6,0,B|359:25|359:25|402:57|402:57|401:63|401:63|456:106,1,187.500007152558,14|0,0:2|0:0,0:0:0:0:
406,270,132523,2,0,B|374:236|374:236|371:237|371:237|341:202|341:202|340:157|340:157|338:154|338:154|336:90,1,187.500007152558,14|0,0:2|0:0,0:0:0:0:
423,172,132813,1,14,0:2:0:0:
237,370,133007,6,0,B|202:357|202:357|196:358|196:358|160:346,1,74.9999977111817,0|0,3:0|0:0,0:0:0:0:
111,294,133200,2,0,B|79:303|79:303|76:308|76:308|37:320,1,74.9999977111817,0|0,3:0|0:0,0:0:0:0:
156,111,133394,2,0,B|176:151|176:151|179:152|179:152|202:201|202:201|161:238,1,149.999995422363,8|0,0:2|3:0,0:0:0:0:
67,107,133781,6,0,B|111:75|111:75|169:89|169:89|170:93|170:93|228:107|228:107|295:69,1,224.999993133545,0|0,3:0|0:0,0:0:0:0:
356,153,134168,2,0,B|286:140|286:140|284:143|284:143|286:140|286:140|304:63,1,149.999995422363,8|0,0:2|3:0,0:0:0:0:
466,221,134555,5,0,3:0:0:0:
510,156,134652,1,4,3:0:0:0:
466,221,134749,2,0,B|473:241|473:241|478:248|478:248|474:259|474:259|473:273|473:273|470:282|470:282|468:297|468:297|461:324,1,93.7500035762788,6|4,2:3|3:0,0:0:0:0:
395,368,134942,2,0,B|377:376|377:376|368:380|368:380|352:376|352:376|334:374|334:374|322:369|322:369|292:363,1,93.7500035762788,10|0,0:2|0:0,0:0:0:0:
248,297,135136,2,0,B|241:281|241:281|236:270|236:270|240:255|240:255|241:243|241:243|243:237|243:237|250:218|250:218|253:194,1,93.7500035762788,2|0,3:2|0:0,0:0:0:0:
56,200,135329,5,2,3:2:0:0:
0,137,135426,1,4,3:0:0:0:
56,200,135523,2,0,B|71:197|71:197|78:195|78:195|99:192|99:192|104:186|104:186|121:184|121:184|129:181|129:181|164:174,1,93.7500035762788,6|4,2:3|3:0,0:0:0:0:
193,98,135716,2,0,B|212:103|212:103|216:105|216:105|238:110|238:110|240:115|240:115|267:123|267:123|269:124|269:124|292:129,1,93.7500035762788,10|0,0:2|0:0,0:0:0:0:
332,202,135910,2,0,B|376:191|376:191|379:186|379:186|435:170,1,93.7500035762788,2|0,0:2|0:0,0:0:0:0:
251,208,136103,6,0,B|241:241|241:241|241:241|237:244|237:244|221:292,1,74.9999977111817,0|0,3:0|0:0,0:0:0:0:
165,324,136297,2,0,B|146:296|146:296|147:289|147:289|130:254,1,74.9999977111817,0|0,3:0|0:0,0:0:0:0:
100,88,136490,2,0,B|130:66|130:66|137:115|137:115|134:124|134:124|145:178,1,149.999995422363,8|0,0:2|3:0,0:0:0:0:
341,330,136878,6,0,B|391:337|391:337|399:336|399:336|452:343|452:343|442:288|442:288|444:280|444:280|431:217,1,224.999993133545,0|0,3:0|0:0,0:0:0:0:
463,134,137265,2,0,B|442:89|442:89|442:82|442:82|419:30|419:30|381:62,1,149.999995422363,8|0,0:2|3:0,0:0:0:0:
341,112,137555,1,0,3:0:0:0:
273,277,137652,6,0,B|248:208|248:208|269:161|269:161|276:157|276:157|310:72,1,187.500007152558,14|0,0:2|0:0,0:0:0:0:
185,0,137942,2,0,B|198:54|198:54|203:58|203:58|212:116|212:116|207:119|207:119|176:182,1,187.500007152558,14|0,0:2|0:0,0:0:0:0:
177,330,138232,2,0,B|201:301|201:301|189:271|189:271|190:267|190:267|174:228,1,93.7500035762788,14|0,0:2|0:0,0:0:0:0:
37,147,138426,6,0,B|97:139|97:139|117:117|117:117|116:113|116:113|138:88|138:88|206:89,1,187.500007152558,14|0,0:2|0:0,0:0:0:0:
180,173,138716,2,0,B|142:146|142:146|149:80|149:80|153:76|153:76|164:-8,1,187.500007152558,14|0,0:2|0:0,0:0:0:0:
342,35,139007,2,0,B|322:60|322:60|322:65|322:65|303:86|303:86|256:88,1,93.7500035762788,14|0,0:2|0:0,0:0:0:0:
372,160,139200,6,0,B|405:174|405:174|406:179|406:179|446:200,1,74.9999977111817,0|0,3:0|0:0,0:0:0:0:
456,275,139394,2,0,B|442:305|442:305|437:307|437:307|421:345,1,74.9999977111817,0|0,3:0|0:0,0:0:0:0:
349,384,139587,2,0,B|314:340|314:340|311:340|311:340|276:293|276:293|313:297,1,149.999995422363,8|0,0:2|3:0,0:0:0:0:
465,285,139974,6,0,B|493:212|493:212|498:209|498:209|519:144|519:144|513:130|513:130|450:105,1,224.999993133545,0|0,3:0|0:0,0:0:0:0:
371,21,140361,2,0,B|386:60|386:60|341:74|341:74|337:72|337:72|269:97,1,149.999995422363,8|0,0:2|3:0,0:0:0:0:
71,172,140749,5,0,3:0:0:0:
111,99,140845,1,4,3:0:0:0:
71,172,140942,2,0,B|81:186|81:186|91:196|91:196|91:208|91:208|94:218|94:218|95:232|95:232|99:245|99:245|103:276,1,93.7500035762788,6|4,2:3|3:0,0:0:0:0:
206,108,141136,2,0,B|196:116|196:116|185:123|185:123|182:138|182:138|176:152|176:152|174:167|174:167|170:181|170:181|164:199,1,93.7500035762788,10|0,0:2|0:0,0:0:0:0:
285,58,141329,2,0,B|296:70|296:70|305:78|305:78|307:94|307:94|310:105|310:105|310:120|310:120|313:132|313:132|318:152,1,93.7500035762788,2|0,3:2|0:0,0:0:0:0:
416,344,141523,5,2,3:2:0:0:
485,308,141619,1,4,3:0:0:0:
416,344,141716,2,0,B|396:338|396:338|391:338|391:338|376:333|376:333|360:339|360:339|350:335|350:335|335:332|335:332|303:324,1,93.7500035762788,6|4,2:3|3:0,0:0:0:0:
172,282,141910,2,0,B|185:277|185:277|198:273|198:273|210:267|210:267|226:271|226:271|241:264|241:264|250:262|250:262|264:256,1,93.7500035762788,10|0,0:2|0:0,0:0:0:0:
431,212,142103,2,0,B|416:202|416:202|411:199|411:199|396:187|396:187|384:188|384:188|366:172|366:172|361:170|361:170|339:153,1,93.7500035762788,2|0,3:2|0:0,0:0:0:0:
270,19,142297,6,0,B|294:48|294:48|284:103,1,74.9999977111817,0|0,3:0|0:0,0:0:0:0:
311,196,142490,2,0,B|294:230|294:230|241:241,1,74.9999977111817,0|0,3:0|0:0,0:0:0:0:
138,282,142684,2,0,B|96:268|96:268|74:230,1,74.9999977111817,8|0,0:2|0:0,0:0:0:0:
127,170,142878,2,0,B|164:177|164:177|192:224,1,74.9999977111817,0|0,3:0|0:0,0:0:0:0:
263,332,143071,6,0,B|215:299|215:299|224:254|224:254|230:250|230:250|241:199|241:199|238:195|238:195|253:125,1,224.999993133545,0|0,3:0|0:0,0:0:0:0:
451,235,143458,2,0,B|438:202|438:202|441:202|441:202|425:154,1,74.9999977111817,8|0,0:2|0:0,0:0:0:0:
228,61,143652,5,0,3:0:0:0:
115,32,143749,1,0,3:0:0:0:
46,132,143845,1,10,0:2:0:0:
256,192,143942,12,6,145063,0:2:0:0:
443,64,145524,6,0,B|431:115|431:115|434:123|434:123|413:203,1,112.499996566773,4|0,3:2|0:0,0:0:0:0:
239,96,145754,2,0,B|227:147|227:147|230:155|230:155|209:235,1,112.499996566773,0|0,3:0|0:0,0:0:0:0:
43,135,145985,2,0,B|31:186|31:186|34:194|34:194|13:274,1,112.499996566773,0|0,3:0|0:0,0:0:0:0:
205,317,146216,2,0,B|218:267|218:267|215:259|215:259|227:208,1,112.499996566773,0|0,3:0|0:0,0:0:0:0:
100,75,146447,6,0,B|146:139|146:139|231:122|231:122|235:115|235:115|322:96|322:96|335:18,1,337.499989700318,12|0,0:2|0:0,0:0:0:0:
505,331,146908,2,0,B|497:318|497:318|494:308|494:308|484:294|484:294|483:284|483:284|476:270|476:270|470:260|470:260|469:252|469:252|464:240|464:240|457:229|457:229|449:208|449:208|434:217|434:217|415:224|415:224|407:230|407:230|393:233|393:233|369:241|369:241|359:239|359:239|340:253|340:253|321:257|321:257|305:265|305:265|282:270|282:270|256:284,1,337.499989700318,2|0,0:2|0:0,0:0:0:0:
415,359,147370,2,0,B|424:339|424:339|408:303|408:303|411:302|411:302|385:247,1,112.499996566773,4|0,0:2|0:0,0:0:0:0:
76,133,147600,6,0,B|55:146|55:146|49:152|49:152|32:163|32:163|27:165|27:165|32:172|32:172|41:194|41:194|53:207|53:207|62:225,1,112.499996566773,2|0,3:2|0:0,0:0:0:0:
264,266,147831,2,0,B|285:253|285:253|291:247|291:247|308:236|308:236|313:234|313:234|308:227|308:227|299:205|299:205|287:192|287:192|278:174,1,112.499996566773,2|0,3:2|0:0,0:0:0:0:
76,133,148062,2,0,B|55:146|55:146|49:152|49:152|32:163|32:163|27:165|27:165|32:172|32:172|41:194|41:194|53:207|53:207|62:225,1,112.499996566773,2|0,3:2|0:0,0:0:0:0:
268,34,148293,6,0,B|255:34|255:34|241:33|241:33|223:35|223:35|211:34|211:34|204:48|204:48|197:58|197:58|187:78|187:78|175:98,1,112.499996566773,14|0,0:2|0:0,0:0:0:0:
64,371,148524,2,0,B|73:369|73:369|92:368|92:368|106:365|106:365|121:365|121:365|129:350|129:350|143:334|143:334|154:311,1,112.499996566773,2|0,3:2|0:0,0:0:0:0:
268,34,148754,2,0,B|255:34|255:34|241:33|241:33|223:35|223:35|211:34|211:34|204:48|204:48|197:58|197:58|187:78|187:78|175:98,1,112.499996566773,2|0,3:2|0:0,0:0:0:0:
64,371,148985,2,0,B|73:369|73:369|92:368|92:368|106:365|106:365|121:365|121:365|129:350|129:350|143:334|143:334|154:311,1,112.499996566773,10|0,0:2|0:0,0:0:0:0:
362,32,149216,6,0,B|374:53|374:53|440:70|440:70|454:92,1,112.499996566773,4|0,3:2|0:0,0:0:0:0:
297,170,149447,2,0,B|309:191|309:191|375:208|375:208|389:230,1,112.499996566773,0|0,3:0|0:0,0:0:0:0:
226,310,149677,2,0,B|238:331|238:331|304:348|304:348|318:370,1,112.499996566773,0|0,3:0|0:0,0:0:0:0:
481,271,149908,2,0,B|471:255|471:255|404:238|404:238|392:216,1,112.499996566773,0|0,3:0|0:0,0:0:0:0:
27,206,150139,6,0,B|139:172|139:172|176:137|176:137|229:145|229:145|345:111,1,337.499989700318,12|0,0:2|0:0,0:0:0:0:
203,219,150600,2,0,B|189:175|189:175|184:171|184:171|191:169|191:169|186:165|186:165|171:108,1,112.499996566773,0|0,3:0|0:0,0:0:0:0:
404,157,150831,5,0,3:0:0:0:
298,209,150947,1,0,3:0:0:0:
290,326,151062,2,0,B|332:279|332:279|256:292|256:292|250:290|250:290|254:292|254:292|170:309,1,224.999993133545,10|0,3:2|0:0,0:0:0:0:
109,373,151408,2,0,B|73:309|73:309|65:306|65:306|73:309|73:309|33:231|33:231|123:248,1,262.499991989136,10|0,3:2|0:0,0:0:0:0:
208,146,151754,2,0,B|240:141|240:141|244:138|244:138|241:141|241:141|198:229,1,131.249995994568,10|0,3:2|0:0,0:0:0:0:
186,0,151985,6,0,B|206:50|206:50|271:68|271:68|279:65|279:65|272:68|272:68|340:86|340:86|369:141,1,262.499991989136,10|0,3:2|0:0,0:0:0:0:
297,358,152331,2,0,B|249:327|249:327|191:343|191:343|186:350|186:350|190:344|190:344|120:363|120:363|64:328,1,262.499991989136,10|0,3:2|0:0,0:0:0:0:
221,129,152677,2,0,B|236:155|236:155|228:183|228:183|230:189|230:189|229:183|229:183|219:218|219:218|237:257,1,131.249995994568,10|0,3:2|0:0,0:0:0:0:
488,296,152908,6,0,B|464:292|464:292|447:259|447:259|445:259|445:259|420:214,1,112.499996566773,4|0,3:2|0:0,0:0:0:0:
286,325,153139,2,0,B|262:321|262:321|245:288|245:288|243:288|243:288|218:243,1,112.499996566773,0|0,3:0|0:0,0:0:0:0:
84,354,153370,2,0,B|60:350|60:350|43:317|43:317|41:317|41:317|16:272,1,112.499996566773,0|0,3:0|0:0,0:0:0:0:
165,162,153600,2,0,B|188:165|188:165|205:198|205:198|207:198|207:198|232:243,1,112.499996566773,0|0,3:0|0:0,0:0:0:0:
35,172,153831,6,0,B|191:198|191:198|204:220|204:220|367:250,1,337.499989700318,12|0,0:2|0:0,0:0:0:0:
433,73,154293,2,0,B|415:67|415:67|400:59|400:59|379:54|379:54|369:48|369:48|352:44|352:44|349:39|349:39|336:35|336:35|321:27|321:27|309:25|309:25|293:17|293:17|277:13|277:13|285:37|285:37|286:49|286:49|288:64|288:64|294:82|294:82|295:98|295:98|302:114|302:114|308:134|308:134|326:130|326:130|342:131|342:131|356:125|356:125|369:123,1,337.499989700318,2|0,3:2|0:0,0:0:0:0:
495,202,154754,2,0,B|481:147|481:147|476:222,1,112.499996566773,4|0,0:2|0:0,0:0:0:0:
215,124,154985,6,0,B|232:139|232:139|244:152|244:152|261:161|261:161|276:175|276:175|314:198,1,112.499996566773,2|0,3:2|0:0,0:0:0:0:
426,45,155216,2,0,B|421:61|421:61|407:87|407:87|406:98|406:98|389:131|389:131|380:170,1,112.499996566773,2|0,3:2|0:0,0:0:0:0:
328,336,155447,2,0,B|346:316|346:316|355:301|355:301|373:284|373:284|376:283|376:283|393:264|393:264|408:240,1,112.499996566773,2|0,3:2|0:0,0:0:0:0:
512,95,155677,2,0,B|491:88|491:88|474:85|474:85|462:81|462:81|448:80|448:80|430:77|430:77|413:70|413:70|402:68,1,112.499996566773,14|0,0:2|0:0,0:0:0:0:
115,229,155908,2,0,B|134:227|134:227|154:220|154:220|160:222|160:222|197:212|197:212|205:212|205:212|284:197,1,112.499996566773,2|0,3:2|0:0,0:0:0:0:
476,351,156139,2,0,B|457:328|457:328|448:313|448:313|440:305|440:305|429:286|429:286|426:283|426:283|421:270|421:270|395:247,1,112.499996566773,2|0,3:2|0:0,0:0:0:0:
183,32,156370,2,0,B|200:56|200:56|205:58|205:58|217:75|217:75|226:91|226:91|231:95|231:95|246:110|246:110|277:146,1,112.499996566773,10|0,3:2|0:0,0:0:0:0:
225,382,156600,6,0,B|191:337|191:337|122:321,1,112.499996566773,4|0,3:2|0:0,0:0:0:0:
201,214,156831,2,0,B|167:169|167:169|98:153,1,112.499996566773,0|0,3:0|0:0,0:0:0:0:
178,57,157062,2,0,B|144:12|144:12|75:-4,1,112.499996566773,0|0,3:0|0:0,0:0:0:0:
24,117,157293,2,0,B|58:162|58:162|127:178,1,112.499996566773,0|0,3:0|0:0,0:0:0:0:
363,367,157524,6,0,B|337:328|306:302|306:302|383:256|446:240|446:240|409:199|391:159,1,337.499989700318,12|0,0:2|0:0,0:0:0:0:
298,10,157985,2,0,P|276:62|240:128,1,112.499996566773,0|0,3:0|0:0,0:0:0:0:
28,279,158216,5,0,3:0:0:0:
73,263,158293,5,0,3:0:0:0:
123,287,158370,5,0,3:0:0:0:
163,264,158447,6,0,B|197:275|217:308|217:308|328:324|392:234,1,262.499991989136,10|0,3:2|0:0,0:0:0:0:
207,22,158793,2,0,B|165:24|125:24|125:24|159:91|193:197,1,262.499991989136,10|0,3:2|0:0,0:0:0:0:
408,236,159139,2,0,P|383:292|357:369,1,131.249995994568,10|0,3:2|0:0,0:0:0:0:
387,89,159370,6,0,B|398:52|423:28|423:28|341:83|240:101,1,262.499991989136,10|0,3:2|0:0,0:0:0:0:
18,346,159716,2,0,P|177:341|207:262,1,262.499991989136,10|0,3:2|0:0,0:0:0:0:
341,157,160062,2,0,P|309:209|283:291,1,131.249995994568,10|0,3:2|0:0,0:0:0:0:
268,356,160293,5,10,3:2:0:0:
119,51,160408,1,0,3:0:0:0:
119,51,161677,5,8,3:2:0:0:
268,356,161793,1,0,3:0:0:0:
268,356,162139,6,0,B|236:322|254:281|254:281|239:283|223:279|223:279|208:363|114:329|114:329|130:253|187:256|187:256|180:243|180:228|180:228|90:240|95:139|95:139|172:131|186:186|186:186|197:176|211:171|211:171|172:90|269:63|269:63|301:134|252:164|252:164|266:171|275:184|275:184|340:120|397:204|397:204|338:256|294:220|294:220|292:236|283:248|283:248|363:290|304:368|304:368|361:372|378:326|359:329|388:281|443:287|443:287|485:261|481:209|481:209|487:291|449:361,1,1837.49994392395,4|0,0:0|0:0,0:0:0:0:
