osu file format v14

[General]
AudioFilename: audio.mp3
AudioLeadIn: 0
PreviewTime: 37791
Countdown: 0
SampleSet: Soft
StackLeniency: 1
Mode: 0
LetterboxInBreaks: 0
WidescreenStoryboard: 1

[Editor]
Bookmarks: 74,21545,39229,61966,72074,82179,99863,112494,120637,145080,162156,173464
DistanceSpacing: 0.7
BeatDivisor: 4
GridSize: 8
TimelineZoom: 1.4

[Metadata]
Title:Neutrogena Spektor
TitleUnicode:Neutrogena Spektor
Artist:Origami Angel
ArtistUnicode:Origami Angel
Creator:Rektygon
Version:Insane
Source:
Tags:Gami Gang origami angel [karcher] down togetic bazzla indie rock punk emo alternative english
BeatmapID:3379489
BeatmapSetID:1654912

[Difficulty]
HPDrainRate:6.4
CircleSize:3.8
OverallDifficulty:8
ApproachRate:9
SliderMultiplier:2.2
SliderTickRate:1

[Events]
//Background and Video events
0,0,"alena-aenami-cold-1k.jpg",0,0
//Break Periods
2,102549,109036
2,120634,126213
//Storyboard Layer 0 (Background)
//Storyboard Layer 1 (Fail)
//Storyboard Layer 2 (Pass)
//Storyboard Layer 3 (Foreground)
//Storyboard Layer 4 (Overlay)
//Storyboard Sound Samples

[TimingPoints]
57,315.789473684211,4,2,1,80,1,0
530,315.789473684211,4,2,1,80,1,0
1003,315.789473684211,4,2,1,80,1,0
1318,315.789473684211,4,2,1,65,1,0
11423,-111.111111111111,4,2,1,65,0,0
19002,-166.666666666666,4,2,1,65,0,0
19320,-166.666666666666,4,2,1,35,0,0
19633,-111.111111111111,4,2,1,40,0,0
19636,-111.111111111111,4,2,1,40,0,0
19949,-90.9090909090908,4,2,1,45,0,0
19952,-90.9090909090908,4,2,1,45,0,0
20265,-83.3333333333333,4,2,1,50,0,0
20583,-83.3333333333333,4,2,1,55,0,0
20896,-83.3333333333333,4,2,1,60,0,0
20899,-83.3333333333333,4,2,1,60,0,0
21212,-83.3333333333333,4,2,1,65,0,0
21215,-83.3333333333333,4,2,1,65,0,0
21528,-83.3333333333333,4,2,1,80,0,0
21531,-83.3333333333333,4,2,1,80,0,0
39212,-83.3333333333333,4,2,1,75,0,0
39215,-83.3333333333333,4,2,1,75,0,0
61949,-83.3333333333333,4,2,1,60,0,0
61952,-83.3333333333333,4,2,1,60,0,0
62563,307.692307692308,4,2,1,60,1,0
64101,-83.3333333333333,4,2,1,75,0,0
64457,315.789473684211,4,2,1,75,1,0
64457,-83.3333333333333,4,2,1,75,0,0
64794,315.789473684211,4,2,1,85,1,0
64794,-83.3333333333333,4,2,1,85,0,0
65109,315.789473684211,4,2,1,85,1,0
65109,-83.3333333333333,4,2,1,85,0,0
72057,315.789473684211,4,2,1,70,1,0
72057,-111.111111111111,4,2,1,70,0,0
80899,-83.3333333333333,4,2,1,25,0,0
81135,-83.3333333333333,4,2,1,25,0,0
81215,-83.3333333333333,4,2,1,80,0,0
81293,-83.3333333333333,4,2,1,25,0,0
81372,-83.3333333333333,4,2,1,25,0,0
81530,-83.3333333333333,4,2,1,80,0,0
81609,-83.3333333333333,4,2,1,25,0,0
81688,-83.3333333333333,4,2,1,80,0,0
81767,-83.3333333333333,4,2,1,25,0,0
81846,-83.3333333333333,4,2,1,25,0,0
82004,-83.3333333333333,4,2,1,70,0,0
82162,-83.3333333333333,4,2,1,75,0,0
92267,-83.3333333333333,4,2,1,85,0,0
99372,-111.111111111111,4,2,1,85,0,0
102349,625,4,2,1,20,1,0
104224,689.655172413793,4,2,1,80,1,0
104913,612.244897959184,4,2,1,80,1,0
106749,652.173913043478,4,2,1,80,1,0
107401,625,4,2,1,80,1,0
109636,315.789473684211,4,2,1,70,1,0
109951,315.789473684211,4,2,1,70,1,0
112161,-166.666666666666,4,2,1,70,0,0
112477,-83.3333333333333,4,2,1,80,0,0
117531,352.941176470587,4,2,1,60,1,0
117531,-200,4,2,1,60,0,0
118778,400,4,2,1,60,1,0
118778,-200,4,2,1,60,0,0
119607,413.793103448276,4,2,1,60,1,0
120620,387.096774193548,4,2,1,65,1,0
125265,-100,4,2,1,70,0,0
126813,-200,4,2,1,35,0,0
127587,-166.666666666667,4,2,1,40,0,0
128361,-142.857142857143,4,2,1,45,0,0
129136,-125,4,2,1,50,0,0
129910,-111.111111111111,4,2,1,55,0,0
130684,-100,4,2,1,60,0,0
131458,-66.6666666666667,4,2,1,70,0,0
133007,-83.3333333333333,4,2,1,60,0,0
137652,-66.6666666666667,4,2,1,70,0,0
139200,-83.3333333333333,4,2,1,60,0,0
143845,-100,4,2,1,70,0,0
145063,461.538461538462,4,2,1,65,1,0
145524,461.538461538462,4,2,1,60,1,0
145524,-66.6666666666667,4,2,1,60,0,0
151062,-55.5555555555556,4,2,1,70,0,0
152908,-66.6666666666667,4,2,1,60,0,0
158447,-55.5555555555556,4,2,1,70,0,0

[Colours]
Combo1 : 174,168,255
Combo2 : 255,166,166
Combo3 : 159,203,255
Combo4 : 255,185,255

[HitObjects]
304,325,57,5,8,0:2:0:0:
304,325,135,1,8,0:2:0:0:
304,325,214,2,0,P|330:305|342:275,1,55,4|0,3:2|0:0,0:0:0:0:
373,260,372,2,0,P|370:227|350:189,1,55,4|0,3:2|0:0,0:0:0:0:
374,120,530,5,8,0:2:0:0:
374,120,608,1,8,0:2:0:0:
374,120,687,2,0,P|348:100|308:94,1,55,4|0,3:2|0:0,0:0:0:0:
287,69,845,2,0,P|259:81|235:119,1,55,4|0,3:2|0:0,0:0:0:0:
162,125,1003,5,8,0:2:0:0:
184,156,1081,1,8,0:2:0:0:
189,193,1160,1,8,0:2:0:0:
180,231,1239,1,8,0:2:0:0:
153,262,1318,5,0,3:0:0:0:
235,291,1475,1,0,3:0:0:0:
222,377,1633,2,0,P|260:343|315:320,1,110,10|0,0:2|0:0,0:0:0:0:
345,214,1949,2,0,P|323:160|318:80,1,110,2|0,3:2|3:0,0:0:0:0:
254,37,2265,1,10,0:2:0:0:
343,15,2423,1,2,0:2:0:0:
254,37,2581,6,0,P|202:6|133:29,1,110,2|0,3:2|3:0,0:0:0:0:
126,117,2896,1,10,0:2:0:0:
61,37,3054,1,2,0:2:0:0:
126,117,3212,2,0,P|83:150|83:222,1,110,2|0,3:2|3:0,0:0:0:0:
147,299,3528,1,10,0:2:0:0:
74,362,3686,1,2,0:2:0:0:
147,299,3844,6,0,P|201:313|264:313,1,110,2|0,3:2|3:0,0:0:0:0:
353,278,4160,1,10,0:2:0:0:
401,362,4318,1,2,0:2:0:0:
353,278,4475,2,0,P|368:213|334:165,1,110,2|0,3:2|3:0,0:0:0:0:
276,116,4791,1,10,0:2:0:0:
276,116,4949,1,2,0:2:0:0:
237,28,5107,5,2,3:2:0:0:
180,100,5265,1,2,3:2:0:0:
237,28,5423,2,0,P|238:102|206:193,1,165,10|0,0:2|0:0,0:0:0:0:
214,285,5739,2,0,P|245:336|366:315,1,165,2|0,3:2|0:0,0:0:0:0:
381,311,6054,1,10,0:2:0:0:
381,311,6212,1,2,0:2:0:0:
337,213,6370,5,2,3:2:0:0:
432,171,6528,1,2,3:2:0:0:
337,213,6686,2,0,P|289:205|219:180,1,110,10|0,0:2|0:0,0:0:0:0:
109,170,7002,2,0,P|74:213|147:300,1,165,2|0,3:2|0:0,0:0:0:0:
175,296,7318,1,10,0:2:0:0:
175,296,7475,1,2,0:2:0:0:
200,181,7633,5,2,3:2:0:0:
200,181,7791,1,2,3:2:0:0:
228,69,7949,1,10,0:2:0:0:
120,136,8107,1,2,0:2:0:0:
228,69,8265,2,0,P|223:118|246:176,1,110,2|0,3:2|3:0,0:0:0:0:
337,205,8581,2,0,P|368:186|456:212,1,110,10|0,0:2|0:0,0:0:0:0:
505,130,8896,6,0,P|477:179|461:244,1,110,2|0,3:2|3:0,0:0:0:0:
401,341,9212,1,10,0:2:0:0:
401,341,9370,1,2,0:2:0:0:
290,368,9528,2,0,P|235:358|205:300,1,110,2|0,3:2|3:0,0:0:0:0:
69,273,9844,2,0,B|113:280|131:229|125:225|124:222|143:173|191:183,1,165,10|0,0:2|0:0,0:0:0:0:
208,152,10160,5,2,3:2:0:0:
208,152,10318,1,2,3:2:0:0:
283,228,10475,5,10,0:2:0:0:
332,136,10633,1,2,0:2:0:0:
283,228,10791,2,0,P|283:288|199:339,1,165,2|0,3:2|0:0,0:0:0:0:
185,322,11107,2,0,P|122:303|23:293,1,165,10|0,0:2|0:0,0:0:0:0:
6,265,11423,5,0,3:0:0:0:
6,265,11581,1,0,3:0:0:0:
84,236,11739,1,8,0:2:0:0:
107,324,11896,1,4,3:0:0:0:
107,324,11975,1,4,3:0:0:0:
107,324,12054,2,0,P|161:325|219:343,1,98.9999969787599,2|2,3:2|3:2,0:0:0:0:
273,296,12370,1,14,0:2:0:0:
346,333,12528,1,2,0:2:0:0:
446,238,12686,6,0,P|439:193|385:149,1,98.9999969787599,2|0,3:2|3:0,0:0:0:0:
339,72,13002,1,10,0:2:0:0:
339,72,13160,2,0,P|297:93|235:108,1,98.9999969787599,2|0,3:2|3:0,0:0:0:0:
130,70,13475,1,2,3:2:0:0:
130,70,13633,2,0,B|144:128|144:128|139:135|139:135|159:218,1,148.49999546814,12|0,0:2|0:0,0:0:0:0:
128,249,13949,5,0,3:0:0:0:
128,249,14107,1,2,3:2:0:0:
225,298,14265,1,8,0:2:0:0:
225,298,14344,1,0,0:0:0:0:
225,298,14423,1,6,2:3:0:0:
225,298,14502,1,4,3:0:0:0:
225,298,14581,1,0,3:0:0:0:
280,221,14739,1,2,3:2:0:0:
223,140,14896,2,0,B|217:97|231:60|276:49|276:49|260:64|254:95,1,148.49999546814,12|0,0:2|0:0,0:0:0:0:
307,141,15212,5,0,3:0:0:0:
307,141,15370,1,0,3:0:0:0:
389,86,15528,1,8,0:2:0:0:
446,170,15686,1,0,3:0:0:0:
446,170,15765,1,0,3:0:0:0:
446,170,15844,1,0,3:0:0:0:
360,223,16002,1,0,3:0:0:0:
402,319,16160,2,0,B|337:301|337:301|328:306|328:306|250:285,1,148.49999546814,12|0,0:2|0:0,0:0:0:0:
232,329,16475,5,2,3:2:0:0:
232,329,16633,1,2,3:2:0:0:
170,267,16791,1,8,0:2:0:0:
170,267,16870,1,0,0:0:0:0:
170,267,16949,1,6,2:3:0:0:
170,267,17028,1,4,3:0:0:0:
170,267,17107,1,0,3:0:0:0:
68,252,17265,1,2,3:2:0:0:
69,168,17423,2,0,P|121:197|210:228,1,148.49999546814,12|0,0:2|0:0,0:0:0:0:
245,159,17739,5,2,3:2:0:0:
245,159,17896,1,2,3:2:0:0:
274,267,18054,1,8,0:2:0:0:
376,221,18212,1,2,0:2:0:0:
376,221,18291,1,0,0:0:0:0:
376,221,18370,1,0,3:0:0:0:
342,115,18528,1,2,3:2:0:0:
342,115,18686,2,0,P|301:90|286:37,1,98.9999969787599,12|2,0:2|3:2,0:0:0:0:
403,38,19002,6,0,P|451:46|498:61,1,98.9999969787599,12|0,0:2|0:0,0:0:0:0:
506,97,19318,6,0,P|499:117|488:133,3,32.99999899292,8|8|10|8,0:2|0:0|0:2|0:0,0:0:0:0:
469,210,19633,2,0,P|442:217|409:207,3,49.4999984893799,8|8|10|8,0:2|0:0|0:2|0:0,0:0:0:0:
330,178,19949,2,0,P|298:196|285:228,3,60.5000018463135,8|8|10|8,0:2|0:0|0:2|0:0,0:0:0:0:
227,318,20265,5,8,0:2:0:0:
209,330,20344,1,8,0:0:0:0:
179,331,20423,1,10,0:2:0:0:
152,312,20502,1,8,0:0:0:0:
144,265,20581,2,0,P|161:235|213:222,3,65.9999979858399,8|8|8|8,0:2|0:0|0:0|0:0,0:0:0:0:
185,128,20896,1,8,0:2:0:0:
150,104,20975,1,8,0:0:0:0:
110,108,21054,1,10,0:2:0:0:
77,136,21133,1,8,0:0:0:0:
74,179,21212,1,10,0:2:0:0:
98,214,21291,1,8,0:0:0:0:
136,226,21370,1,10,0:2:0:0:
173,212,21449,1,8,0:0:0:0:
196,173,21528,6,0,B|235:165|269:199|269:199|334:207|382:150,1,197.99999395752,4|0,3:2|0:0,0:0:0:0:
407,144,21844,2,0,P|366:212|362:283,1,131.99999597168,8|0,0:2|0:0,0:0:0:0:
294,160,22160,1,0,3:0:0:0:
359,263,22318,1,0,3:0:0:0:
475,181,22475,1,8,0:2:0:0:
349,86,22633,6,0,P|304:110|154:146,1,197.99999395752,2|0,3:2|0:0,0:0:0:0:
129,115,22949,1,0,3:0:0:0:
32,212,23107,2,0,B|64:197|96:201|116:246|112:251|107:252|111:291|150:314|187:293,1,197.99999395752,8|0,0:2|0:0,0:0:0:0:
215,285,23423,1,0,3:0:0:0:
215,285,23581,1,0,3:0:0:0:
316,377,23739,2,0,P|381:339|387:270,1,131.99999597168,8|2,0:2|3:2,0:0:0:0:
353,157,24054,5,6,3:2:0:0:
353,157,24212,1,2,0:2:0:0:
259,213,24370,1,10,0:2:0:0:
259,213,24528,1,2,0:2:0:0:
156,97,24686,1,2,3:2:0:0:
267,125,24844,1,2,3:2:0:0:
156,97,25002,1,8,0:2:0:0:
86,222,25160,6,0,B|136:258|202:274|202:274|163:269|127:300,1,197.99999395752,6|0,3:2|0:0,0:0:0:0:
129,332,25475,1,2,3:2:0:0:
238,380,25633,2,0,P|291:366|320:280,1,131.99999597168,8|0,0:2|0:0,0:0:0:0:
281,192,25949,1,0,3:0:0:0:
376,155,26107,2,0,P|405:174|447:162,1,65.9999979858399,2|0,3:2|0:0,0:0:0:0:
441,65,26265,2,0,P|405:61|373:85,1,65.9999979858399,10|0,0:2|0:0,0:0:0:0:
284,44,26423,5,10,0:2:0:0:
284,44,26502,1,8,0:2:0:0:
284,44,26581,2,0,P|203:72|81:97,1,197.99999395752,4|0,3:2|0:0,0:0:0:0:
49,124,26896,2,0,P|49:199|115:228,1,131.99999597168,8|0,0:2|0:0,0:0:0:0:
236,204,27212,1,0,3:0:0:0:
191,356,27370,1,0,3:0:0:0:
91,227,27528,1,8,0:2:0:0:
262,321,27686,6,0,P|318:295|459:266,1,197.99999395752,2|0,3:2|0:0,0:0:0:0:
483,233,28002,1,0,3:0:0:0:
367,120,28160,2,0,B|404:161|401:217|360:248|360:248|372:222|360:191,1,197.99999395752,8|0,0:2|0:0,0:0:0:0:
286,219,28475,1,0,3:0:0:0:
286,219,28633,1,0,3:0:0:0:
169,115,28791,1,10,0:2:0:0:
169,115,28949,1,2,3:2:0:0:
290,134,29107,6,0,P|332:115|343:79,1,65.9999979858399,6|0,3:2|0:0,0:0:0:0:
326,25,29265,2,0,P|375:79|431:115,1,131.99999597168,0|8,0:0|0:2,0:0:0:0:
369,269,29581,2,0,P|320:215|264:179,1,131.99999597168,2|0,0:2|3:0,0:0:0:0:
155,151,29896,2,0,P|108:190|113:274,1,131.99999597168,2|8,3:2|0:2,0:0:0:0:
240,357,30212,6,0,B|207:375|168:352|164:313|169:312|173:307|153:262|121:258|89:273,1,197.99999395752,6|0,3:2|0:0,0:0:0:0:
62,307,30528,1,2,3:2:0:0:
24,199,30686,2,0,P|51:147|74:65,1,131.99999597168,8|0,0:2|3:0,0:0:0:0:
139,187,31002,1,4,3:2:0:0:
234,101,31160,1,0,3:0:0:0:
322,188,31318,1,10,0:2:0:0:
322,188,31396,1,8,0:2:0:0:
322,188,31475,1,8,0:2:0:0:
322,188,31554,1,8,0:2:0:0:
322,188,31633,6,0,P|372:152|462:175,1,131.99999597168,6|0,3:2|3:0,0:0:0:0:
487,315,31949,2,0,P|432:283|352:265,1,131.99999597168,10|0,0:2|3:0,0:0:0:0:
180,208,32265,2,0,P|194:148|284:115,1,131.99999597168,2|0,3:2|3:0,0:0:0:0:
334,357,32581,2,0,P|285:305|233:276,1,131.99999597168,10|0,0:2|3:0,0:0:0:0:
77,312,32896,6,0,P|30:262|41:191,1,131.99999597168,2|0,3:2|3:0,0:0:0:0:
122,106,33212,2,0,P|186:111|262:137,1,131.99999597168,10|0,0:2|3:0,0:0:0:0:
156,295,33528,2,0,P|175:224|244:205,1,131.99999597168,2|0,3:2|3:0,0:0:0:0:
348,219,33844,2,0,P|391:270|411:340,1,131.99999597168,10|0,0:2|3:0,0:0:0:0:
512,203,34160,6,0,P|449:121|360:161,1,197.99999395752,14|0,0:2|0:0,0:0:0:0:
329,127,34475,1,2,3:2:0:0:
230,148,34633,2,0,P|173:120|112:78,1,131.99999597168,14|0,0:2|3:0,0:0:0:0:
68,234,34949,2,0,P|138:228|220:246,1,131.99999597168,14|0,0:2|3:0,0:0:0:0:
294,284,35265,6,0,B|356:340|267:422|184:352|203:251,1,263.99999194336,14|0,0:2|3:0,0:0:0:0:
336,142,35739,2,0,P|399:165|411:235,1,131.99999597168,8|0,0:2|3:0,0:0:0:0:
252,142,36054,1,0,3:0:0:0:
252,142,36212,1,0,3:0:0:0:
334,246,36370,2,0,P|267:228|201:224,1,131.99999597168,8|2,0:2|3:2,0:0:0:0:
88,128,36686,6,0,P|117:207|140:336,1,197.99999395752,6|0,3:2|0:0,0:0:0:0:
49,255,37002,2,0,B|118:237|188:206|188:206|189:183|186:146,1,197.99999395752,0|0,3:0|0:0,0:0:0:0:
224,279,37318,2,0,B|214:228|216:189|216:189|247:176|279:175|279:175|295:195|299:223,1,197.99999395752,4|0,3:2|0:0,0:0:0:0:
302,99,37633,2,0,B|289:136|288:177|288:177|346:177|413:164,1,197.99999395752,0|0,3:0|0:0,0:0:0:0:
447,199,37949,1,6,3:2:0:0:
340,324,38739,5,2,3:2:0:0:
422,191,38896,1,10,0:2:0:0:
422,191,39212,6,0,P|354:163|280:155,1,131.99999597168,6|0,3:2|0:0,0:0:0:0:
262,332,39528,2,0,P|333:276|321:231,1,131.99999597168,10|0,0:2|3:0,0:0:0:0:
215,146,39844,2,0,P|186:83|225:29,1,131.99999597168,2|0,3:2|3:0,0:0:0:0:
352,29,40160,2,0,P|404:63|479:87,1,131.99999597168,10|0,0:2|3:0,0:0:0:0:
284,84,40475,5,6,3:2:0:0:
284,84,40633,1,0,3:0:0:0:
353,192,40791,2,0,P|310:257|249:261,1,131.99999597168,12|0,0:2|0:0,0:0:0:0:
119,161,41107,1,4,3:2:0:0:
119,161,41265,1,0,3:0:0:0:
181,217,41423,2,0,P|163:157|161:72,1,131.99999597168,12|0,0:2|0:0,0:0:0:0:
14,225,41739,6,0,P|89:250|102:301,1,131.99999597168,2|0,3:2|3:0,0:0:0:0:
177,384,42054,2,0,P|244:372|309:333,1,131.99999597168,10|0,0:2|3:0,0:0:0:0:
470,236,42370,2,0,P|403:248|338:287,1,131.99999597168,2|0,3:2|3:0,0:0:0:0:
228,282,42686,2,0,P|215:194|274:156,1,131.99999597168,10|0,0:2|3:0,0:0:0:0:
371,109,43002,5,6,3:2:0:0:
371,109,43160,1,0,3:0:0:0:
248,60,43318,2,0,P|197:97|132:126,1,131.99999597168,12|0,0:2|0:0,0:0:0:0:
125,247,43633,1,4,3:2:0:0:
125,247,43791,1,0,3:0:0:0:
232,291,43949,2,0,P|296:251|365:227,1,131.99999597168,12|0,0:2|0:0,0:0:0:0:
419,97,44265,6,0,P|384:42|301:45,1,131.99999597168,2|0,3:2|3:0,0:0:0:0:
244,94,44581,2,0,P|231:159|279:205,1,131.99999597168,10|0,0:2|3:0,0:0:0:0:
429,249,44896,2,0,P|427:328|383:363,1,131.99999597168,2|0,3:2|3:0,0:0:0:0:
268,281,45212,2,0,P|295:216|368:202,1,131.99999597168,10|0,0:2|3:0,0:0:0:0:
308,373,45528,5,6,3:2:0:0:
308,373,45686,1,0,0:0:0:0:
177,331,45844,2,0,P|120:267|104:225,1,131.99999597168,12|0,0:2|3:0,0:0:0:0:
61,324,46160,1,4,3:2:0:0:
61,324,46318,1,0,3:0:0:0:
200,247,46475,2,0,P|249:205|290:136,1,131.99999597168,12|0,0:2|0:0,0:0:0:0:
309,261,46791,5,8,3:2:0:0:
211,122,46949,2,0,B|80:90|80:90|77:169,1,197.99999395752,6|0,3:2|0:0,0:0:0:0:
83,203,47265,1,6,3:2:0:0:
83,203,47423,1,6,3:2:0:0:
120,326,47581,2,0,L|202:353,1,65.9999979858399,8|8,0:2|0:2,0:0:0:0:
264,318,47739,1,8,0:2:0:0:
264,318,47818,1,8,3:0:0:0:
264,318,47896,1,4,3:0:0:0:
264,318,47975,1,4,3:0:0:0:
264,318,48054,5,8,3:2:0:0:
369,169,48212,2,0,B|455:219|455:219|374:319,1,197.99999395752,6|0,3:2|0:0,0:0:0:0:
367,330,48528,1,6,3:2:0:0:
367,330,48686,1,6,3:2:0:0:
311,232,48844,2,0,L|336:166,1,65.9999979858399,8|8,0:2|0:2,0:0:0:0:
345,62,49002,2,0,B|364:95|397:102|397:102|329:148|274:114,1,197.99999395752,8|0,0:2|0:0,0:0:0:0:
244,84,49318,6,0,P|181:64|93:59,1,131.99999597168,6|0,3:2|0:0,0:0:0:0:
13,147,49633,2,0,P|23:213|84:244,1,131.99999597168,10|0,0:2|3:0,0:0:0:0:
181,332,49949,2,0,P|261:290|277:230,1,131.99999597168,2|0,3:2|3:0,0:0:0:0:
215,135,50265,2,0,P|153:145|58:185,1,131.99999597168,10|0,0:2|3:0,0:0:0:0:
194,56,50581,5,6,3:2:0:0:
194,56,50739,1,0,3:0:0:0:
158,202,50896,2,0,P|196:259|278:268,1,131.99999597168,12|0,0:2|0:0,0:0:0:0:
162,332,51212,1,4,3:2:0:0:
162,332,51370,1,0,3:0:0:0:
308,211,51528,2,0,P|293:163|282:70,1,131.99999597168,12|0,0:2|0:0,0:0:0:0:
466,149,51844,6,0,P|424:226|366:231,1,131.99999597168,2|0,3:2|3:0,0:0:0:0:
312,107,52160,2,0,P|268:59|194:64,1,131.99999597168,10|0,0:2|3:0,0:0:0:0:
111,171,52475,2,0,P|170:146|268:133,1,131.99999597168,2|0,3:2|3:0,0:0:0:0:
311,270,52791,2,0,P|244:263|171:235,1,131.99999597168,10|0,0:2|3:0,0:0:0:0:
306,183,53107,5,6,3:2:0:0:
306,183,53265,1,0,3:0:0:0:
391,59,53423,2,0,P|405:154|363:194,1,131.99999597168,12|0,0:2|0:0,0:0:0:0:
273,268,53739,1,4,3:2:0:0:
273,268,53896,1,0,3:0:0:0:
226,142,54054,2,0,P|156:116|93:161,1,131.99999597168,12|0,0:2|0:0,0:0:0:0:
122,314,54370,6,0,P|155:249|167:181,1,131.99999597168,2|0,3:2|3:0,0:0:0:0:
318,246,54686,2,0,P|284:308|273:373,1,131.99999597168,10|0,0:2|3:0,0:0:0:0:
478,282,55002,2,0,P|450:216|384:207,1,131.99999597168,2|0,3:2|3:0,0:0:0:0:
285,104,55318,2,0,P|244:165|175:155,1,131.99999597168,10|0,0:2|3:0,0:0:0:0:
96,88,55633,5,6,3:2:0:0:
96,88,55791,1,0,0:0:0:0:
134,247,55949,2,0,P|157:188|172:113,1,131.99999597168,12|0,0:2|3:0,0:0:0:0:
215,288,56265,1,4,3:2:0:0:
215,288,56423,1,0,3:0:0:0:
269,125,56581,2,0,P|276:193|300:260,1,131.99999597168,12|0,0:2|0:0,0:0:0:0:
329,289,56818,1,0,3:0:0:0:
329,289,56896,1,8,3:2:0:0:
201,371,57054,6,0,B|177:312|177:312|42:278,1,197.99999395752,6|0,3:2|0:0,0:0:0:0:
24,238,57370,1,6,3:2:0:0:
24,238,57528,1,6,3:2:0:0:
89,142,57686,2,0,L|105:225,1,65.9999979858399,8|8,0:2|0:2,0:0:0:0:
175,273,57844,1,8,0:2:0:0:
175,273,57923,1,8,3:0:0:0:
175,273,58002,1,4,3:0:0:0:
175,273,58081,1,4,3:0:0:0:
175,273,58160,5,8,3:2:0:0:
340,224,58318,2,0,B|312:163|312:163|280:304,1,197.99999395752,6|0,3:2|0:0,0:0:0:0:
252,320,58633,1,6,3:2:0:0:
252,320,58791,1,6,3:2:0:0:
365,303,58949,2,0,L|436:276,1,65.9999979858399,8|8,0:2|0:2,0:0:0:0:
427,203,59107,1,8,0:2:0:0:
427,203,59186,1,8,3:0:0:0:
427,203,59265,1,4,3:0:0:0:
427,203,59344,1,4,3:0:0:0:
427,203,59423,6,0,B|394:221|355:198|351:159|356:158|360:153|340:108|308:104|276:119,1,197.99999395752,6|0,3:2|0:0,0:0:0:0:
266,134,59739,2,0,P|189:138|52:97,1,197.99999395752,6|0,3:2|0:0,0:0:0:0:
79,122,60054,2,0,B|68:67|160:47|183:130|122:187,1,197.99999395752,6|0,3:2|0:0,0:0:0:0:
127,197,60370,2,0,B|157:183|189:187|209:232|205:237|200:238|204:277|243:300|276:282,1,197.99999395752,6|0,3:2|0:0,0:0:0:0:
341,236,60686,6,0,P|412:244|461:137,1,197.99999395752,6|0,3:2|0:0,0:0:0:0:
458,127,61002,2,0,P|404:84|304:143,1,197.99999395752,6|0,3:2|0:0,0:0:0:0:
302,157,61318,2,0,B|304:209|255:247|200:230|200:230|230:222|246:200,1,197.99999395752,6|0,3:2|0:0,0:0:0:0:
232,198,61633,2,0,B|213:261|215:339|215:339|204:308|162:295,1,197.99999395752,6|0,3:2|0:0,0:0:0:0:
145,370,61949,1,6,3:2:0:0:
256,192,62028,12,2,63793,0:2:0:0:
467,155,64101,6,0,P|477:95|376:22,1,197.99999395752,2|0,0:2|0:0,0:0:0:0:
314,70,64457,2,0,P|259:97|170:112,1,131.99999597168,2|0,0:2|0:0,0:0:0:0:
18,91,64794,5,12,0:2:0:0:
126,157,64951,1,2,3:2:0:0:
111,236,65109,5,10,0:2:0:0:
222,200,65266,1,2,3:2:0:0:
217,288,65424,6,0,P|303:253|413:243,1,197.99999395752,10|0,0:2|0:0,0:0:0:0:
429,249,65740,2,0,P|485:219|493:144,1,131.99999597168,10|0,0:2|3:0,0:0:0:0:
392,124,66056,5,10,0:2:0:0:
321,22,66214,1,2,3:2:0:0:
276,83,66372,5,10,0:2:0:0:
222,200,66530,1,2,3:2:0:0:
199,126,66687,6,0,P|108:90|4:84,1,197.99999395752,10|0,0:2|0:0,0:0:0:0:
1,108,67003,2,0,P|51:154|54:229,1,131.99999597168,10|0,0:2|3:0,0:0:0:0:
96,318,67319,2,0,P|142:344|234:361,1,131.99999597168,8|0,0:2|3:0,0:0:0:0:
288,263,67635,5,10,0:2:0:0:
389,336,67793,1,2,3:2:0:0:
407,258,67951,5,10,0:2:0:0:
483,175,68109,1,2,3:2:0:0:
411,144,68266,6,0,B|378:162|339:139|335:100|340:99|344:94|324:49|292:45|260:60,1,197.99999395752,10|0,0:2|0:0,0:0:0:0:
233,90,68582,1,10,0:2:0:0:
233,90,68740,1,2,3:2:0:0:
249,200,68898,5,10,0:2:0:0:
159,125,69056,1,2,3:2:0:0:
89,84,69214,5,10,0:2:0:0:
132,200,69372,1,2,3:2:0:0:
69,252,69530,6,0,P|91:329|201:343,1,197.99999395752,10|0,0:2|0:0,0:0:0:0:
230,318,69845,1,10,0:2:0:0:
230,318,70003,1,2,3:2:0:0:
342,360,70161,5,10,0:2:0:0:
374,240,70319,1,2,3:2:0:0:
444,274,70477,5,10,0:2:0:0:
420,151,70635,1,2,3:2:0:0:
470,87,70793,5,10,0:2:0:0:
348,108,70951,1,2,3:2:0:0:
377,37,71108,5,10,0:2:0:0:
245,14,71266,1,2,3:2:0:0:
230,142,71424,5,10,0:2:0:0:
230,142,71582,2,0,B|173:82|105:153|132:192|165:213|168:208|177:208|219:259|165:315,1,263.99999194336,2|2,3:2|3:2,0:0:0:0:
259,369,72057,5,0,3:0:0:0:
259,369,72214,1,0,3:0:0:0:
320,308,72372,1,10,0:2:0:0:
409,331,72530,1,4,3:0:0:0:
409,331,72609,1,4,3:0:0:0:
409,331,72688,2,0,P|463:306|471:266,1,98.9999969787599,2|2,3:2|3:2,0:0:0:0:
462,197,73004,1,14,0:2:0:0:
388,174,73162,1,0,0:0:0:0:
386,57,73320,6,0,P|351:19|295:19,1,98.9999969787599,2|0,3:2|3:0,0:0:0:0:
229,80,73635,1,10,0:2:0:0:
229,80,73793,2,0,P|232:133|253:186,1,98.9999969787599,2|0,3:2|3:0,0:0:0:0:
167,184,74109,1,2,3:2:0:0:
167,184,74267,2,0,B|226:206|226:206|228:217|228:217|314:255,1,148.49999546814,12|0,0:2|0:0,0:0:0:0:
310,291,74583,5,0,3:0:0:0:
310,291,74741,1,2,3:2:0:0:
236,330,74899,1,8,0:2:0:0:
168,280,75057,1,6,2:3:0:0:
168,280,75135,1,4,3:0:0:0:
168,280,75214,2,0,P|104:275|55:254,1,98.9999969787599,0|2,3:0|3:2,0:0:0:0:
21,181,75530,2,0,P|41:110|135:102,1,148.49999546814,12|0,0:2|0:0,0:0:0:0:
139,62,75846,5,0,3:0:0:0:
139,62,76004,1,0,3:0:0:0:
221,14,76162,1,8,0:2:0:0:
274,93,76320,1,0,3:0:0:0:
274,93,76399,1,0,3:0:0:0:
274,93,76478,1,0,3:0:0:0:
189,141,76635,1,0,3:0:0:0:
235,226,76793,2,0,B|216:290|216:290|221:299|221:299|202:368,1,148.49999546814,12|0,0:2|0:0,0:0:0:0:
251,384,77109,5,2,3:2:0:0:
251,384,77267,1,2,3:2:0:0:
328,335,77425,1,8,0:2:0:0:
328,335,77504,1,0,0:0:0:0:
328,335,77583,1,6,2:3:0:0:
328,335,77662,1,4,3:0:0:0:
328,335,77741,1,0,3:0:0:0:
410,374,77899,1,2,3:2:0:0:
469,297,78057,2,0,P|454:234|455:140,1,148.49999546814,14|0,0:2|0:0,0:0:0:0:
479,110,78372,5,2,3:2:0:0:
391,43,78530,1,2,3:2:0:0:
479,110,78688,1,8,0:2:0:0:
371,166,78846,2,0,P|329:131|231:162,1,148.49999546814,2|0,3:2|0:0,0:0:0:0:
234,158,79162,2,0,P|215:132|177:126,1,49.4999984893799,2|0,3:2|0:0,0:0:0:0:
115,107,79320,2,0,B|181:86|181:86|186:77|186:77|262:52,1,148.49999546814,14|0,0:2|0:0,0:0:0:0:
296,42,79635,5,2,3:2:0:0:
344,160,79793,1,0,3:0:0:0:
296,42,79951,1,10,0:2:0:0:
446,105,80109,1,4,3:0:0:0:
446,105,80188,1,4,3:0:0:0:
446,105,80267,2,0,P|430:154|423:207,1,98.9999969787599,2|0,3:2|3:0,0:0:0:0:
322,132,80583,1,14,0:2:0:0:
350,281,80741,2,0,P|281:265|247:198,1,148.49999546814,2|8,3:2|0:0,0:0:0:0:
189,148,81057,5,10,0:2:0:0:
189,148,81135,1,8,0:0:0:0:
189,148,81214,2,0,P|151:146|112:174,3,65.9999979858399,8|8|8|8,0:2|0:0|0:0|0:0,0:0:0:0:
45,189,81530,6,0,P|39:222|60:266,1,65.9999979858399,8|8,0:2|0:0,0:0:0:0:
46,336,81688,2,0,P|74:357|114:362,1,65.9999979858399,8|8,0:2|0:0,0:0:0:0:
194,271,81846,1,10,0:2:0:0:
221,265,81925,1,8,0:0:0:0:
248,274,82004,1,8,0:2:0:0:
260,304,82083,1,8,0:2:0:0:
252,328,82162,6,0,B|243:288|267:265|308:264|312:268|313:272|351:279|383:254|372:212,1,197.99999395752,6|0,3:2|0:0,0:0:0:0:
374,197,82478,2,0,P|442:229|480:192,1,131.99999597168,10|0,0:2|3:0,0:0:0:0:
361,122,82793,6,0,P|400:229|414:328,1,197.99999395752,2|0,3:2|0:0,0:0:0:0:
404,339,83109,2,0,P|329:380|276:343,1,131.99999597168,10|0,0:2|3:0,0:0:0:0:
191,263,83425,6,0,B|157:226|108:218|63:247|63:247|101:245|121:275,1,197.99999395752,2|0,3:2|0:0,0:0:0:0:
108,279,83741,2,0,P|128:185|152:141,1,131.99999597168,10|0,0:2|3:0,0:0:0:0:
225,50,84057,6,0,P|296:90|266:205,1,197.99999395752,2|0,3:2|0:0,0:0:0:0:
269,206,84372,2,0,P|339:208|401:242,1,131.99999597168,10|0,0:2|3:2,0:0:0:0:
494,110,84688,6,0,P|455:34|334:48,1,197.99999395752,2|0,3:2|0:0,0:0:0:0:
339,50,85004,2,0,P|295:99|234:138,1,131.99999597168,8|0,0:2|3:0,0:0:0:0:
72,134,85320,6,0,B|102:119|134:123|154:168|150:173|145:174|149:213|188:236|221:218,1,197.99999395752,2|0,3:2|0:0,0:0:0:0:
236,220,85635,2,0,P|218:278|287:347,1,131.99999597168,10|0,0:2|3:0,0:0:0:0:
397,340,85951,6,0,B|437:314|429:267|429:267|313:216,1,197.99999395752,2|0,3:2|0:0,0:0:0:0:
321,205,86267,2,0,P|361:151|378:79,1,131.99999597168,10|0,0:2|3:0,0:0:0:0:
253,26,86583,6,0,B|225:5|192:12|192:12|162:82|82:81,1,197.99999395752,2|0,3:2|0:0,0:0:0:0:
43,69,86899,1,10,0:2:0:0:
43,69,87057,1,0,3:0:0:0:
30,222,87214,6,0,B|95:197|161:193|161:193|120:181|105:133,1,197.99999395752,2|0,3:2|0:0,0:0:0:0:
105,162,87530,2,0,P|136:228|110:299,1,131.99999597168,10|0,0:2|3:0,0:0:0:0:
173,382,87846,6,0,P|252:376|289:251,1,197.99999395752,2|0,3:2|0:0,0:0:0:0:
291,264,88162,2,0,P|268:192|269:122,1,131.99999597168,10|0,0:2|3:0,0:0:0:0:
135,27,88478,6,0,B|182:27|228:56|232:111|232:111|214:85|172:82,1,197.99999395752,2|0,3:2|0:0,0:0:0:0:
176,95,88793,2,0,P|252:47|320:34,1,131.99999597168,10|0,0:2|3:0,0:0:0:0:
413,116,89109,6,0,B|352:160|373:234|373:234|296:241|276:346,1,263.99999194336,2|8,3:2|0:2,0:0:0:0:
399,251,89583,1,2,3:2:0:0:
289,179,89741,6,0,P|218:156|136:151,1,131.99999597168,2|0,3:2|3:0,0:0:0:0:
337,28,90057,2,0,P|392:48|475:63,1,131.99999597168,10|0,0:2|3:0,0:0:0:0:
509,171,90372,6,0,P|461:227|372:221,1,131.99999597168,2|0,3:2|3:0,0:0:0:0:
339,116,90688,2,0,P|306:46|235:35,1,131.99999597168,14|0,0:2|3:0,0:0:0:0:
144,72,91004,6,0,P|117:93|62:105,3,65.9999979858399,10|8|4|4,0:2|0:2|3:0|3:0,0:0:0:0:
36,225,91320,1,8,3:0:0:0:
61,234,91399,1,8,3:0:0:0:
86,233,91478,1,4,3:0:0:0:
110,222,91557,1,4,3:0:0:0:
128,205,91635,1,4,3:0:0:0:
137,179,91715,1,4,3:0:0:0:
153,159,91794,1,4,3:0:0:0:
176,148,91873,1,4,3:0:0:0:
200,146,91951,6,0,P|180:196|187:289,1,131.99999597168,14|0,0:2|3:0,0:0:0:0:
279,346,92267,6,0,P|345:335|381:265,1,131.99999597168,14|0,0:2|3:0,0:0:0:0:
393,164,92583,2,0,P|345:110|270:109,1,131.99999597168,10|0,0:2|3:0,0:0:0:0:
149,190,92899,1,10,0:2:0:0:
205,67,93057,1,0,3:0:0:0:
276,209,93214,1,10,0:2:0:0:
205,67,93372,1,0,3:0:0:0:
123,167,93530,6,0,P|64:192|-16:202,1,131.99999597168,10|0,0:2|3:0,0:0:0:0:
36,342,93846,2,0,P|98:316|173:303,1,131.99999597168,10|0,0:2|3:0,0:0:0:0:
266,198,94162,1,10,0:2:0:0:
230,361,94320,1,0,3:0:0:0:
266,198,94478,1,10,0:2:0:0:
356,321,94635,1,0,3:0:0:0:
223,222,94793,6,0,P|158:172|132:129,1,131.99999597168,10|0,0:2|3:0,0:0:0:0:
182,20,95109,2,0,P|263:6|318:49,1,131.99999597168,10|0,0:2|3:0,0:0:0:0:
225,127,95425,1,10,0:2:0:0:
377,85,95583,1,0,3:0:0:0:
310,231,95741,1,10,0:2:0:0:
377,85,95899,1,0,3:0:0:0:
452,217,96057,6,0,P|427:275|348:286,1,131.99999597168,10|0,0:2|3:0,0:0:0:0:
221,163,96372,2,0,P|308:210|302:256,1,131.99999597168,10|0,0:2|3:0,0:0:0:0:
153,330,96688,1,10,0:2:0:0:
135,192,96846,1,0,3:0:0:0:
257,301,97004,1,10,0:2:0:0:
135,192,97162,1,0,3:0:0:0:
71,349,97320,6,0,P|182:329|215:187,1,263.99999194336,10|10,0:2|0:2,0:0:0:0:
73,125,97793,2,0,P|207:169|324:260,1,263.99999194336,2|0,3:2|3:0,0:0:0:0:
449,189,98267,1,10,0:2:0:0:
449,189,98425,2,0,B|408:168|365:174|339:234|344:241|351:242|345:294|293:325|250:301,1,263.99999194336,2|0,3:2|3:0,0:0:0:0:
352,171,98899,1,10,0:2:0:0:
166,154,99057,6,0,P|109:216|44:225,1,131.99999597168,2|8,3:2|0:2,0:0:0:0:
140,301,99372,6,0,P|201:288|256:313,1,98.9999969787599,2|8,3:2|0:2,0:0:0:0:
250,174,99688,5,2,3:2:0:0:
116,86,99846,5,12,0:2:0:0:
256,192,99925,12,0,102349,0:0:0:0:
398,98,109636,5,10,0:2:0:0:
398,98,109793,1,10,0:2:0:0:
315,206,109951,5,6,3:2:0:0:
186,70,110108,1,6,3:2:0:0:
315,206,110424,5,6,3:2:0:0:
102,93,110740,5,6,3:2:0:0:
404,175,111056,5,6,3:2:0:0:
256,192,111135,12,0,112003,0:0:0:0:
97,290,112161,6,0,P|151:248|143:220,1,98.9999969787599,2|0,0:2|0:0,0:0:0:0:
131,199,112477,6,0,P|216:207|282:238,1,131.99999597168,6|0,3:2|3:0,0:0:0:0:
415,116,112793,2,0,P|366:56|300:60,1,131.99999597168,10|0,0:2|3:0,0:0:0:0:
340,244,113108,1,2,3:2:0:0:
413,200,113266,1,0,3:0:0:0:
242,102,113424,2,0,P|230:175|266:217,1,131.99999597168,10|0,0:2|3:0,0:0:0:0:
435,83,113740,6,0,P|372:75|288:38,1,131.99999597168,2|0,0:2|3:0,0:0:0:0:
159,116,114056,2,0,P|92:159|90:236,2,131.99999597168,10|0|0,0:2|3:0|0:0,0:0:0:0:
260,223,114529,1,0,3:0:0:0:
398,259,114687,2,0,P|358:342|310:354,1,131.99999597168,10|0,0:2|3:0,0:0:0:0:
79,215,115003,6,0,B|117:196|160:202|187:262|182:269|175:270|181:322|233:353|277:329,1,263.99999194336,14|2,0:2|3:2,0:0:0:0:
383,198,115477,5,14,0:0:0:0:
343,128,115635,1,0,3:2:0:0:
252,47,115793,5,14,0:0:0:0:
215,117,115951,1,0,3:2:0:0:
394,65,116108,5,14,0:2:0:0:
256,192,116187,12,0,117372,0:0:0:0:
52,136,117531,6,0,P|155:211|358:284,1,330,2|0,0:2|0:0,0:0:0:0:
266,303,118778,1,2,0:2:0:0:
266,303,118978,6,0,P|233:328|200:328,1,55,2|2,0:2|0:2,0:0:0:0:
144,351,119378,2,0,P|118:332|108:295,1,55,2|0,0:2|0:0,0:0:0:0:
37,244,119813,5,2,0:2:0:0:
44,221,120020,1,2,0:2:0:0:
51,199,120227,1,2,0:2:0:0:
59,178,120434,1,2,0:2:0:0:
122,108,126813,6,0,L|132:171,3,55,8|8|8|8,3:2|3:2|3:2|3:2,0:0:0:0:
113,259,127587,2,0,L|188:222,3,65.9999979858399,10|8|10|8,3:2|3:2|3:2|3:2,0:0:0:0:
213,154,128361,2,0,L|296:182,3,76.9999976501466,8|8|8|8,3:2|3:2|3:2|3:2,0:0:0:0:
385,170,129136,2,0,L|331:256,3,88,10|8|10|10,3:2|3:2|3:2|3:2,0:0:0:0:
263,260,129910,2,0,L|291:357,3,98.9999969787599,8|8|8|8,3:2|3:2|3:2|3:2,0:0:0:0:
199,324,130684,2,0,L|85:269,3,110,10|8|10|8,3:2|3:2|3:2|3:2,0:0:0:0:
44,147,131458,6,0,B|142:123|142:123|107:290,2,247.500009441376,14|14|14,0:2|0:2|0:2,0:0:0:0:
280,160,132232,2,0,B|220:126|220:126|123:165|123:165|57:129,2,247.500009441376,14|14|14,0:2|0:2|0:2,0:0:0:0:
450,47,133007,5,0,3:0:0:0:
365,199,133200,1,0,3:0:0:0:
450,47,133394,1,8,0:2:0:0:
365,199,133587,1,0,3:0:0:0:
461,344,133781,2,0,B|431:289|431:289|371:309|371:309|366:316|366:316|303:336,1,197.99999395752,0|0,3:0|0:0,0:0:0:0:
243,271,134168,2,0,B|221:324|221:324|161:312|161:312|156:304|156:304|73:287,1,197.99999395752,8|0,0:2|0:0,0:0:0:0:
9,153,134555,5,0,3:0:0:0:
58,140,134652,1,4,3:0:0:0:
97,111,134749,1,6,2:3:0:0:
146,99,134845,1,4,3:0:0:0:
187,70,134942,2,0,B|203:73|203:73|213:73|213:73|234:78|234:78|246:78|246:78|263:82,1,65.9999979858399,10|0,0:2|0:0,0:0:0:0:
325,107,135136,2,0,B|319:105|319:105|307:105|307:105|286:100|286:100|276:100|276:100|260:97,1,65.9999979858399,2|0,3:2|0:0,0:0:0:0:
407,38,135329,5,2,3:2:0:0:
400,88,135426,1,4,3:0:0:0:
418,134,135523,1,6,2:3:0:0:
415,185,135620,1,4,3:0:0:0:
441,229,135716,2,0,B|444:240|444:240|446:248|446:248|450:259|450:259|447:268|447:268|444:283|444:283|434:305,1,65.9999979858399,10|0,0:2|0:0,0:0:0:0:
416,365,135910,2,0,B|413:354|413:354|411:346|411:346|407:335|407:335|410:326|410:326|412:311|412:311|423:289,1,65.9999979858399,2|0,0:2|0:0,0:0:0:0:
320,187,136103,5,0,3:0:0:0:
179,286,136297,1,0,3:0:0:0:
320,187,136490,1,8,0:2:0:0:
179,286,136684,1,0,3:0:0:0:
40,148,136878,2,0,B|134:138|134:138|137:128|137:128|239:116,1,197.99999395752,0|0,3:0|0:0,0:0:0:0:
293,59,137265,2,0,B|278:118|278:118|282:122|282:122|265:193,1,131.99999597168,8|0,0:2|3:0,0:0:0:0:
301,258,137555,1,0,3:0:0:0:
379,286,137652,6,0,B|519:187|519:187|422:197,2,247.500009441376,14|14|14,0:2|0:2|0:2,0:0:0:0:
359,174,138426,2,0,B|273:138|273:138|266:51|266:51|337:83,2,247.500009441376,14|14|14,0:2|0:2|0:2,0:0:0:0:
490,29,139200,5,0,3:0:0:0:
327,78,139394,1,0,3:0:0:0:
490,29,139587,1,8,0:2:0:0:
327,78,139781,1,0,3:0:0:0:
283,239,139974,2,0,B|189:274|189:274|110:202,1,197.99999395752,0|0,3:0|0:0,0:0:0:0:
43,128,140361,2,0,B|137:93|137:93|216:165,1,197.99999395752,8|0,0:2|0:0,0:0:0:0:
165,286,140749,5,0,3:0:0:0:
176,334,140845,1,4,3:0:0:0:
217,346,140942,1,6,2:3:0:0:
260,355,141039,1,4,3:0:0:0:
290,317,141136,2,0,B|295:308|295:308|299:294|299:294|304:287|304:287|304:280|304:280|313:262|313:262|318:246,1,65.9999979858399,10|0,0:2|0:0,0:0:0:0:
335,180,141329,2,0,B|330:189|330:189|325:202|325:202|321:210|321:210|321:217|321:217|312:235|312:235|307:251,1,65.9999979858399,2|0,3:2|0:0,0:0:0:0:
461,152,141523,5,2,3:2:0:0:
454,102,141619,1,4,3:0:0:0:
410,83,141716,1,6,2:3:0:0:
364,66,141813,1,4,3:0:0:0:
323,98,141910,2,0,B|316:103|316:103|310:107|310:107|299:103|299:103|284:101|284:101|276:98|276:98|263:97|263:97|247:94,1,65.9999979858399,10|0,0:2|0:0,0:0:0:0:
183,111,142103,2,0,B|190:106|190:106|196:102|196:102|207:106|207:106|222:108|222:108|230:111|230:111|243:112|243:112|259:115,1,65.9999979858399,2|0,3:2|0:0,0:0:0:0:
141,287,142297,5,0,3:0:0:0:
90,121,142490,1,0,3:0:0:0:
141,287,142684,1,8,0:2:0:0:
90,121,142877,1,0,3:0:0:0:
240,24,143071,2,0,B|279:61|279:61|375:48|375:48|432:93,1,197.99999395752,0|0,3:0|0:0,0:0:0:0:
413,226,143458,2,0,B|367:212|367:212|351:123,1,131.99999597168,8|0,0:2|3:0,0:0:0:0:
457,294,143749,1,0,3:0:0:0:
406,355,143846,1,10,0:2:0:0:
256,192,143942,12,6,145063,0:2:0:0:
75,336,145524,6,0,B|97:328|97:328|122:247,1,82.5000031471254,4|0,3:2|0:0,0:0:0:0:
202,237,145754,2,0,B|224:229|224:229|249:148,1,82.5000031471254,0|0,3:0|0:0,0:0:0:0:
61,326,145985,2,0,B|83:318|83:318|108:237,1,82.5000031471254,0|0,3:0|0:0,0:0:0:0:
188,227,146215,2,0,B|210:219|210:219|235:138,1,82.5000031471254,0|0,3:0|0:0,0:0:0:0:
84,74,146447,6,0,B|131:143|131:143|291:108,1,247.500009441376,12|0,0:2|0:0,0:0:0:0:
436,65,146908,2,0,B|446:71|446:71|461:73|461:73|473:80|473:80|489:83|489:83|479:107|479:107|477:121|477:121|470:139|470:139|470:143|470:143|459:164|459:164|455:189|455:189|449:201|449:201|448:217|448:217|429:210|429:210|414:209|414:209|405:206|405:206|384:198,1,247.500009441376,2|0,0:2|0:0,0:0:0:0:
331,246,147370,1,4,0:2:0:0:
177,168,147600,6,0,B|170:152|170:152|167:136|167:136|160:119|160:119|159:107|159:107|152:96|152:96|159:88|159:88|165:80|165:80|158:62|158:62|155:43|155:43|148:27|148:27|141:-4,2,165.000006294251,2|2|2,3:2|3:2|3:2,0:0:0:0:
325,157,148293,2,0,B|315:176|315:176|313:189|313:189|301:212|301:212|298:227|298:227|285:249|285:249|284:261|284:261|270:254|270:254|258:252|258:252|246:245|246:245|232:240,3,165.000006294251,14|2|2|10,0:2|3:2|3:2|0:2,0:0:0:0:
181,86,149216,6,0,B|220:52|220:52|229:9,1,82.5000031471254,4|0,3:2|0:0,0:0:0:0:
61,88,149447,2,0,B|22:122|22:122|15:152,1,82.5000031471254,0|0,3:0|0:0,0:0:0:0:
194,95,149677,2,0,B|233:61|233:61|242:18,1,82.5000031471254,0|0,3:0|0:0,0:0:0:0:
74,97,149908,2,0,B|35:131|35:131|28:161,1,82.5000031471254,0|0,3:0|0:0,0:0:0:0:
129,281,150139,6,0,B|292:226|292:226|342:286,1,247.500009441376,12|0,0:2|0:0,0:0:0:0:
323,363,150600,2,0,L|365:265,1,82.5000031471254,0|0,3:0|0:0,0:0:0:0:
478,201,150831,1,0,3:0:0:0:
449,157,150947,1,0,3:0:0:0:
481,114,151062,6,0,B|313:42|313:42|326:155,2,296.99999093628,10|10|10,3:2|3:2|3:2,0:0:0:0:
362,287,151985,2,0,B|395:183|395:183|314:146|314:146|303:42,2,296.99999093628,10|10|10,3:2|3:2|3:2,0:0:0:0:
181,206,152908,6,0,B|221:195|221:195|268:216,1,82.5000031471254,4|0,3:2|0:0,0:0:0:0:
253,343,153139,2,0,B|212:354|212:354|159:330,1,82.5000031471254,0|0,3:0|0:0,0:0:0:0:
183,193,153370,2,0,B|223:182|223:182|270:203,1,82.5000031471254,0|0,3:0|0:0,0:0:0:0:
255,330,153601,2,0,B|214:341|214:341|161:317,1,82.5000031471254,0|0,3:0|0:0,0:0:0:0:
104,224,153831,6,0,B|170:119|170:119|94:5,1,247.500009441376,12|0,0:2|0:0,0:0:0:0:
67,122,154293,2,0,B|94:121|94:121|103:119|103:119|133:117|133:117|141:115|141:115|167:114|167:114|186:110|186:110|196:126|196:126|214:122|214:122|236:124|236:124|256:121|256:121|264:122|264:122|293:117|293:117|323:116,1,247.500009441376,2|0,3:2|0:0,0:0:0:0:
358,58,154754,1,4,0:2:0:0:
430,217,154985,6,0,B|429:244|429:244|433:257|433:257|432:282|432:282|437:298|437:298|418:315|418:315|413:323|413:323|394:336|394:336|366:363,2,165.000006294251,2|2|2,3:2|3:2|3:2,0:0:0:0:
214,193,155677,2,0,B|221:206|221:206|225:219|225:219|230:227|230:227|238:244|238:244|254:244|254:244|274:249|274:249|285:249|285:249|294:253|294:253|316:255|316:255|330:259|330:259|348:262,3,165.000006294251,14|2|2|10,0:2|3:2|3:2|3:2,0:0:0:0:
383,23,156600,6,0,L|347:103,1,82.5000031471254,4|0,3:2|0:0,0:0:0:0:
203,178,156831,2,0,L|237:101,1,82.5000031471254,0|0,3:0|0:0,0:0:0:0:
398,23,157062,2,0,L|362:103,1,82.5000031471254,0|0,3:0|0:0,0:0:0:0:
218,178,157293,2,0,L|252:101,1,82.5000031471254,0|0,3:0|0:0,0:0:0:0:
399,244,157524,6,0,B|287:266|287:266|271:251|271:251|150:275,1,247.500009441376,12|0,0:2|0:0,0:0:0:0:
2,166,157985,2,0,L|104:205,1,82.5000031471254,0|0,3:0|0:0,0:0:0:0:
168,179,158216,5,0,3:0:0:0:
168,179,158293,5,0,3:0:0:0:
168,179,158370,5,0,3:0:0:0:
168,179,158447,6,0,B|143:321|143:321|60:340|60:340|75:269,2,296.99999093628,10|10|10,3:2|3:2|3:2,0:0:0:0:
128,57,159370,2,0,B|102:154|102:154|318:105,2,296.99999093628,10|10|10,3:2|3:2|3:2,0:0:0:0:
252,208,160293,5,10,3:2:0:0:
252,208,160408,1,0,3:0:0:0:
476,86,161677,5,8,3:2:0:0:
476,86,161792,1,0,3:0:0:0:
252,208,162139,5,4,0:0:0:0:
256,192,162254,12,0,173447,0:0:0:0:
