osu file format v14

[General]
AudioFilename: audio.mp3
AudioLeadIn: 0
PreviewTime: 37791
Countdown: 0
SampleSet: Soft
StackLeniency: 1
Mode: 0
LetterboxInBreaks: 0
WidescreenStoryboard: 1

[Editor]
Bookmarks: 74,21545,39229,61966,72074,82179,99863,112494,120637,145080,162156,173464
DistanceSpacing: 0.7
BeatDivisor: 4
GridSize: 8
TimelineZoom: 1.4

[Metadata]
Title:Neutrogena Spektor
TitleUnicode:Neutrogena Spektor
Artist:Origami Angel
ArtistUnicode:Origami Angel
Creator:Rektygon
Version:Hard
Source:
Tags:Gami Gang origami angel [karcher] down togetic bazzla indie rock punk emo alternative english
BeatmapID:3379488
BeatmapSetID:1654912

[Difficulty]
HPDrainRate:5
CircleSize:3.6
OverallDifficulty:6
ApproachRate:8
SliderMultiplier:1.6
SliderTickRate:1

[Events]
//Background and Video events
0,0,"alena-aenami-cold-1k.jpg",0,0
//Break Periods
2,102549,108886
2,120633,126063
//Storyboard Layer 0 (Background)
//Storyboard Layer 1 (Fail)
//Storyboard Layer 2 (Pass)
//Storyboard Layer 3 (Foreground)
//Storyboard Layer 4 (Overlay)
//Storyboard Sound Samples

[TimingPoints]
57,315.789473684211,4,2,1,80,1,0
530,315.789473684211,4,2,1,80,1,0
1003,315.789473684211,4,2,1,80,1,0
1318,315.789473684211,4,2,1,65,1,0
1318,-111.111111111111,4,2,1,65,0,0
19318,-100,4,2,1,35,0,0
19633,-90.9090909090909,4,2,1,40,0,0
19949,-83.3333333333333,4,2,1,45,0,0
20266,-76.9230769230769,4,2,1,50,0,0
20580,-76.9230769230769,4,2,1,55,0,0
20896,-100,4,2,1,60,0,0
21212,-100,4,2,1,65,0,0
21528,-100,4,2,1,80,0,0
39212,-100,4,2,1,75,0,0
61949,-100,4,2,1,60,0,0
61952,-100,4,2,1,60,0,0
62563,307.692307692308,4,2,1,60,1,0
64101,-100,4,2,1,75,0,0
64457,315.789473684211,4,2,1,75,1,0
64794,315.789473684211,4,2,1,85,1,0
65109,315.789473684211,4,2,1,85,1,0
72057,315.789473684211,4,2,1,70,1,0
80899,-100,4,2,1,25,0,0
81846,-100,4,2,1,70,0,0
82162,-76.9230769230769,4,2,1,75,0,0
92267,-76.9230769230769,4,2,1,85,0,0
102349,625,4,2,1,20,1,0
104224,689.655172413793,4,2,1,80,1,0
104913,612.244897959184,4,2,1,80,1,0
106749,652.173913043478,4,2,1,80,1,0
107401,625,4,2,1,80,1,0
109636,315.789473684211,4,2,1,70,1,0
109636,-76.9230769230769,4,2,1,70,0,0
109951,315.789473684211,4,2,1,70,1,0
109951,-76.9230769230769,4,2,1,70,0,0
112477,-100,4,2,1,80,0,0
117531,352.941176470587,4,2,1,60,1,0
118778,400,4,2,1,60,1,0
119607,413.793103448276,4,2,1,60,1,0
120620,387.096774193548,4,2,1,65,1,0
125265,-125,4,2,1,70,0,0
126813,-125,4,2,1,35,0,0
127587,-125,4,2,1,40,0,0
128361,-111.111111111111,4,2,1,45,0,0
129136,-111.111111111111,4,2,1,50,0,0
129910,-100,4,2,1,55,0,0
130684,-100,4,2,1,60,0,0
131458,-66.6666666666667,4,2,1,70,0,0
133007,-83.3333333333333,4,2,1,60,0,0
137652,-66.6666666666667,4,2,1,70,0,0
139200,-83.3333333333333,4,2,1,60,0,0
143845,-100,4,2,1,70,0,0
145063,461.538461538462,4,2,1,65,1,0
145524,461.538461538462,4,2,1,60,1,0
145524,-66.6666666666667,4,2,1,60,0,0
151062,-58.8235294117647,4,2,1,70,0,0
152908,-66.6666666666667,4,2,1,60,0,0
158447,-58.8235294117647,4,2,1,70,0,0

[Colours]
Combo1 : 174,168,255
Combo2 : 255,166,166
Combo3 : 159,203,255
Combo4 : 255,185,255

[HitObjects]
124,180,57,6,0,P|87:177|62:184,1,40,8|8,0:2|0:2,0:0:0:0:
77,183,214,2,0,P|94:151|167:140,1,80,4|4,3:2|3:2,0:0:0:0:
215,104,530,2,0,P|206:83|188:64,1,40,8|8,0:2|0:2,0:0:0:0:
186,63,687,2,0,P|246:73|267:103,1,80,4|4,3:2|3:2,0:0:0:0:
340,68,1003,2,0,P|354:81|364:102,1,40,8|8,0:2|0:2,0:0:0:0:
360,149,1160,1,8,0:2:0:0:
360,149,1239,1,8,0:2:0:0:
360,149,1318,6,0,P|337:192|335:244,1,71.9999978027344,0|0,3:0|3:0,0:0:0:0:
400,271,1633,2,0,P|441:268|476:228,1,71.9999978027344,10|0,0:2|0:0,0:0:0:0:
489,151,1949,2,0,P|418:136|337:99,1,143.999995605469,2|10,3:2|0:2,0:0:0:0:
285,54,2423,1,2,0:2:0:0:
285,54,2581,2,0,P|245:65|227:114,1,71.9999978027344,2|0,3:2|3:0,0:0:0:0:
257,181,2896,2,0,P|254:222|241:268,2,71.9999978027344,10|2|2,0:2|0:2|3:2,0:0:0:0:
258,182,3528,6,0,P|288:168|313:135,1,71.9999978027344,10|2,0:2|0:2,0:0:0:0:
379,89,3844,2,0,P|415:104|430:159,1,71.9999978027344,2|0,3:2|3:0,0:0:0:0:
399,212,4160,2,0,P|405:250|428:295,2,71.9999978027344,10|2|2,0:2|0:2|3:2,0:0:0:0:
399,212,4791,6,0,P|354:220|320:245,1,71.9999978027344,10|2,0:2|0:2,0:0:0:0:
256,216,5107,2,0,P|253:179|277:143,2,71.9999978027344,2|2|10,3:2|3:2|0:2,0:0:0:0:
256,216,5739,6,0,P|191:245|116:265,1,143.999995605469,2|10,3:2|0:2,0:0:0:0:
47,234,6212,1,2,0:2:0:0:
47,234,6370,2,0,P|16:202|15:157,1,71.9999978027344,2|2,3:2|3:2,0:0:0:0:
50,104,6686,1,10,0:2:0:0:
66,317,7002,5,2,3:2:0:0:
50,104,7318,6,0,P|82:125|126:142,1,71.9999978027344,10|2,0:2|0:2,0:0:0:0:
186,179,7633,2,0,P|185:226|156:256,1,71.9999978027344,2|2,3:2|3:2,0:0:0:0:
212,315,7949,1,10,0:2:0:0:
280,266,8107,1,2,0:2:0:0:
321,337,8265,2,0,B|354:317|354:317|426:332|426:332|475:306,2,143.999995605469,2|10|2,3:2|0:2|3:2,0:0:0:0:
234,133,9212,5,10,0:2:0:0:
285,194,9370,1,2,0:2:0:0:
359,166,9528,2,0,P|376:122|358:81,1,71.9999978027344,2|0,3:2|3:0,0:0:0:0:
428,46,9844,1,10,0:2:0:0:
428,46,10160,6,0,P|386:49|337:44,1,71.9999978027344,2|2,3:2|3:2,0:0:0:0:
277,36,10475,2,0,P|230:31|182:36,1,71.9999978027344,10|2,0:2|0:2,0:0:0:0:
145,89,10791,2,0,P|98:75|85:33,2,71.9999978027344,2|0|10,3:2|3:0|0:2,0:0:0:0:
260,236,11423,6,0,P|271:201|289:165,2,71.9999978027344,0|0|8,3:0|3:0|0:2,0:0:0:0:
233,322,11896,1,4,3:0:0:0:
233,322,11975,1,4,3:0:0:0:
233,322,12054,2,0,P|191:338|155:326,1,71.9999978027344,2|2,3:2|3:2,0:0:0:0:
117,276,12370,1,14,0:2:0:0:
117,276,12686,6,0,P|131:239|139:195,1,71.9999978027344,2|0,3:2|3:0,0:0:0:0:
89,144,13002,1,10,0:2:0:0:
89,144,13160,2,0,P|96:105|142:86,1,71.9999978027344,2|0,3:2|3:0,0:0:0:0:
200,98,13475,2,0,P|221:133|206:173,1,71.9999978027344,2|12,3:2|0:2,0:0:0:0:
151,205,13791,6,0,P|231:223|303:252,2,143.999995605469,0|2|6,0:0|3:2|2:3,0:0:0:0:
104,216,14502,1,4,3:0:0:0:
104,216,14581,2,0,P|73:246|70:290,1,71.9999978027344,0|2,3:0|3:2,0:0:0:0:
123,340,14896,1,12,0:2:0:0:
123,340,15212,6,0,P|155:321|211:315,1,71.9999978027344,0|0,3:0|3:0,0:0:0:0:
270,313,15528,2,0,P|312:293|319:255,1,71.9999978027344,8|0,0:2|3:0,0:0:0:0:
319,237,15765,1,0,3:0:0:0:
319,237,15844,2,0,P|361:241|389:282,1,71.9999978027344,0|0,3:0|3:0,0:0:0:0:
465,253,16160,1,12,0:2:0:0:
465,253,16475,6,0,P|479:216|453:173,1,71.9999978027344,2|2,3:2|3:2,0:0:0:0:
412,134,16791,1,8,0:2:0:0:
378,62,16949,1,6,2:3:0:0:
378,62,17028,1,4,3:0:0:0:
378,62,17107,2,0,P|316:63|282:56,1,71.9999978027344,0|2,3:0|3:2,0:0:0:0:
234,21,17423,1,12,0:2:0:0:
234,21,17739,6,0,P|197:14|147:35,2,71.9999978027344,2|2|8,3:2|3:2|0:2,0:0:0:0:
209,106,18212,1,2,0:2:0:0:
209,106,18291,1,0,0:0:0:0:
209,106,18370,2,0,P|206:149|181:178,1,71.9999978027344,0|2,3:0|3:2,0:0:0:0:
204,255,18686,6,0,P|264:267|320:201,1,143.999995605469,12|12,0:2|0:2,0:0:0:0:
472,178,19318,6,0,P|466:155|446:128,2,40,8|8|10,0:2|0:0|0:2,0:0:0:0:
446,63,19633,2,0,P|413:51|378:59,2,44.0000013427735,8|8|10,0:2|0:0|0:2,0:0:0:0:
333,19,19949,2,0,P|300:34|280:63,2,47.9999985351563,8|8|10,0:2|0:0|0:2,0:0:0:0:
209,52,20265,2,0,P|216:101|206:263,2,191.999994140625,8|8|8,0:2|0:2|0:2,0:0:0:0:
171,126,21054,1,10,0:2:0:0:
171,126,21212,2,0,P|208:154|261:173,1,80,10|10,0:2|0:2,0:0:0:0:
321,157,21528,6,0,P|401:136|495:125,2,160,4|8|0,3:2|0:2|3:0,0:0:0:0:
257,223,22318,1,0,3:0:0:0:
340,249,22475,1,8,0:2:0:0:
344,345,22633,1,2,3:2:0:0:
344,345,22949,5,0,3:0:0:0:
413,287,23107,2,0,P|453:280|496:258,1,80,8|0,0:2|0:0,0:0:0:0:
507,175,23423,2,0,P|476:142|424:136,1,80,0|0,3:0|3:0,0:0:0:0:
385,74,23739,1,8,0:2:0:0:
317,125,23896,1,2,3:2:0:0:
238,80,24054,5,6,3:2:0:0:
238,80,24212,1,2,0:2:0:0:
142,91,24370,1,10,0:2:0:0:
142,91,24528,1,2,0:2:0:0:
129,181,24686,2,0,P|156:211|206:216,2,80,2|2|8,3:2|3:2|0:2,0:0:0:0:
46,218,25160,6,0,P|54:295|128:322,1,160,6|2,3:2|3:2,0:0:0:0:
235,318,25633,1,8,0:2:0:0:
235,318,25949,6,0,P|239:277|254:227,1,80,0|2,3:0|3:2,0:0:0:0:
315,173,26265,2,0,P|303:130|251:115,1,80,10|10,0:2|0:2,0:0:0:0:
238,89,26502,1,8,0:2:0:0:
238,89,26581,6,0,P|170:78|79:30,2,160,4|8|0,3:2|0:2|3:0,0:0:0:0:
303,36,27370,1,0,3:0:0:0:
342,110,27528,1,8,0:2:0:0:
413,66,27686,2,0,P|458:81|449:205,1,160,2|0,3:2|3:0,0:0:0:0:
429,246,28160,1,8,0:2:0:0:
429,246,28475,6,0,P|386:238|336:240,1,80,0|0,3:0|3:0,0:0:0:0:
317,166,28791,1,10,0:2:0:0:
243,201,28949,1,2,3:2:0:0:
247,121,29107,1,6,3:2:0:0:
247,121,29265,2,0,P|179:96|147:168,2,160,0|2|2,0:0|0:2|3:2,0:0:0:0:
368,209,30212,6,0,P|352:282|322:369,1,160,6|2,3:2|3:2,0:0:0:0:
235,384,30686,2,0,P|195:353|190:308,1,80,8|0,0:2|3:0,0:0:0:0:
120,281,31002,1,4,3:2:0:0:
47,86,31318,5,10,0:2:0:0:
47,86,31396,1,8,0:2:0:0:
47,86,31475,1,8,0:2:0:0:
47,86,31554,1,8,0:2:0:0:
47,86,31633,2,0,P|76:110|133:113,1,80,6|0,3:2|3:0,0:0:0:0:
177,62,31949,2,0,P|213:43|268:52,1,80,10|0,0:2|3:0,0:0:0:0:
313,101,32265,1,2,3:2:0:0:
317,104,32581,1,10,0:2:0:0:
446,243,32896,6,0,P|403:217|360:225,1,80,2|0,3:2|3:0,0:0:0:0:
315,283,33212,2,0,P|294:314|241:326,1,80,10|0,0:2|3:0,0:0:0:0:
177,300,33528,1,2,3:2:0:0:
177,300,33844,6,0,P|172:257|156:205,1,80,10|0,0:2|3:0,0:0:0:0:
179,133,34160,2,0,P|254:124|299:170,1,120,14|0,0:2|0:0,0:0:0:0:
308,181,34475,1,2,3:2:0:0:
269,258,34633,2,0,P|282:302|316:319,1,80,14|0,0:2|3:0,0:0:0:0:
391,289,34949,2,0,P|398:237|372:210,1,80,14|0,0:2|3:0,0:0:0:0:
308,181,35265,6,0,P|312:112|402:75,1,160,14|0,0:2|3:0,0:0:0:0:
456,111,35739,2,0,P|454:151|469:200,1,80,8|0,0:2|3:0,0:0:0:0:
432,263,36054,1,0,3:0:0:0:
432,263,36212,1,0,3:0:0:0:
495,317,36370,2,0,P|447:349|413:341,1,80,8|2,0:2|3:2,0:0:0:0:
348,303,36686,6,0,B|319:309|319:309|280:267|280:267|221:278,1,120,6|0,3:2|0:0,0:0:0:0:
247,273,37002,2,0,B|271:254|271:254|287:150,1,120,0|0,3:0|0:0,0:0:0:0:
284,165,37318,2,0,B|203:175|203:175|159:135,1,120,4|0,3:2|0:0,0:0:0:0:
175,149,37633,2,0,B|163:110|163:110|191:60,1,80,0|0,3:0|0:0,0:0:0:0:
258,49,37949,1,6,3:2:0:0:
256,192,38028,12,10,38896,0:2:0:0:
11,34,39212,6,0,P|83:78|82:169,1,160,6|10,3:2|0:2,0:0:0:0:
38,207,39686,1,0,3:0:0:0:
38,207,39844,2,0,P|22:245|15:291,1,80,2|0,3:2|3:0,0:0:0:0:
61,356,40160,2,0,P|119:351|145:324,1,80,10|0,0:2|3:0,0:0:0:0:
183,269,40475,6,0,P|169:230|163:183,1,80,6|0,3:2|3:0,0:0:0:0:
215,123,40791,1,12,0:2:0:0:
304,231,41107,2,0,P|279:268|260:320,1,80,4|0,3:2|3:0,0:0:0:0:
312,371,41423,1,12,0:2:0:0:
429,291,41739,6,0,P|399:239|374:127,1,160,2|10,3:2|0:2,0:0:0:0:
409,65,42212,1,0,3:0:0:0:
409,65,42370,2,0,P|385:24|328:16,1,80,2|0,3:2|3:0,0:0:0:0:
280,54,42686,2,0,P|247:68|184:79,1,80,10|0,0:2|3:0,0:0:0:0:
144,140,43002,6,0,P|170:194|201:204,1,80,6|0,3:2|3:0,0:0:0:0:
266,183,43318,1,12,0:2:0:0:
427,302,43633,2,0,P|416:263|367:240,1,80,4|0,3:2|3:0,0:0:0:0:
308,257,43949,1,12,0:2:0:0:
162,242,44265,6,0,P|119:203|143:84,1,160,2|10,3:2|0:2,0:0:0:0:
170,38,44739,1,0,3:0:0:0:
170,38,44896,2,0,P|206:52|261:58,1,80,2|0,3:2|3:0,0:0:0:0:
322,24,45212,2,0,P|367:47|390:87,1,80,10|0,0:2|3:0,0:0:0:0:
368,152,45528,6,0,P|348:193|342:235,1,80,6|0,3:2|0:0,0:0:0:0:
356,304,45844,1,12,0:2:0:0:
222,356,46160,2,0,P|178:344|135:324,1,80,4|0,3:2|3:0,0:0:0:0:
84,283,46475,1,12,0:2:0:0:
21,104,46791,5,8,3:2:0:0:
21,104,46949,2,0,B|74:137|74:137|167:95,1,160,6|6,3:2|3:2,0:0:0:0:
208,28,47423,1,6,3:2:0:0:
287,64,47581,2,0,L|269:122,2,40,8|8|8,0:2|0:2|0:2,0:0:0:0:
400,170,48054,5,8,3:2:0:0:
400,170,48212,2,0,B|439:154|439:154|487:273,1,160,6|6,3:2|3:2,0:0:0:0:
512,343,48686,1,6,3:2:0:0:
431,330,48844,2,0,L|379:313,2,40,8|8|8,0:2|0:2|0:2,0:0:0:0:
313,188,49318,6,0,P|259:201|228:296,1,160,6|10,3:2|0:2,0:0:0:0:
159,339,49791,1,0,3:0:0:0:
159,339,49949,2,0,P|124:314|74:291,1,80,2|0,3:2|3:0,0:0:0:0:
14,269,50265,2,0,P|5:224|32:184,1,80,10|0,0:2|3:0,0:0:0:0:
81,144,50581,6,0,P|121:148|166:108,1,80,6|0,3:2|3:0,0:0:0:0:
180,52,50896,1,12,0:2:0:0:
208,199,51212,2,0,P|244:222|295:209,1,80,4|0,3:2|3:0,0:0:0:0:
340,170,51528,1,12,0:2:0:0:
461,331,51844,6,0,P|393:308|292:293,1,160,2|10,3:2|0:2,0:0:0:0:
227,284,52318,1,0,3:0:0:0:
227,284,52475,2,0,P|196:245|208:198,1,80,2|0,3:2|3:0,0:0:0:0:
252,158,52791,2,0,P|294:150|343:126,1,80,10|0,0:2|3:0,0:0:0:0:
363,60,53107,6,0,P|321:29|281:34,1,80,6|0,3:2|3:0,0:0:0:0:
231,75,53423,1,12,0:2:0:0:
117,179,53739,2,0,P|131:210|141:282,1,80,4|0,3:2|3:0,0:0:0:0:
137,334,54054,1,12,0:2:0:0:
296,381,54370,6,0,P|360:360|387:259,1,160,2|10,3:2|0:2,0:0:0:0:
340,216,54844,1,0,3:0:0:0:
340,216,55002,2,0,P|325:163|328:112,1,80,2|0,3:2|3:0,0:0:0:0:
297,64,55318,2,0,P|255:45|202:65,1,80,10|0,0:2|3:0,0:0:0:0:
161,107,55633,6,0,P|177:142|190:196,1,80,6|0,3:2|0:0,0:0:0:0:
207,261,55949,1,12,0:2:0:0:
334,382,56265,2,0,P|340:345|362:288,1,80,4|0,3:2|3:0,0:0:0:0:
394,235,56581,1,12,0:2:0:0:
275,37,56896,5,8,3:2:0:0:
275,37,57054,2,0,B|322:67|322:67|269:166,1,160,6|6,3:2|3:2,0:0:0:0:
310,231,57528,1,6,3:2:0:0:
233,272,57686,2,0,L|188:248,2,40,8|8|8,0:2|0:2|0:2,0:0:0:0:
445,351,58160,5,8,3:2:0:0:
445,351,58318,2,0,B|383:293|383:293|438:230,1,160,6|6,3:2|3:2,0:0:0:0:
402,161,58791,1,6,3:2:0:0:
461,104,58949,2,0,L|511:121,2,40,8|8|8,0:2|0:2|0:2,0:0:0:0:
284,21,59423,6,0,P|201:53|120:62,3,160,6|6|6|6,3:2|3:2|3:2|3:2,0:0:0:0:
185,250,60686,2,0,P|268:218|349:209,3,160,6|6|6|6,3:2|3:2|3:2|3:2,0:0:0:0:
233,135,61949,1,6,3:2:0:0:
256,192,62028,12,2,63793,0:2:0:0:
306,186,64101,5,2,0:2:0:0:
306,186,64409,1,0,0:0:0:0:
191,331,64794,6,0,P|145:313|134:269,1,80,12|2,0:2|3:2,0:0:0:0:
86,222,65109,2,0,P|103:181|153:162,1,80,10|2,0:2|3:2,0:0:0:0:
170,92,65424,1,10,0:2:0:0:
372,25,65740,6,0,P|440:88|424:169,1,160,10|10,0:2|0:2,0:0:0:0:
383,213,66214,1,2,3:2:0:0:
303,230,66372,2,0,P|247:223|207:207,1,80,10|2,0:2|3:2,0:0:0:0:
179,142,66687,2,0,P|119:121|66:205,2,160,10|10|8,0:2|0:2|0:2,0:0:0:0:
87,308,67635,6,0,P|125:300|176:302,1,80,10|2,0:2|3:2,0:0:0:0:
251,314,67951,2,0,P|293:320|340:321,1,80,10|2,0:2|3:2,0:0:0:0:
410,298,68266,1,10,0:2:0:0:
465,135,68582,5,10,0:2:0:0:
384,140,68740,1,2,3:2:0:0:
342,70,68898,2,0,P|300:48|258:55,1,80,10|2,0:2|3:2,0:0:0:0:
189,30,69214,2,0,P|151:68|152:115,1,80,10|2,0:2|3:2,0:0:0:0:
87,147,69530,1,10,0:2:0:0:
183,314,69845,5,10,0:2:0:0:
216,238,70003,1,2,3:2:0:0:
162,175,70161,2,0,P|106:180|78:217,1,80,10|2,0:2|3:2,0:0:0:0:
13,156,70477,2,0,P|-2:112|8:51,1,80,10|2,0:2|3:2,0:0:0:0:
53,17,70793,5,10,0:2:0:0:
125,57,70951,1,2,3:2:0:0:
204,52,71109,2,0,P|244:58|300:78,1,80,10|2,0:2|3:2,0:0:0:0:
324,141,71424,1,10,0:2:0:0:
324,141,71582,2,0,B|357:143|380:120|380:120|351:161|344:237,1,160,2|2,3:2|3:2,0:0:0:0:
344,299,72057,6,0,P|347:328|314:371,2,80,0|0|10,3:0|3:0|0:2,0:0:0:0:
274,246,72530,1,4,3:0:0:0:
274,246,72609,1,4,3:0:0:0:
274,246,72688,2,0,P|239:247|193:267,1,80,2|2,3:2|3:2,0:0:0:0:
134,317,73004,1,14,0:2:0:0:
134,317,73320,6,0,P|86:284|77:236,1,80,2|0,3:2|3:0,0:0:0:0:
113,190,73636,1,10,0:2:0:0:
65,125,73794,2,0,P|75:90|68:38,1,80,2|0,3:2|3:0,0:0:0:0:
162,49,74109,2,0,P|156:84|167:129,1,80,2|12,3:2|0:2,0:0:0:0:
239,167,74425,6,0,P|319:185|399:215,2,160,0|2|6,0:0|3:2|2:3,0:0:0:0:
195,185,75135,1,4,3:0:0:0:
195,185,75214,2,0,P|195:241|219:266,1,80,0|2,3:0|3:2,0:0:0:0:
292,285,75530,1,12,0:2:0:0:
292,285,75846,6,0,P|324:266|340:222,1,80,0|0,3:0|3:0,0:0:0:0:
295,159,76162,2,0,P|280:122|284:79,1,80,8|0,0:2|3:0,0:0:0:0:
264,37,76399,1,0,3:0:0:0:
264,37,76478,2,0,P|222:15|172:29,1,80,0|0,3:0|3:0,0:0:0:0:
114,39,76794,2,0,P|113:104|160:138,1,120,12|0,0:2|0:0,0:0:0:0:
148,151,77109,6,0,P|179:167|196:215,1,80,2|0,3:2|0:0,0:0:0:0:
149,275,77425,1,8,0:2:0:0:
231,314,77583,1,6,2:3:0:0:
231,314,77662,1,4,3:0:0:0:
231,314,77741,2,0,P|266:313|322:299,1,80,0|2,3:0|3:2,0:0:0:0:
377,259,78057,1,14,0:2:0:0:
377,259,78373,6,0,P|397:279|391:328,2,80,2|2|8,3:2|3:2|0:2,0:0:0:0:
339,183,78846,1,2,3:2:0:0:
339,183,78925,1,0,3:0:0:0:
339,183,79004,2,0,P|304:171|249:201,1,80,0|2,3:0|3:2,0:0:0:0:
180,158,79320,6,0,B|231:147|231:147|240:153|240:153|298:142,1,120,14|0,0:2|0:0,0:0:0:0:
299,133,79635,6,0,P|313:105|365:80,1,80,2|0,3:2|3:0,0:0:0:0:
430,128,79951,2,0,P|441:171|460:223,1,80,10|4,0:2|3:0,0:0:0:0:
443,252,80188,1,4,3:0:0:0:
443,252,80267,2,0,P|372:255|356:237,1,80,2|0,3:2|3:0,0:0:0:0:
294,220,80583,1,14,0:2:0:0:
257,296,80741,1,2,3:2:0:0:
256,192,80820,12,10,81846,0:2:0:0:
67,232,82162,6,0,P|145:244|266:298,1,207.999990478516,6|10,3:2|0:2,0:0:0:0:
356,270,82635,1,0,3:0:0:0:
356,270,82793,2,0,P|373:189|282:103,1,207.999990478516,2|10,3:2|0:2,0:0:0:0:
205,120,83267,1,0,3:0:0:0:
205,120,83425,2,0,B|150:144|141:215|180:252|180:252|173:222|187:196,1,207.999990478516,2|10,3:2|0:2,0:0:0:0:
265,237,83899,1,0,3:0:0:0:
265,237,84057,2,0,B|278:273|309:282|309:282|236:264|151:262,1,207.999990478516,2|10,3:2|0:2,0:0:0:0:
86,281,84530,1,0,3:2:0:0:
86,281,84688,6,0,P|23:225|53:114,1,207.999990478516,2|8,3:2|0:2,0:0:0:0:
128,78,85162,1,0,3:0:0:0:
128,78,85320,2,0,P|218:102|332:114,1,207.999990478516,2|10,3:2|0:2,0:0:0:0:
386,54,85793,1,0,3:0:0:0:
386,54,85951,2,0,B|366:106|385:155|385:155|332:174|307:230,3,207.999990478516,2|10|2|10,3:2|0:2|3:2|0:2,0:0:0:0:
309,309,87057,1,0,3:0:0:0:
309,309,87214,6,0,P|249:380|141:356,1,207.999990478516,2|10,3:2|0:2,0:0:0:0:
98,293,87688,1,0,3:0:0:0:
98,293,87846,2,0,B|118:258|106:225|106:225|139:152|217:160,1,207.999990478516,2|10,3:2|0:2,0:0:0:0:
279,219,88320,1,0,3:0:0:0:
279,219,88478,2,0,B|272:249|303:280|303:280|358:240|441:244,2,207.999990478516,2|10|2,3:2|0:2|3:2,0:0:0:0:
356,56,89425,2,0,P|330:20|264:1,1,103.999995239258,8|2,0:2|3:2,0:0:0:0:
193,41,89741,6,0,B|242:35|270:-9|270:-9|299:47|270:103,3,207.999990478516,2|10|2|14,3:2|0:2|3:2|0:2,0:0:0:0:
261,199,91004,6,0,P|261:227|249:251,2,51.999997619629,10|8|4,0:2|0:2|3:0,0:0:0:0:
341,256,91320,2,0,P|363:272|376:294,2,51.999997619629,8|8|4,3:0|3:0|3:0,0:0:0:0:
423,221,91635,2,0,P|457:218|480:230,2,51.999997619629,4|4|4,3:0|3:0|3:0,0:0:0:0:
432,136,91951,2,0,P|373:125|289:70,1,155.999992858887,14|0,0:2|0:0,0:0:0:0:
274,71,92267,6,0,P|221:93|207:146,1,103.999995239258,14|0,0:2|3:0,0:0:0:0:
244,208,92583,2,0,P|239:250|210:318,1,103.999995239258,10|0,0:2|3:0,0:0:0:0:
141,339,92899,2,0,P|73:301|71:259,1,103.999995239258,10|0,0:2|3:0,0:0:0:0:
96,206,93214,2,0,P|89:152|69:97,1,103.999995239258,10|0,0:2|3:0,0:0:0:0:
19,36,93530,2,0,B|17:65|47:97|94:85|100:80|100:74|136:60|174:79|178:122,3,207.999990478516,10|10|10|10,0:2|0:2|0:2|0:2,0:0:0:0:
305,44,94793,6,0,P|345:6|395:10,1,103.999995239258,10|0,0:2|3:0,0:0:0:0:
457,68,95109,2,0,P|453:124|410:154,1,103.999995239258,10|0,0:2|3:0,0:0:0:0:
333,170,95425,2,0,P|296:154|224:146,1,103.999995239258,10|0,0:2|3:0,0:0:0:0:
151,185,95741,2,0,P|135:212|170:298,1,103.999995239258,10|0,0:2|3:0,0:0:0:0:
200,344,96057,2,0,P|290:314|413:299,3,207.999990478516,10|10|10|10,0:2|0:2|0:2|0:2,0:0:0:0:
489,168,97320,6,0,B|471:170|445:190|445:190|417:141|408:91|408:91|383:96|356:90,1,207.999990478516,10|10,0:2|0:2,0:0:0:0:
294,36,97793,2,0,P|233:44|250:169,1,207.999990478516,2|0,3:2|3:0,0:0:0:0:
321,173,98267,1,10,0:2:0:0:
321,173,98425,2,0,P|248:184|120:243,1,207.999990478516,2|0,3:2|3:0,0:0:0:0:
93,162,98899,1,10,0:2:0:0:
93,162,99057,2,0,B|127:189|125:219|101:252|96:253|87:251|51:258|44:320|77:344,2,207.999990478516,2|2|2,3:2|3:2|3:2,0:0:0:0:
256,192,99767,12,0,102349,0:0:0:0:
386,312,109636,6,0,P|330:306|303:255,1,103.999995239258,10|10,0:2|0:2,0:0:0:0:
304,186,109951,1,6,3:2:0:0:
382,154,110108,2,0,B|318:127|250:123|250:123|294:122|313:85,3,207.999990478516,6|6|6|6,3:2|3:2|3:2|3:2,0:0:0:0:
256,192,111135,12,2,112161,0:2:0:0:
78,272,112477,6,0,P|129:272|159:300,1,80,6|0,3:2|3:0,0:0:0:0:
206,346,112793,2,0,P|256:324|271:291,1,80,10|0,0:2|3:0,0:0:0:0:
339,269,113108,1,2,3:2:0:0:
339,269,113424,1,10,0:2:0:0:
428,80,113740,6,0,P|418:131|389:172,1,80,2|0,0:2|3:0,0:0:0:0:
328,184,114056,2,0,P|288:155|284:103,1,80,10|0,0:2|3:0,0:0:0:0:
304,53,114372,1,2,0:2:0:0:
304,53,114687,1,10,0:2:0:0:
135,17,115003,6,0,P|163:72|183:201,1,160,14|2,0:2|3:2,0:0:0:0:
123,236,115477,2,0,P|145:295|187:301,1,80,14|0,0:2|3:0,0:0:0:0:
254,284,115793,2,0,P|273:246|264:209,1,80,14|0,0:2|3:0,0:0:0:0:
183,167,116108,1,14,0:2:0:0:
256,192,116187,12,2,117531,0:2:0:0:
393,266,118778,5,2,0:2:0:0:
393,266,118978,2,0,P|416:292|414:345,1,80,2|2,0:2|0:2,0:0:0:0:
323,366,119378,2,0,P|295:332|301:283,1,80,2|0,0:2|0:0,0:0:0:0:
243,206,119813,6,0,B|224:200|214:179|214:179|198:195|172:193,3,80,2|2|2|2,0:2|0:2|0:2|0:2,0:0:0:0:
133,358,126813,6,0,B|115:368|115:368|53:351,3,64,8|8|8|8,3:2|3:2|3:2|3:2,0:0:0:0:
45,275,127587,2,0,B|25:269|25:269|-6:213,3,64,10|8|10|8,3:2|3:2|3:2|3:2,0:0:0:0:
41,154,128361,2,0,B|31:135|31:135|48:73,3,71.9999978027344,8|8|8|8,3:2|3:2|3:2|3:2,0:0:0:0:
128,57,129136,2,0,B|133:37|133:37|189:5,3,71.9999978027344,10|8|10|10,3:2|3:2|3:2|3:2,0:0:0:0:
244,82,129910,2,0,B|280:96|280:96|286:93|286:93|333:110,3,80,8|8|8|8,3:2|3:2|3:2|3:2,0:0:0:0:
381,164,130684,2,0,B|419:158|419:158|423:152|423:152|472:143,2,80,10|8|10,3:2|3:2|3:2,0:0:0:0:
327,247,131265,1,8,3:2:0:0:
234,178,131458,6,0,B|196:198|196:198|190:297|190:297|159:320,2,180.000006866455,14|14|14,0:2|0:2|0:2,0:0:0:0:
280,87,132232,2,0,B|242:65|242:65|109:129,2,180.000006866455,14|14|14,0:2|0:2|0:2,0:0:0:0:
388,49,133007,5,0,3:0:0:0:
421,136,133200,1,0,3:0:0:0:
336,194,133394,1,8,0:2:0:0:
420,251,133587,1,0,3:0:0:0:
387,350,133781,2,0,B|323:333|323:333|313:337|313:337|245:320,1,143.999995605469,0|0,3:0|0:0,0:0:0:0:
233,295,134168,2,0,B|213:291|213:291|135:329,1,95.9999970703126,8|0,0:2|3:0,0:0:0:0:
42,340,134555,6,0,B|39:353|39:353|33:364|33:364|30:373|30:373|23:384,2,47.9999985351563,0|4|6,3:0|3:0|2:3,0:0:0:0:
97,241,134942,1,10,0:2:0:0:
0,204,135136,1,2,3:2:0:0:
135,166,135329,2,0,B|145:162|145:162|156:160|156:160|172:155|172:155|178:155|178:155|194:151,2,47.9999985351563,2|4|6,3:2|3:0|2:3,0:0:0:0:
74,77,135716,1,10,0:2:0:0:
177,19,135910,1,2,0:2:0:0:
263,93,136103,5,0,3:0:0:0:
331,44,136297,1,0,3:0:0:0:
314,161,136490,1,8,0:2:0:0:
415,155,136684,1,0,3:0:0:0:
280,240,136878,2,0,B|308:268|308:268|296:372,1,143.999995605469,0|0,3:0|0:0,0:0:0:0:
319,384,137265,2,0,B|354:369|354:369|367:352|367:352|412:333,1,95.9999970703126,8|0,0:2|3:0,0:0:0:0:
475,300,137555,1,0,3:0:0:0:
475,300,137652,6,0,B|446:269|446:269|348:280|348:280|303:228,2,180.000006866455,14|14|14,0:2|0:2|0:2,0:0:0:0:
496,180,138426,2,0,B|447:68|447:68|500:45,2,180.000006866455,14|14|14,0:2|0:2|0:2,0:0:0:0:
395,152,139200,5,0,3:0:0:0:
339,212,139394,1,0,3:0:0:0:
277,137,139587,1,8,0:2:0:0:
207,211,139781,1,0,3:0:0:0:
118,159,139974,2,0,B|86:140|86:140|126:248,1,143.999995605469,0|0,3:0|0:0,0:0:0:0:
105,272,140361,2,0,B|116:297|116:297|205:308,1,95.9999970703126,8|0,0:2|3:0,0:0:0:0:
280,247,140749,6,0,B|291:253|291:253|296:257|296:257|302:258|302:258|316:270|316:270|331:274,2,47.9999985351563,0|4|6,3:0|3:0|2:3,0:0:0:0:
196,193,141136,1,10,0:2:0:0:
284,131,141329,1,2,3:2:0:0:
201,58,141523,2,0,B|196:46|196:46|194:33|194:33|188:25|188:25|186:-2,2,47.9999985351563,2|4|6,3:2|3:0|2:3,0:0:0:0:
107,123,141910,1,10,0:2:0:0:
89,19,142103,1,2,3:2:0:0:
19,135,142297,5,0,3:0:0:0:
112,152,142490,1,0,3:0:0:0:
85,243,142684,1,8,0:2:0:0:
185,199,142878,1,0,3:0:0:0:
154,316,143071,2,0,B|191:342|191:342|311:307,1,143.999995605469,0|0,3:0|0:0,0:0:0:0:
320,322,143458,2,0,B|295:249|295:249|311:226,1,95.9999970703126,8|0,0:2|3:0,0:0:0:0:
362,173,143749,1,0,3:0:0:0:
391,148,143845,1,10,0:2:0:0:
256,192,143942,12,6,145063,0:2:0:0:
123,306,145524,6,0,B|151:292|151:292|222:306|222:306|203:278,3,120.000004577637,4|0|0|0,3:2|3:0|3:0|3:0,0:0:0:0:
118,192,146447,2,0,B|91:166|91:166|120:70,1,120.000004577637,12|0,0:2|0:0,0:0:0:0:
269,27,146908,2,0,B|289:33|289:33|299:34|299:34|337:47|337:47|366:51|366:51|404:68|404:68|427:71|427:71|413:102|413:102|412:113|412:113|400:153,1,240.000009155274,2|4,0:2|0:2,0:0:0:0:
266,221,147600,6,0,B|257:224|257:224|238:229|238:229|228:230|228:230|215:234|215:234|202:229|202:229|189:233|189:233|176:235|176:235|162:239|162:239|154:239|154:239|129:248,2,120.000004577637,2|2|2,3:2|3:2|3:2,0:0:0:0:
325,355,148293,2,0,B|312:351|312:351|300:346|300:346|288:343|288:343|277:339|277:339|264:340|264:340|250:334|250:334|242:333|242:333|230:327|230:327|222:325|222:325|211:321,3,120.000004577637,14|2|2|10,0:2|3:2|3:2|0:2,0:0:0:0:
78,235,149216,6,0,B|35:194|35:194|77:138,3,120.000004577637,4|0|0|0,3:2|3:0|3:0|3:0,0:0:0:0:
165,67,150139,2,0,B|197:79|197:79|255:70|255:70|285:80,1,120.000004577637,12|0,0:2|0:0,0:0:0:0:
403,26,150600,1,0,3:0:0:0:
463,158,150831,5,0,3:0:0:0:
463,158,150947,1,0,3:0:0:0:
463,158,151062,2,0,B|492:295|492:295|431:252,2,204.000003890991,10|10|10,3:2|3:2|3:2,0:0:0:0:
334,199,151985,2,0,B|254:238|254:238|254:257|254:257|157:305,2,204.000003890991,10|10|10,3:2|3:2|3:2,0:0:0:0:
228,105,152908,6,0,B|183:113|183:113|158:200,3,120.000004577637,4|0|0|0,3:2|3:0|3:0|3:0,0:0:0:0:
9,195,153831,2,0,B|54:253|54:253|138:241,1,120.000004577637,12|0,0:2|0:0,0:0:0:0:
183,356,154293,2,0,B|186:345|186:345|199:328|199:328|205:312|205:312|217:294|217:294|222:276|222:276|237:273|237:273|247:269|247:269|266:266|266:266|276:263|276:263|284:261|284:261|289:243|289:243|301:223|301:223|307:205|307:205|325:163,1,240.000009155274,2|4,3:2|0:2,0:0:0:0:
429,80,154985,6,0,B|460:82|460:82|507:177,2,120.000004577637,2|2|2,3:2|3:2|3:2,0:0:0:0:
346,203,155677,2,0,B|357:231|357:231|316:326,3,120.000004577637,14|2|2|10,0:2|3:2|3:2|3:2,0:0:0:0:
185,364,156600,6,0,B|144:356|144:356|130:343|130:343|113:340|113:340|84:305,3,120.000004577637,4|0|0|0,3:2|3:0|3:0|3:0,0:0:0:0:
76,157,157524,2,0,B|130:172|130:172|138:167|138:167|197:184,1,120.000004577637,12|0,0:2|0:0,0:0:0:0:
273,284,157985,1,0,3:0:0:0:
368,194,158216,6,0,B|382:180|382:180|360:170,3,40.000001525879,0|0|0|10,3:0|3:0|3:0|3:2,0:0:0:0:
272,122,158793,1,10,3:2:0:0:
176,192,159139,1,10,3:2:0:0:
176,192,159370,5,10,3:2:0:0:
305,144,159716,1,10,3:2:0:0:
438,101,160062,1,10,3:2:0:0:
269,10,160293,6,0,L|250:87,1,68.0000012969971,10|0,3:2|3:0,0:0:0:0:
236,142,161677,6,0,L|252:76,1,68.0000012969971,8|0,3:2|3:0,0:0:0:0:
196,320,162139,1,4,0:0:0:0:
256,192,162254,12,0,173447,0:0:0:0:
