osu file format v14

[General]
AudioFilename: audio.mp3
AudioLeadIn: 0
PreviewTime: 99887
Countdown: 0
SampleSet: Normal
StackLeniency: 0.7
Mode: 1
LetterboxInBreaks: 0
WidescreenStoryboard: 1

[Editor]
Bookmarks: 178457
DistanceSpacing: 0.6
BeatDivisor: 4
GridSize: 32
TimelineZoom: 1.6

[Metadata]
Title:Moebius Chicken Strip
TitleUnicode:Möbius Chicken Strip
Artist:Origami Angel
ArtistUnicode:Origami Angel
Creator:4lw
Version:iamveryfat's Muzukashii
Source:
Tags:indie emo midwest mid west rock english gami gang fa featured artist iamveryfat boaz mobius
BeatmapID:3961936
BeatmapSetID:1795159

[Difficulty]
HPDrainRate:6
CircleSize:3
OverallDifficulty:5
ApproachRate:9
SliderMultiplier:1.4
SliderTickRate:1

[Events]
//Background and Video events
0,0,"background.jpg",0,0
//Break Periods
2,64372,67572
//Storyboard Layer 0 (Background)
//Storyboard Layer 1 (Fail)
//Storyboard Layer 2 (Pass)
//Storyboard Layer 3 (Foreground)
//Storyboard Layer 4 (Overlay)
//Storyboard Sound Samples

[TimingPoints]
172,285.714285714286,4,1,0,100,1,0
172,-105.263157894737,4,1,0,100,0,0
13886,-95.2380952380952,4,1,0,100,0,1
18457,-95.2380952380952,4,1,0,100,0,0
18529,-105.263157894737,4,1,0,100,0,0
23029,-95.2380952380952,4,1,0,100,0,1
27600,-95.2380952380952,4,1,0,80,0,0
27672,-105.263157894737,4,1,0,80,0,0
100743,-100,4,1,0,100,0,1
137314,-105.263157894737,4,1,0,80,0,0
173886,-105.263157894737,4,1,0,50,0,0

[HitObjects]
222,194,9029,5,0,1:0:0:0:
209,206,9314,1,12,1:0:0:0:
216,211,9886,1,0,1:0:0:0:
216,214,10029,1,0,1:0:0:0:
215,212,10172,1,8,1:0:0:0:
216,194,10457,1,8,1:0:0:0:
216,194,10743,1,0,1:0:0:0:
216,194,10886,1,0,1:0:0:0:
216,194,11172,1,0,1:0:0:0:
216,194,11314,1,8,1:0:0:0:
216,194,11457,1,0,1:0:0:0:
216,194,11600,1,8,1:0:0:0:
209,189,11886,1,8,1:0:0:0:
209,189,12172,1,0,1:0:0:0:
207,195,12314,1,0,1:0:0:0:
207,195,12457,1,8,1:0:0:0:
191,187,12743,1,8,1:0:0:0:
198,199,13029,1,8,1:0:0:0:
198,198,13172,1,0,1:0:0:0:
180,184,13457,1,0,1:0:0:0:
179,190,13600,1,8,1:0:0:0:
198,199,13886,1,12,1:0:0:0:
198,199,14029,1,8,1:0:0:0:
195,204,14172,1,0,1:0:0:0:
189,213,14314,1,0,1:0:0:0:
188,197,14457,1,8,1:0:0:0:
179,190,14600,1,0,1:0:0:0:
180,194,14743,1,8,1:0:0:0:
177,187,14886,1,8,1:0:0:0:
177,187,15029,1,0,1:0:0:0:
177,190,15100,1,0,1:0:0:0:
177,190,15172,1,0,1:0:0:0:
188,197,15314,1,8,1:0:0:0:
188,197,15457,1,0,1:0:0:0:
186,197,15886,1,0,1:0:0:0:
176,207,16029,1,8,1:0:0:0:
186,197,16172,1,8,1:0:0:0:
177,205,16314,1,0,1:0:0:0:
181,187,16457,1,0,1:0:0:0:
179,199,16600,1,8,1:0:0:0:
179,199,16743,1,8,1:0:0:0:
181,203,17029,1,0,1:0:0:0:
181,202,17172,1,8,1:0:0:0:
168,207,17314,1,0,1:0:0:0:
169,187,17457,1,0,1:0:0:0:
172,189,17600,1,8,1:0:0:0:
120,184,17743,1,0,1:0:0:0:
138,192,17814,1,0,1:0:0:0:
175,191,17886,1,0,1:0:0:0:
190,182,18029,1,0,1:0:0:0:
156,190,18172,1,8,1:0:0:0:
172,204,18314,1,8,1:0:0:0:
170,206,18457,1,0,1:0:0:0:
195,202,18743,1,8,1:0:0:0:
195,202,18886,1,0,1:0:0:0:
195,202,19029,1,8,1:0:0:0:
251,258,19314,1,0,0:0:0:0:
195,180,19457,1,8,1:0:0:0:
203,189,19600,1,8,0:0:0:0:
196,181,19743,1,0,1:0:0:0:
196,181,19886,1,8,1:0:0:0:
196,181,20029,1,0,1:0:0:0:
224,209,20457,1,8,0:0:0:0:
232,198,20743,1,8,1:0:0:0:
203,201,20886,1,0,1:0:0:0:
219,212,21029,1,8,1:0:0:0:
222,198,21314,1,0,1:0:0:0:
222,198,21457,1,0,1:0:0:0:
222,198,21600,1,8,1:0:0:0:
218,198,21886,1,0,1:0:0:0:
207,201,22029,1,0,1:0:0:0:
217,198,22172,1,8,1:0:0:0:
217,193,22314,1,0,1:0:0:0:
211,197,22600,1,0,1:0:0:0:
207,201,22743,1,8,1:0:0:0:
198,199,23029,1,8,1:0:0:0:
198,199,23172,1,8,1:0:0:0:
195,204,23314,1,0,1:0:0:0:
187,201,23457,1,0,1:0:0:0:
188,197,23600,1,8,1:0:0:0:
179,190,23743,1,0,1:0:0:0:
180,194,23886,1,8,1:0:0:0:
177,187,24029,1,8,1:0:0:0:
177,187,24172,1,0,1:0:0:0:
177,190,24243,1,0,1:0:0:0:
177,190,24314,1,0,1:0:0:0:
188,197,24457,1,8,1:0:0:0:
188,197,24600,1,0,1:0:0:0:
186,197,24743,1,0,1:0:0:0:
183,198,25029,1,8,1:0:0:0:
169,192,25172,1,8,1:0:0:0:
186,197,25314,1,0,1:0:0:0:
179,198,25457,1,0,1:0:0:0:
179,197,25600,1,8,1:0:0:0:
179,177,25743,1,8,1:0:0:0:
169,183,25886,1,0,1:0:0:0:
169,192,26029,1,8,1:0:0:0:
166,184,26172,1,0,1:0:0:0:
168,207,26457,1,0,1:0:0:0:
171,192,26743,1,0,1:0:0:0:
174,184,27029,1,12,1:0:0:0:
190,182,27172,1,0,1:0:0:0:
156,190,27314,1,8,1:0:0:0:
172,204,27457,1,8,1:0:0:0:
170,206,27600,1,4,1:0:0:0:
161,185,28029,1,0,1:0:0:0:
176,201,28172,1,8,1:0:0:0:
171,194,28243,1,8,1:0:0:0:
172,194,28314,1,8,1:0:0:0:
173,200,28600,1,8,1:0:0:0:
171,197,28743,1,4,1:0:0:0:
173,200,29172,1,12,1:0:0:0:
173,200,29600,1,12,1:0:0:0:
173,200,30172,1,12,1:0:0:0:
173,200,30457,1,0,1:0:0:0:
173,200,30600,1,8,1:0:0:0:
173,200,30886,1,8,1:0:0:0:
173,200,31029,1,0,1:0:0:0:
166,207,31172,1,8,1:0:0:0:
166,207,31457,1,8,1:0:0:0:
166,207,31600,1,0,1:0:0:0:
167,207,31743,1,8,1:0:0:0:
160,203,32029,1,8,1:0:0:0:
166,207,32172,1,4,1:0:0:0:
166,207,32600,1,0,1:0:0:0:
167,207,32743,1,8,1:0:0:0:
167,205,32814,1,8,1:0:0:0:
164,207,32886,1,8,1:0:0:0:
166,207,33172,1,0,1:0:0:0:
166,207,33314,1,12,1:0:0:0:
158,195,33743,1,12,1:0:0:0:
159,195,34172,1,12,1:0:0:0:
195,208,34743,1,0,1:0:0:0:
195,208,35029,1,8,1:0:0:0:
195,208,35172,1,0,1:0:0:0:
186,198,35314,1,0,1:0:0:0:
186,194,35457,1,12,1:0:0:0:
186,191,35886,1,0,1:0:0:0:
187,191,36172,1,8,1:0:0:0:
187,191,36314,1,8,1:0:0:0:
186,194,36457,1,8,1:0:0:0:
186,191,36600,1,4,1:0:0:0:
187,191,37029,1,0,1:0:0:0:
170,198,37314,1,8,1:0:0:0:
164,192,37457,1,0,1:0:0:0:
164,192,37600,1,8,1:0:0:0:
164,191,37672,1,8,1:0:0:0:
163,191,37743,1,8,1:0:0:0:
163,189,37886,1,4,1:0:0:0:
162,184,38314,1,12,1:0:0:0:
161,177,38743,1,12,1:0:0:0:
151,191,39314,1,0,1:0:0:0:
201,182,39600,1,8,1:0:0:0:
189,189,39791,1,0,1:0:0:0:
180,178,40172,1,8,1:0:0:0:
448,64,40362,1,8,1:0:0:0:
179,174,40743,1,8,1:0:0:0:
175,182,40933,1,0,1:0:0:0:
173,185,41124,1,0,1:0:0:0:
173,185,41314,1,12,1:0:0:0:
185,187,41886,1,0,1:0:0:0:
196,215,42457,1,8,1:0:0:0:
196,215,43029,1,8,1:0:0:0:
202,204,43600,1,0,1:0:0:0:
202,204,44172,1,0,1:0:0:0:
202,204,44743,1,8,1:0:0:0:
209,207,45314,1,0,1:0:0:0:
209,207,45600,1,0,1:0:0:0:
209,207,45886,1,4,1:0:0:0:
202,202,46314,1,0,1:0:0:0:
206,199,46457,1,8,1:0:0:0:
206,199,46529,1,8,1:0:0:0:
206,199,46600,1,8,1:0:0:0:
209,207,46886,1,8,1:0:0:0:
202,202,47029,1,4,1:0:0:0:
206,199,47457,1,12,1:0:0:0:
215,202,47886,1,12,1:0:0:0:
207,211,48457,1,8,1:0:0:0:
207,211,48743,1,0,1:0:0:0:
207,211,48814,1,0,1:0:0:0:
204,211,48886,1,0,1:0:0:0:
191,213,49172,1,0,1:0:0:0:
191,213,49314,1,8,1:0:0:0:
193,214,49457,1,0,1:0:0:0:
198,222,49743,1,0,1:0:0:0:
198,222,49886,1,8,1:0:0:0:
198,222,49957,1,8,1:0:0:0:
198,222,50029,1,8,1:0:0:0:
191,213,50314,1,8,1:0:0:0:
186,216,50457,1,4,1:0:0:0:
197,208,50886,1,8,1:0:0:0:
197,208,51029,1,0,1:0:0:0:
197,208,51100,1,0,1:0:0:0:
197,208,51172,1,0,1:0:0:0:
197,208,51457,1,0,1:0:0:0:
197,208,51600,1,12,1:0:0:0:
197,208,52029,1,12,1:0:0:0:
197,208,52457,1,12,1:0:0:0:
191,212,53029,1,0,1:0:0:0:
202,204,53314,1,8,1:0:0:0:
202,204,53457,1,0,1:0:0:0:
199,205,53600,1,0,1:0:0:0:
201,204,53743,1,12,1:0:0:0:
185,208,54172,1,0,1:0:0:0:
189,210,54457,1,8,1:0:0:0:
202,205,54600,1,8,1:0:0:0:
188,203,54743,1,8,1:0:0:0:
185,208,54886,1,4,1:0:0:0:
192,195,55314,1,0,1:0:0:0:
194,195,55600,1,8,1:0:0:0:
185,208,55886,1,0,1:0:0:0:
186,207,56029,1,8,1:0:0:0:
187,210,56100,1,8,1:0:0:0:
186,207,56172,1,8,1:0:0:0:
188,210,56600,1,12,1:0:0:0:
164,212,57029,1,4,1:0:0:0:
173,219,57600,1,0,1:0:0:0:
171,215,57743,1,8,1:0:0:0:
171,215,57814,1,8,1:0:0:0:
171,215,57886,1,8,1:0:0:0:
166,212,58076,1,0,1:0:0:0:
161,213,58267,1,0,1:0:0:0:
161,212,58457,1,8,1:0:0:0:
164,206,58648,1,8,1:0:0:0:
166,202,58838,1,0,1:0:0:0:
173,203,59029,1,8,1:0:0:0:
156,219,59410,1,0,1:0:0:0:
167,194,59600,1,12,1:0:0:0:
174,193,60172,1,0,1:0:0:0:
166,200,60743,1,8,1:0:0:0:
166,200,61314,1,8,1:0:0:0:
166,200,61886,1,0,1:0:0:0:
166,200,62029,1,0,1:0:0:0:
166,200,62314,1,0,1:0:0:0:
166,200,62457,1,8,1:0:0:0:
165,187,62600,1,8,1:0:0:0:
166,200,62743,1,0,1:0:0:0:
166,200,63029,1,8,1:0:0:0:
228,220,63172,1,0,1:0:0:0:
210,233,63457,1,8,1:0:0:0:
217,198,63600,1,0,1:0:0:0:
232,222,63743,1,0,1:0:0:0:
226,214,63886,1,8,1:0:0:0:
166,195,64029,1,0,1:0:0:0:
224,180,64172,1,8,1:0:0:0:
226,227,68172,5,12,1:0:0:0:
225,212,68362,1,8,1:0:0:0:
237,230,68552,5,8,1:0:0:0:
230,238,68743,1,4,1:0:0:0:
226,227,69172,1,0,1:0:0:0:
231,226,69314,1,8,1:0:0:0:
228,222,69600,1,0,1:0:0:0:
228,222,69743,1,8,1:0:0:0:
228,221,70029,1,8,1:0:0:0:
228,221,70172,1,8,1:0:0:0:
214,227,70457,1,8,1:0:0:0:
228,222,70600,1,8,1:0:0:0:
228,222,70743,1,0,1:0:0:0:
228,221,70886,1,8,1:0:0:0:
228,221,71029,1,0,1:0:0:0:
213,221,71172,1,0,1:0:0:0:
214,227,71457,1,8,1:0:0:0:
216,222,71600,1,8,1:0:0:0:
228,221,71886,1,0,1:0:0:0:
228,221,72029,1,0,1:0:0:0:
215,233,72457,1,0,0:0:0:0:
206,222,72600,1,8,1:0:0:0:
201,221,72743,1,8,1:0:0:0:
206,222,72814,1,8,1:0:0:0:
209,222,72886,1,8,1:0:0:0:
228,221,73029,1,0,1:0:0:0:
218,222,73172,1,8,1:0:0:0:
210,219,73314,1,0,1:0:0:0:
192,196,73457,1,0,0:0:0:0:
209,216,73743,1,0,1:0:0:0:
209,222,73886,1,12,1:0:0:0:
218,222,74172,1,0,1:0:0:0:
190,202,74314,1,0,0:0:0:0:
209,216,74600,1,0,1:0:0:0:
209,216,74743,1,12,1:0:0:0:
211,215,75029,1,0,1:0:0:0:
211,215,75100,1,0,1:0:0:0:
210,212,75172,1,0,1:0:0:0:
210,219,75314,1,12,1:0:0:0:
199,208,75600,1,0,1:0:0:0:
197,209,75743,1,0,1:0:0:0:
194,206,76029,1,0,1:0:0:0:
191,206,76172,1,12,1:0:0:0:
191,206,76457,1,0,1:0:0:0:
191,206,76600,1,0,1:0:0:0:
194,206,76886,1,0,1:0:0:0:
194,206,77029,1,12,1:0:0:0:
182,207,77314,1,0,1:0:0:0:
181,205,77386,1,0,1:0:0:0:
182,202,77457,1,0,1:0:0:0:
190,217,77600,1,12,0:0:0:0:
188,216,77886,1,4,0:0:0:0:
188,209,78314,1,0,1:0:0:0:
186,209,78457,1,8,1:0:0:0:
191,203,78886,1,0,1:0:0:0:
184,202,79172,1,8,1:0:0:0:
191,201,79314,1,8,1:0:0:0:
191,203,79600,1,0,1:0:0:0:
191,203,79743,1,8,1:0:0:0:
191,203,79886,1,0,1:0:0:0:
191,203,80029,1,0,1:0:0:0:
191,203,80172,1,8,1:0:0:0:
191,201,80314,1,8,1:0:0:0:
191,203,80600,1,8,1:0:0:0:
191,203,80743,1,8,1:0:0:0:
196,198,81029,1,0,1:0:0:0:
196,198,81172,1,0,1:0:0:0:
196,197,81457,1,8,1:0:0:0:
196,197,81600,1,8,1:0:0:0:
195,187,81743,1,8,1:0:0:0:
195,187,81886,1,0,1:0:0:0:
195,187,82029,1,8,1:0:0:0:
195,187,82172,1,0,1:0:0:0:
193,186,82314,1,8,1:0:0:0:
201,192,82457,1,8,1:0:0:0:
201,193,82886,1,0,1:0:0:0:
202,195,83029,1,12,1:0:0:0:
199,188,83314,1,0,1:0:0:0:
201,192,83457,1,0,1:0:0:0:
201,193,83743,1,0,1:0:0:0:
201,193,83886,1,12,1:0:0:0:
211,196,84172,1,0,1:0:0:0:
211,197,84243,1,0,1:0:0:0:
211,197,84314,1,0,1:0:0:0:
211,197,84457,1,12,1:0:0:0:
209,198,84743,1,8,1:0:0:0:
210,197,84886,1,0,1:0:0:0:
211,196,85172,1,0,1:0:0:0:
211,197,85314,1,12,1:0:0:0:
209,198,85600,1,0,1:0:0:0:
209,198,85743,1,0,1:0:0:0:
206,202,86029,1,0,1:0:0:0:
206,202,86172,1,12,1:0:0:0:
209,198,86457,1,0,1:0:0:0:
209,198,86600,1,8,1:0:0:0:
209,198,86672,1,8,1:0:0:0:
209,198,86743,1,8,1:0:0:0:
209,196,87029,1,4,1:0:0:0:
209,198,87457,1,0,1:0:0:0:
209,198,87600,1,8,1:0:0:0:
209,196,87886,1,8,1:0:0:0:
209,196,88029,1,0,1:0:0:0:
209,198,88314,1,0,1:0:0:0:
209,198,88457,1,0,1:0:0:0:
209,196,88743,1,0,1:0:0:0:
209,196,88886,1,8,1:0:0:0:
209,196,89029,1,8,1:0:0:0:
209,198,89172,1,0,1:0:0:0:
209,198,89314,1,8,1:0:0:0:
209,198,89457,1,0,1:0:0:0:
199,201,89743,1,0,1:0:0:0:
197,198,89886,1,0,1:0:0:0:
196,197,90172,1,8,1:0:0:0:
217,190,90314,1,0,1:0:0:0:
210,192,90600,1,0,1:0:0:0:
209,191,90743,1,0,1:0:0:0:
214,196,90886,1,0,1:0:0:0:
214,196,91029,1,8,1:0:0:0:
214,196,91172,1,0,1:0:0:0:
237,192,91314,1,8,0:0:0:0:
219,196,91457,1,0,0:0:0:0:
214,199,91600,1,8,1:0:0:0:
216,207,92029,1,0,1:0:0:0:
217,212,92172,1,12,1:0:0:0:
216,211,92457,1,0,1:0:0:0:
215,211,92600,1,0,1:0:0:0:
216,207,92886,1,8,1:0:0:0:
217,212,93029,1,12,1:0:0:0:
151,183,93314,1,0,0:0:0:0:
157,187,93386,1,0,0:0:0:0:
194,208,93457,1,0,1:0:0:0:
193,207,93600,1,12,1:0:0:0:
192,207,93886,1,8,1:0:0:0:
191,207,94029,1,0,1:0:0:0:
194,208,94314,1,0,1:0:0:0:
194,208,94457,1,12,1:0:0:0:
192,207,94743,1,0,1:0:0:0:
192,207,94886,1,0,1:0:0:0:
194,208,95172,1,0,1:0:0:0:
194,208,95314,1,12,1:0:0:0:
192,207,95600,1,8,1:0:0:0:
192,207,95743,1,0,1:0:0:0:
192,207,95814,1,0,1:0:0:0:
192,207,95886,1,0,1:0:0:0:
194,208,96029,1,8,1:0:0:0:
194,208,96172,1,4,1:0:0:0:
192,207,96600,1,0,1:0:0:0:
192,207,96743,1,8,1:0:0:0:
194,208,97172,1,8,1:0:0:0:
192,207,97457,1,8,1:0:0:0:
192,207,97600,1,8,1:0:0:0:
194,208,97886,1,0,1:0:0:0:
200,206,98029,1,8,1:0:0:0:
206,207,98172,1,8,1:0:0:0:
206,206,98314,1,0,1:0:0:0:
210,205,98457,1,8,1:0:0:0:
212,205,98600,1,8,1:0:0:0:
216,203,98886,1,0,1:0:0:0:
214,204,99029,1,0,1:0:0:0:
207,199,99314,1,8,1:0:0:0:
204,197,99457,1,8,1:0:0:0:
198,196,99743,1,0,1:0:0:0:
198,196,99886,1,0,1:0:0:0:
196,197,100172,1,8,1:0:0:0:
196,195,100314,1,8,1:0:0:0:
196,194,100457,1,0,1:0:0:0:
260,279,100743,1,12,1:0:0:0:
196,197,101172,1,0,1:0:0:0:
196,195,101314,1,8,1:0:0:0:
198,196,101600,1,0,1:0:0:0:
203,190,101743,1,0,1:0:0:0:
203,188,101886,1,8,1:0:0:0:
206,188,102172,1,8,1:0:0:0:
206,188,102457,1,0,1:0:0:0:
213,185,102743,1,8,1:0:0:0:
195,159,103314,1,0,1:0:0:0:
206,188,103600,1,8,1:0:0:0:
205,174,104029,1,8,1:0:0:0:
205,172,104172,1,0,1:0:0:0:
211,172,104457,1,0,1:0:0:0:
211,172,104743,1,8,1:0:0:0:
211,173,105029,1,0,1:0:0:0:
212,174,105172,1,0,1:0:0:0:
260,279,105314,1,12,1:0:0:0:
217,176,105743,1,0,1:0:0:0:
217,176,105886,1,8,1:0:0:0:
218,176,106172,1,8,1:0:0:0:
219,176,106314,1,8,1:0:0:0:
217,176,106457,1,0,1:0:0:0:
217,176,106743,1,8,1:0:0:0:
218,176,107029,1,0,1:0:0:0:
219,176,107314,1,8,1:0:0:0:
218,176,107886,1,0,1:0:0:0:
219,176,108172,1,8,1:0:0:0:
218,176,108600,1,8,1:0:0:0:
222,180,108743,1,0,1:0:0:0:
223,181,109029,1,0,1:0:0:0:
223,181,109314,1,8,1:0:0:0:
225,183,109600,1,0,1:0:0:0:
222,180,109743,1,0,1:0:0:0:
260,279,109886,1,12,1:0:0:0:
224,199,110314,1,0,1:0:0:0:
227,197,110457,1,8,1:0:0:0:
209,206,110886,1,8,1:0:0:0:
209,206,111029,1,0,1:0:0:0:
210,206,111314,1,0,1:0:0:0:
206,212,111600,1,8,1:0:0:0:
207,222,111886,1,0,1:0:0:0:
208,222,112457,1,0,1:0:0:0:
194,242,112743,1,8,1:0:0:0:
200,219,113029,1,8,1:0:0:0:
202,237,113172,1,8,1:0:0:0:
202,237,113314,1,0,1:0:0:0:
233,238,113600,1,0,1:0:0:0:
200,245,113886,1,8,1:0:0:0:
217,245,114172,1,0,1:0:0:0:
219,246,114743,1,0,1:0:0:0:
217,245,115029,1,8,1:0:0:0:
219,246,115314,1,8,1:0:0:0:
219,246,115457,1,0,1:0:0:0:
219,246,115600,1,8,1:0:0:0:
219,246,115743,1,0,1:0:0:0:
217,245,115886,1,0,1:0:0:0:
219,246,116172,1,8,1:0:0:0:
227,250,116457,1,0,1:0:0:0:
227,250,117029,1,0,1:0:0:0:
227,250,117314,1,8,1:0:0:0:
227,250,117600,1,8,1:0:0:0:
227,250,117743,1,0,1:0:0:0:
219,250,117886,1,0,1:0:0:0:
219,250,118029,1,8,1:0:0:0:
219,250,118172,1,0,1:0:0:0:
219,250,118457,1,8,1:0:0:0:
227,250,118743,1,0,1:0:0:0:
219,250,118886,1,0,1:0:0:0:
260,279,119029,1,12,1:0:0:0:
219,250,119457,1,0,1:0:0:0:
219,251,119600,1,8,1:0:0:0:
219,250,120029,1,8,1:0:0:0:
219,250,120172,1,0,1:0:0:0:
219,250,120457,1,0,1:0:0:0:
219,250,120743,1,8,1:0:0:0:
221,243,121029,1,0,1:0:0:0:
224,243,121600,1,0,1:0:0:0:
221,243,121886,1,8,1:0:0:0:
224,243,122172,1,8,1:0:0:0:
224,243,122314,1,0,1:0:0:0:
218,250,122457,1,0,1:0:0:0:
218,250,122743,1,8,1:0:0:0:
217,250,123029,1,0,1:0:0:0:
217,250,123314,1,0,1:0:0:0:
218,250,123457,1,0,1:0:0:0:
260,279,123600,1,12,1:0:0:0:
217,250,124029,1,0,1:0:0:0:
217,250,124172,1,8,1:0:0:0:
218,250,124457,1,0,1:0:0:0:
218,250,124600,1,8,1:0:0:0:
217,250,124743,1,0,1:0:0:0:
217,250,125029,1,0,1:0:0:0:
211,248,125314,1,8,1:0:0:0:
221,270,125600,1,0,1:0:0:0:
221,270,126172,1,0,1:0:0:0:
221,270,126457,1,8,1:0:0:0:
221,270,126743,1,0,1:0:0:0:
221,270,126886,1,8,1:0:0:0:
216,264,127029,1,0,1:0:0:0:
226,253,127314,1,8,1:0:0:0:
215,255,127600,1,8,1:0:0:0:
231,264,127886,1,0,1:0:0:0:
216,264,128029,1,0,1:0:0:0:
260,279,128172,1,12,1:0:0:0:
219,262,128743,1,0,1:0:0:0:
206,267,129172,1,8,1:0:0:0:
205,266,129314,1,0,1:0:0:0:
203,266,129600,1,0,1:0:0:0:
206,267,129886,1,8,1:0:0:0:
199,266,130172,1,0,1:0:0:0:
206,267,130743,1,0,1:0:0:0:
196,258,131029,1,8,1:0:0:0:
194,258,131314,1,8,1:0:0:0:
194,258,131457,1,8,1:0:0:0:
194,258,131600,1,0,1:0:0:0:
188,217,131886,1,0,1:0:0:0:
182,239,132172,1,8,1:0:0:0:
183,243,132457,1,0,1:0:0:0:
196,241,133029,1,0,1:0:0:0:
202,241,133314,1,8,1:0:0:0:
202,241,133600,1,0,1:0:0:0:
200,246,133743,1,0,1:0:0:0:
201,249,133886,1,8,1:0:0:0:
209,240,134172,1,8,1:0:0:0:
209,240,134457,1,8,1:0:0:0:
202,241,134600,1,0,1:0:0:0:
207,241,134743,1,0,1:0:0:0:
209,240,135314,1,0,1:0:0:0:
210,245,135600,1,8,1:0:0:0:
209,240,135886,1,8,1:0:0:0:
209,240,136029,1,8,1:0:0:0:
209,240,136172,1,0,1:0:0:0:
210,245,136457,1,0,1:0:0:0:
209,240,136743,1,8,1:0:0:0:
209,240,136886,1,8,1:0:0:0:
209,240,137029,1,0,1:0:0:0:
275,200,137314,1,4,1:0:0:0:
161,185,137743,1,0,1:0:0:0:
176,201,137886,1,8,1:0:0:0:
171,194,137957,1,8,1:0:0:0:
172,194,138029,1,8,1:0:0:0:
173,200,138314,1,8,1:0:0:0:
171,197,138457,1,4,1:0:0:0:
173,200,138886,1,12,1:0:0:0:
173,200,139314,1,12,1:0:0:0:
173,200,139886,1,12,1:0:0:0:
173,200,140172,1,0,1:0:0:0:
173,200,140314,1,8,1:0:0:0:
173,200,140600,1,8,1:0:0:0:
173,200,140743,1,0,1:0:0:0:
166,207,140886,1,8,1:0:0:0:
166,207,141172,1,8,1:0:0:0:
166,207,141314,1,0,1:0:0:0:
167,207,141457,1,8,1:0:0:0:
160,203,141743,1,8,1:0:0:0:
166,207,141886,1,4,1:0:0:0:
166,207,142314,1,0,1:0:0:0:
167,207,142457,1,8,1:0:0:0:
167,205,142529,1,8,1:0:0:0:
164,207,142600,1,8,1:0:0:0:
166,207,142886,1,0,1:0:0:0:
166,207,143029,1,12,1:0:0:0:
158,195,143457,1,12,1:0:0:0:
159,195,143886,1,12,1:0:0:0:
195,208,144457,1,0,1:0:0:0:
195,208,144743,1,8,1:0:0:0:
195,208,144886,1,0,1:0:0:0:
186,198,145029,1,0,1:0:0:0:
186,194,145172,1,12,1:0:0:0:
186,191,145600,1,0,1:0:0:0:
187,191,145886,1,8,1:0:0:0:
187,191,146029,1,8,1:0:0:0:
186,194,146172,1,8,1:0:0:0:
186,191,146314,1,4,1:0:0:0:
187,191,146743,1,0,1:0:0:0:
170,198,147029,1,8,1:0:0:0:
164,192,147172,1,0,1:0:0:0:
164,192,147314,1,8,1:0:0:0:
164,191,147386,1,8,1:0:0:0:
163,191,147457,1,8,1:0:0:0:
163,189,147600,1,4,1:0:0:0:
162,184,148029,1,12,1:0:0:0:
161,177,148457,1,12,1:0:0:0:
151,191,149029,1,0,1:0:0:0:
201,182,149314,1,8,1:0:0:0:
189,189,149505,1,0,1:0:0:0:
180,178,149886,1,8,1:0:0:0:
182,191,150076,1,0,1:0:0:0:
179,174,150457,1,8,1:0:0:0:
175,182,150648,1,0,1:0:0:0:
173,185,150838,1,0,1:0:0:0:
173,185,151029,1,12,1:0:0:0:
185,187,151600,1,0,1:0:0:0:
196,215,152172,1,8,1:0:0:0:
196,215,152743,1,8,1:0:0:0:
202,204,153314,1,4,1:0:0:0:
202,204,153886,1,0,1:0:0:0:
202,204,154457,1,8,1:0:0:0:
224,224,154743,1,0,1:0:0:0:
217,218,155029,1,8,1:0:0:0:
217,218,155172,1,0,1:0:0:0:
209,207,155314,1,0,1:0:0:0:
209,207,155600,1,12,1:0:0:0:
202,202,156029,1,0,1:0:0:0:
206,199,156172,1,8,1:0:0:0:
206,199,156243,1,8,1:0:0:0:
206,199,156314,1,8,1:0:0:0:
209,207,156600,1,8,1:0:0:0:
202,202,156743,1,4,1:0:0:0:
206,199,157172,1,12,1:0:0:0:
215,202,157600,1,12,1:0:0:0:
207,211,158172,1,12,1:0:0:0:
207,211,158457,1,0,1:0:0:0:
207,211,158529,1,0,1:0:0:0:
204,211,158600,1,0,1:0:0:0:
191,213,158886,1,0,1:0:0:0:
191,213,159029,1,8,1:0:0:0:
193,214,159172,1,0,1:0:0:0:
198,222,159457,1,0,1:0:0:0:
198,222,159600,1,8,1:0:0:0:
198,222,159672,1,8,1:0:0:0:
198,222,159743,1,8,1:0:0:0:
191,213,160029,1,8,1:0:0:0:
186,216,160172,1,4,1:0:0:0:
197,208,160600,1,8,1:0:0:0:
197,208,160743,1,0,1:0:0:0:
197,208,160814,1,0,1:0:0:0:
197,208,160886,1,0,1:0:0:0:
197,208,161172,1,0,1:0:0:0:
197,208,161314,1,12,1:0:0:0:
197,208,161743,1,12,1:0:0:0:
197,208,162172,1,12,1:0:0:0:
191,212,162743,1,0,1:0:0:0:
202,204,163029,1,8,1:0:0:0:
202,204,163172,1,0,1:0:0:0:
199,205,163314,1,0,1:0:0:0:
201,204,163457,1,12,1:0:0:0:
185,208,163886,1,0,1:0:0:0:
189,210,164172,1,8,1:0:0:0:
202,205,164314,1,8,1:0:0:0:
188,203,164457,1,8,1:0:0:0:
185,208,164600,1,4,1:0:0:0:
192,195,165029,1,0,1:0:0:0:
194,195,165314,1,8,1:0:0:0:
185,208,165600,1,0,1:0:0:0:
186,207,165743,1,8,1:0:0:0:
187,210,165814,1,8,1:0:0:0:
186,207,165886,1,8,1:0:0:0:
188,210,166314,1,12,1:0:0:0:
164,212,166743,1,4,1:0:0:0:
173,219,167314,1,0,1:0:0:0:
171,215,167457,1,8,1:0:0:0:
171,215,167529,1,8,1:0:0:0:
171,215,167600,1,8,1:0:0:0:
166,212,167791,1,0,1:0:0:0:
161,213,167981,1,0,1:0:0:0:
161,212,168172,1,8,1:0:0:0:
164,206,168362,1,8,1:0:0:0:
166,202,168552,1,0,1:0:0:0:
173,203,168743,1,8,1:0:0:0:
156,219,169172,1,0,1:0:0:0:
167,194,169314,1,12,1:0:0:0:
174,193,169886,1,0,1:0:0:0:
166,200,170457,1,8,1:0:0:0:
166,200,171029,1,8,1:0:0:0:
256,192,171600,12,0,173600,1:0:0:0:
261,232,173886,5,0,1:0:0:0:
261,232,173957,1,0,1:0:0:0:
261,232,174029,1,0,1:0:0:0:
