osu file format v14

[General]
AudioFilename: audio.mp3
AudioLeadIn: 0
PreviewTime: 99887
Countdown: 0
SampleSet: Normal
StackLeniency: 0.7
Mode: 1
LetterboxInBreaks: 0
WidescreenStoryboard: 0

[Editor]
Bookmarks: 39600,178457
DistanceSpacing: 0.6
BeatDivisor: 3
GridSize: 32
TimelineZoom: 2.2

[Metadata]
Title:Moebius Chicken Strip
TitleUnicode:Möbius Chicken Strip
Artist:Origami Angel
ArtistUnicode:Origami Angel
Creator:4lw
Version:Inner Oni
Source:
Tags:indie emo midwest mid west rock english gami gang fa featured artist iamveryfat boaz mobius
BeatmapID:3872125
BeatmapSetID:1795159

[Difficulty]
HPDrainRate:6
CircleSize:3
OverallDifficulty:6
ApproachRate:9
SliderMultiplier:1.4
SliderTickRate:1

[Events]
//Background and Video events
0,0,"background.jpg",0,0
//Break Periods
//Storyboard Layer 0 (Background)
//Storyboard Layer 1 (Fail)
//Storyboard Layer 2 (Pass)
//Storyboard Layer 3 (Foreground)
//Storyboard Layer 4 (Overlay)
//Storyboard Sound Samples

[TimingPoints]
172,285.714285714286,4,1,0,30,1,0
172,-117.647058823529,4,1,0,30,0,0
9314,-99.9999999999999,4,1,0,100,0,0
13743,-97.0873786407766,4,1,0,100,0,0
13814,-94.3396226415097,4,1,0,100,0,0
13886,-90.9090909090909,4,1,0,100,0,1
18457,-90.9090909090909,4,1,0,100,0,0
18743,-99.9999999999999,4,1,0,100,0,0
22886,-97.0873786407766,4,1,0,100,0,0
22957,-94.3396226415097,4,1,0,100,0,0
23029,-90.9090909090909,4,1,0,100,0,1
27100,-91.963279110968,4,1,0,100,0,1
27172,-93.0270446399477,4,1,0,100,0,1
27243,-94.1157079281362,4,1,0,100,0,1
27314,-95.2460383653043,4,1,0,100,0,1
27386,-96.3875759621878,4,1,0,100,0,1
27457,-97.0873786407767,4,1,0,100,0,1
27529,-98.0392156862745,4,1,0,100,0,1
27600,-99.009900990099,4,1,0,100,0,0
39600,-100,4,1,0,100,0,0
39791,-102.30797116043,4,1,0,100,0,0
39975,-104.712041884817,4,1,0,100,0,0
40172,-107.245397736869,4,1,0,100,0,0
40362,-109.89010989011,4,1,0,100,0,0
40547,-112.668559261888,4,1,0,100,0,0
40743,-115.606936416185,4,1,0,100,0,0
40933,-118.686042708285,4,1,0,100,0,0
41118,-121.951219512195,4,1,0,100,0,0
41314,-125,4,1,0,100,0,0
45886,-100,4,1,0,100,0,0
58076,-103.092783505155,4,1,0,100,0,0
58267,-104.712041884817,4,1,0,100,0,0
58457,-107.245397736869,4,1,0,100,0,0
58648,-109.89010989011,4,1,0,100,0,0
58838,-112.668559261888,4,1,0,100,0,0
59029,-115.606936416185,4,1,0,100,0,0
59219,-118.686042708285,4,1,0,100,0,0
59410,-121.951219512195,4,1,0,100,0,0
59600,-125,4,1,0,100,0,0
61743,-100,4,1,0,100,0,0
63097,-99.3414340042668,4,1,0,100,0,0
63169,-98.6823919653552,4,1,0,100,0,0
63311,-97.4079126875853,4,1,0,100,0,0
63454,-96.1572993356078,4,1,0,100,0,0
63597,-94.938391986526,4,1,0,100,0,0
63669,-94.336298775654,4,1,0,100,0,0
63740,-93.75,4,1,0,100,0,0
63811,-93.1709438886472,4,1,0,100,0,0
63883,-92.5909916140745,4,1,0,100,0,0
64026,-91.4602903501281,4,1,0,100,0,0
64097,-90.9090909090909,4,1,0,100,0,0
64172,-90.0900900900901,4,1,0,100,0,0
64243,-117.647058823529,4,1,0,100,0,0
68743,-95.2380952380954,4,1,0,80,0,0
73886,-71.4285714285714,4,1,0,80,0,0
73904,-95.2380952380954,4,1,0,80,0,0
74743,-71.4285714285714,4,1,0,80,0,0
74761,-95.2380952380954,4,1,0,80,0,0
75314,-71.4285714285714,4,1,0,80,0,0
75332,-95.2380952380954,4,1,0,80,0,0
76172,-71.4285714285714,4,1,0,80,0,0
76189,-95.2380952380954,4,1,0,80,0,0
77029,-71.4285714285714,4,1,0,80,0,0
77047,-95.2380952380954,4,1,0,80,0,0
77600,-71.4285714285714,4,1,0,80,0,0
77618,-95.2380952380954,4,1,0,80,0,0
83029,-71.4285714285714,4,1,0,80,0,0
83047,-95.2380952380954,4,1,0,80,0,0
83886,-71.4285714285714,4,1,0,80,0,0
83904,-95.2380952380954,4,1,0,80,0,0
84457,-71.4285714285714,4,1,0,80,0,0
84475,-95.2380952380954,4,1,0,80,0,0
85314,-71.4285714285714,4,1,0,80,0,0
85332,-95.2380952380954,4,1,0,80,0,0
86172,-71.4285714285714,4,1,0,80,0,0
86189,-95.2380952380954,4,1,0,80,0,0
86743,-71.4285714285714,4,1,0,80,0,0
86761,-95.2380952380954,4,1,0,80,0,0
92172,-71.4285714285714,4,1,0,80,0,0
92189,-95.2380952380954,4,1,0,80,0,0
93029,-71.4285714285714,4,1,0,80,0,0
93047,-95.2380952380954,4,1,0,80,0,0
93600,-71.4285714285714,4,1,0,80,0,0
93618,-95.2380952380954,4,1,0,80,0,0
94457,-71.4285714285714,4,1,0,80,0,0
94475,-95.2380952380954,4,1,0,80,0,0
95314,-71.4285714285714,4,1,0,80,0,0
95332,-95.2380952380954,4,1,0,80,0,0
95886,-71.4285714285714,4,1,0,80,0,0
95904,-95.2380952380954,4,1,0,80,0,0
100457,-94.3396226415094,4,1,0,80,0,0
100529,-93.4579439252336,4,1,0,80,0,0
100600,-92.5925925925926,4,1,0,80,0,0
100672,-91.743119266055,4,1,0,80,0,0
100743,-90.9090909090909,4,1,0,80,0,1
137029,-92.5925925925926,4,1,0,80,0,1
137100,-94.3396226415094,4,1,0,80,0,1
137172,-96.1538461538461,4,1,0,80,0,1
137243,-98.0392156862745,4,1,0,80,0,1
137314,-99.9999999999999,4,1,0,80,0,0
149505,-102.040816326531,4,1,0,80,0,0
149695,-104.652582732935,4,1,0,80,0,0
149886,-107.151787946986,4,1,0,80,0,0
150076,-109.759221311476,4,1,0,80,0,0
150267,-112.496718298766,4,1,0,80,0,0
150457,-115.389793994884,4,1,0,80,0,0
150648,-118.419234489429,4,1,0,80,0,0
150838,-121.629293216009,4,1,0,80,0,0
151029,-125,4,1,0,80,0,0
155600,-100,4,1,0,80,0,0
167695,-101.120943952802,4,1,0,80,0,0
167791,-102.267303102625,4,1,0,80,0,0
167886,-103.439951719976,4,1,0,80,0,0
167981,-104.652582732935,4,1,0,80,0,0
168076,-105.880899431678,4,1,0,80,0,0
168172,-107.138392299037,4,1,0,80,0,0
168261,-108.426113360324,4,1,0,80,0,0
168362,-109.745165834293,4,1,0,80,0,0
168457,-111.111111111111,4,1,0,80,0,0
168552,-112.496718298766,4,1,0,80,0,0
168648,-113.917320217998,4,1,0,80,0,0
168743,-115.374259558428,4,1,0,80,0,0
168791,-116.124661246613,4,1,0,80,0,0
168838,-116.884888161484,4,1,0,80,0,0
168933,-118.419234489429,4,1,0,80,0,0
169029,-119.99439932792,4,1,0,80,0,0
169118,-121.612033489428,4,1,0,80,0,0
169219,-123.291612717595,4,1,0,80,0,0
169314,-125,4,1,0,80,0,0
169886,-129.87012987013,4,1,0,80,0,0
170457,-136.370865139949,4,1,0,80,0,0
171029,-149.991254154277,4,1,0,80,0,0
171600,-166.666666666667,4,1,0,80,0,0

[HitObjects]
145,283,9029,5,0,0:0:0:0:
448,320,9314,5,12,0:0:0:0:
181,277,9600,1,8,0:0:0:0:
171,265,9743,1,8,0:0:0:0:
256,128,9886,1,0,0:0:0:0:
256,128,9957,1,0,0:0:0:0:
181,277,10029,1,0,0:0:0:0:
181,277,10172,1,8,0:0:0:0:
181,277,10457,1,0,0:0:0:0:
64,64,10529,1,0,0:0:0:0:
140,224,10600,1,8,0:0:0:0:
181,277,10743,1,8,0:0:0:0:
181,277,10886,1,0,0:0:0:0:
181,277,11172,1,8,0:0:0:0:
181,277,11314,1,8,0:0:0:0:
64,64,11457,1,0,0:0:0:0:
448,64,11600,1,8,0:0:0:0:
448,64,11672,1,8,0:0:0:0:
142,243,11743,1,0,0:0:0:0:
181,277,11886,1,8,0:0:0:0:
72,230,12172,1,0,0:0:0:0:
64,64,12243,1,0,0:0:0:0:
86,270,12314,1,0,0:0:0:0:
116,229,12457,1,8,0:0:0:0:
170,227,12600,1,8,0:0:0:0:
81,205,12743,1,8,0:0:0:0:
256,128,12814,1,8,0:0:0:0:
86,270,12886,1,0,0:0:0:0:
120,247,13029,1,8,0:0:0:0:
119,247,13172,1,0,0:0:0:0:
123,250,13457,1,0,0:0:0:0:
102,262,13600,1,8,0:0:0:0:
67,251,13743,1,0,0:0:0:0:
67,251,13814,1,0,0:0:0:0:
102,262,13886,1,12,0:0:0:0:
102,262,14029,1,0,0:0:0:0:
102,262,14172,1,8,0:0:0:0:
95,256,14243,1,8,0:0:0:0:
90,306,14314,1,8,0:0:0:0:
102,261,14457,1,0,0:0:0:0:
102,262,14600,1,0,0:0:0:0:
102,262,14743,1,8,0:0:0:0:
95,256,14814,1,8,0:0:0:0:
59,283,14886,1,0,0:0:0:0:
59,283,15029,1,8,0:0:0:0:
448,64,15172,1,0,0:0:0:0:
59,283,15314,1,8,0:0:0:0:
448,64,15386,1,8,0:0:0:0:
59,283,15457,1,0,0:0:0:0:
59,274,15600,1,0,0:0:0:0:
59,266,15743,1,0,0:0:0:0:
448,64,15886,1,8,0:0:0:0:
72,276,15957,1,0,0:0:0:0:
59,265,16029,1,0,0:0:0:0:
59,259,16172,1,8,0:0:0:0:
59,258,16314,1,0,0:0:0:0:
57,259,16457,1,8,0:0:0:0:
10,347,16529,1,8,0:0:0:0:
57,258,16600,1,8,0:0:0:0:
57,258,16743,1,0,0:0:0:0:
56,258,16886,1,0,0:0:0:0:
56,258,17029,1,8,0:0:0:0:
123,238,17100,1,0,0:0:0:0:
59,259,17172,1,8,0:0:0:0:
59,258,17314,1,8,0:0:0:0:
52,253,17457,1,0,0:0:0:0:
51,250,17600,1,8,0:0:0:0:
123,238,17672,1,8,0:0:0:0:
50,245,17743,1,0,0:0:0:0:
50,241,17886,1,0,0:0:0:0:
50,243,18029,1,0,0:0:0:0:
50,243,18172,1,8,0:0:0:0:
64,64,18243,1,8,0:0:0:0:
64,320,18314,1,8,0:0:0:0:
49,238,18457,1,0,0:0:0:0:
58,280,18743,1,8,0:0:0:0:
114,203,18886,1,0,0:0:0:0:
33,252,19029,1,8,0:0:0:0:
448,64,19100,1,8,0:0:0:0:
33,252,19172,1,0,0:0:0:0:
33,252,19314,1,8,0:0:0:0:
83,201,19457,1,8,0:0:0:0:
33,252,19600,1,8,0:0:0:0:
64,64,19672,1,0,0:0:0:0:
33,252,19743,1,0,0:0:0:0:
33,252,19886,1,8,0:0:0:0:
33,252,20029,1,0,0:0:0:0:
35,221,20314,1,0,0:0:0:0:
33,252,20457,1,8,0:0:0:0:
118,206,20600,1,0,0:0:0:0:
448,64,20743,1,8,0:0:0:0:
64,64,20814,1,0,0:0:0:0:
118,206,20886,1,0,0:0:0:0:
30,246,21029,1,8,0:0:0:0:
101,196,21172,1,8,0:0:0:0:
65,248,21314,1,0,0:0:0:0:
64,64,21386,1,0,0:0:0:0:
76,242,21457,1,0,0:0:0:0:
76,242,21600,1,8,0:0:0:0:
0,198,21743,1,8,0:0:0:0:
37,230,21886,1,8,0:0:0:0:
448,64,21957,1,8,0:0:0:0:
37,230,22029,1,0,0:0:0:0:
37,230,22172,1,8,0:0:0:0:
37,230,22314,1,0,0:0:0:0:
448,64,22600,1,8,0:0:0:0:
37,230,22743,1,0,0:0:0:0:
48,240,22886,1,8,0:0:0:0:
48,240,22957,1,8,0:0:0:0:
64,64,23029,1,0,0:0:0:0:
37,230,23172,1,0,0:0:0:0:
20,217,23314,1,8,0:0:0:0:
36,216,23386,1,8,0:0:0:0:
20,217,23457,1,8,0:0:0:0:
448,64,23600,1,8,0:0:0:0:
44,233,23743,1,0,0:0:0:0:
448,64,23886,1,8,0:0:0:0:
56,183,23957,1,8,0:0:0:0:
18,216,24029,1,0,0:0:0:0:
44,233,24172,1,8,0:0:0:0:
44,233,24314,1,0,0:0:0:0:
20,217,24457,1,8,0:0:0:0:
56,183,24529,1,8,0:0:0:0:
19,216,24600,1,0,0:0:0:0:
44,233,24743,1,0,0:0:0:0:
44,233,24886,1,8,0:0:0:0:
43,231,25029,1,8,0:0:0:0:
52,235,25100,1,0,0:0:0:0:
57,235,25172,1,0,0:0:0:0:
44,233,25314,1,8,0:0:0:0:
64,64,25457,1,0,0:0:0:0:
448,64,25600,1,8,0:0:0:0:
192,128,25672,1,8,0:0:0:0:
38,227,25743,1,8,0:0:0:0:
448,64,25886,1,0,0:0:0:0:
64,64,26029,1,0,0:0:0:0:
100,268,26172,1,8,0:0:0:0:
448,64,26243,1,8,0:0:0:0:
198,153,26314,1,0,0:0:0:0:
68,230,26457,1,0,0:0:0:0:
56,213,26743,1,0,0:0:0:0:
448,64,27029,1,8,0:0:0:0:
448,64,27100,1,8,0:0:0:0:
448,64,27172,5,8,0:0:0:0:
448,64,27243,1,8,0:0:0:0:
64,64,27314,1,0,0:0:0:0:
64,64,27386,1,0,0:0:0:0:
64,64,27457,1,0,0:0:0:0:
448,64,27529,1,0,0:0:0:0:
64,320,27600,1,12,0:0:0:0:
98,210,27886,1,8,0:0:0:0:
448,64,27957,1,8,0:0:0:0:
27,241,28029,1,0,0:0:0:0:
448,64,28172,1,8,0:0:0:0:
213,94,28207,1,8,0:0:0:0:
27,241,28314,1,0,0:0:0:0:
27,241,28600,1,8,0:0:0:0:
43,251,28672,1,8,0:0:0:0:
64,320,28743,1,4,0:0:0:0:
128,237,29029,1,8,0:0:0:0:
64,320,29172,1,4,0:0:0:0:
448,320,29600,1,12,0:0:0:0:
64,320,30172,1,4,0:0:0:0:
41,227,30457,1,8,0:0:0:0:
448,64,30493,1,8,0:0:0:0:
448,64,30600,1,0,0:0:0:0:
41,227,30886,1,0,0:0:0:0:
41,227,31029,1,8,0:0:0:0:
448,64,31064,1,8,0:0:0:0:
41,227,31172,1,0,0:0:0:0:
28,204,31457,1,0,0:0:0:0:
27,204,31600,1,8,0:0:0:0:
448,64,31636,1,8,0:0:0:0:
28,202,31743,1,8,0:0:0:0:
28,202,32029,1,8,0:0:0:0:
64,320,32172,1,4,0:0:0:0:
51,210,32600,1,0,0:0:0:0:
51,210,32743,1,8,0:0:0:0:
448,64,32779,1,8,0:0:0:0:
54,219,32886,1,0,0:0:0:0:
448,64,33172,1,8,0:0:0:0:
64,320,33314,1,4,0:0:0:0:
64,64,33600,1,0,0:0:0:0:
448,320,33743,1,12,0:0:0:0:
448,320,34172,1,12,0:0:0:0:
46,217,34743,1,0,0:0:0:0:
46,217,35029,1,8,0:0:0:0:
46,217,35172,1,0,0:0:0:0:
448,64,35243,1,0,0:0:0:0:
46,217,35314,1,0,0:0:0:0:
64,320,35457,1,12,0:0:0:0:
320,128,35743,1,8,0:0:0:0:
46,217,35886,1,0,0:0:0:0:
46,217,36172,1,8,0:0:0:0:
46,217,36314,1,0,0:0:0:0:
448,64,36386,1,0,0:0:0:0:
46,217,36457,1,8,0:0:0:0:
64,320,36600,1,4,0:0:0:0:
224,128,36886,1,0,0:0:0:0:
43,209,37029,1,0,0:0:0:0:
42,209,37314,1,8,0:0:0:0:
42,209,37457,1,0,0:0:0:0:
37,260,37600,1,8,0:0:0:0:
37,260,37672,1,8,0:0:0:0:
37,260,37743,1,8,0:0:0:0:
64,320,37886,1,0,0:0:0:0:
64,64,37957,1,0,0:0:0:0:
448,64,38029,1,8,0:0:0:0:
448,64,38100,1,8,0:0:0:0:
79,226,38172,1,0,0:0:0:0:
64,320,38314,1,8,0:0:0:0:
172,173,38386,1,8,0:0:0:0:
448,64,38457,1,0,0:0:0:0:
448,64,38529,1,0,0:0:0:0:
85,228,38600,1,0,0:0:0:0:
269,148,38672,1,0,0:0:0:0:
448,320,38743,1,12,0:0:0:0:
40,228,39314,1,0,0:0:0:0:
40,228,39600,1,8,0:0:0:0:
40,228,39791,1,8,0:0:0:0:
40,228,39981,1,0,0:0:0:0:
40,228,40172,1,8,0:0:0:0:
40,228,40362,1,0,0:0:0:0:
55,178,40552,1,0,0:0:0:0:
40,228,40743,1,8,0:0:0:0:
40,228,40933,1,0,0:0:0:0:
40,228,41124,1,0,0:0:0:0:
40,228,41314,1,12,0:0:0:0:
47,223,41886,1,0,0:0:0:0:
47,223,42457,1,8,0:0:0:0:
47,223,43029,1,8,0:0:0:0:
64,320,43600,1,4,0:0:0:0:
29,223,44172,1,8,0:0:0:0:
29,223,44743,1,0,0:0:0:0:
29,223,45314,1,8,0:0:0:0:
29,223,45600,1,0,0:0:0:0:
64,320,45886,1,4,0:0:0:0:
55,203,46172,1,8,0:0:0:0:
27,241,46314,1,0,0:0:0:0:
27,241,46457,1,8,0:0:0:0:
448,64,46493,1,8,0:0:0:0:
64,64,46600,1,0,0:0:0:0:
27,241,46886,1,8,0:0:0:0:
448,64,46957,1,8,0:0:0:0:
64,320,47029,1,4,0:0:0:0:
123,244,47314,1,8,0:0:0:0:
64,320,47457,1,4,0:0:0:0:
448,320,47886,1,12,0:0:0:0:
48,263,48457,1,0,0:0:0:0:
41,227,48743,1,8,0:0:0:0:
50,198,48779,1,8,0:0:0:0:
41,227,48886,1,0,0:0:0:0:
41,227,49172,1,0,0:0:0:0:
41,227,49314,1,8,0:0:0:0:
125,193,49350,1,8,0:0:0:0:
41,227,49457,1,0,0:0:0:0:
28,204,49743,1,0,0:0:0:0:
27,204,49886,1,8,0:0:0:0:
83,192,49922,1,8,0:0:0:0:
28,202,50029,1,0,0:0:0:0:
28,202,50314,1,8,0:0:0:0:
27,202,50457,1,4,0:0:0:0:
192,96,50743,1,8,0:0:0:0:
51,210,50886,1,0,0:0:0:0:
51,210,51029,1,8,0:0:0:0:
82,182,51064,1,8,0:0:0:0:
54,219,51172,1,0,0:0:0:0:
44,211,51457,1,8,0:0:0:0:
44,211,51600,1,4,0:0:0:0:
67,156,51886,1,8,0:0:0:0:
44,211,52029,1,4,0:0:0:0:
44,211,52457,1,12,0:0:0:0:
46,217,53029,1,0,0:0:0:0:
46,217,53314,1,8,0:0:0:0:
46,217,53457,1,0,0:0:0:0:
64,64,53529,1,0,0:0:0:0:
448,64,53600,1,8,0:0:0:0:
448,320,53743,1,12,0:0:0:0:
46,217,54172,1,8,0:0:0:0:
43,209,54457,1,8,0:0:0:0:
64,64,54600,1,0,0:0:0:0:
64,64,54672,1,0,0:0:0:0:
46,217,54743,1,8,0:0:0:0:
64,320,54886,1,4,0:0:0:0:
43,209,55314,1,0,0:0:0:0:
42,209,55600,1,8,0:0:0:0:
42,209,55743,1,0,0:0:0:0:
219,64,55814,1,0,0:0:0:0:
37,260,55886,1,8,0:0:0:0:
173,66,56029,1,8,0:0:0:0:
64,320,56172,1,0,0:0:0:0:
64,64,56243,1,0,0:0:0:0:
64,64,56314,1,8,0:0:0:0:
448,64,56386,1,8,0:0:0:0:
79,226,56457,1,0,0:0:0:0:
64,320,56600,1,8,0:0:0:0:
130,53,56672,1,0,0:0:0:0:
64,64,56743,1,8,0:0:0:0:
448,64,56814,1,8,0:0:0:0:
448,64,56886,1,0,0:0:0:0:
154,165,56957,1,0,0:0:0:0:
64,320,57029,1,12,0:0:0:0:
424,290,57600,1,0,0:0:0:0:
124,216,57743,1,8,0:0:0:0:
124,216,57814,1,8,0:0:0:0:
40,228,57886,1,8,0:0:0:0:
40,228,58076,1,8,0:0:0:0:
40,228,58267,1,0,0:0:0:0:
320,160,58457,1,8,0:0:0:0:
225,178,58648,1,0,0:0:0:0:
40,228,58838,1,0,0:0:0:0:
40,228,59029,1,8,0:0:0:0:
40,228,59219,1,8,0:0:0:0:
40,228,59410,1,0,0:0:0:0:
40,228,59600,1,12,0:0:0:0:
47,223,60172,1,0,0:0:0:0:
47,223,60743,1,0,0:0:0:0:
47,223,61314,1,8,0:0:0:0:
47,223,61743,1,8,0:0:0:0:
47,223,61814,1,8,0:0:0:0:
47,223,61886,1,0,0:0:0:0:
69,213,62029,1,0,0:0:0:0:
69,213,62314,1,0,0:0:0:0:
69,213,62457,1,8,0:0:0:0:
69,213,62600,1,0,0:0:0:0:
77,222,62743,1,8,0:0:0:0:
64,64,62886,1,8,0:0:0:0:
69,213,63029,1,0,0:0:0:0:
64,64,63100,1,0,0:0:0:0:
69,213,63172,1,0,0:0:0:0:
69,213,63314,1,8,0:0:0:0:
69,213,63457,1,8,0:0:0:0:
69,213,63600,1,8,0:0:0:0:
448,64,63672,1,8,0:0:0:0:
64,64,63743,1,0,0:0:0:0:
192,64,63814,1,0,0:0:0:0:
54,208,63886,1,8,0:0:0:0:
54,208,64029,1,0,0:0:0:0:
206,37,64100,1,0,0:0:0:0:
54,208,64172,1,8,0:0:0:0:
9,233,68172,5,8,0:0:0:0:
160,160,68207,1,8,0:0:0:0:
9,233,68362,1,0,0:0:0:0:
9,233,68552,1,0,0:0:0:0:
9,233,68743,1,12,0:0:0:0:
128,190,69029,1,8,0:0:0:0:
448,64,69100,1,8,0:0:0:0:
43,222,69172,1,0,0:0:0:0:
43,222,69314,1,8,0:0:0:0:
136,169,69600,1,0,0:0:0:0:
86,200,69743,1,0,0:0:0:0:
86,200,70029,1,0,0:0:0:0:
86,200,70172,1,0,0:0:0:0:
86,200,70457,1,8,0:0:0:0:
86,200,70600,1,0,0:0:0:0:
86,200,70743,1,0,0:0:0:0:
81,186,70886,1,8,0:0:0:0:
86,200,71029,1,8,0:0:0:0:
241,130,71100,5,0,0:0:0:0:
100,211,71172,1,8,0:0:0:0:
81,186,71314,1,0,0:0:0:0:
100,211,71457,1,8,0:0:0:0:
64,64,71529,1,8,0:0:0:0:
129,227,71600,1,0,0:0:0:0:
199,108,71743,1,0,0:0:0:0:
129,227,71886,1,8,0:0:0:0:
229,75,71957,1,0,0:0:0:0:
129,227,72029,1,8,0:0:0:0:
199,108,72172,1,0,0:0:0:0:
129,227,72314,1,0,0:0:0:0:
241,130,72386,1,8,0:0:0:0:
129,227,72457,1,0,0:0:0:0:
122,225,72600,1,8,0:0:0:0:
129,227,72743,1,8,0:0:0:0:
155,95,72814,1,8,0:0:0:0:
149,108,72886,1,0,0:0:0:0:
122,225,73029,1,8,0:0:0:0:
129,227,73314,1,0,0:0:0:0:
118,203,73457,1,0,0:0:0:0:
80,212,73743,1,0,0:0:0:0:
80,212,73886,1,12,0:0:0:0:
64,64,74172,1,0,0:0:0:0:
50,199,74314,1,0,0:0:0:0:
50,199,74600,1,0,0:0:0:0:
50,199,74743,1,12,0:0:0:0:
50,199,75029,1,0,0:0:0:0:
84,205,75100,1,0,0:0:0:0:
50,199,75172,1,0,0:0:0:0:
50,199,75314,1,12,0:0:0:0:
62,194,75600,1,0,0:0:0:0:
61,194,75743,1,0,0:0:0:0:
61,194,76029,1,0,0:0:0:0:
61,194,76172,1,12,0:0:0:0:
62,194,76457,1,0,0:0:0:0:
62,194,76600,1,0,0:0:0:0:
61,194,76886,1,0,0:0:0:0:
61,194,77029,1,12,0:0:0:0:
62,194,77314,1,8,0:0:0:0:
62,194,77386,1,8,0:0:0:0:
70,194,77457,1,0,0:0:0:0:
82,216,77600,1,12,0:0:0:0:
64,320,77886,1,4,0:0:0:0:
112,173,78172,1,8,0:0:0:0:
33,191,78314,1,0,0:0:0:0:
64,64,78386,1,0,0:0:0:0:
33,191,78457,1,8,0:0:0:0:
73,170,78743,1,8,0:0:0:0:
64,64,78814,1,0,0:0:0:0:
33,191,78886,1,0,0:0:0:0:
58,183,79172,1,8,0:0:0:0:
58,183,79314,1,0,0:0:0:0:
58,183,79600,1,8,0:0:0:0:
44,222,79743,1,0,0:0:0:0:
75,176,79886,1,8,0:0:0:0:
75,176,80029,1,0,0:0:0:0:
64,64,80100,1,0,0:0:0:0:
75,176,80172,1,8,0:0:0:0:
55,239,80314,1,8,0:0:0:0:
64,64,80457,1,0,0:0:0:0:
55,239,80600,1,8,0:0:0:0:
256,96,80672,1,8,0:0:0:0:
54,239,80743,1,8,0:0:0:0:
64,64,80886,1,0,0:0:0:0:
224,96,80957,1,0,0:0:0:0:
60,202,81029,1,8,0:0:0:0:
60,202,81172,1,0,0:0:0:0:
64,64,81314,1,0,0:0:0:0:
60,202,81457,1,8,0:0:0:0:
224,64,81529,1,0,0:0:0:0:
60,202,81600,1,8,0:0:0:0:
448,64,81743,1,0,0:0:0:0:
256,64,81814,1,0,0:0:0:0:
60,202,81886,1,8,0:0:0:0:
70,214,81957,1,8,0:0:0:0:
60,202,82029,1,0,0:0:0:0:
177,201,82100,1,8,0:0:0:0:
60,202,82172,1,8,0:0:0:0:
64,64,82457,1,0,0:0:0:0:
64,64,82529,1,0,0:0:0:0:
64,64,82600,1,0,0:0:0:0:
64,64,82886,1,0,0:0:0:0:
448,320,83029,1,12,0:0:0:0:
64,64,83314,1,0,0:0:0:0:
64,64,83386,1,0,0:0:0:0:
47,211,83457,1,0,0:0:0:0:
64,64,83743,1,0,0:0:0:0:
448,320,83886,1,12,0:0:0:0:
57,219,84172,1,0,0:0:0:0:
62,206,84243,1,0,0:0:0:0:
57,219,84314,1,0,0:0:0:0:
57,219,84386,1,0,0:0:0:0:
448,320,84457,1,12,0:0:0:0:
62,206,84743,1,0,0:0:0:0:
64,64,84814,1,0,0:0:0:0:
62,206,84886,1,0,0:0:0:0:
33,218,85172,1,0,0:0:0:0:
448,320,85314,1,12,0:0:0:0:
64,64,85600,1,0,0:0:0:0:
64,64,85672,1,0,0:0:0:0:
33,218,85743,1,0,0:0:0:0:
64,64,86029,1,0,0:0:0:0:
448,320,86172,1,12,0:0:0:0:
33,218,86457,1,8,0:0:0:0:
33,218,86529,1,8,0:0:0:0:
33,218,86600,1,0,0:0:0:0:
33,218,86672,1,0,0:0:0:0:
448,320,86743,1,12,0:0:0:0:
64,320,87029,1,4,0:0:0:0:
37,230,87314,1,8,0:0:0:0:
448,64,87386,1,8,0:0:0:0:
59,237,87457,1,0,0:0:0:0:
59,237,87600,1,8,0:0:0:0:
46,223,87886,1,8,0:0:0:0:
46,223,88029,1,0,0:0:0:0:
46,223,88314,1,8,0:0:0:0:
448,64,88386,1,8,0:0:0:0:
46,223,88457,1,0,0:0:0:0:
46,223,88743,1,8,0:0:0:0:
46,223,88886,1,0,0:0:0:0:
46,223,89029,1,8,0:0:0:0:
46,223,89172,1,0,0:0:0:0:
448,64,89243,1,8,0:0:0:0:
448,64,89314,1,8,0:0:0:0:
448,64,89457,1,8,0:0:0:0:
64,64,89600,1,0,0:0:0:0:
38,210,89743,1,8,0:0:0:0:
448,64,89814,1,8,0:0:0:0:
38,210,89886,1,0,0:0:0:0:
64,64,90029,1,0,0:0:0:0:
448,64,90172,1,8,0:0:0:0:
448,64,90243,1,8,0:0:0:0:
32,208,90314,1,8,0:0:0:0:
64,64,90457,1,0,0:0:0:0:
64,64,90600,1,0,0:0:0:0:
64,64,90672,1,0,0:0:0:0:
38,210,90743,1,8,0:0:0:0:
64,64,90886,1,0,0:0:0:0:
256,96,90957,1,0,0:0:0:0:
32,208,91029,1,8,0:0:0:0:
448,64,91100,1,8,0:0:0:0:
32,208,91172,1,0,0:0:0:0:
32,208,91314,1,8,0:0:0:0:
38,210,91457,1,8,0:0:0:0:
104,262,91529,1,8,0:0:0:0:
64,64,91600,1,0,0:0:0:0:
82,258,91743,1,0,0:0:0:0:
64,64,92029,1,0,0:0:0:0:
448,320,92172,1,12,0:0:0:0:
82,258,92457,1,0,0:0:0:0:
64,64,92529,1,0,0:0:0:0:
82,258,92600,1,0,0:0:0:0:
82,258,92886,1,0,0:0:0:0:
448,320,93029,1,12,0:0:0:0:
47,231,93314,1,0,0:0:0:0:
47,231,93386,1,0,0:0:0:0:
47,231,93457,1,0,0:0:0:0:
47,231,93529,1,0,0:0:0:0:
448,320,93600,1,12,0:0:0:0:
448,64,93886,1,8,0:0:0:0:
64,64,93957,1,8,0:0:0:0:
44,224,94029,1,0,0:0:0:0:
448,64,94314,1,0,0:0:0:0:
448,320,94457,1,12,0:0:0:0:
44,224,94743,1,8,0:0:0:0:
64,64,94814,1,0,0:0:0:0:
64,64,94886,1,0,0:0:0:0:
44,224,95172,1,0,0:0:0:0:
44,224,95314,1,12,0:0:0:0:
44,224,95600,1,8,0:0:0:0:
44,224,95672,1,8,0:0:0:0:
44,224,95743,1,0,0:0:0:0:
64,64,95814,1,0,0:0:0:0:
448,320,95886,1,12,0:0:0:0:
64,320,96172,1,4,0:0:0:0:
23,222,96457,1,8,0:0:0:0:
448,64,96529,1,8,0:0:0:0:
23,222,96600,1,0,0:0:0:0:
448,64,96743,1,8,0:0:0:0:
46,181,97029,1,8,0:0:0:0:
23,222,97172,1,0,0:0:0:0:
23,222,97457,1,8,0:0:0:0:
64,64,97529,1,0,0:0:0:0:
23,222,97600,1,0,0:0:0:0:
47,228,97886,1,8,0:0:0:0:
47,228,98029,1,0,0:0:0:0:
118,154,98172,1,8,0:0:0:0:
64,64,98314,1,0,0:0:0:0:
448,320,98457,1,8,0:0:0:0:
224,96,98529,1,0,0:0:0:0:
448,320,98600,1,8,0:0:0:0:
64,64,98743,1,0,0:0:0:0:
448,320,98886,1,0,0:0:0:0:
192,96,98957,1,0,0:0:0:0:
448,320,99029,1,8,0:0:0:0:
64,64,99172,1,0,0:0:0:0:
448,320,99314,1,8,0:0:0:0:
224,96,99386,1,0,0:0:0:0:
448,320,99457,1,8,0:0:0:0:
64,64,99600,1,0,0:0:0:0:
448,320,99743,1,8,0:0:0:0:
160,64,99814,1,8,0:0:0:0:
448,320,99886,1,0,0:0:0:0:
64,64,100029,1,0,0:0:0:0:
448,320,100172,1,8,0:0:0:0:
76,128,100207,1,8,0:0:0:0:
63,195,100457,1,8,0:0:0:0:
63,195,100529,1,8,0:0:0:0:
64,64,100600,1,0,0:0:0:0:
64,64,100672,1,0,0:0:0:0:
448,320,100743,1,12,0:0:0:0:
80,198,101029,1,0,0:0:0:0:
159,130,101172,1,8,0:0:0:0:
80,198,101314,1,0,0:0:0:0:
64,64,101386,1,0,0:0:0:0:
80,198,101457,1,0,0:0:0:0:
448,64,101600,1,8,0:0:0:0:
27,204,101743,1,8,0:0:0:0:
76,181,101886,1,0,0:0:0:0:
82,189,101957,1,8,0:0:0:0:
193,124,102029,1,0,0:0:0:0:
27,204,102172,1,8,0:0:0:0:
64,64,102243,1,8,0:0:0:0:
41,216,102314,1,8,0:0:0:0:
163,145,102386,1,8,0:0:0:0:
27,204,102457,1,0,0:0:0:0:
27,204,102743,1,0,0:0:0:0:
110,187,103172,1,8,0:0:0:0:
27,204,103314,1,0,0:0:0:0:
100,231,103457,1,0,0:0:0:0:
27,204,103600,1,8,0:0:0:0:
89,169,103886,1,0,0:0:0:0:
116,202,104029,1,8,0:0:0:0:
37,194,104172,1,0,0:0:0:0:
448,64,104243,1,0,0:0:0:0:
89,169,104314,1,0,0:0:0:0:
37,194,104457,1,8,0:0:0:0:
110,166,104600,1,0,0:0:0:0:
37,194,104743,1,8,0:0:0:0:
192,192,104814,1,8,0:0:0:0:
64,64,104886,1,8,0:0:0:0:
37,194,105029,1,0,0:0:0:0:
448,320,105314,1,12,0:0:0:0:
116,202,105600,1,0,0:0:0:0:
64,64,105886,1,8,0:0:0:0:
116,202,105957,1,0,0:0:0:0:
153,112,106029,1,0,0:0:0:0:
115,231,106172,1,8,0:0:0:0:
115,231,106314,1,0,0:0:0:0:
115,231,106457,1,0,0:0:0:0:
448,64,106529,1,8,0:0:0:0:
193,124,106600,1,0,0:0:0:0:
156,71,106743,1,8,0:0:0:0:
156,71,106814,1,8,0:0:0:0:
53,181,106886,1,0,0:0:0:0:
162,101,106957,1,0,0:0:0:0:
64,64,107029,1,8,0:0:0:0:
115,231,107314,1,8,0:0:0:0:
163,187,107743,1,8,0:0:0:0:
115,231,107886,1,0,0:0:0:0:
154,93,107957,1,0,0:0:0:0:
64,64,108029,1,0,0:0:0:0:
115,231,108172,1,8,0:0:0:0:
90,223,108457,1,0,0:0:0:0:
65,232,108600,1,8,0:0:0:0:
76,242,108743,1,0,0:0:0:0:
66,222,108886,1,8,0:0:0:0:
66,222,109029,1,0,0:0:0:0:
448,64,109100,1,0,0:0:0:0:
64,64,109172,1,8,0:0:0:0:
66,222,109314,1,8,0:0:0:0:
224,256,109386,1,8,0:0:0:0:
131,182,109457,1,0,0:0:0:0:
66,222,109600,1,0,0:0:0:0:
66,222,109886,1,12,0:0:0:0:
107,180,110172,1,0,0:0:0:0:
79,196,110314,1,8,0:0:0:0:
66,222,110457,1,8,0:0:0:0:
150,112,110529,1,8,0:0:0:0:
64,64,110600,1,0,0:0:0:0:
184,87,110672,1,0,0:0:0:0:
448,64,110743,1,0,0:0:0:0:
88,230,110886,1,8,0:0:0:0:
160,278,110957,1,0,0:0:0:0:
42,222,111029,1,8,0:0:0:0:
42,222,111314,1,8,0:0:0:0:
147,29,111386,1,8,0:0:0:0:
64,64,111457,1,0,0:0:0:0:
42,222,111600,1,8,0:0:0:0:
94,256,111743,1,0,0:0:0:0:
42,222,111886,1,8,0:0:0:0:
49,171,112314,1,8,0:0:0:0:
123,62,112386,1,8,0:0:0:0:
62,205,112457,1,0,0:0:0:0:
64,64,112600,1,0,0:0:0:0:
89,224,112743,1,8,0:0:0:0:
62,205,113029,1,0,0:0:0:0:
138,251,113172,1,8,0:0:0:0:
166,37,113243,1,8,0:0:0:0:
76,223,113314,1,0,0:0:0:0:
76,223,113600,1,8,0:0:0:0:
90,210,113743,1,0,0:0:0:0:
138,251,113886,1,8,0:0:0:0:
448,64,113957,1,8,0:0:0:0:
448,64,114029,1,8,0:0:0:0:
138,251,114172,1,0,0:0:0:0:
99,194,114600,1,8,0:0:0:0:
160,75,114672,1,0,0:0:0:0:
91,254,114743,1,0,0:0:0:0:
64,64,114886,1,0,0:0:0:0:
138,251,115029,1,8,0:0:0:0:
78,184,115314,1,0,0:0:0:0:
94,262,115457,1,8,0:0:0:0:
94,262,115600,1,8,0:0:0:0:
110,254,115672,1,8,0:0:0:0:
80,156,115743,1,0,0:0:0:0:
113,223,115886,1,8,0:0:0:0:
448,64,115957,1,0,0:0:0:0:
90,210,116029,1,8,0:0:0:0:
113,223,116172,1,0,0:0:0:0:
113,223,116457,1,0,0:0:0:0:
105,257,117029,1,0,0:0:0:0:
64,64,117172,1,0,0:0:0:0:
105,257,117314,1,8,0:0:0:0:
448,64,117600,1,8,0:0:0:0:
108,231,117743,1,8,0:0:0:0:
108,231,117886,1,0,0:0:0:0:
64,64,118029,1,0,0:0:0:0:
108,231,118172,1,8,0:0:0:0:
156,79,118243,1,0,0:0:0:0:
90,210,118314,1,0,0:0:0:0:
108,231,118457,1,8,0:0:0:0:
448,64,118529,1,8,0:0:0:0:
64,64,118600,1,0,0:0:0:0:
64,64,118672,1,0,0:0:0:0:
448,64,118743,1,8,0:0:0:0:
64,64,118814,1,0,0:0:0:0:
64,64,118886,1,0,0:0:0:0:
64,64,118957,1,0,0:0:0:0:
448,320,119029,1,12,0:0:0:0:
80,198,119314,1,0,0:0:0:0:
80,198,119457,1,8,0:0:0:0:
80,198,119600,1,8,0:0:0:0:
64,64,119672,1,0,0:0:0:0:
147,82,119743,1,0,0:0:0:0:
27,204,120029,1,8,0:0:0:0:
76,181,120172,1,0,0:0:0:0:
82,189,120243,1,0,0:0:0:0:
180,116,120314,1,0,0:0:0:0:
27,204,120457,1,8,0:0:0:0:
64,64,120529,1,8,0:0:0:0:
41,216,120600,1,8,0:0:0:0:
448,64,120672,1,8,0:0:0:0:
64,64,120743,1,0,0:0:0:0:
27,204,121029,1,8,0:0:0:0:
110,187,121457,1,8,0:0:0:0:
27,204,121600,1,0,0:0:0:0:
100,231,121743,1,0,0:0:0:0:
27,204,121886,1,8,0:0:0:0:
89,169,122172,1,0,0:0:0:0:
116,202,122314,1,8,0:0:0:0:
37,194,122457,1,0,0:0:0:0:
448,64,122529,1,0,0:0:0:0:
89,169,122600,1,0,0:0:0:0:
37,194,122743,1,8,0:0:0:0:
110,166,122886,1,0,0:0:0:0:
37,194,123029,1,8,0:0:0:0:
168,131,123100,1,8,0:0:0:0:
64,64,123172,1,0,0:0:0:0:
37,194,123314,1,0,0:0:0:0:
448,320,123600,1,12,0:0:0:0:
116,202,123886,1,8,0:0:0:0:
116,202,124029,1,8,0:0:0:0:
116,202,124172,1,0,0:0:0:0:
64,64,124243,1,0,0:0:0:0:
153,99,124314,1,0,0:0:0:0:
115,231,124457,1,0,0:0:0:0:
115,231,124600,1,8,0:0:0:0:
115,231,124743,1,8,0:0:0:0:
448,64,124814,1,0,0:0:0:0:
150,93,124886,1,0,0:0:0:0:
153,99,125029,1,8,0:0:0:0:
158,66,125100,1,8,0:0:0:0:
53,181,125172,1,8,0:0:0:0:
64,64,125243,1,8,0:0:0:0:
64,64,125314,1,0,0:0:0:0:
115,231,125457,1,8,0:0:0:0:
64,64,125529,1,0,0:0:0:0:
115,231,125600,1,8,0:0:0:0:
163,187,126029,1,8,0:0:0:0:
115,231,126172,1,0,0:0:0:0:
64,64,126314,1,0,0:0:0:0:
115,231,126457,1,8,0:0:0:0:
90,223,126743,1,0,0:0:0:0:
65,232,126886,1,8,0:0:0:0:
76,242,127029,1,0,0:0:0:0:
66,222,127172,1,8,0:0:0:0:
66,222,127314,1,0,0:0:0:0:
448,64,127386,1,8,0:0:0:0:
64,64,127457,1,0,0:0:0:0:
66,222,127600,1,8,0:0:0:0:
153,57,127672,1,8,0:0:0:0:
131,182,127743,1,8,0:0:0:0:
66,222,127886,1,0,0:0:0:0:
66,222,128172,1,12,0:0:0:0:
107,180,128457,1,8,0:0:0:0:
79,196,128600,1,0,0:0:0:0:
66,222,128743,1,8,0:0:0:0:
150,112,128814,1,0,0:0:0:0:
64,64,128886,1,0,0:0:0:0:
448,64,129029,1,8,0:0:0:0:
88,230,129172,1,8,0:0:0:0:
42,222,129314,1,0,0:0:0:0:
160,278,129386,1,8,0:0:0:0:
160,109,129457,1,0,0:0:0:0:
42,222,129600,1,8,0:0:0:0:
159,103,129672,1,8,0:0:0:0:
64,64,129743,1,8,0:0:0:0:
154,52,129814,1,8,0:0:0:0:
42,222,129886,1,0,0:0:0:0:
140,86,130029,1,0,0:0:0:0:
42,222,130172,1,8,0:0:0:0:
49,171,130600,1,8,0:0:0:0:
62,205,130743,1,0,0:0:0:0:
146,82,130814,1,0,0:0:0:0:
64,64,130886,1,0,0:0:0:0:
89,224,131029,1,8,0:0:0:0:
62,205,131314,1,0,0:0:0:0:
160,66,131386,1,0,0:0:0:0:
138,251,131457,1,8,0:0:0:0:
76,223,131600,1,8,0:0:0:0:
76,223,131886,1,8,0:0:0:0:
90,210,132029,1,0,0:0:0:0:
138,251,132172,1,8,0:0:0:0:
448,64,132243,1,8,0:0:0:0:
64,64,132314,1,0,0:0:0:0:
138,251,132457,1,0,0:0:0:0:
99,194,132886,1,8,0:0:0:0:
142,82,132957,1,0,0:0:0:0:
91,254,133029,1,0,0:0:0:0:
64,64,133172,1,0,0:0:0:0:
138,251,133314,1,8,0:0:0:0:
78,184,133600,1,0,0:0:0:0:
94,262,133743,1,8,0:0:0:0:
94,262,133886,1,0,0:0:0:0:
110,254,133957,1,8,0:0:0:0:
80,156,134029,1,0,0:0:0:0:
113,223,134172,1,8,0:0:0:0:
448,64,134243,1,8,0:0:0:0:
90,210,134314,1,0,0:0:0:0:
113,223,134457,1,8,0:0:0:0:
113,223,134743,1,8,0:0:0:0:
105,257,135314,1,0,0:0:0:0:
64,64,135457,1,0,0:0:0:0:
105,257,135600,1,8,0:0:0:0:
448,64,135886,1,8,0:0:0:0:
108,231,136029,1,8,0:0:0:0:
108,231,136172,1,0,0:0:0:0:
64,64,136314,1,0,0:0:0:0:
108,231,136457,1,8,0:0:0:0:
90,210,136600,1,0,0:0:0:0:
108,231,136743,5,8,0:0:0:0:
448,64,136779,1,8,0:0:0:0:
182,97,137029,1,0,0:0:0:0:
182,97,137100,1,0,0:0:0:0:
182,97,137172,1,8,0:0:0:0:
64,64,137243,1,8,0:0:0:0:
64,320,137314,5,4,0:0:0:0:
98,210,137600,1,8,0:0:0:0:
448,64,137672,1,8,0:0:0:0:
27,241,137743,1,0,0:0:0:0:
448,64,137886,1,8,0:0:0:0:
224,160,137922,1,8,0:0:0:0:
27,241,138029,1,0,0:0:0:0:
27,241,138314,1,8,0:0:0:0:
43,251,138386,1,8,0:0:0:0:
64,320,138457,1,4,0:0:0:0:
128,237,138743,1,8,0:0:0:0:
64,320,138886,1,4,0:0:0:0:
128,237,139172,1,0,0:0:0:0:
448,320,139314,1,12,0:0:0:0:
64,320,139886,1,4,0:0:0:0:
41,227,140172,1,8,0:0:0:0:
448,64,140207,1,8,0:0:0:0:
41,227,140314,1,0,0:0:0:0:
41,227,140600,1,0,0:0:0:0:
41,227,140743,1,8,0:0:0:0:
448,64,140779,1,8,0:0:0:0:
41,227,140886,1,0,0:0:0:0:
28,204,141172,1,0,0:0:0:0:
27,204,141314,1,8,0:0:0:0:
448,64,141350,1,8,0:0:0:0:
28,202,141457,1,0,0:0:0:0:
28,202,141743,1,8,0:0:0:0:
64,320,141886,1,4,0:0:0:0:
51,210,142314,1,0,0:0:0:0:
51,210,142457,1,8,0:0:0:0:
448,64,142493,1,8,0:0:0:0:
54,219,142600,1,0,0:0:0:0:
448,64,142886,1,8,0:0:0:0:
64,320,143029,1,4,0:0:0:0:
64,64,143314,1,0,0:0:0:0:
448,320,143457,1,12,0:0:0:0:
110,191,143743,1,0,0:0:0:0:
448,320,143886,1,12,0:0:0:0:
46,217,144457,1,0,0:0:0:0:
46,217,144743,1,8,0:0:0:0:
46,217,144886,1,0,0:0:0:0:
448,64,144957,1,0,0:0:0:0:
46,217,145029,1,0,0:0:0:0:
64,320,145172,1,12,0:0:0:0:
46,217,145600,1,0,0:0:0:0:
46,217,145886,1,8,0:0:0:0:
46,217,146029,1,0,0:0:0:0:
448,64,146100,1,0,0:0:0:0:
46,217,146172,1,8,0:0:0:0:
64,320,146314,1,4,0:0:0:0:
43,209,146743,1,0,0:0:0:0:
42,209,147029,1,8,0:0:0:0:
42,209,147172,1,0,0:0:0:0:
37,260,147314,1,8,0:0:0:0:
37,260,147386,1,8,0:0:0:0:
37,260,147457,1,8,0:0:0:0:
177,146,147600,1,0,0:0:0:0:
177,146,147672,1,0,0:0:0:0:
448,64,147743,1,8,0:0:0:0:
448,64,147814,1,8,0:0:0:0:
79,226,147886,1,0,0:0:0:0:
64,320,148029,1,8,0:0:0:0:
193,92,148100,1,8,0:0:0:0:
64,64,148172,1,0,0:0:0:0:
64,64,148243,1,8,0:0:0:0:
85,228,148314,1,0,0:0:0:0:
219,69,148386,1,0,0:0:0:0:
64,320,148457,1,12,0:0:0:0:
40,228,149029,1,0,0:0:0:0:
40,228,149314,1,8,0:0:0:0:
40,228,149505,1,8,0:0:0:0:
40,228,149695,1,0,0:0:0:0:
40,228,149886,1,8,0:0:0:0:
40,228,150076,1,0,0:0:0:0:
55,178,150267,1,0,0:0:0:0:
40,228,150457,1,8,0:0:0:0:
40,228,150648,1,0,0:0:0:0:
40,228,150838,1,0,0:0:0:0:
40,228,151029,1,12,0:0:0:0:
47,223,151600,1,0,0:0:0:0:
47,223,152172,1,8,0:0:0:0:
47,223,152743,1,8,0:0:0:0:
64,320,153314,1,4,0:0:0:0:
29,223,153886,1,8,0:0:0:0:
448,64,154457,1,8,0:0:0:0:
203,169,154743,1,0,0:0:0:0:
29,223,155029,1,8,0:0:0:0:
64,64,155172,1,0,0:0:0:0:
64,64,155457,1,0,0:0:0:0:
64,320,155600,1,4,0:0:0:0:
98,210,155886,1,8,0:0:0:0:
448,64,155957,1,8,0:0:0:0:
27,241,156029,1,0,0:0:0:0:
448,64,156172,1,8,0:0:0:0:
209,106,156207,1,8,0:0:0:0:
27,241,156314,1,0,0:0:0:0:
27,241,156600,1,8,0:0:0:0:
43,251,156672,1,8,0:0:0:0:
64,320,156743,1,4,0:0:0:0:
128,237,157029,1,8,0:0:0:0:
64,320,157172,1,4,0:0:0:0:
128,237,157457,1,0,0:0:0:0:
448,320,157600,1,12,0:0:0:0:
64,320,158172,1,4,0:0:0:0:
41,227,158457,1,8,0:0:0:0:
448,64,158493,1,8,0:0:0:0:
41,227,158600,1,0,0:0:0:0:
41,227,158886,1,0,0:0:0:0:
41,227,159029,1,8,0:0:0:0:
448,64,159064,1,8,0:0:0:0:
41,227,159172,1,0,0:0:0:0:
28,204,159457,1,0,0:0:0:0:
27,204,159600,1,8,0:0:0:0:
448,64,159636,1,8,0:0:0:0:
28,202,159743,1,8,0:0:0:0:
28,202,160029,1,8,0:0:0:0:
64,320,160172,1,4,0:0:0:0:
51,210,160600,1,0,0:0:0:0:
51,210,160743,1,8,0:0:0:0:
448,64,160779,1,8,0:0:0:0:
54,219,160886,1,0,0:0:0:0:
448,64,161172,1,8,0:0:0:0:
64,320,161314,1,4,0:0:0:0:
64,64,161600,1,0,0:0:0:0:
448,320,161743,1,12,0:0:0:0:
110,191,162029,1,0,0:0:0:0:
448,320,162172,1,12,0:0:0:0:
46,217,162743,1,0,0:0:0:0:
46,217,163029,1,8,0:0:0:0:
46,217,163172,1,0,0:0:0:0:
448,64,163243,1,0,0:0:0:0:
46,217,163314,1,0,0:0:0:0:
64,320,163457,1,12,0:0:0:0:
46,217,163886,1,0,0:0:0:0:
46,217,164172,1,8,0:0:0:0:
46,217,164314,1,0,0:0:0:0:
448,64,164386,1,0,0:0:0:0:
46,217,164457,1,8,0:0:0:0:
64,320,164600,1,4,0:0:0:0:
43,209,165029,1,0,0:0:0:0:
42,209,165314,1,8,0:0:0:0:
42,209,165457,1,0,0:0:0:0:
37,260,165600,1,8,0:0:0:0:
37,260,165672,1,8,0:0:0:0:
37,260,165743,1,8,0:0:0:0:
64,320,165886,1,0,0:0:0:0:
448,64,166029,1,8,0:0:0:0:
448,64,166100,1,8,0:0:0:0:
79,226,166172,1,0,0:0:0:0:
64,320,166314,1,8,0:0:0:0:
197,150,166386,1,0,0:0:0:0:
64,64,166457,1,8,0:0:0:0:
64,64,166529,1,8,0:0:0:0:
85,228,166600,1,0,0:0:0:0:
290,95,166672,1,0,0:0:0:0:
64,320,166743,1,12,0:0:0:0:
40,228,167314,1,0,0:0:0:0:
40,228,167600,1,8,0:0:0:0:
448,64,167695,1,8,0:0:0:0:
448,64,167791,1,0,0:0:0:0:
64,64,167886,1,0,0:0:0:0:
40,228,167981,1,0,0:0:0:0:
64,64,168076,1,0,0:0:0:0:
40,228,168172,1,8,0:0:0:0:
448,64,168267,1,0,0:0:0:0:
40,228,168362,1,8,0:0:0:0:
64,64,168457,1,8,0:0:0:0:
55,178,168552,1,0,0:0:0:0:
64,64,168648,1,0,0:0:0:0:
40,228,168743,1,8,0:0:0:0:
448,64,168791,1,8,0:0:0:0:
448,64,168838,1,8,0:0:0:0:
365,201,168933,1,0,0:0:0:0:
64,64,169029,1,0,0:0:0:0:
40,228,169124,1,0,0:0:0:0:
64,64,169219,1,0,0:0:0:0:
40,228,169314,1,12,0:0:0:0:
47,223,169886,1,0,0:0:0:0:
47,223,170457,1,8,0:0:0:0:
47,223,171029,1,8,0:0:0:0:
64,64,171600,1,0,0:0:0:0:
64,64,173172,1,0,0:0:0:0:
448,64,173743,1,8,0:0:0:0:
256,192,174172,12,0,176457,0:0:0:0:
