osu file format v14

[General]
AudioFilename: audio.mp3
AudioLeadIn: 0
PreviewTime: 99887
Countdown: 0
SampleSet: Normal
StackLeniency: 0.7
Mode: 1
LetterboxInBreaks: 0
WidescreenStoryboard: 1

[Editor]
Bookmarks: 178457
DistanceSpacing: 0.6
BeatDivisor: 4
GridSize: 32
TimelineZoom: 2

[Metadata]
Title:Moebius Chicken Strip
TitleUnicode:Möbius Chicken Strip
Artist:Origami Angel
ArtistUnicode:Origami Angel
Creator:4lw
Version:Futsuu
Source:
Tags:indie emo midwest mid west rock english gami gang fa featured artist iamveryfat boaz mobius
BeatmapID:3689573
BeatmapSetID:1795159

[Difficulty]
HPDrainRate:7
CircleSize:3
OverallDifficulty:4
ApproachRate:9
SliderMultiplier:1.4
SliderTickRate:1

[Events]
//Background and Video events
0,0,"background.jpg",0,0
//Break Periods
//Storyboard Layer 0 (Background)
//Storyboard Layer 1 (Fail)
//Storyboard Layer 2 (Pass)
//Storyboard Layer 3 (Foreground)
//Storyboard Layer 4 (Overlay)
//Storyboard Sound Samples

[TimingPoints]
172,285.714285714286,4,1,0,30,1,0
172,-105.263157894737,4,1,0,30,0,0
9029,-105.263157894737,4,1,0,90,0,0
13886,-95.2380952380952,4,1,0,100,0,1
18457,-105.263157894737,4,1,0,100,0,0
23029,-95.2380952380952,4,1,0,100,0,1
27600,-105.263157894737,4,1,0,80,0,0
100743,-95.2380952380952,4,1,0,100,0,1
137314,-105.263157894737,4,1,0,80,0,0

[HitObjects]
122,237,9029,5,0,0:0:0:0:
448,320,9314,5,12,0:0:0:0:
25,289,9600,1,8,0:0:0:0:
33,255,9886,1,0,0:0:0:0:
167,169,10029,1,0,0:0:0:0:
33,255,10172,1,0,0:0:0:0:
33,255,10457,1,8,0:0:0:0:
31,272,10743,1,0,0:0:0:0:
31,272,10886,1,8,0:0:0:0:
29,269,11172,1,0,0:0:0:0:
29,268,11314,1,8,0:0:0:0:
64,64,11600,1,0,0:0:0:0:
31,272,11886,1,8,0:0:0:0:
88,244,12172,1,8,0:0:0:0:
164,119,12314,1,0,0:0:0:0:
88,244,12457,1,0,0:0:0:0:
88,244,12743,1,8,0:0:0:0:
164,119,13029,1,8,0:0:0:0:
88,244,13172,1,0,0:0:0:0:
156,113,13457,1,0,0:0:0:0:
156,113,13600,1,8,0:0:0:0:
448,64,13886,1,8,0:0:0:0:
104,228,14172,1,8,0:0:0:0:
124,212,14314,1,8,0:0:0:0:
180,107,14457,1,0,0:0:0:0:
104,228,14743,1,8,0:0:0:0:
165,119,15029,1,0,0:0:0:0:
103,227,15314,1,8,0:0:0:0:
104,228,15457,1,0,0:0:0:0:
85,231,16172,1,8,0:0:0:0:
104,228,16314,1,8,0:0:0:0:
102,226,16457,1,8,0:0:0:0:
162,97,16743,1,0,0:0:0:0:
102,224,17029,1,8,0:0:0:0:
102,221,17172,1,0,0:0:0:0:
102,226,17457,1,8,0:0:0:0:
169,81,17600,1,8,0:0:0:0:
102,221,17743,1,0,0:0:0:0:
153,97,18029,1,8,0:0:0:0:
57,179,18314,1,8,0:0:0:0:
75,245,18457,1,0,0:0:0:0:
75,245,18743,1,8,0:0:0:0:
75,245,19029,1,0,0:0:0:0:
262,127,19172,1,0,0:0:0:0:
75,245,19314,1,8,0:0:0:0:
102,260,19600,1,0,0:0:0:0:
102,260,19886,1,8,0:0:0:0:
98,254,20457,1,8,0:0:0:0:
64,64,20743,1,0,0:0:0:0:
94,251,21029,1,8,0:0:0:0:
94,251,21314,1,0,0:0:0:0:
96,251,21457,1,0,0:0:0:0:
96,251,21600,1,8,0:0:0:0:
94,251,21886,1,0,0:0:0:0:
94,251,22172,1,8,0:0:0:0:
94,251,22314,1,8,0:0:0:0:
50,188,22600,1,0,0:0:0:0:
50,188,22743,1,0,0:0:0:0:
448,64,23029,1,8,0:0:0:0:
104,228,23314,1,8,0:0:0:0:
124,212,23457,1,8,0:0:0:0:
180,107,23600,1,0,0:0:0:0:
149,186,23886,1,0,0:0:0:0:
165,119,24172,1,0,0:0:0:0:
201,83,24314,1,0,0:0:0:0:
103,227,24457,1,8,0:0:0:0:
104,228,24743,1,0,0:0:0:0:
85,231,25314,1,8,0:0:0:0:
102,226,25457,1,0,0:0:0:0:
104,228,25600,1,8,0:0:0:0:
162,97,25886,1,0,0:0:0:0:
102,224,26029,1,8,0:0:0:0:
264,103,26172,1,8,0:0:0:0:
102,226,26457,1,0,0:0:0:0:
102,221,26743,1,0,0:0:0:0:
153,97,27029,1,8,0:0:0:0:
75,245,27600,1,4,0:0:0:0:
133,226,28029,1,0,0:0:0:0:
448,64,28172,1,8,0:0:0:0:
36,299,28314,1,0,0:0:0:0:
64,320,28743,1,4,0:0:0:0:
64,320,29172,1,4,0:0:0:0:
64,320,29600,1,12,0:0:0:0:
64,320,30172,1,4,0:0:0:0:
67,239,30457,1,8,0:0:0:0:
118,94,30600,1,0,0:0:0:0:
67,239,31029,1,8,0:0:0:0:
118,94,31172,1,0,0:0:0:0:
67,239,31600,1,8,0:0:0:0:
118,94,31743,1,0,0:0:0:0:
64,320,32172,1,4,0:0:0:0:
73,247,32600,1,0,0:0:0:0:
83,231,32743,1,8,0:0:0:0:
142,254,32886,1,0,0:0:0:0:
64,320,33314,1,4,0:0:0:0:
448,320,33743,1,12,0:0:0:0:
448,320,34172,1,12,0:0:0:0:
71,209,34743,1,0,0:0:0:0:
71,209,35029,1,8,0:0:0:0:
122,143,35314,1,0,0:0:0:0:
64,320,35457,1,12,0:0:0:0:
47,184,35886,1,0,0:0:0:0:
47,184,36172,1,8,0:0:0:0:
75,203,36457,1,8,0:0:0:0:
64,320,36600,1,4,0:0:0:0:
81,219,37029,1,0,0:0:0:0:
81,219,37314,1,8,0:0:0:0:
87,139,37457,1,0,0:0:0:0:
87,139,37600,1,8,0:0:0:0:
64,64,37886,1,0,0:0:0:0:
448,64,38314,1,8,0:0:0:0:
448,320,38743,1,12,0:0:0:0:
111,200,39314,1,0,0:0:0:0:
111,200,39600,1,8,0:0:0:0:
80,231,41314,1,12,0:0:0:0:
92,230,41886,1,0,0:0:0:0:
92,230,42457,1,8,0:0:0:0:
92,230,43029,1,8,0:0:0:0:
64,320,43600,1,4,0:0:0:0:
448,64,44172,1,8,0:0:0:0:
92,230,44743,1,0,0:0:0:0:
92,230,45314,1,8,0:0:0:0:
64,64,45600,1,0,0:0:0:0:
64,320,45886,1,4,0:0:0:0:
36,299,46457,1,8,0:0:0:0:
36,299,46600,1,8,0:0:0:0:
448,64,46886,1,8,0:0:0:0:
64,320,47029,1,4,0:0:0:0:
64,320,47457,1,4,0:0:0:0:
448,320,47886,1,12,0:0:0:0:
67,239,48457,1,0,0:0:0:0:
67,239,48743,1,8,0:0:0:0:
67,239,49314,1,8,0:0:0:0:
67,239,49886,1,8,0:0:0:0:
64,320,50457,1,4,0:0:0:0:
73,247,50886,1,0,0:0:0:0:
83,231,51029,1,8,0:0:0:0:
99,237,51172,1,0,0:0:0:0:
64,320,51600,1,4,0:0:0:0:
64,320,52029,1,4,0:0:0:0:
448,320,52457,1,12,0:0:0:0:
71,209,53029,1,0,0:0:0:0:
71,209,53314,1,8,0:0:0:0:
448,320,53743,1,12,0:0:0:0:
47,184,54172,1,8,0:0:0:0:
47,184,54457,1,8,0:0:0:0:
64,320,54886,1,4,0:0:0:0:
81,219,55314,1,0,0:0:0:0:
81,219,55600,1,8,0:0:0:0:
64,64,56172,1,0,0:0:0:0:
448,64,56600,1,8,0:0:0:0:
448,320,57029,1,12,0:0:0:0:
111,200,57600,1,0,0:0:0:0:
111,200,57886,1,8,0:0:0:0:
109,216,58076,1,8,0:0:0:0:
170,203,58267,1,0,0:0:0:0:
139,242,58457,1,8,0:0:0:0:
116,206,59029,1,8,0:0:0:0:
116,205,59219,1,0,0:0:0:0:
167,171,59410,1,0,0:0:0:0:
117,202,59600,1,12,0:0:0:0:
119,210,61886,1,0,0:0:0:0:
120,221,62029,1,0,0:0:0:0:
132,252,62314,1,0,0:0:0:0:
119,210,62457,1,8,0:0:0:0:
64,64,62743,1,0,0:0:0:0:
119,210,63029,1,0,0:0:0:0:
64,64,63172,1,0,0:0:0:0:
119,210,63314,1,0,0:0:0:0:
448,64,63600,1,8,0:0:0:0:
448,64,63743,1,8,0:0:0:0:
448,64,63886,1,8,0:0:0:0:
448,64,64172,1,8,0:0:0:0:
125,274,68172,5,8,0:0:0:0:
125,274,68362,1,0,0:0:0:0:
137,240,68743,1,12,0:0:0:0:
98,233,69314,1,8,0:0:0:0:
124,221,69743,1,0,0:0:0:0:
124,221,70029,1,8,0:0:0:0:
124,221,70172,1,0,0:0:0:0:
124,221,70457,1,8,0:0:0:0:
124,221,71029,1,8,0:0:0:0:
133,226,71172,1,8,0:0:0:0:
118,222,71457,1,8,0:0:0:0:
133,226,71600,1,8,0:0:0:0:
118,222,71886,1,8,0:0:0:0:
118,222,72029,1,0,0:0:0:0:
118,222,72314,1,0,0:0:0:0:
133,226,72457,1,8,0:0:0:0:
118,222,72743,1,8,0:0:0:0:
94,208,73314,1,0,0:0:0:0:
110,220,73457,1,0,0:0:0:0:
79,205,73743,1,0,0:0:0:0:
448,320,73886,1,12,0:0:0:0:
77,204,74172,1,0,0:0:0:0:
77,204,74314,1,0,0:0:0:0:
79,205,74600,1,0,0:0:0:0:
448,320,74743,1,12,0:0:0:0:
77,204,75029,1,0,0:0:0:0:
448,320,75314,1,12,0:0:0:0:
79,205,75600,1,0,0:0:0:0:
79,205,75743,1,0,0:0:0:0:
77,204,76029,1,0,0:0:0:0:
448,320,76172,1,12,0:0:0:0:
79,189,76457,1,0,0:0:0:0:
79,189,76600,1,0,0:0:0:0:
79,189,76886,1,0,0:0:0:0:
448,320,77029,1,12,0:0:0:0:
79,189,77314,1,8,0:0:0:0:
79,189,77600,1,12,0:0:0:0:
64,320,77886,1,4,0:0:0:0:
73,180,78457,1,8,0:0:0:0:
56,219,78886,1,0,0:0:0:0:
56,219,79172,1,8,0:0:0:0:
56,219,79314,1,0,0:0:0:0:
56,219,79600,1,8,0:0:0:0:
51,212,80172,1,8,0:0:0:0:
70,218,80314,1,8,0:0:0:0:
448,64,80600,1,8,0:0:0:0:
105,192,80743,1,8,0:0:0:0:
51,212,81029,1,8,0:0:0:0:
105,192,81172,1,0,0:0:0:0:
64,64,81457,1,0,0:0:0:0:
448,64,81600,1,8,0:0:0:0:
51,212,81886,1,8,0:0:0:0:
64,64,82457,1,0,0:0:0:0:
175,193,82600,1,0,0:0:0:0:
64,64,82886,1,0,0:0:0:0:
448,320,83029,1,12,0:0:0:0:
64,64,83314,1,0,0:0:0:0:
102,214,83457,1,0,0:0:0:0:
448,320,83886,1,12,0:0:0:0:
102,214,84172,1,0,0:0:0:0:
448,320,84457,1,12,0:0:0:0:
102,214,84743,1,0,0:0:0:0:
102,214,84886,1,0,0:0:0:0:
173,182,85172,1,0,0:0:0:0:
448,320,85314,1,12,0:0:0:0:
125,171,85600,1,0,0:0:0:0:
102,214,85743,1,0,0:0:0:0:
448,320,86172,1,12,0:0:0:0:
102,214,86457,1,0,0:0:0:0:
448,320,86743,1,12,0:0:0:0:
64,320,87029,1,4,0:0:0:0:
95,211,87600,1,8,0:0:0:0:
109,248,88029,1,0,0:0:0:0:
94,211,88314,1,8,0:0:0:0:
132,242,88457,1,0,0:0:0:0:
133,242,88743,1,8,0:0:0:0:
101,271,89314,1,8,0:0:0:0:
144,246,89457,1,8,0:0:0:0:
101,271,89743,1,8,0:0:0:0:
64,64,89886,1,0,0:0:0:0:
64,64,90172,1,0,0:0:0:0:
448,64,90314,1,8,0:0:0:0:
98,209,90600,1,0,0:0:0:0:
101,271,90743,1,8,0:0:0:0:
101,271,91029,1,8,0:0:0:0:
64,64,91600,1,0,0:0:0:0:
126,226,91743,1,0,0:0:0:0:
126,226,92029,1,0,0:0:0:0:
448,320,92172,1,12,0:0:0:0:
126,226,92457,1,0,0:0:0:0:
126,226,92600,1,0,0:0:0:0:
64,64,92886,1,0,0:0:0:0:
448,320,93029,1,12,0:0:0:0:
126,226,93314,1,0,0:0:0:0:
448,320,93600,1,12,0:0:0:0:
126,226,93886,1,0,0:0:0:0:
64,64,94314,1,0,0:0:0:0:
448,64,94457,1,12,0:0:0:0:
448,64,94743,1,8,0:0:0:0:
126,226,94886,1,0,0:0:0:0:
126,226,95172,1,0,0:0:0:0:
126,226,95314,1,12,0:0:0:0:
126,226,95600,1,8,0:0:0:0:
448,320,95886,1,12,0:0:0:0:
64,320,96172,1,4,0:0:0:0:
107,215,96743,1,8,0:0:0:0:
107,215,97172,1,0,0:0:0:0:
107,215,97457,1,8,0:0:0:0:
107,215,97600,1,0,0:0:0:0:
107,215,97886,1,8,0:0:0:0:
448,64,98457,1,8,0:0:0:0:
448,64,98600,1,8,0:0:0:0:
64,64,98886,1,0,0:0:0:0:
64,64,99029,1,0,0:0:0:0:
448,64,99314,1,8,0:0:0:0:
64,64,99457,1,0,0:0:0:0:
64,64,99743,1,0,0:0:0:0:
448,64,99886,1,8,0:0:0:0:
448,64,100172,1,8,0:0:0:0:
126,231,100743,1,12,0:0:0:0:
142,272,101314,1,0,0:0:0:0:
142,272,101600,1,8,0:0:0:0:
142,272,101743,1,8,0:0:0:0:
142,272,101886,1,0,0:0:0:0:
142,272,102172,1,8,0:0:0:0:
142,272,102457,1,0,0:0:0:0:
142,272,102743,1,8,0:0:0:0:
91,231,103314,1,0,0:0:0:0:
91,231,103600,1,8,0:0:0:0:
91,231,104029,1,8,0:0:0:0:
91,231,104172,1,0,0:0:0:0:
91,231,104457,1,0,0:0:0:0:
91,231,104743,1,8,0:0:0:0:
91,231,105029,1,0,0:0:0:0:
91,231,105314,1,12,0:0:0:0:
91,231,105743,1,8,0:0:0:0:
91,231,105886,1,0,0:0:0:0:
121,238,106314,1,8,0:0:0:0:
121,238,106457,1,8,0:0:0:0:
121,238,106743,1,0,0:0:0:0:
121,238,107029,1,8,0:0:0:0:
121,238,107172,1,0,0:0:0:0:
121,238,107314,1,8,0:0:0:0:
121,238,107886,1,0,0:0:0:0:
121,238,108172,1,8,0:0:0:0:
121,238,108600,1,8,0:0:0:0:
121,238,108743,1,0,0:0:0:0:
121,238,108886,1,8,0:0:0:0:
121,238,109029,1,0,0:0:0:0:
121,238,109314,1,8,0:0:0:0:
117,225,109600,1,0,0:0:0:0:
448,320,109886,1,12,0:0:0:0:
117,225,110314,1,0,0:0:0:0:
117,225,110457,1,8,0:0:0:0:
117,225,110886,1,8,0:0:0:0:
117,225,111029,1,0,0:0:0:0:
117,225,111314,1,0,0:0:0:0:
110,225,111600,1,8,0:0:0:0:
110,225,111743,1,0,0:0:0:0:
110,225,111886,1,0,0:0:0:0:
110,235,112457,1,0,0:0:0:0:
110,235,112743,1,8,0:0:0:0:
110,235,113029,1,0,0:0:0:0:
110,235,113172,1,8,0:0:0:0:
110,235,113314,1,0,0:0:0:0:
110,235,113600,1,0,0:0:0:0:
110,235,113886,1,8,0:0:0:0:
110,235,114172,1,0,0:0:0:0:
110,235,114743,1,0,0:0:0:0:
110,235,115029,1,8,0:0:0:0:
110,235,115314,1,0,0:0:0:0:
110,235,115457,1,8,0:0:0:0:
110,235,115600,1,8,0:0:0:0:
110,235,115886,1,0,0:0:0:0:
110,235,116172,1,8,0:0:0:0:
110,235,116457,1,0,0:0:0:0:
110,235,117029,1,0,0:0:0:0:
110,235,117314,1,8,0:0:0:0:
110,235,117743,1,8,0:0:0:0:
110,235,117886,1,0,0:0:0:0:
110,235,118172,1,8,0:0:0:0:
110,235,118457,1,8,0:0:0:0:
448,320,119029,1,12,0:0:0:0:
142,272,119457,1,8,0:0:0:0:
142,272,119600,1,0,0:0:0:0:
142,272,119886,1,0,0:0:0:0:
142,272,120029,1,8,0:0:0:0:
142,272,120172,1,0,0:0:0:0:
142,272,120457,1,0,0:0:0:0:
142,272,120743,1,8,0:0:0:0:
142,272,121029,1,0,0:0:0:0:
91,231,121600,1,0,0:0:0:0:
91,231,121886,1,8,0:0:0:0:
91,231,122314,1,8,0:0:0:0:
91,231,122457,1,0,0:0:0:0:
91,231,122743,1,8,0:0:0:0:
91,231,123029,1,8,0:0:0:0:
91,231,123314,1,0,0:0:0:0:
91,231,123600,1,12,0:0:0:0:
91,231,124029,1,0,0:0:0:0:
91,231,124172,1,8,0:0:0:0:
121,238,124600,1,8,0:0:0:0:
121,238,124743,1,0,0:0:0:0:
121,238,125029,1,0,0:0:0:0:
121,238,125314,1,8,0:0:0:0:
121,238,125457,1,0,0:0:0:0:
121,238,125600,1,8,0:0:0:0:
121,238,126172,1,0,0:0:0:0:
121,238,126457,1,8,0:0:0:0:
121,238,126886,1,0,0:0:0:0:
121,238,127029,1,8,0:0:0:0:
121,238,127172,1,0,0:0:0:0:
121,238,127314,1,8,0:0:0:0:
121,238,127600,1,8,0:0:0:0:
117,225,127886,1,0,0:0:0:0:
117,225,128172,1,12,0:0:0:0:
117,225,128600,1,0,0:0:0:0:
117,225,128743,1,8,0:0:0:0:
117,225,129172,1,8,0:0:0:0:
117,225,129314,1,0,0:0:0:0:
117,225,129600,1,0,0:0:0:0:
110,225,129886,1,8,0:0:0:0:
110,225,130029,1,8,0:0:0:0:
110,225,130172,1,0,0:0:0:0:
110,235,130743,1,0,0:0:0:0:
110,235,131029,1,8,0:0:0:0:
110,235,131314,1,0,0:0:0:0:
110,235,131457,1,8,0:0:0:0:
110,235,131600,1,0,0:0:0:0:
110,235,131886,1,0,0:0:0:0:
110,235,132172,1,8,0:0:0:0:
110,235,132457,1,0,0:0:0:0:
110,235,133029,1,0,0:0:0:0:
110,235,133314,1,8,0:0:0:0:
110,235,133600,1,0,0:0:0:0:
110,235,133743,1,8,0:0:0:0:
110,235,133886,1,0,0:0:0:0:
110,235,134172,1,0,0:0:0:0:
110,235,134457,1,8,0:0:0:0:
110,235,134743,1,0,0:0:0:0:
110,235,135314,1,0,0:0:0:0:
110,235,135600,1,8,0:0:0:0:
110,235,136029,1,8,0:0:0:0:
110,235,136172,1,0,0:0:0:0:
110,235,136457,1,0,0:0:0:0:
448,320,136743,1,12,0:0:0:0:
87,237,137314,1,4,0:0:0:0:
133,226,137743,1,0,0:0:0:0:
36,299,137886,1,8,0:0:0:0:
36,299,138029,1,8,0:0:0:0:
448,64,138314,1,8,0:0:0:0:
64,320,138457,1,4,0:0:0:0:
64,320,138886,1,4,0:0:0:0:
448,320,139314,1,12,0:0:0:0:
64,320,139886,1,4,0:0:0:0:
448,64,140172,1,8,0:0:0:0:
448,64,140743,1,8,0:0:0:0:
67,239,141314,1,8,0:0:0:0:
64,320,141886,1,4,0:0:0:0:
73,247,142314,1,0,0:0:0:0:
83,231,142457,1,8,0:0:0:0:
99,237,142600,1,0,0:0:0:0:
448,64,142886,1,8,0:0:0:0:
64,320,143029,1,4,0:0:0:0:
448,320,143457,1,12,0:0:0:0:
448,320,143886,1,12,0:0:0:0:
71,209,144457,1,0,0:0:0:0:
71,209,144743,1,8,0:0:0:0:
47,184,145029,1,0,0:0:0:0:
448,320,145172,1,12,0:0:0:0:
47,184,145600,1,0,0:0:0:0:
47,184,145886,1,8,0:0:0:0:
47,184,146172,1,8,0:0:0:0:
64,320,146314,1,4,0:0:0:0:
81,219,146743,1,0,0:0:0:0:
81,219,147029,1,8,0:0:0:0:
64,64,147600,1,0,0:0:0:0:
448,64,148029,1,8,0:0:0:0:
448,320,148457,1,12,0:0:0:0:
111,200,149029,1,0,0:0:0:0:
111,200,149314,1,8,0:0:0:0:
448,320,151029,1,12,0:0:0:0:
92,230,151600,1,0,0:0:0:0:
92,230,152172,1,8,0:0:0:0:
92,230,152743,1,8,0:0:0:0:
92,230,153314,1,4,0:0:0:0:
448,64,153886,1,8,0:0:0:0:
448,64,154457,1,8,0:0:0:0:
113,215,154743,1,0,0:0:0:0:
92,230,155029,1,8,0:0:0:0:
92,230,155172,1,0,0:0:0:0:
87,237,155600,1,4,0:0:0:0:
133,226,156029,1,0,0:0:0:0:
36,299,156172,1,8,0:0:0:0:
36,299,156314,1,8,0:0:0:0:
448,64,156600,1,8,0:0:0:0:
36,299,156743,1,4,0:0:0:0:
67,239,157172,1,4,0:0:0:0:
67,239,157600,1,12,0:0:0:0:
64,320,158172,1,4,0:0:0:0:
448,320,158457,1,8,0:0:0:0:
448,320,159029,1,8,0:0:0:0:
448,64,159600,1,8,0:0:0:0:
64,320,160172,1,4,0:0:0:0:
73,247,160600,1,0,0:0:0:0:
83,231,160743,1,8,0:0:0:0:
99,237,160886,1,0,0:0:0:0:
448,64,161172,1,8,0:0:0:0:
64,320,161314,1,4,0:0:0:0:
448,320,161743,1,12,0:0:0:0:
448,320,162172,1,12,0:0:0:0:
71,209,162743,1,0,0:0:0:0:
71,209,163029,1,8,0:0:0:0:
64,64,163314,1,0,0:0:0:0:
448,320,163457,1,12,0:0:0:0:
47,184,163886,1,0,0:0:0:0:
47,184,164172,1,8,0:0:0:0:
47,184,164457,1,8,0:0:0:0:
64,320,164600,1,4,0:0:0:0:
81,219,165029,1,0,0:0:0:0:
81,219,165314,1,8,0:0:0:0:
64,64,165886,1,0,0:0:0:0:
448,64,166314,1,8,0:0:0:0:
448,320,166743,1,12,0:0:0:0:
111,200,167314,1,0,0:0:0:0:
111,200,167600,1,8,0:0:0:0:
109,216,167791,1,8,0:0:0:0:
64,64,167981,1,0,0:0:0:0:
109,216,168172,1,8,0:0:0:0:
64,64,168362,1,0,0:0:0:0:
448,64,168743,1,8,0:0:0:0:
64,64,168933,1,8,0:0:0:0:
189,112,169124,1,0,0:0:0:0:
117,202,169314,1,12,0:0:0:0:
64,64,171600,1,0,0:0:0:0:
248,261,173172,1,0,0:0:0:0:
256,192,173600,8,0,176457,0:0:0:0:
