osu file format v14

[General]
AudioFilename: audio.mp3
AudioLeadIn: 0
PreviewTime: 99887
Countdown: 0
SampleSet: Normal
StackLeniency: 0.7
Mode: 1
LetterboxInBreaks: 0
WidescreenStoryboard: 1

[Editor]
DistanceSpacing: 0.5
BeatDivisor: 4
GridSize: 32
TimelineZoom: 2.3

[Metadata]
Title:Moebius Chicken Strip
TitleUnicode:Möbius Chicken Strip
Artist:Origami Angel
ArtistUnicode:Origami Angel
Creator:4lw
Version:Boaz's Kantan
Source:
Tags:indie emo midwest mid west rock english gami gang fa featured artist iamveryfat boaz mobius
BeatmapID:3702612
BeatmapSetID:1795159

[Difficulty]
HPDrainRate:8
CircleSize:3
OverallDifficulty:3
ApproachRate:9
SliderMultiplier:1.4
SliderTickRate:1

[Events]
//Background and Video events
0,0,"background.jpg",0,0
//Break Periods
//Storyboard Layer 0 (Background)
//Storyboard Layer 1 (Fail)
//Storyboard Layer 2 (Pass)
//Storyboard Layer 3 (Foreground)
//Storyboard Layer 4 (Overlay)
//Storyboard Sound Samples

[TimingPoints]
172,285.714285714286,4,1,0,100,1,0
9029,-100,4,1,0,80,0,0
100743,-100,4,1,0,80,0,1
137314,-100,4,1,0,80,0,0

[HitObjects]
313,140,9029,5,0,1:0:0:0:
305,134,9314,1,12,1:0:0:0:
305,134,9886,1,0,1:0:0:0:
305,134,10457,1,8,1:0:0:0:
305,134,10886,1,8,1:0:0:0:
287,125,11600,5,8,1:0:0:0:
232,142,12457,1,0,1:0:0:0:
287,125,12743,1,8,1:0:0:0:
287,125,13172,1,0,1:0:0:0:
287,125,13886,5,8,1:0:0:0:
287,125,14457,1,8,1:0:0:0:
287,125,15029,1,0,1:0:0:0:
294,128,15457,1,0,1:0:0:0:
294,128,16172,5,8,1:0:0:0:
294,128,17029,1,0,1:0:0:0:
209,123,17314,1,8,1:0:0:0:
294,128,17886,1,0,1:0:0:0:
294,128,18457,1,8,1:0:0:0:
209,123,18743,1,0,1:0:0:0:
209,123,19314,1,0,1:0:0:0:
209,123,19600,1,8,1:0:0:0:
209,123,19886,1,8,1:0:0:0:
209,123,20457,1,8,1:0:0:0:
209,123,20743,1,0,1:0:0:0:
209,123,21029,1,8,1:0:0:0:
209,123,21600,1,8,1:0:0:0:
209,123,21886,1,0,1:0:0:0:
209,123,22172,1,0,1:0:0:0:
209,123,22743,1,0,1:0:0:0:
209,123,23029,1,8,1:0:0:0:
209,123,23600,1,8,1:0:0:0:
209,123,24172,1,0,1:0:0:0:
209,123,24743,1,0,1:0:0:0:
209,123,25314,1,8,1:0:0:0:
209,123,26172,1,8,1:0:0:0:
209,123,26457,1,0,1:0:0:0:
209,123,27029,1,0,1:0:0:0:
209,123,27600,1,12,1:0:0:0:
209,123,28172,1,0,1:0:0:0:
209,123,28743,1,12,1:0:0:0:
209,123,29172,1,4,1:0:0:0:
209,123,29600,1,4,1:0:0:0:
209,123,30457,5,8,1:0:0:0:
209,123,31029,1,8,1:0:0:0:
217,122,31600,1,8,1:0:0:0:
217,122,32172,1,0,1:0:0:0:
239,123,33314,1,12,1:0:0:0:
240,123,33743,1,4,1:0:0:0:
239,123,34172,1,4,1:0:0:0:
239,123,35029,5,8,1:0:0:0:
239,123,35457,1,0,1:0:0:0:
239,123,36172,1,8,1:0:0:0:
239,123,36600,1,0,1:0:0:0:
239,123,37314,1,8,1:0:0:0:
239,123,37886,1,12,1:0:0:0:
239,123,38314,1,12,1:0:0:0:
239,123,38743,1,4,1:0:0:0:
193,132,39600,1,8,1:0:0:0:
193,132,40743,1,8,1:0:0:0:
239,123,41314,1,0,1:0:0:0:
199,109,41886,1,8,1:0:0:0:
199,109,42457,1,8,1:0:0:0:
199,109,43029,1,0,1:0:0:0:
199,109,43600,1,8,1:0:0:0:
199,109,44743,1,8,1:0:0:0:
225,126,45314,1,8,1:0:0:0:
225,126,45886,1,0,1:0:0:0:
244,108,46457,1,8,1:0:0:0:
244,108,47029,1,12,1:0:0:0:
244,108,47457,1,4,1:0:0:0:
244,108,47886,1,4,1:0:0:0:
244,108,48743,1,8,1:0:0:0:
244,108,49314,1,8,1:0:0:0:
244,108,49886,1,8,1:0:0:0:
244,108,50457,1,0,1:0:0:0:
244,108,51600,1,12,1:0:0:0:
244,108,52029,1,4,1:0:0:0:
244,108,52457,1,4,1:0:0:0:
244,108,53314,1,8,1:0:0:0:
242,117,53743,1,0,1:0:0:0:
242,117,54457,1,8,1:0:0:0:
242,117,54886,1,0,1:0:0:0:
226,108,55600,1,8,1:0:0:0:
226,108,56172,1,12,1:0:0:0:
226,108,56600,1,12,1:0:0:0:
226,108,57029,1,4,1:0:0:0:
243,141,57886,1,8,1:0:0:0:
253,137,58457,1,0,1:0:0:0:
224,117,59600,1,0,1:0:0:0:
224,117,60172,1,8,1:0:0:0:
224,117,60743,1,8,1:0:0:0:
224,117,61314,1,0,1:0:0:0:
224,117,61886,1,8,1:0:0:0:
249,121,63029,1,0,1:0:0:0:
248,121,64172,1,8,1:0:0:0:
274,143,64743,1,0,1:0:0:0:
230,131,65600,1,0,1:0:0:0:
230,131,66172,1,0,1:0:0:0:
230,131,67029,1,0,1:0:0:0:
230,131,67886,1,0,1:0:0:0:
230,131,68172,1,8,1:0:0:0:
230,131,68743,1,0,1:0:0:0:
230,131,69314,1,8,1:0:0:0:
230,131,69743,1,0,1:0:0:0:
230,131,70457,1,8,1:0:0:0:
230,131,71029,1,8,1:0:0:0:
230,131,71457,1,8,1:0:0:0:
226,116,71886,1,0,1:0:0:0:
226,116,72314,1,0,1:0:0:0:
226,116,72743,1,8,1:0:0:0:
226,116,73314,1,0,1:0:0:0:
226,116,73886,1,8,1:0:0:0:
226,116,74743,1,8,1:0:0:0:
226,116,75314,1,8,1:0:0:0:
200,125,76172,1,8,1:0:0:0:
200,125,77029,1,8,1:0:0:0:
200,125,77600,1,8,1:0:0:0:
200,125,77886,1,0,1:0:0:0:
200,125,78457,1,8,1:0:0:0:
200,125,78886,1,0,1:0:0:0:
200,125,79600,1,0,1:0:0:0:
200,125,80172,1,8,1:0:0:0:
200,125,80600,1,0,1:0:0:0:
200,125,81029,1,0,1:0:0:0:
200,125,81457,1,0,1:0:0:0:
231,118,82457,1,8,1:0:0:0:
172,115,83029,1,0,1:0:0:0:
216,126,83886,1,0,1:0:0:0:
216,126,84457,1,0,1:0:0:0:
216,126,85314,1,0,1:0:0:0:
216,126,86172,1,0,1:0:0:0:
216,126,86743,1,0,1:0:0:0:
194,121,87029,1,8,1:0:0:0:
193,121,87600,1,8,1:0:0:0:
194,121,88029,1,0,1:0:0:0:
183,119,88457,1,0,1:0:0:0:
183,119,88743,1,8,1:0:0:0:
183,119,89314,1,8,1:0:0:0:
183,119,89743,1,8,1:0:0:0:
183,119,90172,1,8,1:0:0:0:
183,119,90600,1,8,1:0:0:0:
183,119,91029,1,0,1:0:0:0:
155,119,91600,1,8,1:0:0:0:
155,119,92172,1,0,1:0:0:0:
155,119,93029,1,0,1:0:0:0:
155,119,93600,1,0,1:0:0:0:
131,115,94457,1,0,1:0:0:0:
131,115,95314,1,0,1:0:0:0:
131,115,95886,1,0,1:0:0:0:
131,115,96172,1,8,1:0:0:0:
245,118,96743,1,8,1:0:0:0:
245,118,97172,1,0,1:0:0:0:
245,118,97600,1,0,1:0:0:0:
245,118,97886,1,8,1:0:0:0:
239,111,98457,1,8,1:0:0:0:
239,111,98886,1,8,1:0:0:0:
239,111,99314,1,8,1:0:0:0:
239,111,99743,1,0,1:0:0:0:
220,122,100172,1,8,1:0:0:0:
220,122,100457,1,0,1:0:0:0:
220,122,100743,1,12,1:0:0:0:
220,122,101314,1,0,1:0:0:0:
199,127,101886,1,8,1:0:0:0:
199,127,102457,1,8,1:0:0:0:
199,127,102743,1,0,1:0:0:0:
218,135,103314,1,0,1:0:0:0:
218,135,103600,1,8,1:0:0:0:
218,135,104172,1,8,1:0:0:0:
218,135,104743,1,0,1:0:0:0:
218,135,105314,1,8,1:0:0:0:
218,135,105886,1,0,1:0:0:0:
218,135,106457,1,0,1:0:0:0:
209,137,107029,1,8,1:0:0:0:
218,135,107314,1,0,1:0:0:0:
214,142,108172,1,8,1:0:0:0:
220,124,108743,1,0,1:0:0:0:
220,124,109314,1,8,1:0:0:0:
208,128,109886,1,0,1:0:0:0:
208,128,110457,1,8,1:0:0:0:
208,128,111029,1,8,1:0:0:0:
208,128,111600,1,8,1:0:0:0:
208,128,111886,1,0,1:0:0:0:
208,128,112457,1,0,1:0:0:0:
208,128,113029,1,0,1:0:0:0:
196,128,113314,1,8,1:0:0:0:
196,128,113886,1,8,1:0:0:0:
190,116,114172,1,0,1:0:0:0:
188,115,114743,1,8,1:0:0:0:
188,115,115314,1,0,1:0:0:0:
188,115,115600,1,8,1:0:0:0:
188,115,116457,1,0,1:0:0:0:
188,115,117029,1,0,1:0:0:0:
188,115,117314,1,8,1:0:0:0:
188,115,118172,1,8,1:0:0:0:
156,132,118457,1,8,1:0:0:0:
156,132,119029,1,0,1:0:0:0:
156,132,119600,1,8,1:0:0:0:
156,132,120172,1,8,1:0:0:0:
156,132,120743,1,8,1:0:0:0:
156,132,121029,1,0,1:0:0:0:
156,132,121886,1,8,1:0:0:0:
156,132,122457,1,0,1:0:0:0:
156,132,123029,1,0,1:0:0:0:
220,132,123600,1,8,1:0:0:0:
225,137,124172,1,0,1:0:0:0:
225,137,124743,1,8,1:0:0:0:
225,137,125029,1,0,1:0:0:0:
225,137,125600,1,8,1:0:0:0:
204,144,126172,1,0,1:0:0:0:
204,144,126457,1,8,1:0:0:0:
204,144,127314,1,8,1:0:0:0:
190,138,127600,1,8,1:0:0:0:
189,138,128172,1,0,1:0:0:0:
189,138,128743,1,8,1:0:0:0:
205,144,129314,1,8,1:0:0:0:
205,144,129600,1,0,1:0:0:0:
205,144,130172,1,0,1:0:0:0:
205,144,130743,1,8,1:0:0:0:
205,144,131314,1,8,1:0:0:0:
172,157,131600,1,0,1:0:0:0:
205,144,132457,1,8,1:0:0:0:
179,143,133029,1,0,1:0:0:0:
180,147,133314,1,8,1:0:0:0:
179,143,133886,1,0,1:0:0:0:
179,143,134457,1,8,1:0:0:0:
179,143,134743,1,0,1:0:0:0:
179,143,135600,1,8,1:0:0:0:
165,153,136172,1,0,1:0:0:0:
165,153,136743,1,8,1:0:0:0:
209,123,137314,1,0,1:0:0:0:
209,123,137886,1,8,1:0:0:0:
209,123,138457,1,12,1:0:0:0:
209,123,138886,1,4,1:0:0:0:
209,123,139314,1,4,1:0:0:0:
209,123,140172,1,8,1:0:0:0:
209,123,140743,1,8,1:0:0:0:
217,122,141314,1,8,1:0:0:0:
217,122,141886,1,0,1:0:0:0:
217,122,142457,1,8,1:0:0:0:
239,123,143029,1,12,1:0:0:0:
240,123,143457,1,4,1:0:0:0:
239,123,143886,1,4,1:0:0:0:
239,123,144743,1,8,1:0:0:0:
239,123,145172,1,0,1:0:0:0:
239,123,145886,1,8,1:0:0:0:
239,123,146314,1,0,1:0:0:0:
239,123,147029,1,8,1:0:0:0:
239,123,147600,1,12,1:0:0:0:
239,123,148029,1,12,1:0:0:0:
239,123,148457,1,4,1:0:0:0:
239,123,149314,1,8,1:0:0:0:
234,126,151029,1,0,1:0:0:0:
251,128,151600,1,8,1:0:0:0:
251,128,152172,1,8,1:0:0:0:
251,128,152743,1,8,1:0:0:0:
251,128,153314,1,0,1:0:0:0:
251,128,153886,1,8,1:0:0:0:
251,128,154457,1,8,1:0:0:0:
251,128,155029,1,8,1:0:0:0:
251,128,155600,1,0,1:0:0:0:
255,169,156172,1,8,1:0:0:0:
255,169,156743,1,12,1:0:0:0:
255,169,157172,1,4,1:0:0:0:
255,169,157600,1,4,1:0:0:0:
248,147,158457,1,8,1:0:0:0:
248,147,159029,1,8,1:0:0:0:
248,147,159600,1,8,1:0:0:0:
248,147,160172,1,0,1:0:0:0:
245,134,160743,1,8,1:0:0:0:
245,134,161314,1,12,1:0:0:0:
245,134,161743,1,4,1:0:0:0:
245,134,162172,1,4,1:0:0:0:
242,147,163029,1,8,1:0:0:0:
242,147,163457,1,0,1:0:0:0:
242,147,164172,1,8,1:0:0:0:
242,147,164600,1,0,1:0:0:0:
242,147,165314,1,8,1:0:0:0:
242,147,165886,1,12,1:0:0:0:
242,147,166314,1,12,1:0:0:0:
242,147,166743,1,4,1:0:0:0:
242,147,167600,1,8,1:0:0:0:
242,147,168743,1,0,1:0:0:0:
242,147,169314,1,0,1:0:0:0:
223,135,169886,1,8,1:0:0:0:
223,135,170457,1,0,1:0:0:0:
223,135,171029,1,8,1:0:0:0:
223,135,171600,1,0,1:0:0:0:
256,192,173886,12,0,178457,1:0:0:0:
