osu file format v14

[General]
AudioFilename: audio.mp3
AudioLeadIn: 0
PreviewTime:57287
Countdown: 0
SampleSet: Soft
StackLeniency: 0.5
Mode: 0
LetterboxInBreaks: 0
WidescreenStoryboard: 1

[Editor]
Bookmarks: 7058,22144,39973,50944,61915,73915
DistanceSpacing: 1.4
BeatDivisor: 4
GridSize: 32
TimelineZoom: 1.7

[Metadata]
Title:Dr. Fondoom
TitleUnicode:Dr. Fondoom
Artist:Origami Angel
ArtistUnicode:Origami Angel
Creator:merlone
Version:Renumi's Hard
Source:
Tags:featured artist fa english punk indie rock alternative midwest emo gami gang renumi ralsei hewwo vastly take sinyus20
BeatmapID:3841771
BeatmapSetID:1838756

[Difficulty]
HPDrainRate:4
CircleSize:3.5
OverallDifficulty:6
ApproachRate:8
SliderMultiplier:1.5
SliderTickRate:1

[Events]
//Background and Video events
0,0,"bg.jpg",0,0
//Break Periods
2,18230,21394
//Storyboard Layer 0 (Background)
//Storyboard Layer 1 (Fail)
//Storyboard Layer 2 (Pass)
//Storyboard Layer 3 (Foreground)
//Storyboard Layer 4 (Overlay)
//Storyboard Sound Samples

[TimingPoints]
1573,342.857142857143,4,2,1,60,1,0
7058,-111.111111111111,4,2,1,50,0,0
23001,-111.111111111111,4,2,1,50,0,0
23173,-100,4,2,1,50,0,0
23430,-100,4,2,1,50,0,0
23515,-100,4,2,1,70,0,0
24544,-100,4,2,1,50,0,0
24887,-100,4,2,1,70,0,0
25915,-100,4,2,1,50,0,0
26258,-100,4,2,1,70,0,0
27630,-111.111111111111,4,2,1,70,0,0
28230,-111.111111111111,4,2,1,70,0,0
28315,-111.111111111111,4,2,1,50,0,0
28915,-111.111111111111,4,2,1,50,0,0
29001,-111.111111111111,4,2,1,60,0,0
39973,-111.111111111111,4,2,1,70,0,0
51973,-111.111111111111,4,2,1,40,0,0
53687,-111.111111111111,4,2,1,70,0,0
54715,-111.111111111111,4,2,1,40,0,0
56430,-111.111111111111,4,2,1,70,0,0
57458,-111.111111111111,4,2,1,40,0,0
60458,-125,4,2,1,50,0,0
61230,-111.111111111111,4,2,1,60,0,0
61744,-111.111111111111,4,2,1,70,0,0
61915,-100,4,2,1,80,0,1
72887,-100,4,2,1,60,0,0

[Colours]
Combo1 : 211,141,11
Combo2 : 203,187,187
Combo3 : 103,95,95
Combo4 : 66,121,203
Combo5 : 17,80,199
Combo6 : 243,18,18

[HitObjects]
35,339,1573,38,0,L|54:266,1,75,4|8,1:2|2:2,0:0:0:0:
99,172,1915,2,0,L|78:118,2,37.5,2|2|8,2:2|1:2|2:2,0:0:0:0:
176,243,2258,2,0,P|210:228|245:216,1,75,4|8,1:2|2:2,0:0:0:0:
351,217,2601,2,0,P|374:233|397:250,2,37.5,2|2|8,2:2|1:2|2:2,0:0:0:0:
311,119,2944,6,0,P|329:84|359:45,1,75,4|8,1:2|2:2,0:0:0:0:
454,63,3287,2,0,P|480:101|485:113,2,37.5,2|2|8,2:2|1:2|2:2,0:0:0:0:
353,30,3630,2,0,L|256:14,1,75,4|8,1:2|2:2,0:0:0:0:
173,14,3973,1,2,2:2:0:0:
173,14,4058,1,2,1:2:0:0:
173,14,4144,1,8,2:2:0:0:
83,68,4315,70,0,P|70:99|55:138,1,75,4|8,1:2|2:2,0:0:0:0:
28,239,4658,2,0,P|13:251|-6:265,2,37.5,2|2|8,2:2|1:2|2:2,0:0:0:0:
133,244,5001,2,0,P|173:273|201:303,1,75,4|8,1:2|2:2,0:0:0:0:
279,347,5344,2,0,P|283:369|286:394,2,37.5,2|2|8,2:2|1:2|2:2,0:0:0:0:
287,242,5687,6,0,P|316:209|356:179,1,75,6|10,2:2|2:2,0:0:0:0:
391,171,5944,1,2,1:2:0:0:
391,171,6030,2,0,L|365:82,1,75,6|10,2:2|2:2,0:0:0:0:
297,22,6373,2,0,L|287:105,1,75,6|10,2:2|2:2,0:0:0:0:
247,128,6630,1,2,1:2:0:0:
247,128,6715,2,0,L|153:117,1,75,6|10,2:2|2:2,0:0:0:0:
113,20,7058,38,0,P|83:29|-5:94,1,134.999995880127,2|2,1:2|2:2,0:0:0:0:
24,180,7573,1,10,2:2:0:0:
5,272,7744,2,0,B|42:274|42:274|135:324,1,134.999995880127,2|2,1:2|2:2,0:0:0:0:
201,259,8258,1,10,2:2:0:0:
291,288,8430,6,0,L|310:206,1,67.4999979400635,2|8,1:2|2:2,0:0:0:0:
354,144,8773,1,2,2:2:0:0:
354,144,8858,1,2,1:2:0:0:
354,144,8944,1,8,2:2:0:0:
444,169,9115,2,0,B|526:189,1,67.4999979400635,2|8,1:2|2:2,0:0:0:0:
470,271,9458,2,0,L|382:287,1,67.4999979400635,2|10,2:2|2:2,0:0:0:0:
321,329,9801,69,2,1:2:0:0:
251,267,9973,1,10,2:2:0:0:
164,228,10144,2,0,B|132:220|132:220|72:214,1,67.4999979400635,2|10,2:2|2:2,0:0:0:0:
150,320,10487,1,2,1:2:0:0:
239,290,10658,1,10,2:2:0:0:
316,235,10830,2,0,B|338:211|338:211|374:162,1,67.4999979400635,2|10,2:2|2:2,0:0:0:0:
367,88,11173,6,0,L|280:73,1,67.4999979400635,6|10,2:2|2:2,0:0:0:0:
266,43,11430,1,10,1:2:0:0:
266,43,11515,2,0,P|212:53|180:66,1,67.4999979400635,6|10,2:2|2:2,0:0:0:0:
107,37,11858,2,0,L|92:124,1,67.4999979400635,6|10,2:2|2:2,0:0:0:0:
62,138,12115,1,10,1:2:0:0:
62,138,12201,2,0,P|72:192|81:218,1,67.4999979400635,6|8,2:2|2:2,0:0:0:0:
51,333,12544,70,0,B|84:310|84:310|183:283,1,134.999995880127,2|0,1:2|2:2,0:0:0:0:
262,247,13058,1,10,2:2:0:0:
356,250,13230,2,0,L|378:392,1,134.999995880127,2|2,1:2|2:2,0:0:0:0:
461,341,13744,1,10,2:2:0:0:
470,247,13915,6,0,L|480:165,1,67.4999979400635,2|8,1:2|2:2,0:0:0:0:
448,100,14258,1,2,2:2:0:0:
448,100,14344,1,2,1:2:0:0:
448,100,14430,1,10,2:2:0:0:
366,148,14601,2,0,L|284:131,1,67.4999979400635,2|10,1:2|2:2,0:0:0:0:
221,187,14944,2,0,P|187:194|145:199,1,67.4999979400635,2|10,2:2|2:2,0:0:0:0:
59,193,15287,70,0,P|68:160|79:128,1,67.4999979400635,2|8,1:2|2:2,0:0:0:0:
171,105,15630,2,0,P|163:86|154:69,2,33.7499989700318,2|2|10,2:2|1:2|2:2,0:0:0:0:
221,187,15973,2,0,P|246:210|290:241,1,67.4999979400635,2|10,1:2|2:2,0:0:0:0:
358,269,16315,2,0,P|365:291|373:318,2,33.7499989700318,2|2|10,2:2|1:2|2:2,0:0:0:0:
386,178,16658,2,0,P|403:141|421:109,1,67.4999979400635,2|10,2:2|2:2,0:0:0:0:
477,45,17001,2,0,L|513:36,2,33.7499989700318,2|2|10,2:2|1:2|2:2,0:0:0:0:
393,14,17344,2,0,L|304:3,1,67.4999979400635,2|10,2:2|2:2,0:0:0:0:
238,16,17687,1,2,2:2:0:0:
238,16,17773,1,2,1:2:0:0:
238,16,17858,1,10,2:2:0:0:
194,100,18030,5,14,2:2:0:0:
410,152,22144,70,0,L|457:159,2,33.7499989700318,10|2|10,1:2|2:2|1:2,0:0:0:0:
324,129,22487,2,0,L|278:137,2,33.7499989700318,10|2|10,1:2|2:2|1:2,0:0:0:0:
340,216,22830,2,0,B|353:260|353:260|366:366,1,134.999995880127,10|10,1:2|2:2,0:0:0:0:
169,267,23515,22,0,L|152:231,3,37.5,14|2|10|2,1:2|1:2|1:2|1:2,0:0:0:0:
111,200,23858,2,0,P|116:177|122:159,3,37.5,14|2|10|2,1:2|1:2|1:2|1:2,0:0:0:0:
103,113,24201,1,14,1:2:0:0:
57,318,24544,53,2,2:2:0:0:
206,170,24887,22,0,L|245:173,3,37.5,14|2|10|2,1:2|1:2|1:2|1:2,0:0:0:0:
293,153,25230,2,0,P|310:168|323:183,3,37.5,14|2|10|2,1:2|1:2|1:2|1:2,0:0:0:0:
372,190,25573,1,14,1:2:0:0:
218,48,25915,53,2,2:2:0:0:
276,249,26258,22,0,L|253:281,3,37.5,14|2|10|2,1:2|1:2|1:2|1:2,0:0:0:0:
246,331,26601,2,0,P|223:338|204:341,3,37.5,14|2|10|2,1:2|1:2|1:2|1:2,0:0:0:0:
175,381,26944,2,0,P|152:376|134:369,3,37.5,14|2|10|2,1:2|1:2|1:2|1:2,0:0:0:0:
85,384,27287,2,0,P|67:368|54:353,3,37.5,14|2|10|2,1:2|1:2|1:2|1:2,0:0:0:0:
12,345,27630,22,0,B|-8:214|51:277|6:136,1,202.499993820191,14|0,1:2|0:0,0:0:0:0:
61,68,28315,1,10,2:2:0:0:
61,68,29001,54,0,L|73:24,3,33.7499989700318,10|2|10|2,1:2|1:2|1:2|1:2,0:0:0:0:
107,7,29344,2,0,B|182:17|182:17|249:47,1,134.999995880127,6|10,1:2|1:2,0:0:0:0:
308,216,30030,2,0,L|320:260,3,33.7499989700318,10|2|10|2,1:2|1:2|1:2|1:2,0:0:0:0:
354,277,30373,2,0,B|429:267|429:267|496:237,1,134.999995880127,6|2,1:2|2:2,0:0:0:0:
448,63,31058,1,10,1:2:0:0:
448,63,31144,1,2,1:2:0:0:
448,63,31230,1,10,1:2:0:0:
363,103,31401,2,0,B|270:113,1,67.4999979400635,6|0,1:2|0:0,0:0:0:0:
209,70,31744,6,0,L|187:33,3,33.7499989700318,10|2|10|2,1:2|1:2|1:2|1:2,0:0:0:0:
147,23,32087,2,0,B|116:57|116:57|76:147,1,134.999995880127,6|10,1:2|1:2,0:0:0:0:
69,327,32773,2,0,L|106:305,3,33.7499989700318,10|2|10|2,1:2|1:2|1:2|1:2,0:0:0:0:
116,265,33115,2,0,B|82:234|82:234|-8:194,1,134.999995880127,6|2,1:2|2:2,0:0:0:0:
1,103,33630,1,2,1:2:0:0:
93,86,33801,2,0,L|127:158,1,67.4999979400635,10|2,1:2|1:2,0:0:0:0:
202,197,34144,2,0,L|241:122,1,67.4999979400635,2|2,1:2|1:2,0:0:0:0:
320,100,34487,70,0,L|369:109,3,33.7499989700318,10|2|10|2,1:2|1:2|1:2|1:2,0:0:0:0:
398,92,34830,2,0,B|440:113|440:113|517:190,1,134.999995880127,6|10,1:2|1:2,0:0:0:0:
368,309,35515,2,0,L|319:318,3,33.7499989700318,10|2|10|2,1:2|1:2|1:2|1:2,0:0:0:0:
290,301,35858,2,0,B|248:322|248:322|171:399,1,134.999995880127,6|2,1:2|2:2,0:0:0:0:
90,374,36373,1,2,2:2:0:0:
48,291,36544,1,10,1:2:0:0:
48,291,36630,1,2,1:2:0:0:
48,291,36715,1,10,1:2:0:0:
120,229,36887,2,0,B|144:152,1,67.4999979400635,6|0,1:2|0:0,0:0:0:0:
204,94,37230,6,0,L|238:86,3,33.7499989700318,10|2|10|2,1:2|1:2|1:2|1:2,0:0:0:0:
269,52,37573,2,0,B|336:72|336:72|410:80,1,134.999995880127,6|10,1:2|1:2,0:0:0:0:
457,260,38258,2,0,L|423:252,3,33.7499989700318,10|2|10|2,1:2|1:2|1:2|1:2,0:0:0:0:
392,217,38601,2,0,B|358:229|358:229|279:245,1,101.249996910095,6|0,1:2|0:0,0:0:0:0:
247,236,38944,2,0,B|223:262|223:262|201:300,1,67.4999979400635,2|2,2:2|2:2,0:0:0:0:
132,348,39287,1,10,1:2:0:0:
58,288,39458,1,2,1:2:0:0:
105,205,39630,2,0,B|90:176|90:176|57:136,1,67.4999979400635,2|2,1:2|1:2,0:0:0:0:
12,86,39973,69,10,1:2:0:0:
12,86,40058,1,2,1:2:0:0:
12,86,40144,1,10,1:2:0:0:
75,17,40315,2,0,B|96:23|96:23|223:36,1,134.999995880127,6|10,1:2|1:2,0:0:0:0:
404,22,41001,1,10,1:2:0:0:
404,22,41087,1,2,1:2:0:0:
404,22,41173,1,10,1:2:0:0:
342,93,41344,2,0,B|327:128|327:128|311:244,1,134.999995880127,6|2,1:2|2:2,0:0:0:0:
351,311,41858,1,2,2:2:0:0:
449,289,42030,1,10,1:2:0:0:
449,289,42115,1,2,1:2:0:0:
449,289,42201,1,10,1:2:0:0:
435,195,42373,2,0,B|403:178|403:178|370:170,1,67.4999979400635,6|0,1:2|0:0,0:0:0:0:
297,113,42715,6,0,L|288:72,2,33.7499989700318,10|2|10,1:2|1:2|1:2,0:0:0:0:
254,197,43058,2,0,B|192:212|192:212|109:218,1,134.999995880127,6|10,1:2|1:2,0:0:0:0:
22,381,43744,1,10,1:2:0:0:
22,381,43830,1,2,1:2:0:0:
22,381,43915,1,10,1:2:0:0:
3,288,44087,2,0,B|5:218|5:218|24:143,1,134.999995880127,6|2,1:2|2:2,0:0:0:0:
73,75,44601,1,2,1:2:0:0:
164,49,44773,2,0,L|183:135,1,67.4999979400635,10|2,1:2|1:2,0:0:0:0:
268,131,45115,2,0,L|249:217,1,67.4999979400635,2|2,1:2|1:2,0:0:0:0:
233,289,45458,69,10,1:2:0:0:
233,289,45544,1,2,1:2:0:0:
233,289,45630,1,10,1:2:0:0:
306,347,45801,2,0,B|377:336|377:336|461:350,1,134.999995880127,6|10,1:2|1:2,0:0:0:0:
496,171,46487,1,10,1:2:0:0:
496,171,46573,1,2,1:2:0:0:
496,171,46658,1,10,1:2:0:0:
401,177,46830,2,0,B|390:106|390:106|404:22,1,134.999995880127,6|2,1:2|2:2,0:0:0:0:
310,14,47344,1,2,2:2:0:0:
221,46,47515,2,0,L|174:33,2,33.7499989700318,10|2|10,1:2|1:2|1:2,0:0:0:0:
281,118,47858,2,0,P|290:155|299:204,1,67.4999979400635,6|0,1:2|0:0,0:0:0:0:
245,264,48201,5,10,1:2:0:0:
245,264,48287,1,2,1:2:0:0:
245,264,48373,1,10,1:2:0:0:
159,225,48544,2,0,B|89:239|89:239|28:276,1,134.999995880127,6|10,1:2|1:2,0:0:0:0:
13,92,49230,1,10,1:2:0:0:
13,92,49315,1,2,1:2:0:0:
13,92,49401,1,10,1:2:0:0:
99,53,49573,2,0,B|169:67|169:67|230:104,1,134.999995880127,6|2,1:2|2:2,0:0:0:0:
284,172,50087,1,2,2:2:0:0:
377,180,50258,70,0,L|456:159,2,67.4999979400635,10|2|2,1:2|1:2|1:2,0:0:0:0:
336,266,50773,1,2,1:2:0:0:
265,328,50944,2,0,L|211:318,3,33.7499989700318,10|2|10|2,1:2|1:2|1:2|1:2,0:0:0:0:
195,291,51287,2,0,B|126:315|126:315|50:324,1,134.999995880127,6|10,1:2|1:2,0:0:0:0:
369,116,53687,6,0,L|387:167,3,33.7499989700318,10|2|10|2,1:2|1:2|1:2|1:2,0:0:0:0:
372,195,54030,2,0,B|427:243|427:243|473:304,1,134.999995880127,6|10,1:2|1:2,0:0:0:0:
139,175,56430,70,0,L|174:133,3,33.7499989700318,10|2|10|2,1:2|1:2|1:2|1:2,0:0:0:0:
206,132,56773,2,0,B|219:60|219:60|249:-10,1,134.999995880127,6|10,1:2|1:2,0:0:0:0:
432,320,60201,53,2,2:2:0:0:
431,320,60544,2,0,B|371:308|371:308|243:303,1,180,2|2,2:2|2:2,0:0:0:0:
130,264,61230,2,0,B|158:245|158:245|189:232,1,67.4999979400635,2|2,2:2|2:2,0:0:0:0:
280,206,61573,2,0,L|287:158,3,33.7499989700318,2|2|10|10,1:2|1:2|1:2|1:2,0:0:0:0:
324,138,61915,70,0,P|301:73|290:49,1,75,6|10,1:2|1:2,0:0:0:0:
207,14,62258,1,2,1:2:0:0:
207,14,62430,1,10,1:2:0:0:
125,79,62601,2,0,B|34:65,1,75,6|10,1:2|1:2,0:0:0:0:
12,165,62944,1,2,1:2:0:0:
12,165,63115,1,10,1:2:0:0:
114,191,63287,70,0,B|126:233|126:233|134:281,1,75,6|10,1:2|1:2,0:0:0:0:
193,355,63630,1,2,1:2:0:0:
193,355,63801,1,10,1:2:0:0:
287,308,63973,1,6,1:2:0:0:
484,239,64315,1,6,1:2:0:0:
294,155,64658,6,0,B|279:120|279:120|266:62,1,75,6|10,1:2|1:2,0:0:0:0:
192,22,65001,1,2,1:2:0:0:
192,22,65173,1,10,1:2:0:0:
120,98,65344,2,0,L|34:84,1,75,6|10,1:2|1:2,0:0:0:0:
71,193,65687,1,2,1:2:0:0:
71,193,65858,1,10,1:2:0:0:
46,295,66030,70,0,L|146:276,1,75,6|10,1:2|1:2,0:0:0:0:
196,208,66373,2,0,L|276:220,1,75,6|10,1:2|1:2,0:0:0:0:
369,187,66715,2,0,L|397:282,1,75,6|10,1:2|1:2,0:0:0:0:
484,305,67058,6,0,L|502:140,1,150,6|6,1:2|1:2,0:0:0:0:
445,64,67573,1,10,1:2:0:0:
349,21,67744,2,0,P|308:15|253:11,1,75,2|10,1:2|1:2,0:0:0:0:
176,40,68087,1,6,1:2:0:0:
176,40,68258,1,10,1:2:0:0:
100,128,68430,2,0,P|59:134|4:138,1,75,2|10,1:2|1:2,0:0:0:0:
74,236,68773,69,6,1:2:0:0:
74,236,68944,1,10,1:2:0:0:
177,250,69115,2,0,L|189:347,1,75,2|10,1:2|1:2,0:0:0:0:
273,383,69458,1,6,1:2:0:0:
452,273,69801,1,6,1:2:0:0:
452,62,70144,6,0,B|414:51|414:51|372:44,1,75,6|10,1:2|1:2,0:0:0:0:
279,28,70487,1,2,1:2:0:0:
279,28,70658,2,0,B|259:69|259:69|246:117,1,75,10|6,1:2|1:2,0:0:0:0:
146,109,71001,2,0,B|166:150|166:150|179:198,1,75,10|6,1:2|1:2,0:0:0:0:
150,281,71344,1,10,1:2:0:0:
77,356,71515,70,0,L|-2:345,1,75,6|10,1:2|1:2,0:0:0:0:
168,302,71858,2,0,L|242:291,1,75,6|10,1:2|1:2,0:0:0:0:
270,190,72201,2,0,P|302:155|334:132,1,75,6|10,1:2|1:2,0:0:0:0:
429,140,72544,1,6,1:2:0:0:
407,37,72715,1,10,1:2:0:0:
406,155,72887,54,0,B|441:265|441:265|507:363,1,225,6|2,1:2|1:2,0:0:0:0:
458,381,73487,1,2,1:2:0:0:
458,381,73573,2,0,L|364:364,1,75,10|6,1:2|1:2,0:0:0:0:
