osu file format v14

[General]
AudioFilename: audio.mp3
AudioLeadIn: 0
PreviewTime: 15000
Countdown: 0
SampleSet: Soft
StackLeniency: 0.3
Mode: 0
LetterboxInBreaks: 0
WidescreenStoryboard: 1

[Editor]
Bookmarks: 51725,52164
DistanceSpacing: 1
BeatDivisor: 2
GridSize: 4
TimelineZoom: 2.2

[Metadata]
Title:Bed Bath & Batman Beyond
TitleUnicode:Bed Bath & Batman Beyond
Artist:Origami Angel
ArtistUnicode:Origami Angel
Creator:buddon
Version:Jeby's Normal
Source:
Tags:Velamy jeby gos birbsmb My Angel Rushia im a trap lmao nathan off osu hiroto- mercury -Mercury- sip_of_mercury delta vee deltavee the fart lord featured artist fa and english male vocalist vocals punk indie rock alternative midwest emo gami gang
BeatmapID:4065114
BeatmapSetID:1959652

[Difficulty]
HPDrainRate:3.5
CircleSize:3
OverallDifficulty:5
ApproachRate:5.5
SliderMultiplier:1
SliderTickRate:1

[Events]
//Background and Video events
0,0,"bbb.jpg",0,0
//Break Periods
//Storyboard Layer 0 (Background)
//Storyboard Layer 1 (Fail)
//Storyboard Layer 2 (Pass)
//Storyboard Layer 3 (Foreground)
//Storyboard Layer 4 (Overlay)
//Storyboard Sound Samples

[TimingPoints]
958,292.682926829268,4,2,52,45,1,0
3299,295.566502463054,4,2,52,45,1,0
3520,-100,4,2,52,5,0,0
3594,-100,4,2,52,45,0,0
3890,287.769784172662,4,2,52,45,1,0
4177,319.148936170213,4,2,52,45,1,0
4496,270.27027027027,4,2,52,45,1,0
4698,-100,4,2,52,5,0,0
4766,291.26213592233,4,2,52,45,1,0
5639,292.682926829268,4,2,52,45,1,0
9151,291.970802919708,4,2,52,45,1,0
9369,-100,4,2,52,5,0,0
9442,-100,4,2,52,45,0,0
10318,292.682926829268,4,2,52,45,1,0
10318,-100,4,2,50,50,0,0
10391,-100,4,2,50,23,0,0
10610,-100,4,2,50,25,0,0
10903,-100,4,2,50,27,0,0
11196,-100,4,2,50,29,0,0
11488,-100,4,2,50,31,0,0
11781,-100,4,2,50,33,0,0
12074,-100,4,2,50,35,0,0
12366,-100,4,2,50,37,0,0
12659,-100,4,2,50,39,0,0
12952,-100,4,2,50,41,0,0
13244,-100,4,2,50,43,0,0
13537,-100,4,2,50,45,0,0
13830,-100,4,2,50,55,0,0
15000,-95.2380952380952,4,2,50,75,0,1
15220,-95.2380952380952,4,2,50,5,0,1
15293,-95.2380952380952,4,2,50,75,0,1
24366,-100,4,2,50,60,0,0
26635,-100,4,2,50,5,0,0
26708,-100,4,2,50,60,0,0
28976,-100,4,2,50,5,0,0
29049,-100,4,2,50,60,0,0
31098,306.122448979592,4,2,52,45,1,0
31327,-100,4,2,50,5,0,0
31404,288.461538461538,4,2,52,45,1,0
31980,294.117647058824,4,2,52,45,1,0
32568,291.26213592233,4,2,52,45,1,0
33733,294.117647058824,4,2,52,45,1,0
34909,292.682926829268,4,2,52,45,1,0
34982,-100,4,2,50,5,0,0
35640,-100,4,2,50,60,0,0
38274,-100,4,2,52,60,0,0
38421,-95.2380952380952,4,2,51,75,0,1
43104,291.26213592233,4,2,52,45,1,0
43104,-100,4,2,50,75,0,0
44269,294.117647058824,4,2,52,45,1,0
44342,-100,4,2,50,5,0,0
45006,290.556900726392,4,2,52,45,1,0
45877,292.682926829268,4,2,52,45,1,0
46608,292.682926829268,4,2,52,45,1,0
47632,-100,4,2,51,75,0,0
47778,-95.2380952380952,4,2,51,75,0,1
52461,-95.2380952380952,4,2,50,75,0,0
52534,-95.2380952380952,4,2,50,5,0,0
54510,-95.2380952380952,4,2,50,75,0,0
54583,-95.2380952380952,4,2,50,5,0,0

[Colours]
Combo1 : 244,189,189
Combo2 : 232,55,55
Combo3 : 225,165,119
Combo4 : 250,218,199

[HitObjects]
173,107,958,6,0,L|178:57,2,50,0|0|8,3:2|3:2|2:0,0:0:0:0:
194,158,1397,1,0,2:0:0:0:
194,158,1543,2,0,P|244:153|293:170,1,100,0|8,3:2|2:0,2:0:0:0:
348,250,2128,2,0,L|398:245,2,50,0|0|8,3:2|3:2|2:0,0:0:0:0:
315,288,2567,1,0,2:0:0:0:
315,288,2714,2,0,P|265:283|216:300,1,100,0|8,3:2|2:0,2:0:0:0:
132,351,3299,5,0,3:2:0:0:
62,279,3594,1,8,2:0:0:0:
120,198,3890,2,0,P|124:148|132:98,1,100,0|8,3:2|2:0,2:0:0:0:
197,24,4496,1,0,3:2:0:0:
283,74,4766,1,8,2:0:0:0:
252,169,5057,2,0,P|302:173|351:181,1,100,0|8,3:2|2:0,2:0:0:0:
435,235,5639,6,0,L|440:285,2,50,0|0|8,3:2|3:2|2:0,0:0:0:0:
470,200,6078,1,0,2:0:0:0:
470,200,6224,2,0,P|475:150|458:101,1,100,0|8,3:2|2:0,2:0:0:0:
363,73,6809,2,0,L|368:23,2,50,0|0|8,3:2|3:2|2:0,0:0:0:0:
334,115,7248,1,0,2:0:0:0:
334,115,7395,2,0,P|284:110|235:127,1,100,0|8,3:2|2:0,2:0:0:0:
177,205,7980,6,0,P|173:255|164:304,1,100,0|8,3:2|2:0,2:0:0:0:
75,348,8565,1,0,3:2:0:0:
15,267,8858,1,8,2:0:0:0:
68,182,9151,2,0,P|64:132|55:82,1,100,0|8,3:2|2:0,2:0:0:0:
143,33,9734,1,0,3:2:0:0:
216,100,10026,1,8,2:0:0:0:
296,40,10318,6,0,P|346:44|396:53,1,100,8|8,2:0|2:0,0:0:0:0:
448,65,10757,1,8,2:0:0:0:
448,65,10903,1,8,2:0:0:0:
482,158,11196,1,8,2:0:0:0:
427,242,11488,2,0,P|377:246|327:255,1,100,8|8,2:0|2:0,0:0:0:0:
282,266,11927,1,8,2:0:0:0:
282,266,12074,2,0,P|290:217|271:171,1,100,8|8,2:0|2:0,0:0:0:0:
219,85,12659,6,0,P|169:81|119:72,1,100,8|8,2:0|2:0,0:0:0:0:
74,68,13098,1,8,2:0:0:0:
74,68,13244,2,0,P|72:43|67:18,2,50,8|8|8,2:0|2:0|2:0,0:0:0:0:
24,155,13830,2,8,P|28:205|37:255,1,100,8|8,3:2|3:2,2:0:0:0:
91,337,14415,1,8,3:2:0:0:
171,277,14708,2,0,P|196:279|221:283,1,50,8|8,3:2|2:0,0:0:0:0:
270,297,15000,6,0,P|288:248|283:196,1,104.999996795654,4|10,3:2|2:0,3:2:0:0:
277,90,15586,2,0,P|302:87|328:83,1,52.4999983978272,2|0,3:2|3:2,0:0:0:0:
366,46,15878,2,0,P|391:48|417:52,1,52.4999983978272,10|0,2:0|3:2,0:0:0:0:
470,58,16171,2,0,P|465:112|482:161,1,104.999996795654,2|10,3:2|2:0,3:2:0:0:
409,236,16757,2,0,P|384:239|358:243,1,52.4999983978272,2|0,3:2|3:2,0:0:0:0:
304,246,17049,2,0,P|302:271|298:297,1,52.4999983978272,10|0,2:0|3:2,0:0:0:0:
288,350,17342,6,0,P|234:355|184:337,1,104.999996795654,2|10,3:2|2:0,3:2:0:0:
85,311,17927,2,0,P|82:286|78:260,1,52.4999983978272,2|0,3:2|3:2,0:0:0:0:
103,212,18220,2,0,P|106:187|110:161,1,52.4999983978272,10|0,2:0|3:2,0:0:0:0:
92,110,18513,1,2,3:2:0:0:
173,43,18805,1,10,2:0:0:0:
230,131,19098,2,0,P|280:137|333:145,1,104.999996795654,2|14,3:2|2:0,3:2:0:0:
437,164,19683,6,0,P|418:217|425:269,1,104.999996795654,6|10,3:2|2:0,3:2:0:0:
352,342,20269,2,0,P|327:339|301:335,1,52.4999983978272,2|0,3:2|3:2,0:0:0:0:
247,332,20561,2,0,P|245:307|241:281,1,52.4999983978272,10|0,2:0|3:2,0:0:0:0:
218,232,20854,2,0,P|213:178|230:128,1,104.999996795654,2|10,3:2|2:0,3:2:0:0:
189,33,21439,2,0,P|164:36|138:40,1,52.4999983978272,2|0,3:2|3:2,0:0:0:0:
84,43,21732,2,0,P|82:68|78:94,1,52.4999983978272,10|0,2:0|3:2,0:0:0:0:
55,143,22025,6,0,P|50:197|67:246,1,104.999996795654,2|10,3:2|2:0,3:2:0:0:
116,336,22610,2,0,P|141:339|167:343,1,52.4999983978272,2|0,3:2|3:2,0:0:0:0:
215,318,22903,2,0,P|240:315|266:311,1,52.4999983978272,10|0,2:0|3:2,0:0:0:0:
317,329,23196,1,2,3:2:0:0:
388,251,23488,1,10,2:0:0:0:
479,303,23781,2,0,P|485:252|493:199,1,104.999996795654,2|10,3:2|2:0,3:2:0:0:
451,108,24366,6,0,P|400:106|351:95,1,100,8|0,3:2|3:2,0:0:0:0:
308,86,24805,1,0,3:2:0:0:
308,86,24952,1,12,3:2:0:0:
215,47,25244,2,0,P|213:98|202:147,1,100,8|0,3:2|3:2,0:0:0:0:
191,197,25683,1,0,3:2:0:0:
191,197,25830,1,12,3:2:0:0:
105,247,26122,2,0,P|79:247|55:253,2,50,8|0|12,3:2|3:2|3:0,0:0:0:0:
168,325,26708,6,0,P|218:323|267:312,1,100,8|0,3:2|3:2,0:0:0:0:
316,297,27147,1,0,3:2:0:0:
316,297,27293,1,12,3:2:0:0:
410,331,27586,2,0,P|411:280|422:231,1,100,8|0,3:2|3:2,0:0:0:0:
437,187,28025,1,0,3:2:0:0:
437,187,28171,1,12,3:2:0:0:
459,89,28464,2,0,P|484:88|508:82,2,50,8|0|12,3:2|3:2|3:0,0:0:0:0:
377,31,29049,6,0,P|326:32|277:43,1,100,8|0,3:2|3:2,0:0:0:0:
233,58,29488,1,0,3:2:0:0:
233,58,29635,1,12,3:2:0:0:
284,144,29927,2,0,P|283:195|272:244,1,100,8|0,3:2|3:2,0:0:0:0:
255,292,30366,1,0,3:2:0:0:
255,292,30513,1,12,3:2:0:0:
155,305,30805,2,0,P|154:330|148:354,2,50,8|0|12,3:2|3:2|3:0,0:0:0:0:
84,233,31404,5,8,2:0:0:0:
133,146,31692,1,8,2:0:0:0:
222,190,31980,1,8,2:0:0:0:
314,153,32274,1,8,2:0:0:0:
370,235,32568,1,14,2:0:0:0:
484,102,33296,2,0,L|491:52,1,50,0|8,3:2|2:0,0:0:0:0:
391,41,33733,6,0,B|340:32|340:32|287:54|287:54|241:41,2,150,4|4|4,3:2|3:2|3:2,2:0:0:0:
490,52,34909,1,4,3:2:0:0:
473,229,35640,2,0,L|423:236,1,50,0|8,3:2|2:0,0:0:0:0:
368,319,36079,6,0,P|318:315|268:306,1,100,4|10,3:2|2:0,0:0:0:0:
220,294,36518,2,0,P|216:244|207:194,1,100,0|0,3:2|3:2,2:0:0:0:
201,94,37104,2,0,P|151:89|101:107,1,100,0|0,3:2|3:2,2:0:0:0:
70,141,37543,1,10,2:0:0:0:
70,141,37689,1,0,3:2:0:0:
106,239,37982,1,0,3:2:0:0:
106,239,38128,2,0,P|105:264|99:288,1,50,8|8,2:0|2:3,0:0:0:0:
86,339,38421,6,0,P|140:334|189:351,1,104.999996795654,12|2,3:2|3:0,0:0:0:0:
244,355,38860,1,2,3:0:0:0:
244,355,39006,2,0,P|245:329|251:304,1,52.4999983978272,2|2,3:0|3:0,2:0:0:0:
272,255,39299,1,2,3:0:0:0:
320,161,39591,2,0,P|345:159|370:153,2,52.4999983978272,2|2|2,3:0|3:0|3:0,0:0:0:0:
287,126,40030,1,2,3:0:0:0:
287,126,40177,2,0,P|234:123|184:111,1,104.999996795654,2|2,3:0|3:0,2:0:0:0:
82,83,40762,6,0,P|87:137|70:186,1,104.999996795654,2|6,3:0|3:0,0:0:0:0:
61,239,41201,1,2,3:0:0:0:
61,239,41348,2,0,P|86:240|111:246,1,52.4999983978272,2|2,3:0|3:0,2:0:0:0:
161,267,41640,1,2,3:0:0:0:
260,234,41933,2,0,P|259:209|253:184,1,52.4999983978272,2|2,3:0|3:0,0:0:0:0:
218,142,42226,2,0,P|219:117|225:92,1,52.4999983978272,6|2,3:0|3:0,0:0:0:0:
253,46,42518,2,0,P|306:43|356:31,1,104.999996795654,8|8,3:2|3:0,0:0:0:0:
412,25,42957,1,8,3:0:0:0:
412,25,43104,6,0,B|438:74|438:74|405:122|429:173,2,150,4|4|4,3:2|3:2|3:2,2:0:0:0:
322,70,44269,1,4,3:2:0:0:
266,250,45006,2,0,L|216:257,1,50,0|8,3:2|2:0,0:0:0:0:
122,291,45441,6,0,P|118:241|109:191,1,100,4|10,3:2|2:0,0:0:0:0:
98,143,45877,2,0,P|148:139|198:130,1,100,0|0,3:2|3:2,2:0:0:0:
295,110,46462,2,0,P|300:160|282:210,1,100,0|0,3:2|3:2,2:0:0:0:
269,256,46900,1,10,2:0:0:0:
269,256,47047,1,0,3:2:0:0:
346,328,47339,1,0,3:2:0:0:
346,328,47486,2,0,P|371:329|395:335,1,50,10|8,2:0|2:3,0:0:0:0:
447,332,47778,6,0,P|464:282|460:231,1,104.999996795654,12|2,3:2|3:0,0:0:0:0:
431,194,48217,1,2,3:0:0:0:
431,194,48364,2,0,P|432:168|438:143,1,52.4999983978272,2|2,3:0|3:0,2:0:0:0:
462,95,48656,1,2,3:0:0:0:
361,64,48949,2,0,P|359:39|353:14,2,52.4999983978272,2|2|2,3:0|3:0|3:0,0:0:0:0:
332,109,49388,1,2,3:0:0:0:
332,109,49534,2,0,P|279:112|229:124,1,104.999996795654,2|2,3:0|3:0,2:0:0:0:
123,124,50120,6,0,P|140:173|136:224,1,104.999996795654,2|2,3:0|3:0,0:0:0:0:
125,279,50559,1,2,3:0:0:0:
125,279,50705,2,0,P|151:280|176:286,1,52.4999983978272,2|2,3:0|3:0,2:0:0:0:
224,310,50998,1,2,3:0:0:0:
316,259,51290,2,0,P|317:234|323:209,1,52.4999983978272,6|2,3:0|3:0,0:0:0:0:
358,167,51583,2,0,P|357:142|351:117,1,52.4999983978272,2|6,3:0|3:0,0:0:0:0:
341,63,51876,2,0,P|288:66|238:78,1,104.999996795654,2|6,3:0|3:0,0:0:0:0:
162,144,52461,5,12,3:2:0:0:
473,343,54510,1,12,3:2:0:0:
