osu file format v14

[General]
AudioFilename: audio.mp3
AudioLeadIn: 0
PreviewTime: 29196
Countdown: 0
SampleSet: Normal
StackLeniency: 0.7
Mode: 3
LetterboxInBreaks: 0
SpecialStyle: 0
WidescreenStoryboard: 1

[Editor]
DistanceSpacing: 1
BeatDivisor: 6
GridSize: 4
TimelineZoom: 2.2

[Metadata]
Title:666 Flags
TitleUnicode:666 Flags
Artist:Origami Angel
ArtistUnicode:Origami Angel
Creator:hna
Version:Normal
Source:
Tags:midwest emo pop punk math rock somewhere city featured artist fa english hana
BeatmapID:3684106
BeatmapSetID:1794518

[Difficulty]
HPDrainRate:7.5
CircleSize:4
OverallDifficulty:7.5
ApproachRate:5
SliderMultiplier:1.4
SliderTickRate:1

[Events]
//Background and Video events
0,0,"bg.jpg",0,0
//Break Periods
//Storyboard Layer 0 (Background)
//Storyboard Layer 1 (Fail)
//Storyboard Layer 2 (Pass)
//Storyboard Layer 3 (Foreground)
//Storyboard Layer 4 (Overlay)
//Storyboard Sound Samples

[TimingPoints]
173,279.06976744186,4,1,1,40,1,0
25707,291.262135922329,4,1,1,40,1,0
25707,-96.1538461538461,4,1,1,40,0,0
26143,298.507462686567,4,1,1,40,1,0
26143,-93.4579439252336,4,1,1,40,0,0
26366,306.122448979591,4,1,1,40,1,0
26366,-90.9090909090909,4,1,1,40,0,0
26825,292.682926829268,4,1,1,40,1,0
26825,-95.2380952380952,4,1,1,40,0,0
27044,258.620689655172,4,1,1,40,1,0
27044,-107.52688172043,4,1,1,40,0,0
28080,279.06976744186,4,1,1,40,1,0
96172,533.333333333333,4,1,1,40,1,0
96172,-52.3560209424084,4,1,1,40,0,0
96438,502.092050209205,4,1,1,40,1,0
96438,-55.5555555555556,4,1,1,40,0,0
96689,533.333333333333,4,1,1,40,1,0
96689,-52.3560209424084,4,1,1,40,0,0
98289,533.333333333333,4,1,1,40,1,0
98289,-52.3560209424084,4,1,1,40,0,0
104422,566.037735849056,4,1,1,40,1,0
104422,-49.2610837438424,4,1,1,40,0,0
104705,533.333333333333,4,1,1,40,1,0
104705,-52.3560209424084,4,1,1,40,0,0
120171,591.133004926108,4,1,1,40,1,0
120171,-47.1698113207547,4,1,1,40,0,0
120614,621.761658031087,4,1,1,40,1,0
120614,-44.8430493273543,4,1,1,40,0,0
121080,579.710144927536,4,1,1,40,1,0
121080,-48.0769230769231,4,1,1,40,0,0
121514,515.021459227467,4,1,1,40,1,0
121514,-54.054054054054,4,1,1,40,0,0
121771,533.333333333333,4,1,1,40,1,0
121771,-52.3560209424084,4,1,1,40,0,0
128704,588.235294117646,4,1,1,40,1,0
128704,-47.39336492891,4,1,1,40,0,0
129586,475.247524752475,4,1,1,40,1,0
129586,-58.8235294117647,4,1,1,40,0,0
130299,285.714285714286,4,1,1,40,1,0
130299,-98.0392156862745,4,1,1,40,0,0

[HitObjects]
448,192,173,5,0,0:0:0:0:
192,192,359,1,0,0:0:0:0:
320,192,452,1,0,0:0:0:0:
448,192,731,1,0,0:0:0:0:
192,192,917,1,0,0:0:0:0:
320,192,1010,1,0,0:0:0:0:
448,192,1289,1,0,0:0:0:0:
192,192,1475,1,0,0:0:0:0:
320,192,1568,1,0,0:0:0:0:
448,192,1847,1,0,0:0:0:0:
192,192,2126,1,0,0:0:0:0:
64,192,2405,1,0,0:0:0:0:
448,192,2405,1,0,0:0:0:0:
448,192,2684,1,0,0:0:0:0:
64,192,2684,1,0,0:0:0:0:
320,192,2963,1,0,0:0:0:0:
192,192,2963,1,0,0:0:0:0:
320,192,3242,1,0,0:0:0:0:
192,192,3242,1,0,0:0:0:0:
448,192,3521,1,0,0:0:0:0:
320,192,3521,1,0,0:0:0:0:
448,192,3800,1,0,0:0:0:0:
320,192,3800,1,0,0:0:0:0:
64,192,4079,1,0,0:0:0:0:
320,192,4126,1,0,0:0:0:0:
192,192,4359,1,0,0:0:0:0:
448,192,4405,1,0,0:0:0:0:
320,192,4638,1,0,0:0:0:0:
192,192,4777,1,0,0:0:0:0:
448,192,4917,1,0,0:0:0:0:
64,192,4917,1,0,0:0:0:0:
320,192,5196,1,0,0:0:0:0:
192,192,5196,1,0,0:0:0:0:
448,192,5475,1,0,0:0:0:0:
192,192,5475,1,0,0:0:0:0:
64,192,5754,1,0,0:0:0:0:
448,192,5893,1,0,0:0:0:0:
320,192,6033,1,0,0:0:0:0:
448,192,6172,1,0,0:0:0:0:
192,192,6312,1,0,0:0:0:0:
64,192,6312,1,0,0:0:0:0:
320,192,6591,1,0,0:0:0:0:
64,192,6591,1,0,0:0:0:0:
192,192,6870,1,0,0:0:0:0:
320,192,7010,1,0,0:0:0:0:
448,192,7149,1,0,0:0:0:0:
64,192,7149,1,0,0:0:0:0:
192,192,7289,1,0,0:0:0:0:
448,192,7428,1,0,0:0:0:0:
64,192,7568,1,0,0:0:0:0:
320,192,7707,1,0,0:0:0:0:
192,192,7847,1,0,0:0:0:0:
448,192,7986,1,0,0:0:0:0:
64,192,7986,1,0,0:0:0:0:
320,192,8266,1,0,0:0:0:0:
448,192,8266,1,0,0:0:0:0:
192,192,8545,1,0,0:0:0:0:
64,192,8545,1,0,0:0:0:0:
448,192,8824,1,0,0:0:0:0:
320,192,9103,1,0,0:0:0:0:
64,192,9103,1,0,0:0:0:0:
448,192,9382,1,0,0:0:0:0:
192,192,9382,1,0,0:0:0:0:
320,192,9661,1,0,0:0:0:0:
192,192,9800,1,0,0:0:0:0:
448,192,9940,1,0,0:0:0:0:
320,192,10079,1,0,0:0:0:0:
192,192,10219,1,0,0:0:0:0:
448,192,10219,1,0,0:0:0:0:
320,192,10498,1,0,0:0:0:0:
64,192,10498,1,0,0:0:0:0:
64,192,10777,1,0,0:0:0:0:
448,192,10917,1,0,0:0:0:0:
192,192,11056,1,0,0:0:0:0:
64,192,11196,1,0,0:0:0:0:
192,192,11335,1,0,0:0:0:0:
448,192,11335,1,0,0:0:0:0:
320,192,11614,1,0,0:0:0:0:
64,192,11614,1,0,0:0:0:0:
192,192,11893,1,0,0:0:0:0:
320,192,11893,1,0,0:0:0:0:
448,192,12172,1,0,0:0:0:0:
64,192,12312,1,0,0:0:0:0:
320,192,12452,1,0,0:0:0:0:
448,192,12452,1,0,0:0:0:0:
192,192,12731,1,0,0:0:0:0:
64,192,12731,1,0,0:0:0:0:
320,192,13010,1,0,0:0:0:0:
448,192,13010,1,0,0:0:0:0:
192,192,13289,1,0,0:0:0:0:
320,192,13289,1,0,0:0:0:0:
64,192,13568,1,0,0:0:0:0:
448,192,13568,1,0,0:0:0:0:
320,192,13847,1,0,0:0:0:0:
192,192,14126,1,0,0:0:0:0:
64,192,14126,1,0,0:0:0:0:
320,192,14405,1,0,0:0:0:0:
448,192,14684,1,0,0:0:0:0:
64,192,14684,1,0,0:0:0:0:
192,192,14963,1,0,0:0:0:0:
320,192,15242,1,0,0:0:0:0:
448,192,15242,1,0,0:0:0:0:
192,192,15521,1,0,0:0:0:0:
320,192,15800,1,0,0:0:0:0:
64,192,15800,1,0,0:0:0:0:
448,192,16079,1,0,0:0:0:0:
192,192,16359,1,0,0:0:0:0:
64,192,16359,1,0,0:0:0:0:
448,192,16638,1,0,0:0:0:0:
320,192,16917,1,0,0:0:0:0:
192,192,16917,1,0,0:0:0:0:
64,192,17196,1,0,0:0:0:0:
320,192,17475,1,0,0:0:0:0:
448,192,17475,1,0,0:0:0:0:
320,192,17754,1,0,0:0:0:0:
64,192,17754,1,0,0:0:0:0:
192,192,17893,1,0,0:0:0:0:
448,192,18033,1,0,0:0:0:0:
64,192,18033,1,0,0:0:0:0:
448,192,18312,1,0,0:0:0:0:
192,192,18312,1,0,0:0:0:0:
320,192,18591,1,0,0:0:0:0:
192,192,18731,1,0,0:0:0:0:
64,192,18870,1,0,0:0:0:0:
320,192,19010,1,0,0:0:0:0:
448,192,19010,1,0,0:0:0:0:
192,192,19289,1,0,0:0:0:0:
448,192,19428,1,0,0:0:0:0:
64,192,19568,1,0,0:0:0:0:
320,192,19568,1,0,0:0:0:0:
192,192,19847,1,0,0:0:0:0:
448,192,19986,1,0,0:0:0:0:
320,192,20126,1,0,0:0:0:0:
448,192,20266,1,0,0:0:0:0:
64,192,20266,1,0,0:0:0:0:
448,192,20545,1,0,0:0:0:0:
192,192,20545,1,0,0:0:0:0:
320,192,20824,1,0,0:0:0:0:
192,192,20963,1,0,0:0:0:0:
64,192,21103,1,0,0:0:0:0:
320,192,21242,1,0,0:0:0:0:
448,192,21242,1,0,0:0:0:0:
64,192,21452,1,0,0:0:0:0:
192,192,21452,1,0,0:0:0:0:
448,192,21661,1,0,0:0:0:0:
320,192,21661,1,0,0:0:0:0:
320,192,21870,1,0,0:0:0:0:
192,192,21870,1,0,0:0:0:0:
448,192,22498,1,0,0:0:0:0:
64,192,22498,1,0,0:0:0:0:
448,192,22777,1,0,0:0:0:0:
192,192,22777,1,0,0:0:0:0:
320,192,23056,1,0,0:0:0:0:
192,192,23196,1,0,0:0:0:0:
64,192,23335,1,0,0:0:0:0:
320,192,23475,1,0,0:0:0:0:
448,192,23475,1,0,0:0:0:0:
192,192,23754,1,0,0:0:0:0:
448,192,23893,1,0,0:0:0:0:
64,192,24033,1,0,0:0:0:0:
320,192,24033,1,0,0:0:0:0:
192,192,24312,1,0,0:0:0:0:
448,192,24452,1,0,0:0:0:0:
320,192,24591,1,0,0:0:0:0:
448,192,24731,1,0,0:0:0:0:
64,192,24731,1,0,0:0:0:0:
448,192,25010,1,0,0:0:0:0:
192,192,25010,1,0,0:0:0:0:
320,192,25289,1,0,0:0:0:0:
192,192,25428,1,0,0:0:0:0:
64,192,25568,1,0,0:0:0:0:
320,192,25707,1,0,0:0:0:0:
448,192,25707,1,0,0:0:0:0:
64,192,25925,1,0,0:0:0:0:
192,192,25925,1,0,0:0:0:0:
448,192,26143,1,0,0:0:0:0:
320,192,26143,1,0,0:0:0:0:
320,192,26366,1,0,0:0:0:0:
192,192,26366,1,0,0:0:0:0:
64,192,26595,1,0,0:0:0:0:
448,192,26595,1,0,0:0:0:0:
192,192,26825,1,0,0:0:0:0:
64,192,26825,1,0,0:0:0:0:
320,192,27044,1,0,0:0:0:0:
448,192,27044,1,0,0:0:0:0:
192,192,28078,1,0,0:0:0:0:
448,192,28078,1,0,0:0:0:0:
320,192,28777,1,0,0:0:0:0:
64,192,28917,1,0,0:0:0:0:
448,192,28963,1,0,0:0:0:0:
192,192,29196,1,0,0:0:0:0:
320,192,29335,1,0,0:0:0:0:
64,192,29475,1,0,0:0:0:0:
448,192,29475,1,0,0:0:0:0:
192,192,29754,1,0,0:0:0:0:
320,192,29754,1,0,0:0:0:0:
64,192,30033,1,0,0:0:0:0:
320,192,30033,1,0,0:0:0:0:
448,192,30312,1,0,0:0:0:0:
192,192,30312,1,0,0:0:0:0:
64,192,30591,1,0,0:0:0:0:
192,192,30731,1,0,0:0:0:0:
320,192,30870,1,0,0:0:0:0:
448,192,30870,1,0,0:0:0:0:
192,192,31149,1,0,0:0:0:0:
448,192,31149,1,0,0:0:0:0:
320,192,31428,1,0,0:0:0:0:
192,192,31568,1,0,0:0:0:0:
64,192,31707,1,0,0:0:0:0:
448,192,31707,1,0,0:0:0:0:
320,192,31847,1,0,0:0:0:0:
64,192,31986,1,0,0:0:0:0:
448,192,32126,1,0,0:0:0:0:
192,192,32266,1,0,0:0:0:0:
320,192,32405,1,0,0:0:0:0:
64,192,32545,1,0,0:0:0:0:
192,192,32684,1,0,0:0:0:0:
64,192,32824,1,0,0:0:0:0:
448,192,32824,1,0,0:0:0:0:
320,192,33103,1,0,0:0:0:0:
192,192,33103,1,0,0:0:0:0:
448,192,33382,1,0,0:0:0:0:
64,192,33521,1,0,0:0:0:0:
192,192,33661,1,0,0:0:0:0:
448,192,33661,1,0,0:0:0:0:
64,192,33940,1,0,0:0:0:0:
320,192,33940,1,0,0:0:0:0:
448,192,34219,1,0,0:0:0:0:
320,192,34219,1,0,0:0:0:0:
64,192,34498,1,0,0:0:0:0:
192,192,34498,1,0,0:0:0:0:
448,192,34638,1,0,0:0:0:0:
320,192,34777,1,0,0:0:0:0:
64,192,34777,1,0,0:0:0:0:
192,192,35056,1,0,0:0:0:0:
448,192,35056,1,0,0:0:0:0:
192,192,35335,1,0,0:0:0:0:
64,192,35335,1,0,0:0:0:0:
448,192,35614,1,0,0:0:0:0:
320,192,35614,1,0,0:0:0:0:
64,192,35754,1,0,0:0:0:0:
192,192,35893,1,0,0:0:0:0:
448,192,35893,1,0,0:0:0:0:
320,192,36173,1,0,0:0:0:0:
64,192,36173,1,0,0:0:0:0:
320,192,36452,1,0,0:0:0:0:
192,192,36452,1,0,0:0:0:0:
64,192,36731,1,0,0:0:0:0:
448,192,36870,1,0,0:0:0:0:
192,192,37010,1,0,0:0:0:0:
64,192,37010,1,0,0:0:0:0:
320,192,37289,1,0,0:0:0:0:
448,192,37289,1,0,0:0:0:0:
192,192,37568,1,0,0:0:0:0:
64,192,37568,1,0,0:0:0:0:
320,192,37847,1,0,0:0:0:0:
192,192,37847,1,0,0:0:0:0:
448,192,38126,1,0,0:0:0:0:
64,192,38126,1,0,0:0:0:0:
192,192,38405,1,0,0:0:0:0:
320,192,38684,1,0,0:0:0:0:
448,192,38684,1,0,0:0:0:0:
192,192,38963,1,0,0:0:0:0:
64,192,39242,1,0,0:0:0:0:
448,192,39242,1,0,0:0:0:0:
320,192,39521,1,0,0:0:0:0:
192,192,39800,1,0,0:0:0:0:
64,192,39800,1,0,0:0:0:0:
320,192,40079,1,0,0:0:0:0:
192,192,40359,1,0,0:0:0:0:
448,192,40359,1,0,0:0:0:0:
64,192,40638,1,0,0:0:0:0:
320,192,40917,1,0,0:0:0:0:
448,192,40917,1,0,0:0:0:0:
64,192,41196,1,0,0:0:0:0:
192,192,41475,1,0,0:0:0:0:
320,192,41475,1,0,0:0:0:0:
448,192,41754,1,0,0:0:0:0:
192,192,42033,1,0,0:0:0:0:
64,192,42033,1,0,0:0:0:0:
192,192,42312,1,0,0:0:0:0:
448,192,42312,1,0,0:0:0:0:
320,192,42452,1,0,0:0:0:0:
64,192,42591,1,0,0:0:0:0:
448,192,42591,1,0,0:0:0:0:
192,192,43010,1,0,0:0:0:0:
320,192,43149,1,0,0:0:0:0:
448,192,43149,1,0,0:0:0:0:
64,192,43428,1,0,0:0:0:0:
448,192,43428,1,0,0:0:0:0:
192,192,43707,1,0,0:0:0:0:
448,192,43986,1,0,0:0:0:0:
64,192,43986,1,0,0:0:0:0:
320,192,44266,1,0,0:0:0:0:
448,192,44266,1,0,0:0:0:0:
192,192,44545,1,0,0:0:0:0:
64,192,44545,1,0,0:0:0:0:
64,192,45103,1,0,0:0:0:0:
320,192,45382,1,0,0:0:0:0:
448,192,45661,1,0,0:0:0:0:
192,192,45940,1,0,0:0:0:0:
320,192,46219,1,0,0:0:0:0:
192,192,46498,1,0,0:0:0:0:
64,192,46777,1,0,0:0:0:0:
320,192,46917,1,0,0:0:0:0:
448,192,47056,1,0,0:0:0:0:
192,192,47056,1,0,0:0:0:0:
320,192,47475,1,0,0:0:0:0:
192,192,47614,1,0,0:0:0:0:
64,192,47614,1,0,0:0:0:0:
448,192,47893,1,0,0:0:0:0:
64,192,47893,1,0,0:0:0:0:
320,192,48173,1,0,0:0:0:0:
64,192,48452,1,0,0:0:0:0:
448,192,48452,1,0,0:0:0:0:
192,192,48731,1,0,0:0:0:0:
64,192,48731,1,0,0:0:0:0:
320,192,49010,1,0,0:0:0:0:
448,192,49010,1,0,0:0:0:0:
448,192,49568,1,0,0:0:0:0:
192,192,49847,1,0,0:0:0:0:
64,192,50126,1,0,0:0:0:0:
320,192,50405,1,0,0:0:0:0:
192,192,50684,1,0,0:0:0:0:
64,192,50684,1,0,0:0:0:0:
320,192,50963,1,0,0:0:0:0:
448,192,50963,1,0,0:0:0:0:
192,192,51242,1,0,0:0:0:0:
64,192,51521,1,0,0:0:0:0:
448,192,51521,1,0,0:0:0:0:
192,192,51940,1,0,0:0:0:0:
448,192,52079,1,0,0:0:0:0:
320,192,52079,1,0,0:0:0:0:
64,192,52359,1,0,0:0:0:0:
448,192,52359,1,0,0:0:0:0:
192,192,52638,1,0,0:0:0:0:
64,192,52917,1,0,0:0:0:0:
448,192,52917,1,0,0:0:0:0:
320,192,53196,1,0,0:0:0:0:
448,192,53196,1,0,0:0:0:0:
192,192,53475,1,0,0:0:0:0:
64,192,53475,1,0,0:0:0:0:
64,192,54033,1,0,0:0:0:0:
320,192,54312,1,0,0:0:0:0:
448,192,54591,1,0,0:0:0:0:
192,192,54870,1,0,0:0:0:0:
320,192,55149,1,0,0:0:0:0:
192,192,55428,1,0,0:0:0:0:
64,192,55707,1,0,0:0:0:0:
192,192,55986,1,0,0:0:0:0:
320,192,55986,1,0,0:0:0:0:
448,192,56545,1,0,0:0:0:0:
192,192,56545,1,0,0:0:0:0:
320,192,56824,1,0,0:0:0:0:
192,192,56824,1,0,0:0:0:0:
320,192,57382,1,0,0:0:0:0:
64,192,57382,1,0,0:0:0:0:
192,192,57661,1,0,0:0:0:0:
448,192,57661,1,0,0:0:0:0:
448,192,58219,1,0,0:0:0:0:
64,192,58266,1,0,0:0:0:0:
192,192,58777,1,0,0:0:0:0:
320,192,59231,1,0,0:0:0:0:
448,192,59335,1,0,0:0:0:0:
64,192,59614,1,0,0:0:0:0:
320,192,59893,1,0,0:0:0:0:
192,192,59940,1,0,0:0:0:0:
64,192,60173,1,0,0:0:0:0:
320,192,60452,1,0,0:0:0:0:
192,192,60452,1,0,0:0:0:0:
64,192,61010,1,0,0:0:0:0:
192,192,61289,1,0,0:0:0:0:
448,192,61289,1,0,0:0:0:0:
320,192,61707,1,0,0:0:0:0:
448,192,61847,1,0,0:0:0:0:
192,192,61847,1,0,0:0:0:0:
64,192,62126,1,0,0:0:0:0:
320,192,62405,1,0,0:0:0:0:
448,192,62405,1,0,0:0:0:0:
192,192,62824,1,0,0:0:0:0:
64,192,62963,1,0,0:0:0:0:
320,192,62963,1,0,0:0:0:0:
448,192,63242,1,0,0:0:0:0:
192,192,63242,1,0,0:0:0:0:
320,192,63521,1,0,0:0:0:0:
192,192,63800,1,0,0:0:0:0:
64,192,63800,1,0,0:0:0:0:
448,192,64079,1,0,0:0:0:0:
320,192,64079,1,0,0:0:0:0:
64,192,64359,1,0,0:0:0:0:
448,192,64359,1,0,0:0:0:0:
192,192,64638,1,0,0:0:0:0:
320,192,64638,1,0,0:0:0:0:
448,192,64917,1,0,0:0:0:0:
64,192,64917,1,0,0:0:0:0:
320,192,65475,1,0,0:0:0:0:
192,192,65754,1,0,0:0:0:0:
448,192,65754,1,0,0:0:0:0:
64,192,66173,1,0,0:0:0:0:
448,192,66312,1,0,0:0:0:0:
192,192,66312,1,0,0:0:0:0:
320,192,66591,1,0,0:0:0:0:
64,192,66870,1,0,0:0:0:0:
192,192,66870,1,0,0:0:0:0:
448,192,67289,1,0,0:0:0:0:
64,192,67428,1,0,0:0:0:0:
320,192,67428,1,0,0:0:0:0:
448,192,67707,1,0,0:0:0:0:
192,192,67707,1,0,0:0:0:0:
64,192,67986,1,0,0:0:0:0:
448,192,68266,1,0,0:0:0:0:
320,192,68266,1,0,0:0:0:0:
192,192,68545,1,0,0:0:0:0:
64,192,68545,1,0,0:0:0:0:
192,192,68824,1,0,0:0:0:0:
320,192,68824,1,0,0:0:0:0:
64,192,69103,1,0,0:0:0:0:
448,192,69103,1,0,0:0:0:0:
320,192,69382,1,0,0:0:0:0:
192,192,69382,1,0,0:0:0:0:
64,192,69940,1,0,0:0:0:0:
192,192,70219,1,0,0:0:0:0:
448,192,70219,1,0,0:0:0:0:
320,192,70638,1,0,0:0:0:0:
448,192,70777,1,0,0:0:0:0:
192,192,70777,1,0,0:0:0:0:
64,192,71056,1,0,0:0:0:0:
320,192,71335,1,0,0:0:0:0:
448,192,71335,1,0,0:0:0:0:
192,192,71754,1,0,0:0:0:0:
64,192,71893,1,0,0:0:0:0:
320,192,71893,1,0,0:0:0:0:
448,192,72173,1,0,0:0:0:0:
192,192,72173,1,0,0:0:0:0:
320,192,72452,1,0,0:0:0:0:
192,192,72731,1,0,0:0:0:0:
64,192,72731,1,0,0:0:0:0:
448,192,73010,1,0,0:0:0:0:
320,192,73010,1,0,0:0:0:0:
64,192,73289,1,0,0:0:0:0:
448,192,73289,1,0,0:0:0:0:
192,192,73568,1,0,0:0:0:0:
320,192,73568,1,0,0:0:0:0:
448,192,73847,1,0,0:0:0:0:
64,192,73847,1,0,0:0:0:0:
448,192,74405,1,0,0:0:0:0:
192,192,74684,1,0,0:0:0:0:
320,192,74684,1,0,0:0:0:0:
192,192,75242,1,0,0:0:0:0:
64,192,75521,1,0,0:0:0:0:
448,192,75521,1,0,0:0:0:0:
320,192,76079,1,0,0:0:0:0:
320,192,76638,1,0,0:0:0:0:
320,192,77196,1,0,0:0:0:0:
192,192,77475,1,0,0:0:0:0:
64,192,77475,1,0,0:0:0:0:
192,192,77754,1,0,0:0:0:0:
320,192,77754,1,0,0:0:0:0:
64,192,78033,1,0,0:0:0:0:
448,192,78033,1,0,0:0:0:0:
192,192,78312,1,0,0:0:0:0:
320,192,78312,1,0,0:0:0:0:
448,192,78870,1,0,0:0:0:0:
320,192,79149,1,0,0:0:0:0:
64,192,79149,1,0,0:0:0:0:
192,192,79568,1,0,0:0:0:0:
64,192,79707,1,0,0:0:0:0:
320,192,79707,1,0,0:0:0:0:
448,192,79986,1,0,0:0:0:0:
192,192,80266,1,0,0:0:0:0:
64,192,80266,1,0,0:0:0:0:
320,192,80684,1,0,0:0:0:0:
448,192,80824,1,0,0:0:0:0:
192,192,80824,1,0,0:0:0:0:
64,192,81103,1,0,0:0:0:0:
320,192,81103,1,0,0:0:0:0:
192,192,81382,1,0,0:0:0:0:
320,192,81661,1,0,0:0:0:0:
448,192,81661,1,0,0:0:0:0:
64,192,81940,1,0,0:0:0:0:
192,192,81940,1,0,0:0:0:0:
448,192,82219,1,0,0:0:0:0:
64,192,82219,1,0,0:0:0:0:
320,192,82498,1,0,0:0:0:0:
192,192,82498,1,0,0:0:0:0:
64,192,82777,1,0,0:0:0:0:
448,192,82777,1,0,0:0:0:0:
192,192,83335,1,0,0:0:0:0:
320,192,83614,1,0,0:0:0:0:
64,192,83614,1,0,0:0:0:0:
448,192,84033,1,0,0:0:0:0:
64,192,84173,1,0,0:0:0:0:
320,192,84173,1,0,0:0:0:0:
192,192,84452,1,0,0:0:0:0:
448,192,84731,1,0,0:0:0:0:
320,192,84731,1,0,0:0:0:0:
64,192,85149,1,0,0:0:0:0:
448,192,85289,1,0,0:0:0:0:
192,192,85289,1,0,0:0:0:0:
64,192,85568,1,0,0:0:0:0:
320,192,85568,1,0,0:0:0:0:
448,192,85847,1,0,0:0:0:0:
64,192,86126,1,0,0:0:0:0:
192,192,86126,1,0,0:0:0:0:
320,192,86405,1,0,0:0:0:0:
448,192,86405,1,0,0:0:0:0:
320,192,86684,1,0,0:0:0:0:
192,192,86684,1,0,0:0:0:0:
448,192,86963,1,0,0:0:0:0:
64,192,86963,1,0,0:0:0:0:
192,192,87242,1,0,0:0:0:0:
320,192,87242,1,0,0:0:0:0:
448,192,87800,1,0,0:0:0:0:
320,192,88079,1,0,0:0:0:0:
64,192,88079,1,0,0:0:0:0:
192,192,88498,1,0,0:0:0:0:
64,192,88638,1,0,0:0:0:0:
320,192,88638,1,0,0:0:0:0:
448,192,88917,1,0,0:0:0:0:
192,192,89196,1,0,0:0:0:0:
64,192,89196,1,0,0:0:0:0:
320,192,89614,1,0,0:0:0:0:
448,192,89754,1,0,0:0:0:0:
192,192,89754,1,0,0:0:0:0:
64,192,90033,1,0,0:0:0:0:
320,192,90033,1,0,0:0:0:0:
192,192,90312,1,0,0:0:0:0:
320,192,90591,1,0,0:0:0:0:
448,192,90591,1,0,0:0:0:0:
64,192,90870,1,0,0:0:0:0:
192,192,90870,1,0,0:0:0:0:
448,192,91149,1,0,0:0:0:0:
64,192,91149,1,0,0:0:0:0:
320,192,91428,1,0,0:0:0:0:
192,192,91428,1,0,0:0:0:0:
64,192,91707,1,0,0:0:0:0:
448,192,91707,1,0,0:0:0:0:
64,192,92266,1,0,0:0:0:0:
320,192,92545,1,0,0:0:0:0:
192,192,92545,1,0,0:0:0:0:
320,192,93103,1,0,0:0:0:0:
448,192,93382,1,0,0:0:0:0:
64,192,93382,1,0,0:0:0:0:
192,192,93940,1,0,0:0:0:0:
192,192,94498,1,0,0:0:0:0:
192,192,95056,1,0,0:0:0:0:
320,192,95335,1,0,0:0:0:0:
448,192,95614,1,0,0:0:0:0:
64,192,95614,1,0,0:0:0:0:
192,192,95893,1,0,0:0:0:0:
448,192,96172,1,0,0:0:0:0:
64,192,96172,1,0,0:0:0:0:
320,192,96438,1,0,0:0:0:0:
192,192,96689,1,0,0:0:0:0:
320,192,96955,1,0,0:0:0:0:
192,192,97222,1,0,0:0:0:0:
320,192,97489,1,0,0:0:0:0:
192,192,97755,1,0,0:0:0:0:
320,192,98022,1,0,0:0:0:0:
64,192,98289,1,0,0:0:0:0:
192,192,98555,1,0,0:0:0:0:
64,192,98822,1,0,0:0:0:0:
192,192,99089,1,0,0:0:0:0:
64,192,99355,1,0,0:0:0:0:
192,192,99622,1,0,0:0:0:0:
64,192,99889,1,0,0:0:0:0:
320,192,100155,1,0,0:0:0:0:
192,192,100422,1,0,0:0:0:0:
448,192,100422,1,0,0:0:0:0:
64,192,100955,1,0,0:0:0:0:
448,192,100955,1,0,0:0:0:0:
320,192,101489,1,0,0:0:0:0:
192,192,101489,1,0,0:0:0:0:
448,192,101755,1,0,0:0:0:0:
192,192,102022,1,0,0:0:0:0:
64,192,102022,1,0,0:0:0:0:
448,192,102289,1,0,0:0:0:0:
320,192,102289,1,0,0:0:0:0:
192,192,102555,1,0,0:0:0:0:
64,192,102555,1,0,0:0:0:0:
448,192,103089,1,0,0:0:0:0:
320,192,103622,1,0,0:0:0:0:
192,192,103622,1,0,0:0:0:0:
64,192,103889,1,0,0:0:0:0:
192,192,104155,1,0,0:0:0:0:
448,192,104422,1,0,0:0:0:0:
320,192,104422,1,0,0:0:0:0:
192,192,104705,1,0,0:0:0:0:
64,192,104705,1,0,0:0:0:0:
320,192,105238,1,0,0:0:0:0:
64,192,105505,1,0,0:0:0:0:
448,192,105505,1,0,0:0:0:0:
192,192,105771,1,0,0:0:0:0:
320,192,105771,1,0,0:0:0:0:
448,192,106305,1,0,0:0:0:0:
320,192,106571,1,0,0:0:0:0:
64,192,106571,1,0,0:0:0:0:
192,192,106838,1,0,0:0:0:0:
320,192,107105,1,0,0:0:0:0:
448,192,107105,1,0,0:0:0:0:
448,192,107638,1,0,0:0:0:0:
64,192,107638,1,0,0:0:0:0:
192,192,107905,1,0,0:0:0:0:
320,192,108171,1,0,0:0:0:0:
64,192,108171,1,0,0:0:0:0:
448,192,108438,1,0,0:0:0:0:
192,192,108705,1,0,0:0:0:0:
64,192,108705,1,0,0:0:0:0:
448,192,108971,1,0,0:0:0:0:
192,192,109238,1,0,0:0:0:0:
64,192,109505,1,0,0:0:0:0:
320,192,109505,1,0,0:0:0:0:
192,192,109771,1,0,0:0:0:0:
448,192,109771,1,0,0:0:0:0:
64,192,110038,1,0,0:0:0:0:
320,192,110305,1,0,0:0:0:0:
448,192,110305,1,0,0:0:0:0:
192,192,110571,1,0,0:0:0:0:
64,192,110838,1,0,0:0:0:0:
448,192,110838,1,0,0:0:0:0:
320,192,111105,1,0,0:0:0:0:
192,192,111371,1,0,0:0:0:0:
64,192,111371,1,0,0:0:0:0:
320,192,111638,1,0,0:0:0:0:
64,192,111905,1,0,0:0:0:0:
320,192,112171,1,0,0:0:0:0:
192,192,112171,1,0,0:0:0:0:
192,192,112438,1,0,0:0:0:0:
320,192,112438,1,0,0:0:0:0:
448,192,112705,1,0,0:0:0:0:
64,192,112705,1,0,0:0:0:0:
192,192,112971,1,0,0:0:0:0:
320,192,113238,1,0,0:0:0:0:
448,192,113238,1,0,0:0:0:0:
64,192,113505,1,0,0:0:0:0:
448,192,113771,1,0,0:0:0:0:
320,192,113771,1,0,0:0:0:0:
64,192,114038,1,0,0:0:0:0:
320,192,114305,1,0,0:0:0:0:
448,192,114305,1,0,0:0:0:0:
192,192,114571,1,0,0:0:0:0:
64,192,114571,1,0,0:0:0:0:
448,192,114838,1,0,0:0:0:0:
64,192,114838,1,0,0:0:0:0:
192,192,115105,1,0,0:0:0:0:
320,192,115105,1,0,0:0:0:0:
448,192,115638,1,0,0:0:0:0:
320,192,115638,1,0,0:0:0:0:
192,192,115905,1,0,0:0:0:0:
64,192,115905,1,0,0:0:0:0:
320,192,116171,1,0,0:0:0:0:
192,192,116171,1,0,0:0:0:0:
448,192,116705,1,0,0:0:0:0:
64,192,116971,1,0,0:0:0:0:
320,192,116971,1,0,0:0:0:0:
448,192,117238,1,0,0:0:0:0:
320,192,117371,1,0,0:0:0:0:
64,192,117505,1,0,0:0:0:0:
192,192,117505,1,0,0:0:0:0:
448,192,117771,1,0,0:0:0:0:
192,192,118038,1,0,0:0:0:0:
64,192,118038,1,0,0:0:0:0:
448,192,118305,1,0,0:0:0:0:
192,192,118571,1,0,0:0:0:0:
64,192,118571,1,0,0:0:0:0:
320,192,118838,1,0,0:0:0:0:
448,192,118838,1,0,0:0:0:0:
320,192,119105,1,0,0:0:0:0:
192,192,119105,1,0,0:0:0:0:
64,192,119371,1,0,0:0:0:0:
448,192,119371,1,0,0:0:0:0:
192,192,119771,1,0,0:0:0:0:
448,192,119771,1,0,0:0:0:0:
64,192,120171,1,0,0:0:0:0:
320,192,120171,1,0,0:0:0:0:
320,192,120665,1,0,0:0:0:0:
448,192,120665,1,0,0:0:0:0:
64,192,121116,1,0,0:0:0:0:
192,192,121116,1,0,0:0:0:0:
320,192,121514,1,0,0:0:0:0:
192,192,121514,1,0,0:0:0:0:
320,192,121771,1,0,0:0:0:0:
448,192,121771,1,0,0:0:0:0:
64,192,122037,1,0,0:0:0:0:
448,192,122304,1,0,0:0:0:0:
320,192,122304,1,0,0:0:0:0:
64,192,122571,1,0,0:0:0:0:
320,192,122837,1,0,0:0:0:0:
448,192,122837,1,0,0:0:0:0:
192,192,123104,1,0,0:0:0:0:
64,192,123104,1,0,0:0:0:0:
448,192,123371,1,0,0:0:0:0:
64,192,123371,1,0,0:0:0:0:
192,192,123637,1,0,0:0:0:0:
320,192,123637,1,0,0:0:0:0:
448,192,124171,1,0,0:0:0:0:
320,192,124171,1,0,0:0:0:0:
192,192,124437,1,0,0:0:0:0:
64,192,124437,1,0,0:0:0:0:
320,192,124704,1,0,0:0:0:0:
192,192,124704,1,0,0:0:0:0:
448,192,125237,1,0,0:0:0:0:
64,192,125504,1,0,0:0:0:0:
320,192,125504,1,0,0:0:0:0:
448,192,125771,1,0,0:0:0:0:
192,192,125904,1,0,0:0:0:0:
64,192,126037,1,0,0:0:0:0:
320,192,126037,1,0,0:0:0:0:
448,192,126304,1,0,0:0:0:0:
192,192,126571,1,0,0:0:0:0:
64,192,126571,1,0,0:0:0:0:
448,192,126837,1,0,0:0:0:0:
192,192,127104,1,0,0:0:0:0:
64,192,127104,1,0,0:0:0:0:
320,192,127371,1,0,0:0:0:0:
448,192,127371,1,0,0:0:0:0:
320,192,127637,1,0,0:0:0:0:
192,192,127637,1,0,0:0:0:0:
64,192,127904,1,0,0:0:0:0:
448,192,127904,1,0,0:0:0:0:
448,192,128304,1,0,0:0:0:0:
192,192,128304,1,0,0:0:0:0:
64,192,128704,1,0,0:0:0:0:
320,192,128704,1,0,0:0:0:0:
320,192,129194,5,0,0:0:0:0:
448,192,129194,1,0,0:0:0:0:
64,192,129586,1,0,0:0:0:0:
192,192,129586,1,0,0:0:0:0:
320,192,129972,1,0,0:0:0:0:
192,192,129972,1,0,0:0:0:0:
448,192,130299,5,0,0:0:0:0:
320,192,130299,1,0,0:0:0:0:
192,192,130584,1,0,0:0:0:0:
448,192,130870,1,0,0:0:0:0:
320,192,130870,1,0,0:0:0:0:
192,192,131156,1,0,0:0:0:0:
448,192,131441,1,0,0:0:0:0:
64,192,131441,1,0,0:0:0:0:
192,192,131584,1,0,0:0:0:0:
320,192,131727,1,0,0:0:0:0:
192,192,132013,1,0,0:0:0:0:
64,192,132013,1,0,0:0:0:0:
448,192,132156,1,0,0:0:0:0:
320,192,132299,1,0,0:0:0:0:
448,192,132584,1,0,0:0:0:0:
64,192,132584,1,0,0:0:0:0:
320,192,132727,1,0,0:0:0:0:
192,192,132870,1,0,0:0:0:0:
320,192,133156,1,0,0:0:0:0:
448,192,133156,1,0,0:0:0:0:
64,192,133299,1,0,0:0:0:0:
192,192,133441,1,0,0:0:0:0:
448,192,133727,1,0,0:0:0:0:
64,192,133727,1,0,0:0:0:0:
320,192,134013,1,0,0:0:0:0:
192,192,134013,1,0,0:0:0:0:
448,192,134299,1,0,0:0:0:0:
320,192,134299,1,0,0:0:0:0:
64,192,134584,1,0,0:0:0:0:
192,192,134584,1,0,0:0:0:0:
320,192,134870,1,0,0:0:0:0:
448,192,134870,1,0,0:0:0:0:
192,192,135156,1,0,0:0:0:0:
320,192,135299,1,0,0:0:0:0:
64,192,135441,1,0,0:0:0:0:
448,192,135441,1,0,0:0:0:0:
320,192,135727,1,0,0:0:0:0:
64,192,135870,1,0,0:0:0:0:
448,192,136013,1,0,0:0:0:0:
192,192,136013,1,0,0:0:0:0:
64,192,136299,1,0,0:0:0:0:
320,192,136441,1,0,0:0:0:0:
448,192,136584,1,0,0:0:0:0:
192,192,136584,1,0,0:0:0:0:
320,192,136870,1,0,0:0:0:0:
192,192,137013,1,0,0:0:0:0:
448,192,137156,1,0,0:0:0:0:
64,192,137156,1,0,0:0:0:0:
192,192,137441,1,0,0:0:0:0:
448,192,137584,1,0,0:0:0:0:
320,192,137727,1,0,0:0:0:0:
64,192,137727,1,0,0:0:0:0:
448,192,138013,1,0,0:0:0:0:
64,192,138156,1,0,0:0:0:0:
192,192,138299,1,0,0:0:0:0:
320,192,138299,1,0,0:0:0:0:
64,192,138584,1,0,0:0:0:0:
320,192,138727,1,0,0:0:0:0:
192,192,138870,1,0,0:0:0:0:
448,192,138870,1,0,0:0:0:0:
320,192,139156,1,0,0:0:0:0:
192,192,139299,1,0,0:0:0:0:
448,192,139441,1,0,0:0:0:0:
320,192,139441,1,0,0:0:0:0:
192,192,139727,1,0,0:0:0:0:
448,192,140013,1,0,0:0:0:0:
320,192,140013,1,0,0:0:0:0:
192,192,140299,1,0,0:0:0:0:
448,192,140584,1,0,0:0:0:0:
64,192,140584,1,0,0:0:0:0:
192,192,140727,1,0,0:0:0:0:
320,192,140870,1,0,0:0:0:0:
192,192,141156,1,0,0:0:0:0:
64,192,141156,1,0,0:0:0:0:
448,192,141299,1,0,0:0:0:0:
320,192,141441,1,0,0:0:0:0:
64,192,141727,1,0,0:0:0:0:
448,192,141727,1,0,0:0:0:0:
320,192,141870,1,0,0:0:0:0:
192,192,142013,1,0,0:0:0:0:
320,192,142299,1,0,0:0:0:0:
448,192,142299,1,0,0:0:0:0:
64,192,142441,1,0,0:0:0:0:
192,192,142584,1,0,0:0:0:0:
448,192,142870,1,0,0:0:0:0:
64,192,142870,1,0,0:0:0:0:
320,192,143156,1,0,0:0:0:0:
192,192,143156,1,0,0:0:0:0:
448,192,143441,1,0,0:0:0:0:
320,192,143441,1,0,0:0:0:0:
64,192,143727,1,0,0:0:0:0:
192,192,143727,1,0,0:0:0:0:
320,192,144013,1,0,0:0:0:0:
448,192,144013,1,0,0:0:0:0:
192,192,144299,1,0,0:0:0:0:
320,192,144441,1,0,0:0:0:0:
64,192,144584,1,0,0:0:0:0:
448,192,144584,1,0,0:0:0:0:
320,192,144870,1,0,0:0:0:0:
64,192,145013,1,0,0:0:0:0:
448,192,145156,1,0,0:0:0:0:
192,192,145156,1,0,0:0:0:0:
64,192,145441,1,0,0:0:0:0:
320,192,145584,1,0,0:0:0:0:
448,192,145727,1,0,0:0:0:0:
192,192,145727,1,0,0:0:0:0:
320,192,146013,1,0,0:0:0:0:
192,192,146156,1,0,0:0:0:0:
448,192,146299,1,0,0:0:0:0:
64,192,146299,1,0,0:0:0:0:
192,192,146584,1,0,0:0:0:0:
448,192,146727,1,0,0:0:0:0:
320,192,146870,1,0,0:0:0:0:
64,192,146870,1,0,0:0:0:0:
448,192,147156,1,0,0:0:0:0:
64,192,147299,1,0,0:0:0:0:
192,192,147441,1,0,0:0:0:0:
320,192,147441,1,0,0:0:0:0:
64,192,147727,1,0,0:0:0:0:
320,192,147870,1,0,0:0:0:0:
192,192,148013,1,0,0:0:0:0:
448,192,148013,1,0,0:0:0:0:
320,192,148299,1,0,0:0:0:0:
192,192,148441,1,0,0:0:0:0:
448,192,148584,1,0,0:0:0:0:
64,192,148727,1,0,0:0:0:0:
192,192,148870,1,0,0:0:0:0:
320,192,149013,1,0,0:0:0:0:
192,192,149156,1,0,0:0:0:0:
448,192,149299,1,0,0:0:0:0:
320,192,149441,1,0,0:0:0:0:
192,192,149584,1,0,0:0:0:0:
320,192,149727,1,0,0:0:0:0:
64,192,149870,1,0,0:0:0:0:
192,192,150013,1,0,0:0:0:0:
320,192,150156,1,0,0:0:0:0:
192,192,150299,1,0,0:0:0:0:
448,192,150441,1,0,0:0:0:0:
320,192,150584,1,0,0:0:0:0:
192,192,150727,1,0,0:0:0:0:
320,192,150870,1,0,0:0:0:0:
448,192,151013,1,0,0:0:0:0:
192,192,151156,1,0,0:0:0:0:
320,192,151299,1,0,0:0:0:0:
192,192,151441,1,0,0:0:0:0:
448,192,151584,1,0,0:0:0:0:
320,192,151727,1,0,0:0:0:0:
192,192,151870,1,0,0:0:0:0:
320,192,152013,1,0,0:0:0:0:
64,192,152156,1,0,0:0:0:0:
192,192,152299,1,0,0:0:0:0:
448,192,152441,1,0,0:0:0:0:
320,192,152584,1,0,0:0:0:0:
64,192,152727,1,0,0:0:0:0:
192,192,152870,1,0,0:0:0:0:
320,192,153013,1,0,0:0:0:0:
192,192,153156,1,0,0:0:0:0:
64,192,153156,1,0,0:0:0:0:
192,192,153441,1,0,0:0:0:0:
192,192,153584,1,0,0:0:0:0:
448,192,153727,1,0,0:0:0:0:
320,192,153727,1,0,0:0:0:0:
320,192,154013,1,0,0:0:0:0:
320,192,154156,1,0,0:0:0:0:
192,192,154299,1,0,0:0:0:0:
64,192,154299,1,0,0:0:0:0:
64,192,154584,1,0,0:0:0:0:
64,192,154727,1,0,0:0:0:0:
320,192,154870,1,0,0:0:0:0:
448,192,154870,1,0,0:0:0:0:
448,192,155156,1,0,0:0:0:0:
448,192,155299,1,0,0:0:0:0:
192,192,155441,1,0,0:0:0:0:
64,192,155441,1,0,0:0:0:0:
192,192,155727,1,0,0:0:0:0:
192,192,155870,1,0,0:0:0:0:
448,192,156013,1,0,0:0:0:0:
320,192,156013,1,0,0:0:0:0:
320,192,156299,1,0,0:0:0:0:
320,192,156441,1,0,0:0:0:0:
192,192,156584,1,0,0:0:0:0:
64,192,156584,1,0,0:0:0:0:
64,192,156870,1,0,0:0:0:0:
64,192,157013,1,0,0:0:0:0:
320,192,157156,1,0,0:0:0:0:
448,192,157156,1,0,0:0:0:0:
320,192,157441,1,0,0:0:0:0:
320,192,157584,1,0,0:0:0:0:
64,192,157727,1,0,0:0:0:0:
192,192,157727,1,0,0:0:0:0:
448,192,158013,1,0,0:0:0:0:
64,192,158013,1,0,0:0:0:0:
192,192,158299,1,0,0:0:0:0:
64,192,158441,1,0,0:0:0:0:
320,192,158513,1,0,0:0:0:0:
192,192,158584,1,0,0:0:0:0:
64,192,158727,1,0,0:0:0:0:
192,192,158870,1,0,0:0:0:0:
64,192,159156,1,0,0:0:0:0:
448,192,159370,1,0,0:0:0:0:
192,192,159441,1,0,0:0:0:0:
320,192,159584,1,0,0:0:0:0:
192,192,159727,1,0,0:0:0:0:
64,192,159870,1,0,0:0:0:0:
320,192,160013,1,0,0:0:0:0:
448,192,160013,1,0,0:0:0:0:
192,192,160299,1,0,0:0:0:0:
64,192,160299,1,0,0:0:0:0:
320,192,160584,1,0,0:0:0:0:
448,192,160656,1,0,0:0:0:0:
192,192,160727,1,0,0:0:0:0:
448,192,160870,1,0,0:0:0:0:
320,192,161013,1,0,0:0:0:0:
192,192,161156,1,0,0:0:0:0:
320,192,161299,1,0,0:0:0:0:
64,192,161441,1,0,0:0:0:0:
448,192,161584,1,0,0:0:0:0:
192,192,161727,1,0,0:0:0:0:
320,192,161870,1,0,0:0:0:0:
448,192,162013,1,0,0:0:0:0:
64,192,162013,1,0,0:0:0:0:
448,192,162299,5,0,0:0:0:0:
320,192,162299,1,0,0:0:0:0:
192,192,162584,1,0,0:0:0:0:
448,192,162870,1,0,0:0:0:0:
320,192,162870,1,0,0:0:0:0:
192,192,163156,1,0,0:0:0:0:
448,192,163441,1,0,0:0:0:0:
64,192,163441,1,0,0:0:0:0:
320,192,163727,1,0,0:0:0:0:
192,192,164013,1,0,0:0:0:0:
64,192,164013,1,0,0:0:0:0:
320,192,164299,1,0,0:0:0:0:
448,192,164584,1,0,0:0:0:0:
64,192,164584,1,0,0:0:0:0:
192,192,164727,1,0,0:0:0:0:
320,192,164870,1,0,0:0:0:0:
448,192,164870,1,0,0:0:0:0:
192,192,165013,1,0,0:0:0:0:
448,192,165156,1,0,0:0:0:0:
64,192,165156,1,0,0:0:0:0:
448,192,165299,1,0,0:0:0:0:
320,192,165441,1,0,0:0:0:0:
192,192,165441,1,0,0:0:0:0:
192,192,165584,1,0,0:0:0:0:
320,192,165727,1,0,0:0:0:0:
64,192,165727,1,0,0:0:0:0:
320,192,165870,1,0,0:0:0:0:
192,192,166013,1,0,0:0:0:0:
64,192,166013,1,0,0:0:0:0:
64,192,166156,1,0,0:0:0:0:
192,192,166299,1,0,0:0:0:0:
320,192,166299,1,0,0:0:0:0:
320,192,166441,1,0,0:0:0:0:
192,192,166584,1,0,0:0:0:0:
448,192,166584,1,0,0:0:0:0:
192,192,166727,1,0,0:0:0:0:
448,192,166870,1,0,0:0:0:0:
64,192,166870,1,0,0:0:0:0:
320,192,167108,1,0,0:0:0:0:
