osu file format v14

[General]
AudioFilename: audio.mp3
AudioLeadIn: 0
PreviewTime: 28465
Countdown: 0
SampleSet: Soft
StackLeniency: 0.4
Mode: 0
LetterboxInBreaks: 0
WidescreenStoryboard: 1

[Editor]
Bookmarks: 2232,4464,8929,17859,29022,33487,42418,55813,60278,78138,95999,103809,113061,130126,139268,148411,157554,162126,166697
DistanceSpacing: 0.9
BeatDivisor: 4
GridSize: 32
TimelineZoom: 2.1

[Metadata]
Title:666 Flags
TitleUnicode:666 Flags
Artist:Origami Angel
ArtistUnicode:Origami Angel
Creator:WashedUp Player
Version:Insane
Source:
Tags:Lasse English Punk Rock alternative emo Somewhere City
BeatmapID:3028684
BeatmapSetID:1396650

[Difficulty]
HPDrainRate:4.6
CircleSize:3.8
OverallDifficulty:8
ApproachRate:9
SliderMultiplier:1.4
SliderTickRate:1

[Events]
//Background and Video events
0,0,"666=usa.jpg",0,0
//Break Periods
2,100253,103905
//Storyboard Layer 0 (Background)
//Storyboard Layer 1 (Fail)
//Storyboard Layer 2 (Pass)
//Storyboard Layer 3 (Foreground)
//Storyboard Layer 4 (Overlay)
//Storyboard Sound Samples

[TimingPoints]
-5,259.74025974026,4,2,1,50,1,0
254,277.777777777778,4,2,1,60,1,0
1365,271.186440677966,4,2,1,60,1,0
1907,319.148936170213,4,2,1,60,1,0
2227,279.06976744186,4,2,1,55,1,1
2227,-66.6666666666667,4,2,1,55,0,1
2506,-66.6666666666667,4,2,1,60,0,1
2785,-66.6666666666667,4,2,1,65,0,1
3064,-66.6666666666667,4,2,1,70,0,1
3343,-66.6666666666667,4,2,1,75,0,1
3622,-66.6666666666667,4,2,1,80,0,1
3901,-66.6666666666667,4,2,1,85,0,1
4459,-90.9090909090909,4,2,1,70,0,0
8924,-80,4,2,1,70,0,1
13111,-80,4,2,1,60,0,1
13250,-80,4,2,1,61,0,1
13390,-80,4,2,1,62,0,1
13529,-80,4,2,1,63,0,1
13669,-80,4,2,1,64,0,1
13808,-80,4,2,1,65,0,1
13948,-80,4,2,1,66,0,1
14088,-80,4,2,1,67,0,1
14227,-80,4,2,1,68,0,1
14367,-80,4,2,1,69,0,1
14506,-80,4,2,1,70,0,1
14646,-80,4,2,1,71,0,1
14785,-80,4,2,1,72,0,1
14925,-80,4,2,1,73,0,1
15064,-80,4,2,1,74,0,1
15204,-80,4,2,1,75,0,1
15343,-80,4,2,1,76,0,1
15483,-80,4,2,1,77,0,1
15622,-80,4,2,1,78,0,1
15762,-80,4,2,1,79,0,1
15901,-80,4,2,1,80,0,1
16041,-80,4,2,1,81,0,1
16181,-80,4,2,1,82,0,1
16320,-80,4,2,1,83,0,1
16460,-80,4,2,1,84,0,1
16599,-80,4,2,1,85,0,1
16739,-80,4,2,1,86,0,1
16878,-80,4,2,1,60,0,1
17018,-80,4,2,1,88,0,1
17157,-80,4,2,1,60,0,1
17297,-80,4,2,1,90,0,1
17436,-80,4,2,1,60,0,1
17576,-80,4,2,1,70,0,1
17854,-90.9090909090909,4,2,1,70,0,0
25948,-90.9090909090909,4,2,1,65,0,0
26192,-90.9090909090909,4,2,1,60,0,0
26436,-90.9090909090909,4,2,1,65,0,0
26646,-90.9090909090909,4,2,1,70,0,0
26854,-333.333333333333,4,2,1,70,0,0
27831,-333.333333333333,4,2,1,5,0,0
27901,-500,4,2,1,55,0,0
29017,-100,4,2,1,70,0,0
29785,-100,4,2,1,5,0,0
29854,-100,4,2,1,70,0,0
30064,-100,4,2,1,5,0,0
30133,-100,4,2,1,70,0,0
30901,-100,4,2,1,5,0,0
30971,-100,4,2,1,70,0,0
31180,-100,4,2,1,5,0,0
31250,-100,4,2,1,70,0,0
32854,-100,4,2,1,5,0,0
32924,-100,4,2,1,70,0,0
33133,-100,4,2,1,5,0,0
33203,-100,4,2,1,70,0,0
33482,-76.9230769230769,4,2,1,70,0,1
37948,-76.9230769230769,4,2,1,45,0,1
38506,-76.9230769230769,4,2,1,55,0,1
39064,-76.9230769230769,4,2,1,60,0,1
39622,-76.9230769230769,4,2,1,70,0,1
40181,-76.9230769230769,4,2,1,75,0,1
40739,-76.9230769230769,4,2,1,80,0,1
41297,-76.9230769230769,4,2,1,85,0,1
42133,-181.818181818182,4,2,1,85,0,0
42343,-181.818181818182,4,2,1,5,0,0
42413,558.139534883721,4,2,1,60,1,0
42413,-50,4,2,1,60,0,0
55808,-58.8235294117647,4,2,1,60,0,0
57482,-117.647058823529,4,2,1,60,0,0
57971,-117.647058823529,4,2,1,5,0,0
58041,-117.647058823529,4,2,1,60,0,0
59715,-50,4,2,1,60,0,0
60273,-76.9230769230769,4,2,1,50,0,0
63482,-58.8235294117647,4,2,1,50,0,0
63622,-76.9230769230769,4,2,1,50,0,0
67947,-58.8235294117647,4,2,1,50,0,0
68087,-76.9230769230769,4,2,1,50,0,0
72413,-58.8235294117647,4,2,1,50,0,0
72552,-76.9230769230769,4,2,1,50,0,0
73668,-90.9090909090909,4,2,1,50,0,0
75343,-181.818181818182,4,2,1,50,0,0
78133,-76.9230769230769,4,2,1,50,0,0
81343,-58.8235294117647,4,2,1,50,0,0
81482,-76.9230769230769,4,2,1,50,0,0
85808,-58.8235294117647,4,2,1,50,0,0
85947,-76.9230769230769,4,2,1,50,0,0
90273,-58.8235294117647,4,2,1,50,0,0
90413,-76.9230769230769,4,2,1,50,0,0
91529,-90.9090909090909,4,2,1,50,0,0
93203,-181.818181818182,4,2,1,50,0,0
95436,-90.9090909090909,4,2,1,50,0,0
95994,531.797030799911,4,2,1,50,1,0
104505,538.116591928251,4,2,1,63,1,0
104505,-83.3333333333333,4,2,1,63,0,0
105581,-83.3333333333333,4,2,1,66,0,0
106657,-83.3333333333333,4,2,1,69,0,0
108809,530.973451327434,4,2,1,73,1,0
109870,-100,4,2,1,76,0,0
110932,-100,4,2,1,79,0,0
112525,-142.857142857143,4,2,1,83,0,0
112724,-142.857142857143,4,2,1,5,0,0
112791,-142.857142857143,4,2,1,83,0,0
113056,533.333333333333,4,2,1,60,1,0
113056,-52.6315789473684,4,2,1,60,0,0
119589,-52.6315789473684,4,2,1,57,0,0
119989,-52.6315789473684,4,2,1,54,0,0
120456,-52.6315789473684,4,2,1,51,0,0
120922,-52.6315789473684,4,2,1,48,0,0
121322,-52.6315789473684,4,2,1,45,0,0
121589,-52.6315789473684,4,2,1,60,0,0
128122,-52.6315789473684,4,2,1,57,0,0
128522,-52.6315789473684,4,2,1,54,0,0
128989,-52.6315789473684,4,2,1,51,0,0
129389,546.697038724374,4,2,1,48,1,0
129799,645.161290322581,4,2,1,45,1,0
130121,285.714285714286,4,2,1,75,1,0
161835,-100,4,2,1,85,0,0
162049,-100,4,2,1,5,0,0
162121,-100,4,2,1,75,0,0
164406,-100,4,2,1,65,0,0
164621,-100,4,2,1,5,0,0
164692,-100,4,2,1,70,0,0
164978,-100,4,2,1,75,0,0
165263,-100,4,2,1,80,0,0
165549,-100,4,2,1,85,0,0
165835,-100,4,2,1,90,0,0
166121,-100,4,2,1,95,0,0
166406,-100,4,2,1,100,0,0

[Colours]
Combo1 : 116,116,116
Combo2 : 255,157,111
Combo3 : 158,158,158
Combo4 : 115,155,223
Combo5 : 254,131,134
Combo6 : 26,116,242
Combo7 : 219,34,38

[HitObjects]
222,246,2227,70,0,P|200:198|240:125,1,105.000004005432,4|0,3:1|0:0,0:0:0:0:
305,144,2506,2,0,P|327:192|287:265,1,105.000004005432,4|0,3:3|0:0,0:0:0:0:
205,242,2785,2,0,P|187:192|233:123,1,105.000004005432,4|0,3:1|0:0,0:0:0:0:
327,146,3064,2,0,P|344:195|298:264,1,105.000004005432,4|0,3:3|0:0,0:0:0:0:
181,232,3343,2,0,P|169:180|223:117,1,105.000004005432,4|0,3:1|0:0,0:0:0:0:
351,156,3622,2,0,P|362:207|308:270,1,105.000004005432,4|0,3:3|0:0,0:0:0:0:
288,63,3901,5,8,1:0:0:0:
255,194,4040,1,8,3:1:0:0:
380,45,4180,1,8,1:0:0:0:
387,52,4459,53,0,3:1:0:0:
387,52,4599,1,0,3:1:0:0:
465,123,4738,2,0,P|456:183|466:229,1,77.0000023498536,10|0,1:1|3:0,0:0:0:0:
493,292,5017,2,0,P|429:268|345:277,1,154.000004699707,2|8,3:1|1:0,0:0:0:0:
512,321,5575,69,0,3:0:0:0:
409,358,5715,1,0,3:0:0:0:
345,276,5854,2,0,P|300:263|259:262,1,77.0000023498536,10|0,1:1|3:0,0:0:0:0:
177,326,6133,2,0,P|96:344|20:343,1,154.000004699707,2|8,3:1|1:0,0:0:0:0:
199,314,6692,21,0,3:0:0:0:
123,239,6831,1,0,3:0:0:0:
173,155,6971,2,0,L|261:163,1,77.0000023498536,10|0,1:1|3:0,0:0:0:0:
101,95,7250,2,0,L|24:101,1,77.0000023498536,2|0,3:1|0:0,0:0:0:0:
141,13,7529,1,8,1:0:0:0:
141,13,7668,1,0,0:0:0:0:
226,84,7808,2,0,L|395:99,2,154.000004699707,0|10|2,3:0|1:1|3:1,0:0:0:0:
445,33,8645,1,8,1:0:0:0:
445,33,8785,1,0,3:0:0:0:
500,104,8924,38,0,P|508:150|492:205,1,87.5,10|0,1:1|0:0,0:0:0:0:
430,315,9203,2,0,P|422:269|438:214,1,87.5,10|0,1:1|0:0,0:0:0:0:
472,383,9482,37,10,1:1:0:0:
370,370,9622,1,0,3:0:0:0:
287,313,9761,69,10,1:1:0:0:
187,328,9901,1,0,3:0:0:0:
187,328,10040,86,0,P|175:280|188:228,1,87.5,10|0,1:1|0:0,0:0:0:0:
87,126,10320,2,0,P|99:174|86:226,1,87.5,10|0,1:1|0:0,0:0:0:0:
23,52,10599,37,10,1:1:0:0:
120,33,10738,1,0,3:0:0:0:
184,107,10878,69,10,1:1:0:0:
184,107,11017,1,0,3:0:0:0:
217,13,11157,86,0,L|307:8,1,87.5,10|0,1:1|0:0,0:0:0:0:
445,67,11436,2,0,L|356:61,1,87.5,10|0,1:1|0:0,0:0:0:0:
512,21,11715,37,10,1:1:0:0:
508,120,11854,1,0,3:0:0:0:
431,168,11994,69,10,1:1:0:0:
431,168,12133,1,0,3:0:0:0:
480,242,12273,86,0,L|493:334,1,87.5,10|0,1:1|0:0,0:0:0:0:
377,298,12552,2,0,L|365:386,1,87.5,10|0,1:1|0:0,0:0:0:0:
452,197,12831,70,0,L|465:292,1,87.5,10|0,1:1|3:0,0:0:0:0:
317,249,13110,2,0,L|154:225,1,131.25,10|0,1:1|0:0,0:0:0:0:
164,230,13389,5,10,1:0:0:0:
165,230,13529,1,0,3:0:0:0:
101,162,13668,69,8,1:0:0:0:
84,258,13808,1,0,3:0:0:0:
182,137,13947,70,0,P|151:96|119:80,1,87.5,10|0,1:0|3:0,0:0:0:0:
84,258,14226,2,0,P|114:298|146:314,1,87.5,8|0,1:0|3:0,0:0:0:0:
253,200,14506,21,10,1:0:0:0:
253,200,14645,1,0,3:0:0:0:
182,137,14785,53,8,1:0:0:0:
312,115,14924,1,0,3:0:0:0:
372,218,15064,22,0,L|364:307,1,87.5,10|0,1:0|3:0,0:0:0:0:
440,136,15343,2,0,L|434:48,1,87.5,8|0,1:0|3:0,0:0:0:0:
433,350,15622,53,10,1:0:0:0:
433,350,15761,1,0,3:0:0:0:
470,248,15901,69,8,1:0:0:0:
470,248,16040,1,0,3:0:0:0:
440,136,16180,22,0,L|433:48,1,87.5,10|0,1:0|3:0,0:0:0:0:
375,215,16459,2,0,L|369:304,1,87.5,8|0,1:0|3:0,0:0:0:0:
216,336,16738,69,10,1:0:0:0:
306,345,16878,1,0,3:0:0:0:
54,286,17017,21,8,1:0:0:0:
144,277,17157,1,0,3:0:0:0:
0,358,17296,69,10,1:0:0:0:
0,358,17436,1,0,3:0:0:0:
16,210,17575,6,0,L|10:155,3,43.75,8|8|8|8,1:0|1:0|1:0|1:0,0:0:0:0:
13,147,17854,1,10,1:1:0:0:
2,0,18133,1,10,1:1:0:0:
13,147,18413,1,0,3:0:0:0:
80,97,18552,2,0,L|157:89,1,77.0000023498536,0|8,3:0|1:0,0:0:0:0:
240,152,18831,2,0,L|399:163,1,154.000004699707,6|0,3:1|3:0,0:0:0:0:
496,243,19250,1,8,1:0:0:0:
393,162,19389,2,0,L|240:152,1,154.000004699707,2|0,3:1|3:1,0:0:0:0:
183,218,19808,2,0,L|176:263,3,38.5000011749268,8|8|8|8,1:0|1:0|1:0|1:0,0:0:0:0:
173,275,20087,37,10,1:1:0:0:
316,292,20366,1,10,1:1:0:0:
173,275,20645,1,0,3:0:0:0:
103,331,20785,1,0,3:0:0:0:
84,246,20924,1,8,1:0:0:0:
22,184,21064,22,0,P|70:159|143:182,2,115.50000352478,2|2|2,3:1|3:1|3:1,0:0:0:0:
31,71,21692,1,2,3:1:0:0:
31,71,22320,69,10,1:1:0:0:
211,31,22599,1,10,1:1:0:0:
31,71,22878,1,0,3:0:0:0:
91,134,23017,2,0,L|84:212,1,77.0000023498536,0|8,3:0|1:0,0:0:0:0:
24,295,23296,2,0,L|177:279,1,154.000004699707,6|0,3:1|3:0,0:0:0:0:
275,379,23715,1,8,1:0:0:0:
177,279,23854,2,0,L|24:295,1,154.000004699707,10|0,1:0|3:0,0:0:0:0:
84,210,24273,2,0,L|87:171,3,38.5000011749268,8|8|8|8,1:1|1:1|1:1|1:1,0:0:0:0:
89,152,24552,21,14,1:1:0:0:
102,14,24831,1,10,1:1:0:0:
89,152,25110,1,0,3:0:0:0:
166,101,25250,2,0,L|242:97,1,77.0000023498536,0|8,3:0|1:0,0:0:0:0:
319,15,25529,6,0,L|177:11,2,115.50000352478,2|2|2,3:1|3:1|3:1,0:0:0:0:
420,94,26192,5,2,3:1:0:0:
366,197,26436,53,2,3:1:0:0:
433,299,26645,69,2,3:1:0:0:
375,369,26854,54,0,L|224:366,1,146.999995513916,6|0,3:1|0:0,0:0:0:0:
214,378,27901,2,0,L|138:379,1,70,6|0,3:1|3:0,0:0:0:0:
3,264,28738,21,8,1:0:0:0:
98,289,28878,1,0,3:0:0:0:
187,212,29017,38,0,L|115:203,1,70,2|0,3:1|3:0,0:0:0:0:
280,259,29296,1,10,1:1:0:0:
280,259,29436,1,0,3:0:0:0:
280,259,29575,2,0,L|397:242,1,105,2|0,3:1|0:0,0:0:0:0:
434,261,29854,2,0,P|420:215|410:145,1,105,8|0,1:0|0:0,0:0:0:0:
441,78,30133,5,2,3:1:0:0:
441,78,30273,1,0,3:0:0:0:
355,26,30413,2,0,L|286:19,1,70,10|0,1:1|3:0,0:0:0:0:
211,68,30692,2,0,L|94:80,1,105,2|0,3:1|0:0,0:0:0:0:
56,73,30971,2,0,P|75:119|45:190,1,105,8|0,1:0|0:0,0:0:0:0:
6,234,31250,85,2,3:1:0:0:
6,234,31389,1,0,3:0:0:0:
63,295,31529,2,0,L|137:290,1,70,10|0,1:1|3:0,0:0:0:0:
238,382,31808,2,0,L|162:376,1,70,2|0,3:1|0:0,0:0:0:0:
312,330,32087,1,8,1:0:0:0:
312,330,32226,1,0,0:0:0:0:
468,305,32366,6,0,L|392:299,1,70,2|0,3:1|3:0,0:0:0:0:
503,209,32645,2,0,P|509:170|499:74,1,105,10|0,1:1|0:0,0:0:0:0:
468,79,32924,2,0,P|413:83|361:78,1,105,2|0,3:1|0:0,0:0:0:0:
332,55,33203,1,8,1:0:0:0:
332,55,33343,1,0,3:0:0:0:
127,54,33482,38,0,P|184:42|251:45,1,90.9999958343508,10|0,1:1|0:0,0:0:0:0:
139,128,33761,2,0,P|183:118|228:116,1,90.9999958343508,10|0,1:1|0:0,0:0:0:0:
151,204,34040,2,0,P|208:192|275:195,1,90.9999958343508,10|0,1:1|3:0,0:0:0:0:
162,297,34320,5,10,1:1:0:0:
79,262,34459,1,0,3:0:0:0:
226,372,34599,86,0,L|329:362,1,90.9999958343508,10|0,1:1|0:0,0:0:0:0:
472,296,34878,2,0,L|369:306,1,90.9999958343508,10|0,1:1|0:0,0:0:0:0:
226,372,35157,2,0,L|329:362,1,90.9999958343508,10|0,1:1|3:0,0:0:0:0:
471,298,35436,1,10,1:1:0:0:
471,298,35575,1,0,3:0:0:0:
423,203,35715,70,0,P|435:146|432:79,1,90.9999958343508,10|0,1:1|0:0,0:0:0:0:
348,190,35994,2,0,P|358:145|360:100,1,90.9999958343508,10|0,1:1|0:0,0:0:0:0:
273,179,36273,2,0,P|285:122|282:55,1,90.9999958343508,10|0,1:1|3:0,0:0:0:0:
181,212,36552,37,10,1:1:0:0:
247,269,36692,1,0,3:0:0:0:
115,125,36831,54,0,P|58:118|26:143,1,90.9999958343508,10|0,1:1|0:0,0:0:0:0:
133,124,37110,2,0,P|79:102|42:118,1,90.9999958343508,10|0,1:1|0:0,0:0:0:0:
153,120,37389,2,0,P|107:85|66:91,1,90.9999958343508,10|0,1:1|0:0,0:0:0:0:
173,121,37668,2,0,P|137:75|97:70,1,90.9999958343508,10|0,1:1|0:0,0:0:0:0:
1,206,37947,22,0,B|-21:256|-2:303|13:283|26:334|-2:384,1,181.999991668702,10|8,1:1|1:0,0:0:0:0:
74,243,38366,1,0,3:0:0:0:
201,310,38506,2,0,B|151:288|104:307|124:322|73:335|23:307,1,181.999991668702,10|8,1:1|1:0,0:0:0:0:
161,378,38924,1,0,3:0:0:0:
289,313,39064,6,0,B|239:335|192:316|212:301|154:287|111:316,1,181.999991668702,10|8,1:1|1:0,0:0:0:0:
246,245,39482,1,0,3:0:0:0:
368,356,39622,1,10,1:1:0:0:
368,356,39761,1,0,3:0:0:0:
447,303,39901,2,0,L|456:193,1,90.9999958343508,8|0,1:0|3:0,0:0:0:0:
383,35,40180,85,10,1:1:0:0:
399,112,40320,1,0,3:0:0:0:
290,68,40459,69,8,1:0:0:0:
285,146,40599,1,0,3:0:0:0:
191,75,40738,21,10,1:1:0:0:
166,149,40878,1,0,3:0:0:0:
93,56,41017,69,8,1:0:0:0:
50,121,41157,1,0,3:0:0:0:
88,225,41296,6,0,L|96:323,1,90.9999958343508,10|0,1:1|3:0,0:0:0:0:
230,384,41575,2,0,L|238:286,1,90.9999958343508,8|0,1:0|3:0,0:0:0:0:
88,225,41854,69,10,1:1:0:0:
6,197,41994,1,0,3:0:0:0:
95,315,42133,22,0,L|166:306,1,57.7500017623902,14|0,1:0|0:0,0:0:0:0:
168,289,42413,70,0,L|398:304,1,210,6|0,3:1|3:0,0:0:0:0:
230,384,42971,1,8,1:0:0:0:
377,303,43250,2,0,L|201:291,1,140,2|0,3:1|0:0,0:0:0:0:
454,188,43808,2,0,L|278:199,1,140,2|8,3:1|1:0,0:0:0:0:
483,357,44366,86,0,L|492:69,1,280,2|2,3:1|3:0,0:0:0:0:
447,8,45064,1,2,3:0:0:0:
361,46,45203,2,0,L|220:40,1,140,10|2,1:0|3:0,0:0:0:0:
26,133,45761,1,2,3:3:0:0:
221,40,46040,1,2,3:3:0:0:
63,210,46319,1,10,1:1:0:0:
63,210,46599,5,8,1:0:0:0:
116,136,46738,1,8,1:0:0:0:
20,290,46878,2,0,B|100:291|100:291|136:258|136:258|252:265,1,210,2|0,3:1|3:0,0:0:0:0:
333,367,47436,1,8,1:0:0:0:
285,190,47715,2,0,L|133:180,1,140,2|0,3:1|0:0,0:0:0:0:
426,94,48273,2,0,L|294:102,1,105,2|0,3:1|0:0,0:0:0:0:
301,99,48552,86,0,P|291:62|300:27,1,70,8|0,1:1|0:0,0:0:0:0:
437,98,48831,2,0,B|482:165|444:246|414:203|397:289|434:368,1,280,2|0,3:1|3:0,0:0:0:0:
512,293,49668,1,8,1:0:0:0:
343,201,49947,2,0,L|273:195,1,70
237,219,50226,2,0,L|81:228,1,140,0|10,3:0|1:0,0:0:0:0:
432,363,50785,1,10,1:0:0:0:
343,201,51064,1,0,3:0:0:0:
222,350,51343,6,0,L|447:362,1,210,2|0,3:1|3:0,0:0:0:0:
491,296,51901,1,8,1:0:0:0:
343,201,52180,2,0,L|192:209,1,140,2|0,3:1|0:0,0:0:0:0:
8,97,52738,2,0,L|147:105,1,140,2|8,3:1|1:1,0:0:0:0:
74,335,53296,86,0,L|47:47,1,280,2|2,3:1|3:3,0:0:0:0:
120,6,53994,1,2,0:3:0:0:
193,59,54133,2,0,L|332:50,1,140,8|2,1:0|0:3,0:0:0:0:
510,156,54692,1,0,3:0:0:0:
330,51,54971,1,10,1:0:0:0:
470,234,55250,1,10,1:0:0:0:
473,237,55529,1,0,3:0:0:0:
294,298,55808,6,0,L|429:308,2,119.000002269745,8|0|0,1:0|3:0|3:0,0:0:0:0:
181,220,56645,2,0,L|299:211,2,119.000002269745,8|0|0,1:0|3:0|3:0,0:0:0:0:
67,300,57482,2,0,L|202:310,1,119.000002269745,8|8,1:0|1:0,0:0:0:0:
1,97,58599,21,8,3:0:0:0:
185,9,59064,1,8,1:0:0:0:
185,9,59157,1,8,1:0:0:0:
44,28,59436,1,8,3:0:0:0:
246,71,59715,2,0,L|265:72,1,17.5,8|8,1:0|1:0,0:0:0:0:
91,101,59994,1,0,3:0:0:0:
297,202,60273,22,0,B|346:219|389:196|367:188|419:170|472:198,1,181.999991668702,2|8,3:1|1:0,0:0:0:0:
472,198,61110,2,0,P|446:164|470:57,1,136.499993751526,2|0,3:1|0:0,0:0:0:0:
468,62,61668,1,2,3:1:0:0:
492,213,61947,1,8,1:0:0:0:
296,201,62226,2,0,B|237:204|244:287|307:277|307:277|395:270,1,181.999991668702,2|2,3:1|3:1,0:0:0:0:
179,310,63064,21,8,1:0:0:0:
87,252,63343,1,2,0:3:0:0:
87,252,63413,1,2,0:3:0:0:
87,252,63482,2,0,L|82:221,1,29.7500005674362,2|2,0:3|0:3,0:0:0:0:
114,155,63622,2,0,L|118:44,1,90.9999958343508,2|2,0:3|0:3,0:0:0:0:
68,0,64040,1,0,3:0:0:0:
141,58,64180,2,0,L|246:48,1,90.9999958343508,8|2,1:0|3:1,0:0:0:0:
412,68,64738,70,0,P|361:56|314:167,1,181.999991668702,2|8,3:1|1:0,0:0:0:0:
306,153,65575,2,0,B|352:184|402:165|386:157|437:135|484:158,1,181.999991668702,2|2,3:1|3:1,0:0:0:0:
510,303,66413,1,8,1:0:0:0:
367,246,66692,2,0,P|276:242|180:240,1,181.999991668702,2|2,3:1|3:1,0:0:0:0:
105,328,67529,21,8,1:0:0:0:
215,368,67808,1,2,0:3:0:0:
215,368,67878,1,2,0:3:0:0:
215,368,67947,2,0,L|266:362,1,29.7500005674362,2|2,0:3|0:3,0:0:0:0:
313,329,68087,2,0,L|413:334,1,90.9999958343508,2|2,0:3|0:3,0:0:0:0:
486,367,68506,1,0,3:0:0:0:
511,283,68645,2,0,L|500:190,1,90.9999958343508,8|2,1:0|3:1,0:0:0:0:
393,73,69203,70,0,B|346:50|298:73|310:79|264:99|214:74,1,181.999991668702,2|8,3:1|1:0,0:0:0:0:
216,75,70040,2,0,P|248:114|221:190,1,136.499993751526,2|0,3:1|0:0,0:0:0:0:
201,199,70599,1,2,3:1:0:0:
352,144,70878,1,8,1:0:0:0:
275,284,71157,2,0,P|228:306|107:254,1,181.999991668702,2|2,3:1|3:1,0:0:0:0:
104,122,71994,21,8,1:0:0:0:
169,56,72273,1,2,0:3:0:0:
169,56,72343,1,2,0:3:0:0:
169,56,72413,2,0,L|204:53,1,29.7500005674362,2|2,0:3|0:3,0:0:0:0:
264,84,72552,2,0,L|368:87,1,90.9999958343508,2|2,0:3|0:3,0:0:0:0:
422,39,72971,1,0,3:0:0:0:
488,99,73110,2,0,L|485:203,1,90.9999958343508,8|2,1:0|3:1,0:0:0:0:
437,353,73668,70,0,P|411:354|355:384,2,77.0000023498536,10|0|0,1:0|3:0|3:0,0:0:0:0:
307,306,74506,2,0,P|319:282|321:219,2,77.0000023498536,10|0|0,1:0|3:0|3:0,0:0:0:0:
412,216,75343,2,0,P|425:238|479:271,1,77.0000023498536,14|2,1:0|0:3,0:0:0:0:
466,267,76459,21,2,0:3:0:0:
466,267,77017,1,2,0:3:0:0:
415,342,77296,1,6,0:2:0:0:
437,181,77575,1,2,0:3:0:0:
440,184,77854,1,0,3:3:0:0:
359,94,78133,70,0,B|318:57|270:91|284:97|236:137|192:96,1,181.999991668702,2|8,3:1|1:0,0:0:0:0:
196,113,78971,2,0,B|239:153|287:113|273:107|321:73|362:110,1,181.999991668702,2|2,3:1|3:1,0:0:0:0:
440,184,79808,1,8,1:0:0:0:
380,266,80087,2,0,B|319:261|319:261|290:296|290:296|215:289,1,181.999991668702,2|2,3:1|3:1,0:0:0:0:
101,360,80924,21,8,1:0:0:0:
26,283,81203,1,2,0:3:0:0:
26,283,81273,1,2,0:3:0:0:
26,283,81343,2,0,L|24:243,1,29.7500005674362,2|2,0:3|0:3,0:0:0:0:
76,188,81482,2,0,L|84:95,1,90.9999958343508,2|2,0:3|0:3,0:0:0:0:
37,22,81901,1,0,3:0:0:0:
126,7,82040,2,0,L|216:0,1,90.9999958343508,8|2,1:0|3:1,0:0:0:0:
364,65,82599,70,0,P|321:56|247:156,1,181.999991668702,2|8,3:1|1:0,0:0:0:0:
246,152,83436,2,0,B|269:206|253:260|232:232|222:293|246:334,1,181.999991668702,2|2,3:1|3:1,0:0:0:0:
318,289,84273,1,8,1:0:0:0:
179,198,84552,2,0,L|-5:203,1,181.999991668702,2|2,3:1|3:1,0:0:0:0:
49,302,85389,21,8,1:0:0:0:
126,364,85668,1,2,0:3:0:0:
126,364,85738,1,2,0:3:0:0:
126,364,85808,2,0,L|170:359,1,29.7500005674362,2|2,0:3|0:3,0:0:0:0:
208,298,85947,2,0,L|313:301,1,90.9999958343508,2|2,0:3|0:3,0:0:0:0:
363,357,86366,1,0,3:0:0:0:
430,311,86506,2,0,L|432:220,1,90.9999958343508,8|2,1:0|3:1,0:0:0:0:
512,105,87064,70,0,P|431:83|334:112,1,181.999991668702,2|8,3:1|1:0,0:0:0:0:
338,108,87901,2,0,P|257:130|160:101,1,181.999991668702,2|2,3:1|3:1,0:0:0:0:
195,8,88738,1,8,1:0:0:0:
264,171,89017,2,0,B|286:222|262:266|253:245|223:290|249:343,1,181.999991668702,2|2,3:1|3:1,0:0:0:0:
364,383,89854,21,8,1:0:0:0:
449,322,90133,1,2,0:3:0:0:
449,322,90203,1,2,0:3:0:0:
449,322,90273,2,0,L|444:282,1,29.7500005674362,2|2,0:3|0:3,0:0:0:0:
398,224,90413,2,0,L|401:118,1,90.9999958343508,2|2,0:3|0:3,0:0:0:0:
461,69,90831,1,0,3:0:0:0:
405,2,90971,2,0,L|299:-1,1,90.9999958343508,8|2,1:0|3:1,0:0:0:0:
260,162,91529,70,0,P|234:163|178:193,2,77.0000023498536,8|0|0,1:0|3:0|3:0,0:0:0:0:
130,115,92367,2,0,P|142:91|144:28,2,77.0000023498536,8|0|0,1:0|3:0|3:0,0:0:0:0:
235,25,93204,2,0,P|248:47|302:80,1,77.0000023498536,8|2,1:0|0:3,0:0:0:0:
289,76,94319,21,2,0:3:0:0:
289,76,94878,1,2,0:3:0:0:
333,144,95157,1,2,0:3:0:0:
143,44,95436,38,0,B|113:51|78:34|78:34|70:52|70:52|35:39|0:47,1,154.000004699707,8|4,1:0|3:0,0:0:0:0:
42,111,104505,54,0,B|85:135|138:114|122:111|171:95|214:114,1,167.999994873047,2|2,0:1|0:1,0:0:0:0:
171,182,105312,1,2,0:1:0:0:
102,239,105581,2,0,B|132:278|132:278|273:260,1,167.999994873047,0|2,0:0|0:1,0:0:0:0:
310,170,106388,2,0,B|356:150|396:173|376:192|432:222|475:198,2,167.999994873047,2|2|2,0:1|0:1|0:1,0:0:0:0:
446,130,107733,69,0,0:0:0:0:
436,103,108002,1,2,0:1:0:0:
338,239,108271,53,0,3:0:0:0:
328,266,108540,1,2,3:1:0:0:
229,192,108809,70,0,L|215:107,1,70,0|0,3:0|3:1,0:0:0:0:
150,270,109339,2,0,L|136:185,1,70,2|2,3:1|3:1,0:0:0:0:
57,103,109870,22,0,L|113:93,1,35,0|0,3:0|0:0,0:0:0:0:
41,85,110136,2,0,L|97:75,1,35,2|0,3:1|0:0,0:0:0:0:
16,211,110401,2,0,L|72:221,1,35,0|0,3:0|0:0,0:0:0:0:
0,229,110667,2,0,L|56:239,1,35,2|0,3:1|0:0,0:0:0:0:
87,330,110932,69,0,3:0:0:0:
135,141,111198,1,2,3:1:0:0:
246,384,111463,69,0,3:0:0:0:
198,195,111729,1,0,3:1:0:0:
407,242,111994,2,0,L|456:247,1,35,2|0,3:1|0:0,0:0:0:0:
442,136,112260,2,0,L|407:140,1,35,2|0,3:1|0:0,0:0:0:0:
234,62,112525,70,0,L|190:59,1,36.749998878479,8|0,1:0|0:0,0:0:0:0:
170,56,112791,1,2,3:1:0:0:
120,162,113056,86,0,L|276:148,1,132.999996448517,6|0,3:1|3:0,0:0:0:0:
361,200,113456,1,0,3:0:0:0:
265,171,113589,2,0,L|132:182,1,132.999996448517,2|0,1:0|3:0,0:0:0:0:
66,265,113989,1,0,3:0:0:0:
168,290,114122,2,0,L|300:278,2,132.999996448517,2|2|10,0:1|3:1|1:1,0:0:0:0:
366,338,114922,86,0,B|414:264|362:189|348:226|300:149|349:84,1,265.999992897034,2|2,3:1|3:1,0:0:0:0:
300,278,115722,1,8,1:0:0:0:
453,123,115989,2,0,B|427:82|427:82|203:72,1,265.999992897034,2|0,3:1|3:0,0:0:0:0:
381,157,116789,2,0,L|245:151,1,132.999996448517,8|8,1:0|1:0,0:0:0:0:
169,148,117189,1,8,1:0:0:0:
70,193,117322,6,0,L|76:57,1,132.999996448517,2|0,3:1|3:0,0:0:0:0:
166,0,117722,1,0,3:0:0:0:
93,47,117856,2,0,L|88:180,1,132.999996448517,10|0,1:0|3:0,0:0:0:0:
125,260,118256,1,0,3:0:0:0:
175,186,118389,2,0,L|307:180,2,132.999996448517,2|2|10,0:1|3:1|1:1,0:0:0:0:
394,259,119189,21,2,3:1:0:0:
422,16,119589,5,2,3:1:0:0:
449,190,119989,53,2,3:1:0:0:
391,109,120456,85,2,3:1:0:0:
411,125,120922,5,2,3:1:0:0:
394,259,121322,53,2,3:1:0:0:
280,66,121589,70,0,L|127:55,1,132.999996448517,6|0,3:1|3:0,0:0:0:0:
68,93,121989,1,0,3:0:0:0:
158,48,122122,2,0,L|290:57,1,132.999996448517,10|0,1:0|3:0,0:0:0:0:
356,119,122522,1,0,3:0:0:0:
271,183,122656,2,0,L|139:174,1,132.999996448517,2|2,0:1|3:1,0:0:0:0:
63,240,123056,1,0,3:0:0:0:
0,169,123189,1,10,1:1:0:0:
333,137,123456,6,0,B|376:194|328:271|314:234|262:309|310:383,1,265.999992897034,2|2,3:1|3:1,0:0:0:0:
271,183,124256,1,8,1:0:0:0:
374,323,124522,2,0,B|308:318|308:318|261:362|261:362|110:353,1,265.999992897034,2|0,3:1|3:0,0:0:0:0:
427,252,125322,1,8,1:0:0:0:
271,183,125589,53,8,1:0:0:0:
334,247,125722,1,8,1:0:0:0:
336,104,125856,2,0,P|271:79|209:95,1,132.999996448517,2|0,3:1|3:0,0:0:0:0:
271,183,126256,1,0,3:0:0:0:
336,93,126389,2,0,P|271:68|209:84,1,132.999996448517,10|0,1:0|3:0,0:0:0:0:
140,142,126789,1,0,3:0:0:0:
71,78,126922,2,0,P|46:138|61:202,1,132.999996448517,2|2,0:1|3:1,0:0:0:0:
140,142,127322,1,0,3:0:0:0:
174,299,127456,1,10,1:1:0:0:
397,210,127722,85,2,3:1:0:0:
140,142,128122,5,2,3:1:0:0:
339,104,128522,53,2,3:1:0:0:
255,196,128989,69,2,3:1:0:0:
243,118,129389,5,2,3:1:0:0:
175,276,129799,53,6,3:1:0:0:
439,256,130121,5,2,3:1:0:0:
452,231,130192,1,8,1:0:0:0:
455,203,130263,1,0,3:0:0:0:
455,174,130335,1,8,1:0:0:0:
449,146,130406,70,0,P|446:119|440:98,3,35,2|8|0|8,3:1|1:0|3:0|1:0,0:0:0:0:
389,56,130692,21,2,3:1:0:0:
365,51,130763,1,8,1:0:0:0:
340,46,130835,2,0,L|298:38,1,35,0|8,3:0|1:0,0:0:0:0:
256,109,130978,69,2,3:1:0:0:
232,114,131049,1,8,1:0:0:0:
207,119,131121,2,0,L|165:127,1,35,0|8,3:0|1:0,0:0:0:0:
101,59,131263,22,0,L|59:51,7,35,2|8|0|8|2|8|0|8,3:1|1:0|3:0|1:0|3:1|1:0|3:0|1:0,0:0:0:0:
24,126,131835,69,2,3:1:0:0:
26,143,131906,1,8,1:0:0:0:
28,160,131978,1,0,3:0:0:0:
30,177,132049,1,8,1:0:0:0:
32,194,132121,2,0,L|41:252,3,35,2|8|0|8,3:1|1:0|3:0|1:0,0:0:0:0:
0,305,132406,21,2,3:1:0:0:
22,314,132478,1,8,1:0:0:0:
46,315,132549,1,0,3:0:0:0:
70,310,132621,1,8,1:0:0:0:
91,298,132692,2,0,P|119:280|137:273,3,35,2|8|0|8,3:1|1:0|3:0|1:0,0:0:0:0:
192,319,132978,69,2,3:1:0:0:
214,310,133050,1,8,1:0:0:0:
238,309,133121,1,0,3:0:0:0:
262,314,133193,1,8,1:0:0:0:
283,326,133264,2,0,P|311:344|329:351,3,35,2|8|0|8,3:1|1:0|3:0|1:0,0:0:0:0:
396,321,133549,21,2,3:1:0:0:
398,303,133621,1,8,1:0:0:0:
400,285,133692,1,0,3:0:0:0:
403,267,133763,1,8,1:0:0:0:
433,259,133835,69,2,3:1:0:0:
435,241,133907,1,8,1:0:0:0:
437,223,133978,1,0,3:0:0:0:
440,205,134049,1,8,1:0:0:0:
474,186,134121,22,0,L|482:134,3,35,2|8|0|8,3:1|1:0|3:0|1:0,0:0:0:0:
507,135,134406,70,0,L|515:83,3,35,2|8|0|8,3:1|1:0|3:0|1:0,0:0:0:0:
457,33,134692,53,2,3:1:0:0:
457,33,134835,1,0,3:0:0:0:
373,60,134978,2,0,L|324:57,3,35,10|10|10|10,1:0|1:0|1:0|1:0,0:0:0:0:
262,52,135263,85,2,3:1:0:0:
262,52,135406,1,0,3:0:0:0:
286,138,135549,2,0,L|237:135,3,35,10|10|10|10,1:0|1:0|1:0|1:0,0:0:0:0:
175,130,135834,5,2,3:1:0:0:
175,130,135977,1,0,3:0:0:0:
199,216,136121,2,0,L|150:213,3,35,10|10|10|10,1:0|1:0|1:0|1:0,0:0:0:0:
88,208,136406,85,2,3:1:0:0:
88,208,136549,1,0,3:0:0:0:
138,295,136692,2,0,L|187:298,3,35,10|10|10|10,1:0|1:0|1:0|1:0,0:0:0:0:
249,303,136978,5,2,3:1:0:0:
249,303,137121,1,0,3:0:0:0:
309,250,137263,2,0,L|358:253,3,35,10|10|10|10,1:0|1:0|1:0|1:0,0:0:0:0:
420,258,137549,85,2,3:1:0:0:
420,258,137692,1,0,3:0:0:0:
425,175,137835,2,0,L|376:172,3,35,10|10|10|10,1:0|1:0|1:0|1:0,0:0:0:0:
314,167,138121,5,2,3:1:0:0:
314,167,138264,1,0,3:0:0:0:
320,83,138406,2,0,L|369:86,3,35,10|10|10|10,1:0|1:0|1:0|1:0,0:0:0:0:
431,91,138692,85,2,3:1:0:0:
431,91,138835,1,0,3:0:0:0:
361,5,138978,2,0,L|327:3,3,35,10|10|10|10,1:0|1:0|1:0|1:0,0:0:0:0:
255,49,139263,85,2,3:1:0:0:
234,52,139335,1,8,1:0:0:0:
213,55,139406,1,0,3:0:0:0:
192,58,139478,1,8,1:0:0:0:
171,62,139549,70,0,L|135:69,3,35,2|8|0|8,3:1|1:0|3:0|1:0,0:0:0:0:
82,133,139835,21,2,3:1:0:0:
80,153,139906,1,8,1:0:0:0:
78,174,139978,2,0,L|72:225,1,35,0|8,3:0|1:0,0:0:0:0:
132,267,140121,69,2,3:1:0:0:
134,287,140192,1,8,1:0:0:0:
136,308,140264,2,0,L|142:359,1,35,0|8,3:0|1:0,0:0:0:0:
225,382,140406,22,0,L|270:377,7,35,2|8|0|8|2|8|0|8,3:1|1:0|3:0|1:0|3:1|1:0|3:0|1:0,0:0:0:0:
327,329,140978,70,0,L|372:334,7,35,2|8|0|8|2|8|0|8,3:1|1:0|3:0|1:0|3:1|1:0|3:0|1:0,0:0:0:0:
440,276,141549,21,2,3:1:0:0:
441,254,141621,1,8,1:0:0:0:
442,233,141692,1,0,3:0:0:0:
443,212,141763,1,8,1:0:0:0:
444,190,141835,70,0,L|447:133,3,35,2|8|0|8,3:1|1:0|3:0|1:0,0:0:0:0:
402,87,142121,22,0,L|398:30,7,35,2|8|0|8|2|8|0|8,3:1|1:0|3:0|1:0|3:1|1:0|3:0|1:0,0:0:0:0:
307,22,142692,69,2,3:1:0:0:
286,20,142763,1,8,1:0:0:0:
264,18,142835,1,0,3:0:0:0:
242,16,142906,1,8,1:0:0:0:
213,32,142978,21,2,3:1:0:0:
192,30,143049,1,8,1:0:0:0:
170,28,143121,1,0,3:0:0:0:
148,26,143192,1,8,1:0:0:0:
112,39,143263,70,0,L|46:35,3,35,2|8|0|8,3:1|1:0|3:0|1:0,0:0:0:0:
20,55,143549,22,0,P|14:89|16:121,3,35,2|8|0|8,3:1|1:0|3:0|1:0,0:0:0:0:
64,165,143835,21,2,3:1:0:0:
64,165,143978,1,0,3:0:0:0:
142,205,144121,2,0,L|189:200,3,35,10|10|10|10,1:0|1:0|1:0|1:0,0:0:0:0:
258,251,144406,85,2,3:1:0:0:
258,251,144549,1,0,3:0:0:0:
330,297,144692,2,0,L|377:292,3,35,10|10|10|10,1:0|1:0|1:0|1:0,0:0:0:0:
450,254,144978,5,2,3:1:0:0:
450,254,145121,1,0,3:0:0:0:
378,208,145264,2,0,L|331:213,3,35,10|10|10|10,1:0|1:0|1:0|1:0,0:0:0:0:
273,161,145549,85,2,3:1:0:0:
273,161,145692,1,0,3:0:0:0:
201,115,145835,2,0,L|154:120,3,35,10|10|10|10,1:0|1:0|1:0|1:0,0:0:0:0:
97,176,146121,5,2,3:1:0:0:
97,176,146263,1,0,3:0:0:0:
149,245,146406,2,0,L|154:292,3,35,10|10|10|10,1:0|1:0|1:0|1:0,0:0:0:0:
219,340,146692,85,2,3:1:0:0:
219,340,146834,1,0,3:0:0:0:
288,288,146978,2,0,L|335:283,3,35,10|10|10|10,1:0|1:0|1:0|1:0,0:0:0:0:
383,218,147264,5,2,3:1:0:0:
383,218,147406,1,0,3:0:0:0:
331,149,147549,2,0,L|326:102,3,35,10|10|10|10,1:0|1:0|1:0|1:0,0:0:0:0:
261,54,147836,85,2,3:1:0:0:
261,54,147978,1,0,3:0:0:0:
192,106,148121,2,0,L|145:111,3,35,10|10|10|10,1:0|1:0|1:0|1:0,0:0:0:0:
121,87,148406,86,0,L|18:82,1,70,6|2,3:1|0:1,0:0:0:0:
0,207,148692,2,0,L|103:202,1,70,8|2,1:0|0:1,0:0:0:0:
130,74,148978,70,0,L|27:69,1,70,2|2,3:1|0:1,0:0:0:0:
9,194,149264,2,0,L|112:189,1,70,8|2,1:0|0:1,0:0:0:0:
139,61,149549,22,0,L|36:56,1,70,2|2,3:1|0:1,0:0:0:0:
18,181,149835,2,0,L|121:176,1,70,8|2,1:0|0:1,0:0:0:0:
148,48,150120,70,0,L|45:43,1,70,2|2,3:1|0:1,0:0:0:0:
27,168,150406,2,0,L|130:163,1,70,8|2,1:0|0:1,0:0:0:0:
259,69,150692,22,0,L|262:-1,1,70,2|2,3:1|0:1,0:0:0:0:
182,162,150978,2,0,L|185:231,1,70,8|2,1:0|0:1,0:0:0:0:
275,81,151263,70,0,L|278:11,1,70,2|2,3:1|0:1,0:0:0:0:
198,174,151549,2,0,L|201:243,1,70,8|2,1:0|0:1,0:0:0:0:
295,344,151835,22,0,L|367:340,1,70,2|2,3:1|0:1,0:0:0:0:
312,357,152121,2,0,L|384:353,1,70,8|2,1:0|0:1,0:0:0:0:
392,269,152406,70,0,L|464:273,1,70,2|2,3:1|0:1,0:0:0:0:
409,256,152692,2,0,L|481:260,1,70,8|2,1:0|0:1,0:0:0:0:
505,166,152978,54,0,P|504:122|489:95,1,70,2|0,3:1|3:0,0:0:0:0:
416,63,153263,2,0,L|368:56,3,35,10|8|8|8,1:0|1:0|1:0|1:0,0:0:0:0:
351,77,153549,2,0,P|311:83|266:72,1,70,2|0,3:1|3:0,0:0:0:0:
204,43,153835,2,0,L|156:36,3,35,10|8|8|8,1:0|1:0|1:0|1:0,0:0:0:0:
151,22,154121,54,0,P|111:16|66:27,1,70,2|0,3:1|3:0,0:0:0:0:
29,86,154406,2,0,L|31:137,3,35,10|8|8|8,1:0|1:0|1:0|1:0,0:0:0:0:
59,151,154692,2,0,B|56:184|56:184|66:202|66:202|62:245,1,70,2|0,3:1|3:0,0:0:0:0:
40,299,154978,2,0,L|37:348,3,35,10|8|8|8,1:0|1:0|1:0|1:0,0:0:0:0:
62,367,155263,38,0,P|101:379|150:370,1,70,2|0,3:1|3:0,0:0:0:0:
204,336,155549,2,0,L|252:340,3,35,10|8|8|8,1:0|1:0|1:0|1:0,0:0:0:0:
276,319,155835,2,0,P|310:317|343:329,1,70,2|0,3:1|3:0,0:0:0:0:
418,368,156121,2,0,L|469:361,3,35,10|8|8|8,1:0|1:0|1:0|1:0,0:0:0:0:
478,330,156406,54,0,P|487:269|489:240,1,70,2|0,3:1|3:0,0:0:0:0:
455,182,156692,2,0,L|446:124,3,35,10|8|8|8,1:0|1:0|1:0|1:0,0:0:0:0:
468,109,156978,2,0,L|473:31,1,70,2|0,3:1|3:0,0:0:0:0:
388,31,157263,37,10,1:0:0:0:
377,30,157335,1,8,1:0:0:0:
366,29,157406,1,8,1:0:0:0:
355,28,157478,1,8,1:0:0:0:
344,27,157549,69,6,3:1:0:0:
455,182,157835,1,6,3:1:0:0:
168,357,159835,5,6,3:1:0:0:
57,202,160121,1,6,3:1:0:0:
257,293,161835,5,8,1:0:0:0:
262,198,162121,85,2,3:1:0:0:
262,184,162192,1,8,1:0:0:0:
262,170,162263,1,0,3:0:0:0:
263,155,162335,1,8,1:0:0:0:
264,141,162406,2,0,L|266:99,3,35,2|8|0|8,3:1|1:0|3:0|1:0,0:0:0:0:
346,115,162692,53,2,3:1:0:0:
344,129,162763,1,8,1:0:0:0:
344,143,162834,1,2,3:1:0:0:
343,158,162906,1,8,1:0:0:0:
342,172,162978,2,0,L|339:213,3,35,2|8|0|8,3:1|1:0|3:0|1:0,0:0:0:0:
378,284,163263,38,0,L|419:286,3,35,2|8|0|8,3:1|1:0|3:0|1:0,0:0:0:0:
304,335,163549,2,0,L|262:332,3,35,2|8|0|8,3:1|1:0|3:0|1:0,0:0:0:0:
159,359,163835,1,2,3:1:0:0:
160,338,163906,1,8,1:0:0:0:
161,316,163978,1,2,3:1:0:0:
163,295,164049,1,8,1:0:0:0:
164,274,164121,1,2,3:1:0:0:
165,253,164192,1,8,1:0:0:0:
166,231,164264,1,2,3:1:0:0:
93,197,164406,6,0,P|128:161|182:153,1,105,2|0,3:1|0:0,0:0:0:0:
199,160,164692,37,8,1:0:0:0:
219,165,164763,1,0,3:0:0:0:
239,170,164835,1,0,3:0:0:0:
259,175,164906,1,0,3:0:0:0:
279,180,164978,1,8,1:0:0:0:
307,179,165049,101,0,3:0:0:0:
330,164,165121,1,0,3:0:0:0:
345,140,165192,1,0,3:0:0:0:
342,112,165263,1,8,1:0:0:0:
323,86,165335,1,0,3:0:0:0:
294,72,165406,1,0,3:0:0:0:
262,73,165478,1,0,3:0:0:0:
237,92,165549,54,0,L|212:124,3,35,8|0|0|0,1:0|3:0|3:0|3:0,0:0:0:0:
111,143,165835,2,0,L|86:175,3,35,8|0|0|0,1:0|3:0|3:0|3:0,0:0:0:0:
22,243,166121,69,8,1:0:0:0:
59,247,166192,1,0,3:0:0:0:
96,251,166263,1,0,3:0:0:0:
134,255,166335,1,0,3:0:0:0:
173,287,166406,21,8,1:0:0:0:
210,283,166477,1,0,3:0:0:0:
247,279,166548,1,0,3:0:0:0:
285,275,166620,1,0,3:0:0:0:
315,246,166692,86,0,B|344:236|374:246|374:246|393:237|393:237|426:251|450:239,1,140,14|0,1:0|0:0,0:0:0:0:
