osu file format v14

[General]
AudioFilename: audio.mp3
AudioLeadIn: 0
PreviewTime: 28465
Countdown: 0
SampleSet: Soft
StackLeniency: 0.7
Mode: 0
LetterboxInBreaks: 0
WidescreenStoryboard: 1

[Editor]
Bookmarks: 2232,4464,8929,17859,29022,33487,42418,60278,78138,95999,103809,113061,130126,136126,148411,157554,162126,166697
DistanceSpacing: 0.4
BeatDivisor: 8
GridSize: 32
TimelineZoom: 2.4

[Metadata]
Title:666 Flags
TitleUnicode:666 Flags
Artist:Origami Angel
ArtistUnicode:Origami Angel
Creator:WashedUp Player
Version:Hyper
Source:
Tags:Lasse English Punk Rock alternative emo Somewhere City
BeatmapID:3007943
BeatmapSetID:1396650

[Difficulty]
HPDrainRate:4.4
CircleSize:3.5
OverallDifficulty:7
ApproachRate:8.5
SliderMultiplier:1.3
SliderTickRate:1

[Events]
//Background and Video events
0,0,"666=usa.jpg",0,0
//Break Periods
2,100253,103760
//Storyboard Layer 0 (Background)
//Storyboard Layer 1 (Fail)
//Storyboard Layer 2 (Pass)
//Storyboard Layer 3 (Foreground)
//Storyboard Layer 4 (Overlay)
//Storyboard Sound Samples

[TimingPoints]
-5,259.74025974026,4,2,1,50,1,0
-5,-100,4,2,1,50,0,0
254,277.777777777778,4,2,1,50,1,0
254,-100,4,2,1,50,0,0
1365,271.186440677966,4,2,1,50,1,0
1365,-100,4,2,1,50,0,0
1907,319.148936170213,4,2,1,50,1,0
1907,-100,4,2,1,50,0,0
2227,279.06976744186,4,2,1,55,1,0
2227,-100,4,2,1,55,0,0
2436,-100,4,2,1,5,0,0
2506,-100,4,2,1,60,0,0
2715,-100,4,2,1,5,0,0
2785,-100,4,2,1,65,0,0
2994,-100,4,2,1,5,0,0
3064,-100,4,2,1,70,0,0
3273,-100,4,2,1,5,0,0
3343,-100,4,2,1,75,0,0
3552,-100,4,2,1,5,0,0
3622,-100,4,2,1,80,0,0
3831,-100,4,2,1,5,0,0
3901,-100,4,2,1,85,0,0
4460,-100,4,2,1,70,0,0
8924,-83.3333333333333,4,2,1,70,0,1
9133,-83.3333333333333,4,2,1,5,0,1
9203,-83.3333333333333,4,2,1,70,0,1
9413,-83.3333333333333,4,2,1,5,0,1
9482,-83.3333333333333,4,2,1,70,0,1
10250,-83.3333333333333,4,2,1,5,0,1
10320,-83.3333333333333,4,2,1,70,0,1
10529,-83.3333333333333,4,2,1,5,0,1
10599,-83.3333333333333,4,2,1,70,0,1
11366,-83.3333333333333,4,2,1,5,0,1
11436,-83.3333333333333,4,2,1,70,0,1
11645,-83.3333333333333,4,2,1,5,0,1
11715,-83.3333333333333,4,2,1,70,0,1
12482,-83.3333333333333,4,2,1,5,0,1
12552,-83.3333333333333,4,2,1,70,0,1
12761,-83.3333333333333,4,2,1,5,0,1
12831,-83.3333333333333,4,2,1,70,0,1
13040,-83.3333333333333,4,2,1,5,0,1
13111,-83.3333333333333,4,2,1,60,0,1
13250,-83.3333333333333,4,2,1,61,0,1
13320,-83.3333333333333,4,2,1,5,0,1
13390,-83.3333333333333,4,2,1,62,0,1
13529,-83.3333333333333,4,2,1,63,0,1
13669,-83.3333333333333,4,2,1,64,0,1
13808,-83.3333333333333,4,2,1,65,0,1
13948,-83.3333333333333,4,2,1,66,0,1
14088,-83.3333333333333,4,2,1,67,0,1
14227,-83.3333333333333,4,2,1,68,0,1
14367,-83.3333333333333,4,2,1,69,0,1
14506,-83.3333333333333,4,2,1,70,0,1
14646,-83.3333333333333,4,2,1,71,0,1
14785,-83.3333333333333,4,2,1,72,0,1
14925,-83.3333333333333,4,2,1,73,0,1
15064,-83.3333333333333,4,2,1,74,0,1
15204,-83.3333333333333,4,2,1,75,0,1
15343,-83.3333333333333,4,2,1,76,0,1
15483,-83.3333333333333,4,2,1,77,0,1
15622,-83.3333333333333,4,2,1,78,0,1
15762,-83.3333333333333,4,2,1,79,0,1
15901,-83.3333333333333,4,2,1,80,0,1
16041,-83.3333333333333,4,2,1,81,0,1
16181,-83.3333333333333,4,2,1,82,0,1
16320,-83.3333333333333,4,2,1,83,0,1
16460,-83.3333333333333,4,2,1,84,0,1
16599,-83.3333333333333,4,2,1,85,0,1
16739,-83.3333333333333,4,2,1,86,0,1
16878,-83.3333333333333,4,2,1,60,0,1
17018,-83.3333333333333,4,2,1,88,0,1
17157,-83.3333333333333,4,2,1,60,0,1
17297,-83.3333333333333,4,2,1,90,0,1
17436,-83.3333333333333,4,2,1,60,0,1
17576,-83.3333333333333,4,2,1,70,0,1
17854,-100,4,2,1,70,0,0
21203,-100,4,2,1,5,0,0
21273,-100,4,2,1,70,0,0
21413,-100,4,2,1,5,0,0
21482,-100,4,2,1,70,0,0
21622,-100,4,2,1,5,0,0
21692,-100,4,2,1,70,0,0
21901,-100,4,2,1,5,0,0
22320,-100,4,2,1,70,0,0
25668,-100,4,2,1,5,0,0
25738,-100,4,2,1,70,0,0
25878,-100,4,2,1,5,0,0
25948,-100,4,2,1,65,0,0
26087,-100,4,2,1,5,0,0
26192,-100,4,2,1,60,0,0
26331,-100,4,2,1,5,0,0
26436,-100,4,2,1,65,0,0
26575,-100,4,2,1,5,0,0
26646,-100,4,2,1,70,0,0
26785,-100,4,2,1,5,0,0
26854,-250,4,2,1,70,0,0
27831,-250,4,2,1,5,0,0
27901,-250,4,2,1,55,0,0
28529,-250,4,2,1,5,0,0
28599,-250,4,2,1,55,0,0
29017,-100,4,2,1,70,0,0
29785,-100,4,2,1,5,0,0
29854,-100,4,2,1,70,0,0
30901,-100,4,2,1,5,0,0
30971,-100,4,2,1,70,0,0
32017,-100,4,2,1,5,0,0
32087,-100,4,2,1,70,0,0
33482,-83.3333333333333,4,2,1,70,0,1
33692,-83.3333333333333,4,2,1,5,0,1
33761,-83.3333333333333,4,2,1,70,0,1
33971,-83.3333333333333,4,2,1,5,0,1
34040,-83.3333333333333,4,2,1,70,0,1
34250,-83.3333333333333,4,2,1,5,0,1
34320,-83.3333333333333,4,2,1,70,0,1
34808,-83.3333333333333,4,2,1,5,0,1
34878,-83.3333333333333,4,2,1,70,0,1
35087,-83.3333333333333,4,2,1,5,0,1
35157,-83.3333333333333,4,2,1,70,0,1
35366,-83.3333333333333,4,2,1,5,0,1
35436,-83.3333333333333,4,2,1,70,0,1
35924,-83.3333333333333,4,2,1,5,0,1
35994,-83.3333333333333,4,2,1,70,0,1
36203,-83.3333333333333,4,2,1,5,0,1
36273,-83.3333333333333,4,2,1,70,0,1
36482,-83.3333333333333,4,2,1,5,0,1
36552,-83.3333333333333,4,2,1,70,0,1
37040,-83.3333333333333,4,2,1,5,0,1
37110,-83.3333333333333,4,2,1,70,0,1
37320,-83.3333333333333,4,2,1,5,0,1
37389,-83.3333333333333,4,2,1,70,0,1
37599,-83.3333333333333,4,2,1,5,0,1
37668,-83.3333333333333,4,2,1,70,0,1
37878,-83.3333333333333,4,2,1,5,0,1
37948,-83.3333333333333,4,2,1,45,0,1
38506,-83.3333333333333,4,2,1,55,0,1
39064,-83.3333333333333,4,2,1,60,0,1
39622,-83.3333333333333,4,2,1,70,0,1
40181,-83.3333333333333,4,2,1,75,0,1
40739,-83.3333333333333,4,2,1,80,0,1
41297,-83.3333333333333,4,2,1,85,0,1
42343,-83.3333333333333,4,2,1,5,0,1
42413,558.139534883721,4,2,1,60,1,0
42413,-100,4,2,1,60,0,0
43250,-71.4285714285714,4,2,1,60,0,0
44017,-71.4285714285714,4,2,1,5,0,0
44087,-71.4285714285714,4,2,1,60,0,0
44854,-71.4285714285714,4,2,1,5,0,0
44924,-71.4285714285714,4,2,1,60,0,0
46878,-100,4,2,1,60,0,0
47715,-71.4285714285714,4,2,1,60,0,0
48482,-71.4285714285714,4,2,1,5,0,0
48552,-71.4285714285714,4,2,1,60,0,0
50436,-71.4285714285714,4,2,1,5,0,0
50506,-71.4285714285714,4,2,1,60,0,0
50994,-71.4285714285714,4,2,1,5,0,0
51064,-71.4285714285714,4,2,1,60,0,0
51273,-71.4285714285714,4,2,1,5,0,0
51343,-100,4,2,1,60,0,0
52180,-71.4285714285714,4,2,1,60,0,0
52947,-71.4285714285714,4,2,1,5,0,0
53017,-71.4285714285714,4,2,1,60,0,0
57482,-133.333333333333,4,2,1,60,0,0
57971,-133.333333333333,4,2,1,5,0,0
58041,-133.333333333333,4,2,1,60,0,0
60273,-100,4,2,1,50,0,0
75343,-200,4,2,1,50,0,0
78133,-100,4,2,1,50,0,0
93203,-200,4,2,1,50,0,0
95436,-83.3333333333333,4,2,1,50,0,0
95924,-83.3333333333333,4,2,1,5,0,0
95994,531.797030799911,4,2,1,50,1,0
95994,-100,4,2,1,50,0,0
104505,538.116591928251,4,2,1,63,1,0
104505,-76.9230769230769,4,2,1,63,0,0
105581,-76.9230769230769,4,2,1,66,0,0
106657,-76.9230769230769,4,2,1,69,0,0
108809,530.973451327434,4,2,1,73,1,0
108941,-100,4,2,1,5,0,0
109074,-100,4,2,1,73,0,0
109207,-100,4,2,1,5,0,0
109339,-100,4,2,1,73,0,0
109472,-100,4,2,1,5,0,0
109605,-71.4285714285714,4,2,1,73,0,0
109738,-71.4285714285714,4,2,1,5,0,0
109870,-71.4285714285714,4,2,1,76,0,0
110003,-71.4285714285714,4,2,1,5,0,0
110136,-71.4285714285714,4,2,1,76,0,0
110269,-71.4285714285714,4,2,1,5,0,0
110401,-71.4285714285714,4,2,1,76,0,0
110534,-71.4285714285714,4,2,1,5,0,0
110667,-71.4285714285714,4,2,1,76,0,0
110800,-71.4285714285714,4,2,1,5,0,0
110932,-71.4285714285714,4,2,1,79,0,0
112525,-133.333333333333,4,2,1,83,0,0
112724,-133.333333333333,4,2,1,5,0,0
112791,-133.333333333333,4,2,1,83,0,0
113056,533.333333333333,4,2,1,60,1,0
113056,-55.5555555555556,4,2,1,60,0,0
114322,-55.5555555555556,4,2,1,5,0,0
114389,-55.5555555555556,4,2,1,60,0,0
119189,-83.3333333333333,4,2,1,60,0,0
119456,-83.3333333333333,4,2,1,5,0,0
119589,-83.3333333333333,4,2,1,57,0,0
119856,-83.3333333333333,4,2,1,5,0,0
119989,-100,4,2,1,54,0,0
120322,-100,4,2,1,5,0,0
120456,-100,4,2,1,51,0,0
120789,-100,4,2,1,5,0,0
120922,-125,4,2,1,48,0,0
121189,-125,4,2,1,5,0,0
121322,-125,4,2,1,45,0,0
121589,-55.5555555555556,4,2,1,60,0,0
122856,-55.5555555555556,4,2,1,5,0,0
122922,-55.5555555555556,4,2,1,60,0,0
127722,-83.3333333333333,4,2,1,60,0,0
127989,-83.3333333333333,4,2,1,5,0,0
128122,-83.3333333333333,4,2,1,57,0,0
128389,-83.3333333333333,4,2,1,5,0,0
128522,-142.857142857143,4,2,1,54,0,0
128856,-142.857142857143,4,2,1,5,0,0
128989,-142.857142857143,4,2,1,51,0,0
129256,-142.857142857143,4,2,1,5,0,0
129389,546.697038724374,4,2,1,48,1,0
129389,-153.846153846153,4,2,1,48,0,0
129662,-153.846153846153,4,2,1,5,0,0
129799,645.161290322581,4,2,1,45,1,0
129960,-100,4,2,1,5,0,0
130121,285.714285714286,4,2,1,75,1,0
130121,-90.9090909090909,4,2,1,75,0,1
134692,-90.9090909090909,4,2,1,75,0,0
139263,-90.9090909090909,4,2,1,75,0,1
143835,-90.9090909090909,4,2,1,75,0,0
148406,-100,4,2,1,75,0,0
161835,-100,4,2,1,85,0,0
162049,-100,4,2,1,5,0,0
162121,-76.9230769230769,4,2,1,75,0,0
164406,-76.9230769230769,4,2,1,65,0,0
164692,-76.9230769230769,4,2,1,70,0,0
164978,-76.9230769230769,4,2,1,75,0,0
165263,-76.9230769230769,4,2,1,80,0,0
165549,-76.9230769230769,4,2,1,85,0,0
165835,-76.9230769230769,4,2,1,90,0,0
166121,-76.9230769230769,4,2,1,95,0,0
166406,-76.9230769230769,4,2,1,100,0,0

[Colours]
Combo1 : 116,116,116
Combo2 : 255,157,111
Combo3 : 158,158,158
Combo4 : 115,155,223
Combo5 : 254,131,134
Combo6 : 26,116,242
Combo7 : 219,34,38

[HitObjects]
197,177,2227,70,0,P|181:205|159:229,1,65,4|0,3:1|0:0,0:0:0:0:
112,151,2506,2,0,P|95:123|84:92,1,65,4|0,3:3|0:0,0:0:0:0:
177,85,2785,2,0,P|209:84|241:90,1,65,4|0,3:1|0:0,0:0:0:0:
314,144,3064,2,0,P|346:144|378:138,1,65,4|0,3:3|0:0,0:0:0:0:
380,47,3343,2,0,P|348:40|315:41,1,65,4|0,3:1|0:0,0:0:0:0:
314,144,3622,2,0,P|320:175|319:208,1,65,4|0,3:3|0:0,0:0:0:0:
306,305,3901,1,8,1:0:0:0:
306,305,4040,1,8,3:1:0:0:
306,305,4180,1,8,1:0:0:0:
116,380,4459,6,0,L|108:313,1,65,0|0,3:1|3:1,0:0:0:0:
127,226,4738,2,0,L|131:140,1,65,10|0,1:1|3:0,0:0:0:0:
78,84,5017,2,0,P|118:68|208:104,1,130,2|8,3:1|1:0,0:0:0:0:
285,117,5436,1,0,0:0:0:0:
356,59,5575,54,0,L|426:55,1,65,0|0,3:0|3:0,0:0:0:0:
485,147,5854,2,0,L|420:143,1,65,10|0,1:1|3:0,0:0:0:0:
343,192,6133,2,0,B|326:228|334:263|346:247|356:298|340:345,1,130,2|8,3:1|1:0,0:0:0:0:
270,369,6552,1,0,0:0:0:0:
188,328,6692,2,0,L|108:334,1,65,0|0,3:0|3:0,0:0:0:0:
43,288,6971,2,0,L|37:208,1,65,10|0,1:1|3:0,0:0:0:0:
99,159,7250,2,0,B|106:113|106:113|85:83|85:83|96:25,1,130,2|8,3:1|1:0,0:0:0:0:
178,3,7668,1,0,0:0:0:0:
257,46,7808,69,0,3:0:0:0:
261,50,7947,1,0,3:0:0:0:
351,37,8087,1,10,1:1:0:0:
206,147,8366,1,2,3:1:0:0:
374,218,8645,1,8,1:0:0:0:
374,218,8785,1,0,3:0:0:0:
403,304,8924,70,0,P|371:309|289:268,1,116.999996429443,10|0,1:1|0:0,0:0:0:0:
266,238,9203,2,0,P|234:232|169:289,1,116.999996429443,10|0,1:1|0:0,0:0:0:0:
168,327,9482,37,10,1:1:0:0:
73,381,9622,1,0,3:0:0:0:
73,381,9761,2,0,L|57:301,1,77.999997619629,10|0,1:1|3:0,0:0:0:0:
114,197,10040,70,0,P|136:155|123:85,1,116.999996429443,10|0,1:1|0:0,0:0:0:0:
99,49,10320,2,0,P|132:76|204:70,1,116.999996429443,10|0,1:1|0:0,0:0:0:0:
235,36,10599,85,10,1:1:0:0:
345,3,10738,1,0,3:0:0:0:
345,3,10878,2,0,L|428:15,1,77.999997619629,10|0,1:1|3:0,0:0:0:0:
483,89,11157,38,0,L|466:211,1,116.999996429443,10|0,1:1|0:0,0:0:0:0:
424,226,11436,2,0,L|435:350,1,116.999996429443,10|0,1:1|0:0,0:0:0:0:
450,370,11715,70,0,L|533:379,2,77.999997619629,10|0|10,1:1|3:0|1:1,0:0:0:0:
331,351,12133,1,0,3:0:0:0:
331,351,12273,2,0,B|294:335|242:344|259:351|221:361|166:343,2,155.999995239258,10|10|10,1:1|1:1|1:1,0:0:0:0:
396,263,12971,1,0,0:0:0:0:
396,263,13110,2,0,L|387:179,1,77.999997619629,10|0,1:1|0:0,0:0:0:0:
457,125,13389,54,0,P|408:97|317:127,1,155.999995239258,10|8,1:0|1:0,0:0:0:0:
388,186,13808,1,0,3:0:0:0:
462,101,13947,2,0,B|384:84|384:84|305:105,1,155.999995239258,10|8,1:0|1:0,0:0:0:0:
388,186,14366,1,0,3:0:0:0:
463,75,14506,2,0,L|302:77,1,155.999995239258,10|8,1:0|1:0,0:0:0:0:
388,186,14924,5,0,3:0:0:0:
453,250,15064,2,0,P|459:287|448:336,1,77.999997619629,10|0,1:0|3:0,0:0:0:0:
322,322,15343,2,0,P|316:285|327:236,1,77.999997619629,8|0,1:0|3:0,0:0:0:0:
386,384,15622,69,10,1:0:0:0:
386,384,15761,1,0,3:0:0:0:
268,384,15901,2,0,L|185:373,1,77.999997619629,8|0,1:0|3:0,0:0:0:0:
143,310,16180,2,0,L|62:321,1,77.999997619629,10|0,1:0|3:0,0:0:0:0:
0,384,16459,1,8,1:0:0:0:
0,384,16599,1,0,3:0:0:0:
0,275,16738,2,0,B|6:194|10:114,1,155.999995239258,10|8,1:0|1:0,0:0:0:0:
20,27,17157,1,0,3:0:0:0:
112,12,17296,2,0,L|195:21,1,77.999997619629,10|0,1:0|3:0,0:0:0:0:
284,83,17575,69,8,1:0:0:0:
299,82,17644,1,8,1:0:0:0:
313,80,17714,1,8,1:0:0:0:
328,79,17784,1,8,1:0:0:0:
343,78,17854,1,10,1:1:0:0:
486,114,18133,1,10,1:1:0:0:
343,78,18413,2,0,L|337:142,1,65,0|0,3:0|3:0,0:0:0:0:
374,225,18692,1,8,1:0:0:0:
311,291,18831,2,0,B|281:301|246:285|263:278|211:254|178:273,1,130,6|0,3:1|3:0,0:0:0:0:
115,325,19250,1,8,1:0:0:0:
60,251,19389,2,0,B|44:226|68:174|75:191|91:156|81:126,1,130,2|0,3:1|3:1,0:0:0:0:
38,53,19808,21,8,1:0:0:0:
39,41,19877,1,8,1:0:0:0:
40,29,19947,1,8,1:0:0:0:
42,17,20017,1,8,1:0:0:0:
43,5,20087,1,10,1:1:0:0:
236,9,20366,1,10,1:1:0:0:
43,5,20645,2,0,L|36:74,1,65,0|0,3:0|3:0,0:0:0:0:
24,160,20924,1,8,1:0:0:0:
77,232,21064,2,0,B|94:258|94:258|85:332,2,97.5,2|2|2,3:1|3:1|3:1,0:0:0:0:
4,348,21692,1,2,3:1:0:0:
245,303,22320,69,10,1:1:0:0:
77,232,22599,1,10,1:1:0:0:
245,303,22878,2,0,L|253:233,1,65,0|0,3:0|3:0,0:0:0:0:
321,178,23157,1,8,1:0:0:0:
381,109,23296,2,0,P|313:88|245:125,1,130,6|0,3:1|3:0,0:0:0:0:
321,178,23715,1,8,1:0:0:0:
392,234,23854,2,0,P|452:255|512:233,1,130,10|0,1:0|3:0,0:0:0:0:
449,143,24273,21,8,1:1:0:0:
447,134,24342,1,8,1:1:0:0:
446,126,24412,1,8,1:1:0:0:
445,118,24482,1,8,1:1:0:0:
444,110,24552,1,14,1:1:0:0:
280,30,24831,1,10,1:1:0:0:
444,110,25110,2,0,L|452:177,1,65,0|0,3:0|3:0,0:0:0:0:
423,261,25389,1,8,1:0:0:0:
352,317,25529,6,0,P|305:331|245:317,2,97.5,2|2|2,3:1|3:1|3:1,0:0:0:0:
246,227,26192,1,2,3:1:0:0:
122,199,26436,1,2,3:1:0:0:
161,315,26645,1,2,3:1:0:0:
190,125,26854,6,0,P|128:102|38:151,1,169,6|0,3:1|0:0,0:0:0:0:
207,139,27901,2,0,L|343:127,1,130,6|0,3:1|3:0,0:0:0:0:
428,137,28738,5,8,1:0:0:0:
400,222,28878,1,0,3:0:0:0:
433,308,29017,38,0,L|511:321,2,65,2|0|10,3:1|3:0|1:1,0:0:0:0:
346,360,29436,1,0,3:0:0:0:
346,360,29575,2,0,B|318:348|281:363|303:376|255:385|219:372,2,130,2|8|2,3:1|1:0|3:1,0:0:0:0:
433,308,30273,5,0,3:0:0:0:
378,231,30413,2,0,L|371:163,1,65,10|0,1:1|3:0,0:0:0:0:
395,78,30692,2,0,B|442:74|442:74|459:49|459:49|515:46,2,130,2|8|2,3:1|1:0|3:1,0:0:0:0:
317,29,31389,85,0,3:0:0:0:
239,76,31529,2,0,P|205:83|173:81,1,65,10|0,1:1|3:0,0:0:0:0:
90,44,31808,2,0,L|26:35,1,65,2|0,3:1|0:0,0:0:0:0:
9,125,32087,2,0,L|73:134,1,65,8|0,1:0|0:0,0:0:0:0:
126,206,32366,5,2,3:1:0:0:
126,206,32506,1,0,3:0:0:0:
181,278,32645,2,0,P|126:298|95:290,1,65,10|0,1:1|3:0,0:0:0:0:
212,198,32924,2,0,P|244:201|271:217,1,65,2|0,3:1|0:0,0:0:0:0:
295,320,33203,1,8,1:0:0:0:
295,320,33343,1,0,3:0:0:0:
387,384,33482,38,0,B|397:330|397:330|394:323|394:323|405:255,1,116.999996429443,10|0,1:1|0:0,0:0:0:0:
459,260,33761,2,0,B|450:206|450:206|453:199|453:199|443:145,1,116.999996429443,10|0,1:1|0:0,0:0:0:0:
401,134,34040,2,0,B|411:80|411:80|408:73|408:73|419:5,1,116.999996429443,10|0,1:1|0:0,0:0:0:0:
469,0,34320,1,10,1:1:0:0:
469,0,34459,1,0,3:0:0:0:
377,50,34599,6,0,B|303:53|303:53|301:48|301:48|244:49,1,116.999996429443,10|0,1:1|0:0,0:0:0:0:
246,81,34878,2,0,B|172:84|172:84|170:79|170:79|132:79,1,116.999996429443,10|0,1:1|0:0,0:0:0:0:
138,35,35157,2,0,B|64:38|64:38|62:33|62:33|5:34,1,116.999996429443,10|0,1:1|0:0,0:0:0:0:
2,56,35436,1,10,1:1:0:0:
2,56,35575,1,0,3:0:0:0:
68,148,35715,86,0,B|66:212|66:212|61:222|61:222|58:274,1,116.999996429443,10|0,1:1|0:0,0:0:0:0:
89,279,35994,2,0,B|92:238|92:238|97:228|97:228|99:164,1,116.999996429443,10|0,1:1|0:0,0:0:0:0:
129,179,36273,2,0,B|127:243|127:243|122:254|122:254|120:295,1,116.999996429443,10|0,1:1|0:0,0:0:0:0:
152,313,36552,1,10,1:1:0:0:
152,313,36692,1,0,3:0:0:0:
241,249,36831,70,0,L|370:236,1,116.999996429443,10|0,1:1|0:0,0:0:0:0:
387,206,37110,2,0,L|258:193,1,116.999996429443,10|0,1:1|0:0,0:0:0:0:
272,159,37389,2,0,L|401:146,1,116.999996429443,10|0,1:1|0:0,0:0:0:0:
403,130,37668,2,0,L|483:139,1,77.999997619629,10|0,1:1|0:0,0:0:0:0:
454,44,37947,38,0,B|385:16|338:42|352:61|294:80|229:47,1,233.999992858887,10|0,1:1|3:0,0:0:0:0:
133,21,38506,2,0,P|79:27|100:177,1,233.999992858887,10|0,1:1|3:0,0:0:0:0:
172,239,39064,2,0,P|196:160|192:134,1,77.999997619629,10|0,1:1|3:0,0:0:0:0:
180,331,39343,2,0,P|252:292|268:270,1,77.999997619629,8|0,1:0|3:0,0:0:0:0:
89,334,39622,1,10,1:1:0:0:
89,334,39761,1,0,3:0:0:0:
89,334,39901,2,0,L|187:343,1,77.999997619629,8|0,1:0|3:0,0:0:0:0:
329,319,40180,54,0,P|344:260|342:215,1,77.999997619629,10|0,1:1|3:0,0:0:0:0:
396,171,40459,1,8,1:0:0:0:
396,171,40599,1,0,3:0:0:0:
465,318,40738,2,0,P|450:259|452:214,1,77.999997619629,10|0,1:1|3:0,0:0:0:0:
396,171,41017,1,8,1:0:0:0:
396,171,41157,1,0,3:0:0:0:
317,65,41296,22,0,L|227:55,1,77.999997619629,10|0,1:1|3:0,0:0:0:0:
138,41,41575,2,0,L|48:31,1,77.999997619629,8|0,1:0|3:0,0:0:0:0:
51,204,41854,2,0,L|128:195,1,77.999997619629,10|0,1:1|3:0,0:0:0:0:
230,180,42133,2,0,L|307:171,1,77.999997619629,14|0,1:0|0:0,0:0:0:0:
394,133,42413,54,0,L|516:138,1,97.50000371933,6|0,3:1|3:0,0:0:0:0:
512,218,42971,1,8,1:0:0:0:
406,39,43250,2,0,L|279:34,1,90.9999972229005,2|0,3:1|0:0,0:0:0:0:
201,31,43808,2,0,L|281:35,1,68.2499979171754,2|0,3:1|0:0,0:0:0:0:
291,35,44087,1,8,1:0:0:0:
120,0,44366,86,0,B|109:53|109:53|131:88|131:88|122:159,1,159.249995140076,2|0,3:1|0:0,0:0:0:0:
116,177,44924,1,2,3:0:0:0:
120,181,45064,1,2,3:0:0:0:
60,255,45203,2,0,L|71:345,1,90.9999972229005,10|2,1:0|3:0,0:0:0:0:
214,356,45761,1,2,3:3:0:0:
103,307,46040,1,2,3:3:0:0:
291,309,46319,2,0,L|393:297,1,90.9999972229005,10|8,1:1|1:0,0:0:0:0:
465,319,46738,1,8,1:0:0:0:
510,248,46878,6,0,L|495:139,1,97.5,2|0,3:1|3:0,0:0:0:0:
511,67,47436,1,8,1:0:0:0:
367,0,47715,2,0,P|323:-10|279:0,1,90.9999972229005,2|0,3:1|0:0,0:0:0:0:
144,38,48273,2,0,P|187:48|225:39,1,68.2499979171754,2|0,3:1|0:0,0:0:0:0:
242,23,48552,1,8,1:1:0:0:
53,45,48831,2,0,B|35:84|45:142|68:113|81:169|52:227,1,181.999994445801,2|0,3:1|3:0,0:0:0:0:
0,352,49668,85,8,1:0:0:0:
53,219,49947,1,0,0:0:0:0:
104,342,50226,2,0,P|57:335|24:343,1,68.2499979171754,0|0,3:0|0:0,0:0:0:0:
0,352,50506,1,10,1:0:0:0:
175,259,50785,2,0,P|220:259|243:271,1,68.2499979171754,10|0,1:0|0:0,0:0:0:0:
253,293,51064,2,0,L|249:358,1,45.4999986114502,0|0,3:0|0:0,0:0:0:0:
337,369,51343,6,0,B|344:269,1,97.5,2|0,3:1|3:0,0:0:0:0:
298,195,51901,1,8,1:0:0:0:
416,108,52180,2,0,L|510:103,1,90.9999972229005,2|0,3:1|0:0,0:0:0:0:
329,55,52738,2,0,L|243:51,1,68.2499979171754,2|0,3:1|0:0,0:0:0:0:
236,51,53017,1,8,1:1:0:0:
51,79,53296,2,0,P|113:88|113:204,1,181.999994445801,2|2,3:1|3:3,0:0:0:0:
51,234,53994,85,2,0:3:0:0:
38,319,54133,2,0,L|130:326,1,90.9999972229005,8|2,1:0|0:3,0:0:0:0:
271,287,54692,1,0,3:0:0:0:
128,325,54971,1,10,1:0:0:0:
271,287,55250,2,0,L|363:294,1,90.9999972229005,10|0,1:0|3:0,0:0:0:0:
442,266,55808,6,0,P|447:299|425:354,2,90.9999972229005,8|0|0,1:0|3:0|3:0,0:0:0:0:
361,293,56645,2,0,P|329:280|293:234,2,90.9999972229005,8|0|0,1:0|3:0|3:0,0:0:0:0:
378,209,57482,2,0,P|404:188|458:180,1,85.3125032544137,8|0,1:0|0:0,0:0:0:0:
475,189,58040,1,8,1:0:0:0:
382,2,58599,21,8,3:0:0:0:
247,89,59064,1,8,1:0:0:0:
211,85,59157,1,8,1:0:0:0:
350,92,59436,1,8,3:0:0:0:
132,27,59715,69,8,1:0:0:0:
156,162,59994,1,0,3:0:0:0:
89,261,60273,54,0,P|58:318|72:382,1,130,2|8,3:1|1:0,0:0:0:0:
71,379,61110,2,0,B|109:394|153:378|135:370|174:358|212:370,1,130,2|2,3:1|3:1,0:0:0:0:
313,383,61947,1,8,1:0:0:0:
384,290,62226,2,0,P|339:293|285:229,1,130,2|2,3:1|3:1,0:0:0:0:
332,142,63064,21,8,1:0:0:0:
253,74,63343,1,2,0:3:0:0:
253,74,63482,1,2,0:3:0:0:
253,74,63622,2,0,L|185:79,1,65,2|2,0:3|0:3,0:0:0:0:
99,43,64040,1,0,3:0:0:0:
99,43,64180,2,0,L|29:37,1,65,8|2,1:0|3:1,0:0:0:0:
0,155,64738,70,0,P|54:137|113:188,1,130,2|8,3:1|1:0,0:0:0:0:
109,177,65575,2,0,L|103:311,1,130,2|2,3:1|3:1,0:0:0:0:
0,353,66413,1,8,1:0:0:0:
143,240,66692,2,0,B|177:221|212:234|198:252|246:262|274:248,1,130,2|2,3:1|3:1,0:0:0:0:
349,160,67529,1,8,1:0:0:0:
311,68,67808,1,2,0:3:0:0:
311,68,67947,1,2,0:3:0:0:
311,68,68087,2,0,P|337:61|379:64,1,65,2|2,0:3|0:3,0:0:0:0:
468,119,68506,1,0,3:0:0:0:
468,119,68645,2,0,P|457:146|466:193,1,65,8|2,1:0|3:1,0:0:0:0:
505,291,69203,22,0,B|461:285|461:285|444:299|444:299|374:289,1,130,2|8,3:1|1:0,0:0:0:0:
381,290,70040,2,0,P|340:297|342:378,1,130,2|2,3:1|3:1,0:0:0:0:
243,300,70878,1,8,1:0:0:0:
380,290,71157,2,0,P|404:230|381:171,1,130,2|2,3:1|3:1,0:0:0:0:
289,100,71994,1,8,1:0:0:0:
184,53,72273,1,2,0:3:0:0:
184,53,72413,1,0,0:0:0:0:
184,53,72552,2,0,L|145:61,1,32.5,2|2,0:3|0:3,0:0:0:0:
67,125,72831,2,0,L|98:131,1,32.5,2|0,0:3|3:0,0:0:0:0:
157,196,73110,1,8,1:0:0:0:
44,242,73389,1,2,3:1:0:0:
140,318,73668,70,0,L|213:311,2,65,10|0|0,1:0|3:0|3:0,0:0:0:0:
44,242,74506,2,0,L|13:308,2,65,10|0|0,1:0|3:0|3:0,0:0:0:0:
157,196,75343,2,0,L|114:136,1,65,14|2,1:0|0:3,0:0:0:0:
119,143,76459,1,2,0:3:0:0:
119,143,77017,1,2,0:3:0:0:
83,62,77296,21,6,0:2:0:0:
231,24,77575,1,2,0:3:0:0:
201,108,77854,1,0,3:3:0:0:
360,132,78133,70,0,P|320:126|263:191,1,130,2|8,3:1|1:0,0:0:0:0:
263,186,78971,2,0,B|277:213|271:259|251:244|249:286|264:315,1,130,2|2,3:1|3:1,0:0:0:0:
373,384,79808,1,8,1:0:0:0:
262,311,80087,2,0,P|234:303|134:315,1,130,2|2,3:1|3:1,0:0:0:0:
30,371,80924,1,8,1:0:0:0:
6,283,81203,1,2,0:3:0:0:
6,283,81343,1,2,0:3:0:0:
6,283,81482,2,0,L|-3:212,1,65,2|2,0:3|0:3,0:0:0:0:
58,142,81901,1,0,3:0:0:0:
58,142,82040,2,0,L|67:78,1,65,8|2,1:0|3:1,0:0:0:0:
192,15,82599,22,0,B|261:-3|254:58|323:35,1,130,2|8,3:1|1:0,0:0:0:0:
314,38,83436,2,0,P|294:67|304:157,1,130,2|2,3:1|3:1,0:0:0:0:
402,108,84273,1,8,1:0:0:0:
303,156,84552,2,0,P|286:95|314:38,1,130,2|2,3:1|3:1,0:0:0:0:
402,108,85389,1,8,1:0:0:0:
512,191,85668,1,2,0:3:0:0:
512,191,85808,1,2,0:3:0:0:
512,191,85947,2,0,L|506:261,1,65,2|2,0:3|0:3,0:0:0:0:
428,310,86366,1,0,3:0:0:0:
428,310,86506,2,0,L|433:374,1,65,8|2,1:0|3:1,0:0:0:0:
293,362,87064,70,0,P|278:299|296:237,1,130,2|8,3:1|1:0,0:0:0:0:
296,237,87901,2,0,P|313:174|299:112,1,130,2|2,3:1|3:1,0:0:0:0:
192,53,88738,1,8,1:0:0:0:
171,240,89017,2,0,P|233:254|296:237,1,130,2|2,3:1|3:1,0:0:0:0:
230,166,89854,1,8,1:0:0:0:
135,133,90133,1,2,0:3:0:0:
135,133,90273,1,2,0:3:0:0:
135,133,90413,2,0,L|93:131,1,32.5,2|0,0:3|0:0,0:0:0:0:
53,196,90692,2,0,L|11:198,1,32.5,2|0,0:3|3:0,0:0:0:0:
1,287,90971,1,8,1:0:0:0:
80,382,91250,1,2,3:1:0:0:
176,307,91529,22,0,P|198:298|252:293,2,65,8|0|0,1:0|3:0|3:0,0:0:0:0:
256,201,92366,2,0,P|237:186|205:142,2,65,8|0|0,1:0|3:0|3:0,0:0:0:0:
124,184,93203,2,0,P|120:207|98:256,1,65,8|2,1:0|0:3,0:0:0:0:
105,245,94319,1,2,0:3:0:0:
105,245,94878,1,2,0:3:0:0:
56,322,95157,1,2,0:3:0:0:
218,374,95436,70,0,B|246:384|282:373|282:373|297:379|297:379|323:366|363:374,1,136.499995834351,8|0,1:0|0:0,0:0:0:0:
350,372,95994,1,4,3:0:0:0:
41,118,104505,38,0,B|81:105|133:119|104:138|163:152|212:132,1,168.999992263794,2|2,0:1|0:1,0:0:0:0:
165,58,105312,1,2,0:1:0:0:
69,196,105581,2,0,P|57:264|140:305,1,168.999992263794,0|2,0:0|0:1,0:0:0:0:
251,225,106388,2,0,P|277:212|334:208,1,84.4999961318971,2|0,0:1|0:0,0:0:0:0:
391,311,106926,2,0,P|365:298|308:294,1,84.4999961318971,2|0,0:1|0:0,0:0:0:0:
335,380,107464,1,2,0:1:0:0:
413,316,107733,2,0,P|421:281|410:228,1,84.4999961318971,0|2,0:0|0:1,0:0:0:0:
493,123,108271,2,0,P|501:158|490:211,1,84.4999961318971,0|2,3:0|3:1,0:0:0:0:
400,83,108809,21,0,3:0:0:0:
361,76,109074,1,0,3:1:0:0:
322,69,109339,1,2,3:1:0:0:
221,17,109605,2,0,L|117:28,1,90.9999972229005,2|0,3:1|3:0,0:0:0:0:
6,112,110136,2,0,L|96:121,1,90.9999972229005,2|0,3:1|3:0,0:0:0:0:
192,217,110667,2,0,P|204:254|91:314,1,181.999994445801,2|2,3:1|3:1,0:0:0:0:
205,202,111463,2,0,B|242:181|294:198|270:225|333:250|380:217,1,181.999994445801,0|2,3:0|3:1,0:0:0:0:
454,104,112260,1,2,3:1:0:0:
334,34,112525,2,0,L|276:29,1,48.750001859665,8|2,1:0|3:1,0:0:0:0:
246,64,113056,54,0,L|366:56,1,116.999996429443,6|0,3:1|3:0,0:0:0:0:
454,104,113456,1,0,3:0:0:0:
420,182,113589,2,0,P|409:214|404:297,1,116.999996429443,2|0,1:0|3:0,0:0:0:0:
462,362,113989,1,0,3:0:0:0:
403,296,114122,2,0,P|375:287|281:302,2,116.999996429443,2|2|10,0:1|3:1|1:1,0:0:0:0:
215,349,114922,86,0,B|182:289|220:209|229:263|261:181|228:127,1,233.999992858887,2|2,3:1|3:1,0:0:0:0:
110,5,115722,1,8,1:0:0:0:
228,127,115989,2,0,B|261:181|229:263|220:209|182:289|216:351,1,233.999992858887,2|0,3:1|3:0,0:0:0:0:
309,310,116789,2,0,P|315:278|264:201,1,116.999996429443,8|8,1:0|1:0,0:0:0:0:
183,226,117189,1,8,1:0:0:0:
108,177,117322,6,0,L|97:43,1,116.999996429443,2|0,3:1|3:0,0:0:0:0:
183,20,117722,1,0,3:0:0:0:
259,75,117856,2,0,L|386:62,1,116.999996429443,10|0,1:0|3:0,0:0:0:0:
454,114,118256,1,0,3:0:0:0:
416,199,118389,2,0,L|429:320,2,116.999996429443,2|2|10,0:1|3:1|1:1,0:0:0:0:
454,114,119189,22,0,P|402:102|325:94,1,116.999996429443,2|2,3:1|3:1,0:0:0:0:
267,172,119989,2,0,P|215:185|157:217,1,113.75,2|2,3:1|3:1,0:0:0:0:
173,309,120922,2,0,P|161:339|157:392,1,78,2|2,3:1|3:1,0:0:0:0:
294,283,121589,6,0,P|277:250|268:164,1,116.999996429443,6|0,3:1|3:0,0:0:0:0:
329,101,121989,1,0,3:0:0:0:
271,27,122122,2,0,L|145:20,1,116.999996429443,10|0,1:0|3:0,0:0:0:0:
73,68,122522,1,0,3:0:0:0:
22,147,122656,2,0,B|30:202|30:202|47:215|47:215|51:275,2,116.999996429443,2|2|10,0:1|3:1|1:1,0:0:0:0:
0,329,123456,2,0,B|60:362|140:324|86:315|168:283|222:316,1,233.999992858887,2|2,3:1|3:1,0:0:0:0:
340,384,124256,1,8,1:0:0:0:
222,316,124522,2,0,B|168:283|86:315|140:324|60:362|-2:328,1,233.999992858887,2|0,3:1|3:0,0:0:0:0:
39,235,125322,2,0,P|71:229|148:280,1,116.999996429443,8|8,1:0|1:0,0:0:0:0:
222,316,125722,1,8,1:0:0:0:
309,281,125856,54,0,L|428:270,1,116.999996429443,2|0,3:1|3:0,0:0:0:0:
497,209,126256,1,0,3:0:0:0:
417,159,126389,2,0,L|300:169,1,116.999996429443,10|0,1:0|3:0,0:0:0:0:
222,117,126789,1,0,3:0:0:0:
299,65,126922,2,0,L|418:54,2,116.999996429443,2|2|10,0:1|3:1|1:1,0:0:0:0:
164,22,127722,86,0,P|93:15|41:16,1,116.999996429443,2|2,3:1|3:1,0:0:0:0:
0,110,128522,2,0,P|31:109|86:112,1,79.6249975700379,2|2,3:1|3:1,0:0:0:0:
172,202,129389,2,0,P|142:202|108:207,1,63.3749970989229,2|6,3:1|3:1,0:0:0:0:
18,314,130121,21,2,3:1:0:0:
18,314,130192,1,0,3:3:0:0:
18,314,130263,2,0,L|61:326,1,35.7500010910034,0|0,3:0|3:3,0:0:0:0:
100,309,130406,2,0,L|174:303,1,71.5000021820069,2|0,3:1|3:0,0:0:0:0:
252,243,130692,2,0,L|287:245,2,35.7500010910034,2|0|0,3:1|3:0|3:0,0:0:0:0:
164,192,130978,2,0,L|119:195,2,35.7500010910034,2|0|0,3:1|3:0|3:0,0:0:0:0:
246,135,131263,70,0,P|287:130|333:132,1,71.5000021820069,2|0,3:1|3:0,0:0:0:0:
399,200,131549,1,2,3:1:0:0:
399,200,131621,1,0,3:0:0:0:
399,200,131692,2,0,L|388:266,1,35.7500010910034,0|0,3:0|3:0,0:0:0:0:
409,279,131835,2,0,L|482:286,1,71.5000021820069,2|0,3:1|3:0,0:0:0:0:
331,371,132121,2,0,L|404:364,1,71.5000021820069,2|0,3:1|3:0,0:0:0:0:
252,317,132406,22,0,B|220:298|170:313|192:327|155:347|108:327,1,143.000004364014,2|2,3:1|3:1,0:0:0:0:
46,267,132835,1,0,3:0:0:0:
112,202,132978,2,0,B|150:185|191:205|181:219|219:228|251:214,1,143.000004364014,2|2,3:1|3:1,0:0:0:0:
303,139,133406,1,0,3:0:0:0:
244,59,133549,70,0,L|164:67,1,71.5000021820069,2|0,3:1|3:0,0:0:0:0:
344,47,133835,2,0,L|415:39,1,71.5000021820069,2|0,3:1|3:0,0:0:0:0:
141,91,134121,2,0,L|212:83,1,71.5000021820069,2|0,3:1|3:0,0:0:0:0:
455,59,134406,2,0,L|384:67,1,71.5000021820069,2|0,3:1|3:0,0:0:0:0:
495,172,134692,53,2,3:1:0:0:
495,172,134835,1,0,3:0:0:0:
434,242,134978,2,0,L|443:280,2,35.7500010910034,10|10|10,1:0|1:0|1:0,0:0:0:0:
366,355,135263,85,2,3:1:0:0:
366,355,135406,1,0,3:0:0:0:
267,305,135549,2,0,L|258:270,2,35.7500010910034,10|10|10,1:0|1:0|1:0,0:0:0:0:
143,277,135835,5,2,3:1:0:0:
143,277,135978,1,0,3:0:0:0:
46,224,136121,2,0,L|11:232,2,35.7500010910034,10|10|10,1:0|1:0|1:0,0:0:0:0:
66,115,136406,85,2,3:1:0:0:
66,115,136549,1,0,3:0:0:0:
154,58,136692,2,0,L|189:66,2,35.7500010910034,10|10|10,1:0|1:0|1:0,0:0:0:0:
287,6,136978,5,2,3:1:0:0:
287,6,137121,1,0,3:0:0:0:
346,84,137263,2,0,L|338:119,2,35.7500010910034,10|10|10,1:0|1:0|1:0,0:0:0:0:
262,186,137549,85,2,3:1:0:0:
262,186,137692,1,0,3:0:0:0:
300,279,137835,2,0,L|308:314,2,35.7500010910034,10|10|10,1:0|1:0|1:0,0:0:0:0:
397,378,138121,5,2,3:1:0:0:
397,378,138263,1,0,3:0:0:0:
453,297,138406,2,0,L|445:262,2,35.7500010910034,10|10|10,1:0|1:0|1:0,0:0:0:0:
490,170,138692,85,2,3:1:0:0:
490,170,138835,1,0,3:0:0:0:
470,66,138978,1,10,1:0:0:0:
470,66,139049,1,10,1:0:0:0:
470,66,139121,2,0,L|428:65,1,35.7500010910034,10|10,1:0|1:0,0:0:0:0:
358,21,139263,70,0,L|271:23,1,71.5000021820069,2|0,3:1|3:0,0:0:0:0:
196,70,139549,2,0,L|109:68,1,71.5000021820069,2|0,3:1|3:0,0:0:0:0:
28,20,139835,1,2,3:1:0:0:
28,20,139978,1,0,3:0:0:0:
36,108,140121,1,2,3:1:0:0:
36,108,140263,1,0,3:0:0:0:
100,174,140406,22,0,L|95:258,1,71.5000021820069,2|0,3:1|3:0,0:0:0:0:
30,348,140692,1,2,3:1:0:0:
30,348,140835,1,0,3:0:0:0:
111,272,140978,2,0,B|155:254|201:264|182:288|219:293|266:280,1,143.000004364014,2|2,3:1|3:1,0:0:0:0:
322,226,141406,1,0,3:0:0:0:
297,136,141549,2,0,L|226:123,1,71.5000021820069,2|0,3:1|3:0,0:0:0:0:
339,51,141835,2,0,L|410:38,1,71.5000021820069,2|0,3:1|3:0,0:0:0:0:
499,111,142121,2,0,B|524:150|511:195|499:179|487:222|508:266,1,143.000004364014,2|2,3:1|3:1,0:0:0:0:
431,330,142549,69,0,3:0:0:0:
431,330,142621,1,0,3:0:0:0:
431,330,142692,2,0,L|348:324,1,71.5000021820069,2|0,3:1|3:0,0:0:0:0:
184,361,142978,2,0,L|255:355,1,71.5000021820069,2|0,3:1|3:0,0:0:0:0:
398,245,143263,2,0,L|315:239,1,71.5000021820069,2|0,3:1|3:0,0:0:0:0:
137,279,143549,2,0,L|208:273,1,71.5000021820069,2|0,3:1|3:0,0:0:0:0:
80,201,143835,37,2,3:1:0:0:
80,201,143978,1,0,3:0:0:0:
25,125,144121,2,0,L|21:80,2,35.7500010910034,10|10|10,1:0|1:0|1:0,0:0:0:0:
109,24,144406,85,2,3:1:0:0:
109,24,144549,1,0,3:0:0:0:
203,74,144692,2,0,L|199:118,2,35.7500010910034,10|10|10,1:0|1:0|1:0,0:0:0:0:
261,196,144978,1,2,3:1:0:0:
261,196,145121,1,0,3:0:0:0:
353,160,145263,2,0,L|397:163,2,35.7500010910034,10|10|10,1:0|1:0|1:0,0:0:0:0:
450,245,145549,5,2,3:1:0:0:
450,245,145692,1,0,3:0:0:0:
384,320,145835,2,0,L|348:317,2,35.7500010910034,10|10|10,1:0|1:0|1:0,0:0:0:0:
267,370,146121,85,2,3:1:0:0:
267,370,146263,1,0,3:0:0:0:
170,325,146406,2,0,L|134:322,2,35.7500010910034,10|10|10,1:0|1:0|1:0,0:0:0:0:
69,255,146692,5,2,3:1:0:0:
69,255,146835,1,0,3:0:0:0:
20,163,146978,2,0,L|16:118,2,35.7500010910034,10|10|10,1:0|1:0|1:0,0:0:0:0:
75,53,147263,85,2,3:1:0:0:
75,53,147406,1,0,3:0:0:0:
169,72,147549,2,0,L|214:68,2,35.7500010910034,10|10|10,1:0|1:0|1:0,0:0:0:0:
283,20,147835,5,2,3:1:0:0:
283,20,147978,1,0,3:0:0:0:
349,84,148121,2,0,L|345:119,2,35.7500010910034,10|10|10,1:0|1:0|1:0,0:0:0:0:
416,197,148406,70,0,L|489:208,1,65,6|2,3:1|0:1,0:0:0:0:
330,252,148692,2,0,L|265:261,1,65,8|2,1:0|0:1,0:0:0:0:
415,305,148978,1,2,3:1:0:0:
415,305,149121,1,2,0:1:0:0:
326,243,149263,2,0,L|261:252,1,65,8|2,1:0|0:1,0:0:0:0:
170,301,149549,70,0,L|160:365,1,65,2|2,3:1|0:1,0:0:0:0:
95,226,149835,2,0,L|85:161,1,65,8|2,1:0|0:1,0:0:0:0:
169,299,150121,1,2,3:1:0:0:
169,299,150264,1,2,0:1:0:0:
85,222,150406,2,0,L|75:157,1,65,8|2,1:0|0:1,0:0:0:0:
158,80,150692,2,0,L|228:60,2,65,2|2|8,3:1|0:1|1:0,0:0:0:0:
69,27,151121,1,2,0:1:0:0:
164,89,151263,2,0,L|234:69,1,65,2|2,3:1|0:1,0:0:0:0:
289,132,151549,2,0,L|359:112,1,65,8|2,1:0|0:1,0:0:0:0:
427,182,151835,22,0,L|431:255,1,65,2|2,3:1|0:1,0:0:0:0:
437,192,152121,2,0,L|441:265,1,65,8|2,1:0|0:1,0:0:0:0:
447,202,152406,2,0,L|451:275,1,65,2|2,3:1|0:1,0:0:0:0:
457,212,152692,2,0,L|461:285,1,65,8|2,1:0|0:1,0:0:0:0:
504,359,152978,22,0,P|466:366|422:359,1,65,2|0,3:1|3:0,0:0:0:0:
381,302,153263,2,0,L|349:300,2,32.5,10|8|8,1:0|1:0|1:0,0:0:0:0:
295,297,153549,2,0,L|202:292,1,65,2|0,3:1|3:0,0:0:0:0:
145,303,153835,2,0,P|106:311|91:318,2,32.5,10|8|8,1:0|1:0|1:0,0:0:0:0:
63,327,154121,54,0,P|29:338|-3:338,1,65,2|0,3:1|3:0,0:0:0:0:
19,256,154406,2,0,L|26:217,2,32.5,10|8|8,1:0|1:0|1:0,0:0:0:0:
26,171,154692,2,0,L|20:98,1,65,2|0,3:1|3:0,0:0:0:0:
17,21,154978,2,0,L|49:24,2,32.5,10|8|8,1:0|1:0|1:0,0:0:0:0:
101,27,155263,38,0,P|148:34|173:35,1,65,2|0,3:1|3:0,0:0:0:0:
250,40,155549,2,0,L|253:86,2,32.5,10|8|8,1:0|1:0|1:0,0:0:0:0:
260,124,155835,2,0,L|259:194,1,65,2|0,3:1|3:0,0:0:0:0:
223,265,156121,2,0,L|183:268,2,32.5,10|8|8,1:0|1:0|1:0,0:0:0:0:
267,295,156406,2,0,L|337:303,1,65,2|0,3:1|3:0,0:0:0:0:
408,266,156692,2,0,L|402:225,2,32.5,10|8|8,1:0|1:0|1:0,0:0:0:0:
372,188,156978,2,0,L|371:111,1,65,2|0,3:1|3:0,0:0:0:0:
438,70,157263,1,10,1:0:0:0:
438,70,157335,1,8,1:0:0:0:
438,70,157406,1,8,1:0:0:0:
509,126,157549,69,6,3:1:0:0:
337,43,157835,1,6,3:1:0:0:
3,258,159835,5,6,3:1:0:0:
175,341,160121,1,6,3:1:0:0:
284,206,161835,5,8,1:0:0:0:
284,206,162121,2,0,L|274:122,1,84.4999961318971,2|0,3:1|3:0,0:0:0:0:
346,37,162406,2,0,B|393:10|443:35|416:48|472:67|521:32,2,168.999992263794,2|2|2,3:1|3:1|3:1,0:0:0:0:
274,122,163263,86,0,P|286:176|277:305,1,168.999992263794,2|2,3:1|3:1,0:0:0:0:
183,344,163835,1,2,3:1:0:0:
183,344,163978,1,2,3:1:0:0:
80,303,164121,1,2,3:1:0:0:
80,303,164263,1,2,3:1:0:0:
164,232,164406,54,0,P|182:188|160:71,1,168.999992263794,2|8,3:1|1:0,0:0:0:0:
72,40,164835,1,0,3:0:0:0:
162,68,164978,1,8,1:0:0:0:
178,65,165049,1,0,3:0:0:0:
194,62,165121,2,0,L|251:54,1,42.2499980659486,0|0,3:0|3:0,0:0:0:0:
308,100,165263,2,0,L|365:108,3,42.2499980659486,8|0|0|0,1:0|3:0|3:0|3:0,0:0:0:0:
404,0,165549,54,0,L|401:50,3,42.2499980659486,8|0|0|0,1:0|3:0|3:0|3:0,0:0:0:0:
439,114,165835,2,0,L|436:164,3,42.2499980659486,8|0|0|0,1:0|3:0|3:0|3:0,0:0:0:0:
474,228,166121,2,0,L|471:278,3,42.2499980659486,8|0|0|0,1:0|3:0|3:0|3:0,0:0:0:0:
509,342,166406,2,0,L|506:392,3,42.2499980659486,8|0|0|0,1:0|3:0|3:0|3:0,0:0:0:0:
402,350,166692,6,0,B|365:325|326:345|326:345|314:339|314:339|273:359|235:343,1,168.999992263794,14|0,1:0|0:0,0:0:0:0:
