osu file format v14

[General]
AudioFilename: audio.mp3
AudioLeadIn: 0
PreviewTime: 28465
Countdown: 0
SampleSet: Soft
StackLeniency: 0
Mode: 0
LetterboxInBreaks: 0
WidescreenStoryboard: 1

[Editor]
Bookmarks: 2232,4464,8929,17859,29022,33487,42418,55813,60278,78138,95999,103809,113061,130126,137840,148411,157554,162126,166697
DistanceSpacing: 0.8
BeatDivisor: 8
GridSize: 32
TimelineZoom: 2.1

[Metadata]
Title:666 Flags
TitleUnicode:666 Flags
Artist:Origami Angel
ArtistUnicode:Origami Angel
Creator:WashedUp Player
Version:Disparity
Source:
Tags:Lasse English Punk Rock alternative emo Somewhere City
BeatmapID:2882439
BeatmapSetID:1396650

[Difficulty]
HPDrainRate:5
CircleSize:4
OverallDifficulty:9.5
ApproachRate:9.6
SliderMultiplier:1.7
SliderTickRate:1

[Events]
//Background and Video events
0,0,"666=usa.jpg",0,0
//Break Periods
2,99987,103975
//Storyboard Layer 0 (Background)
//Storyboard Layer 1 (Fail)
//Storyboard Layer 2 (Pass)
//Storyboard Layer 3 (Foreground)
//Storyboard Layer 4 (Overlay)
//Storyboard Sound Samples

[TimingPoints]
-5,259.74025974026,4,2,1,50,1,0
-5,-133.333333333333,4,2,1,50,0,0
254,277.777777777778,4,2,1,50,1,0
531,-133.333333333333,4,2,1,50,0,0
1365,271.186440677966,4,2,1,50,1,0
1907,319.148936170213,4,2,1,50,1,0
2227,279.06976744186,4,2,1,55,1,1
2227,-80,4,2,1,55,0,1
2436,-83.3333333333333,4,2,1,5,0,1
2506,-80,4,2,1,60,0,1
2715,-83.3333333333333,4,2,1,5,0,1
2785,-58.8235294117647,4,2,1,65,0,1
2994,-83.3333333333333,4,2,1,5,0,1
3064,-58.8235294117647,4,2,1,70,0,1
3273,-83.3333333333333,4,2,1,5,0,1
3343,-50,4,2,1,75,0,1
3552,-83.3333333333333,4,2,1,5,0,1
3622,-50,4,2,1,80,0,1
3831,-83.3333333333333,4,2,1,5,0,1
3901,-50,4,2,1,85,0,1
4459,-50,4,2,1,70,0,0
4738,-100,4,2,1,70,0,0
8645,-200,4,2,1,70,0,0
8924,-50,4,2,1,70,0,1
9133,-83.3333333333333,4,2,1,5,0,1
9203,-50,4,2,1,70,0,1
9413,-83.3333333333333,4,2,1,5,0,1
9482,-50,4,2,1,70,0,1
10250,-83.3333333333333,4,2,1,5,0,1
10320,-50,4,2,1,70,0,1
10529,-83.3333333333333,4,2,1,5,0,1
10599,-50,4,2,1,70,0,1
11366,-83.3333333333333,4,2,1,5,0,1
11436,-50,4,2,1,70,0,1
11645,-83.3333333333333,4,2,1,5,0,1
11715,-50,4,2,1,70,0,1
12482,-83.3333333333333,4,2,1,5,0,1
12552,-41.6666666666667,4,2,1,70,0,1
12761,-83.3333333333333,4,2,1,5,0,1
12831,-35.9712230215827,4,2,1,70,0,1
13040,-83.3333333333333,4,2,1,5,0,1
13110,-32.258064516129,4,2,1,60,0,1
13250,-32.258064516129,4,2,1,61,0,0
13320,-83.3333333333333,4,2,1,5,0,0
13389,-32.258064516129,4,2,1,62,0,1
13529,-32.258064516129,4,2,1,63,0,1
13668,-32.258064516129,4,2,1,64,0,1
13808,-32.258064516129,4,2,1,65,0,1
13947,-32.258064516129,4,2,1,66,0,1
14087,-32.258064516129,4,2,1,67,0,1
14227,-32.258064516129,4,2,1,68,0,1
14366,-32.258064516129,4,2,1,69,0,1
14506,-32.258064516129,4,2,1,70,0,1
14645,-32.258064516129,4,2,1,71,0,1
14785,-32.258064516129,4,2,1,72,0,1
14924,-32.258064516129,4,2,1,73,0,1
15064,-32.258064516129,4,2,1,74,0,1
15203,-32.258064516129,4,2,1,75,0,1
15343,-32.258064516129,4,2,1,76,0,1
15482,-32.258064516129,4,2,1,77,0,1
15622,-32.258064516129,4,2,1,78,0,1
15761,-32.258064516129,4,2,1,79,0,1
15901,-32.258064516129,4,2,1,80,0,1
16040,-32.258064516129,4,2,1,81,0,1
16180,-32.258064516129,4,2,1,82,0,1
16320,-32.258064516129,4,2,1,83,0,1
16459,-32.258064516129,4,2,1,84,0,1
16599,-32.258064516129,4,2,1,85,0,1
16738,-32.258064516129,4,2,1,86,0,1
16878,-32.258064516129,4,2,1,60,0,1
17017,-32.258064516129,4,2,1,88,0,1
17157,-32.258064516129,4,2,1,60,0,1
17296,-32.258064516129,4,2,1,90,0,1
17436,-32.258064516129,4,2,1,60,0,1
17575,-32.258064516129,4,2,1,70,0,1
17854,-32.258064516129,4,2,1,70,0,0
18552,-83.3333333333333,4,2,1,70,0,0
21203,-83.3333333333333,4,2,1,5,0,0
21273,-83.3333333333333,4,2,1,70,0,0
21413,-83.3333333333333,4,2,1,5,0,0
21482,-83.3333333333333,4,2,1,70,0,0
21622,-83.3333333333333,4,2,1,5,0,0
21692,-83.3333333333333,4,2,1,70,0,0
21901,-83.3333333333333,4,2,1,5,0,0
22320,-83.3333333333333,4,2,1,70,0,0
25668,-83.3333333333333,4,2,1,5,0,0
25738,-90.9090909090909,4,2,1,70,0,0
25878,-83.3333333333333,4,2,1,5,0,0
25947,-100,4,2,1,65,0,0
26087,-83.3333333333333,4,2,1,5,0,0
26192,-111.111111111111,4,2,1,60,0,0
26331,-83.3333333333333,4,2,1,5,0,0
26436,-142.857142857143,4,2,1,65,0,0
26575,-83.3333333333333,4,2,1,5,0,0
26645,-200,4,2,1,70,0,0
26785,-83.3333333333333,4,2,1,5,0,0
26854,-666.666666666667,4,2,1,70,0,0
27831,-83.3333333333333,4,2,1,5,0,0
27901,-1000,4,2,1,55,0,0
28529,-83.3333333333333,4,2,1,5,0,0
28599,-1000,4,2,1,55,0,0
29017,-100,4,2,1,70,0,0
29575,-200,4,2,1,70,0,0
29785,-83.3333333333333,4,2,1,5,0,0
29854,-60.0240096038415,4,2,1,70,0,0
30413,-100,4,2,1,70,0,0
30692,-150.15015015015,4,2,1,70,0,0
30901,-83.3333333333333,4,2,1,5,0,0
30971,-60.0240096038415,4,2,1,70,0,0
31529,-100,4,2,1,70,0,0
31808,-153.846153846153,4,2,1,70,0,0
32017,-83.3333333333333,4,2,1,5,0,0
32087,-60.6060606060606,4,2,1,70,0,0
32645,-100,4,2,1,70,0,0
32924,-66.6666666666667,4,2,1,70,0,0
33203,-200,4,2,1,70,0,0
33482,-50,4,2,1,70,0,1
33692,-83.3333333333333,4,2,1,5,0,1
33761,-50,4,2,1,70,0,1
33971,-83.3333333333333,4,2,1,5,0,1
34040,-50,4,2,1,70,0,1
34250,-83.3333333333333,4,2,1,5,0,1
34320,-50,4,2,1,70,0,1
34808,-83.3333333333333,4,2,1,5,0,1
34878,-50,4,2,1,70,0,1
35087,-83.3333333333333,4,2,1,5,0,1
35157,-50,4,2,1,70,0,1
35366,-83.3333333333333,4,2,1,5,0,1
35436,-50,4,2,1,70,0,1
35715,-58.8235294117647,4,2,1,70,0,1
35924,-83.3333333333333,4,2,1,5,0,1
35994,-58.8235294117647,4,2,1,70,0,1
36203,-83.3333333333333,4,2,1,5,0,1
36273,-58.8235294117647,4,2,1,70,0,1
36482,-83.3333333333333,4,2,1,5,0,1
36552,-58.8235294117647,4,2,1,70,0,1
37040,-83.3333333333333,4,2,1,5,0,1
37110,-50,4,2,1,70,0,1
37320,-83.3333333333333,4,2,1,5,0,1
37389,-43.4782608695652,4,2,1,70,0,1
37599,-83.3333333333333,4,2,1,5,0,1
37668,-38.4615384615385,4,2,1,70,0,1
37878,-83.3333333333333,4,2,1,5,0,1
37947,-250,4,2,1,45,0,1
38506,-125,4,2,1,55,0,1
39064,-62.5,4,2,1,60,0,1
39622,-31.25,4,2,1,70,0,1
40180,-31.25,4,2,1,75,0,1
40738,-31.25,4,2,1,80,0,1
41296,-31.25,4,2,1,85,0,1
42133,-500,4,2,1,85,0,1
42343,-500,4,2,1,5,0,1
42413,558.139534883721,4,2,1,60,1,0
42413,-71.4285714285714,4,2,1,60,0,0
44017,-41.6666666666667,4,2,1,5,0,0
44087,-71.4285714285714,4,2,1,60,0,0
44854,-41.6666666666667,4,2,1,5,0,0
44924,-71.4285714285714,4,2,1,60,0,0
48552,-125,4,2,1,60,0,0
48831,-71.4285714285714,4,2,1,60,0,0
50436,-41.6666666666667,4,2,1,5,0,0
50506,-71.4285714285714,4,2,1,60,0,0
51273,-41.6666666666667,4,2,1,5,0,0
51343,-71.4285714285714,4,2,1,60,0,0
52947,-41.6666666666667,4,2,1,5,0,0
53017,-71.4285714285714,4,2,1,60,0,0
57482,-142.857142857143,4,2,1,60,0,0
57971,-71.4285714285714,4,2,1,5,0,0
58040,-71.4285714285714,4,2,1,60,0,0
60273,-76.9230769230769,4,2,1,50,0,0
64180,-111.111111111111,4,2,1,50,0,0
64738,-76.9230769230769,4,2,1,50,0,0
73668,-100,4,2,1,50,0,0
75343,-200,4,2,1,50,0,0
77296,-100,4,2,1,50,0,0
78133,-76.9230769230769,4,2,1,50,0,0
93203,-151.515151515152,4,2,1,50,0,0
95436,-250,4,2,1,50,0,0
95994,531.797030799911,4,2,1,50,1,0
95994,-100,4,2,1,50,0,0
104505,538.116591928251,4,2,1,63,1,0
104505,-66.6666666666667,4,2,1,63,0,0
105581,-66.6666666666667,4,2,1,66,0,0
106657,-66.6666666666667,4,2,1,69,0,0
108809,530.973451327434,4,2,1,73,1,0
108809,-50,4,2,1,73,0,0
108941,-83.3333333333333,4,2,1,5,0,0
109074,-50,4,2,1,73,0,0
109207,-83.3333333333333,4,2,1,5,0,0
109339,-50,4,2,1,73,0,0
109472,-83.3333333333333,4,2,1,5,0,0
109605,-50,4,2,1,73,0,0
109738,-83.3333333333333,4,2,1,5,0,0
109870,-40,4,2,1,76,0,0
110003,-83.3333333333333,4,2,1,5,0,0
110136,-40,4,2,1,76,0,0
110269,-83.3333333333333,4,2,1,5,0,0
110401,-40,4,2,1,76,0,0
110534,-83.3333333333333,4,2,1,5,0,0
110667,-40,4,2,1,76,0,0
110800,-83.3333333333333,4,2,1,5,0,0
110932,-40,4,2,1,79,0,0
112525,-142.857142857143,4,2,1,83,0,0
112724,-142.857142857143,4,2,1,5,0,0
112791,-142.857142857143,4,2,1,83,0,0
113056,533.333333333333,4,2,1,60,1,0
113056,-50,4,2,1,60,0,0
114322,-83.3333333333333,4,2,1,5,0,0
114389,-50,4,2,1,60,0,0
119189,-57.1428571428571,4,2,1,60,0,0
119456,-83.3333333333333,4,2,1,5,0,0
119589,-66.6666666666667,4,2,1,57,0,0
119856,-83.3333333333333,4,2,1,5,0,0
119989,-90.9090909090909,4,2,1,54,0,0
120322,-83.3333333333333,4,2,1,5,0,0
120456,-125,4,2,1,51,0,0
120789,-83.3333333333333,4,2,1,5,0,0
120922,-200,4,2,1,48,0,0
121189,-83.3333333333333,4,2,1,5,0,0
121322,-142.857142857143,4,2,1,45,0,0
121589,-50,4,2,1,60,0,0
122856,-83.3333333333333,4,2,1,5,0,0
122922,-50,4,2,1,60,0,0
127722,-58.8235294117647,4,2,1,60,0,0
127989,-83.3333333333333,4,2,1,5,0,0
128122,-66.6666666666667,4,2,1,57,0,0
128389,-83.3333333333333,4,2,1,5,0,0
128522,-90.9090909090909,4,2,1,54,0,0
128856,-83.3333333333333,4,2,1,5,0,0
128989,-111.111111111111,4,2,1,51,0,0
129256,-83.3333333333333,4,2,1,5,0,0
129389,546.697038724374,4,2,1,48,1,0
129389,-111.111111111111,4,2,1,48,0,0
129662,-83.3333333333333,4,2,1,5,0,0
129799,645.161290322581,4,2,1,45,1,0
129799,-142.857142857143,4,2,1,45,0,0
129960,-83.3333333333333,4,2,1,5,0,0
130121,285.714285714286,4,2,1,75,1,1
130121,-100,4,2,1,75,0,1
134692,-100,4,2,1,75,0,0
134978,-100,4,2,1,75,0,1
135263,-100,4,2,1,75,0,0
135549,-100,4,2,1,75,0,1
135835,-100,4,2,1,75,0,0
136121,-100,4,2,1,75,0,1
136406,-100,4,2,1,75,0,0
136692,-100,4,2,1,75,0,1
136978,-100,4,2,1,75,0,0
137263,-100,4,2,1,75,0,1
137549,-100,4,2,1,75,0,0
137835,-100,4,2,1,75,0,1
138121,-100,4,2,1,75,0,0
138406,-100,4,2,1,75,0,1
138692,-100,4,2,1,75,0,0
138978,-100,4,2,1,75,0,1
139192,-100,4,2,1,75,0,0
139263,-100,4,2,1,75,0,1
143835,-100,4,2,1,75,0,0
144121,-100,4,2,1,75,0,1
144406,-100,4,2,1,75,0,0
144692,-100,4,2,1,75,0,1
144978,-100,4,2,1,75,0,0
145263,-100,4,2,1,75,0,1
145549,-100,4,2,1,75,0,0
145835,-100,4,2,1,75,0,1
146121,-100,4,2,1,75,0,0
146406,-100,4,2,1,75,0,1
146692,-100,4,2,1,75,0,0
146978,-100,4,2,1,75,0,1
147263,-100,4,2,1,75,0,0
147549,-100,4,2,1,75,0,1
147835,-100,4,2,1,75,0,0
148121,-100,4,2,1,75,0,1
148406,-100,4,2,1,75,0,0
157549,-100,4,2,1,75,0,1
157621,-100,4,2,1,75,0,0
157835,-100,4,2,1,75,0,1
157906,-100,4,2,1,75,0,0
159835,-100,4,2,1,75,0,1
159906,-100,4,2,1,75,0,0
160121,-100,4,2,1,75,0,1
160192,-100,4,2,1,75,0,0
161835,-500,4,2,1,85,0,0
162049,-500,4,2,1,5,0,0
162121,-100,4,2,1,75,0,1
164406,-100,4,2,1,65,0,0
164692,-100,4,2,1,70,0,1
164978,-100,4,2,1,75,0,1
165263,-100,4,2,1,80,0,1
165549,-100,4,2,1,85,0,1
165835,-100,4,2,1,90,0,1
166121,-100,4,2,1,95,0,1
166406,-100,4,2,1,100,0,1
166978,-100,4,2,1,100,0,0

[Colours]
Combo1 : 116,116,116
Combo2 : 255,157,111
Combo3 : 158,158,158
Combo4 : 115,155,223
Combo5 : 254,131,134
Combo6 : 26,116,242
Combo7 : 219,34,38

[HitObjects]
408,288,2227,6,0,B|363:312|363:312|253:299,1,159.375,4|0,3:1|0:0,0:0:0:0:
102,310,2506,2,0,B|147:286|147:286|257:299,1,159.375,4|0,3:3|0:0,0:0:0:0:
463,178,2785,70,0,B|401:210|401:210|255:193,1,216.750004134178,4|0,3:1|0:0,0:0:0:0:
48,209,3064,2,0,B|109:176|109:176|255:193,1,216.750004134178,4|0,3:3|0:0,0:0:0:0:
491,73,3343,22,0,B|419:111|419:111|247:90,1,255,4|0,3:1|0:0,0:0:0:0:
3,109,3622,2,0,B|75:70|75:70|247:90,1,255,4|0,3:3|0:0,0:0:0:0:
305,375,3901,53,8,1:0:0:0:
304,384,3936,1,8,1:0:0:0:
233,0,4040,1,8,3:1:0:0:
497,288,4180,69,8,1:0:0:0:
508,285,4215,1,8,1:0:0:0:
19,212,4459,21,0,3:1:0:0:
147,230,4599,1,0,3:1:0:0:
3,109,4738,2,0,L|7:193,1,85,10|0,1:1|3:0,0:0:0:0:
160,239,5017,2,0,L|168:69,1,170,2|8,3:1|1:0,0:0:0:0:
176,251,5436,1,0,0:0:0:0:
76,36,5575,69,0,3:0:0:0:
243,106,5715,1,0,3:0:0:0:
64,54,5854,2,0,L|183:47,1,85,10|0,1:1|3:0,0:0:0:0:
305,190,6133,2,0,L|506:201,1,170,2|8,3:1|1:0,0:0:0:0:
292,200,6552,1,0,0:0:0:0:
479,126,6692,22,0,L|488:211,1,85,0|0,3:0|3:0,0:0:0:0:
358,313,6971,1,10,1:1:0:0:
469,110,7110,1,0,3:0:0:0:
459,334,7250,2,0,L|374:325,1,85,2|0,3:1|0:0,0:0:0:0:
194,221,7529,2,0,L|279:212,1,85,8|0,1:0|0:0,0:0:0:0:
113,328,7808,69,0,3:0:0:0:
108,120,7947,1,0,3:0:0:0:
91,338,8087,2,0,L|6:329,1,85,10|0,1:1|3:0,0:0:0:0:
130,111,8366,2,0,L|215:102,1,85,2|0,3:1|0:0,0:0:0:0:
310,25,8645,2,0,L|353:28,1,42.5,8|0,1:0|3:0,0:0:0:0:
235,114,8924,70,0,B|386:102|301:226|471:221,1,255,10|0,1:1|0:0,0:0:0:0:
448,114,9203,2,0,B|299:108|384:232|233:220,1,255,10|0,1:1|0:0,0:0:0:0:
471,235,9482,37,10,1:1:0:0:
448,332,9622,1,0,3:0:0:0:
221,98,9761,69,10,1:1:0:0:
198,1,9901,1,0,3:0:0:0:
190,373,10040,86,0,B|262:357|242:262|179:270|179:270|7:291,1,255,10|0,1:1|0:0,0:0:0:0:
59,286,10320,2,0,B|-13:301|6:396|69:388|69:388|241:367,1,255,10|0,1:1|0:0,0:0:0:0:
259,194,10599,37,10,1:1:0:0:
356,217,10738,1,0,3:0:0:0:
108,84,10878,69,10,1:1:0:0:
11,107,11017,1,0,3:0:0:0:
358,37,11157,86,0,B|438:42|438:42|468:84|468:84|432:116|432:116|327:109,1,255,10|0,1:1|0:0,0:0:0:0:
325,108,11436,2,0,B|244:102|244:102|215:61|215:61|251:29|251:29|326:34,1,255,10|0,1:1|0:0,0:0:0:0:
476,129,11715,37,10,1:1:0:0:
453,226,11854,1,0,3:0:0:0:
158,127,11994,69,10,1:1:0:0:
135,30,12133,1,0,3:0:0:0:
220,198,12273,86,0,B|260:140|347:207|302:280|188:323|147:220,1,255,10|0,1:1|0:0,0:0:0:0:
93,277,12552,2,0,B|51:336|-38:266|7:191|125:147|168:253,1,305.999990661621,10|0,1:1|0:0,0:0:0:0:
250,298,12831,70,0,B|332:283|349:413|249:437|117:377|169:255,1,354.450010816956,10|0,1:1|0:0,0:0:0:0:
80,206,13110,2,0,B|-12:222|-30:76|80:50|227:117|169:253,1,395.250003015518,10|0,1:1|0:0,0:0:0:0:
84,371,13389,5,10,1:0:0:0:
100,196,13529,1,0,3:0:0:0:
107,360,13668,69,8,1:0:0:0:
123,185,13808,1,0,3:0:0:0:
409,308,13947,69,10,1:0:0:0:
272,320,14087,1,0,3:0:0:0:
259,183,14227,1,8,1:0:0:0:
396,171,14366,1,0,3:0:0:0:
187,139,14506,21,10,1:0:0:0:
272,320,14645,1,0,3:0:0:0:
366,51,14785,1,8,1:0:0:0:
454,233,14924,1,0,3:0:0:0:
98,105,15064,53,10,1:0:0:0:
259,93,15203,1,0,3:0:0:0:
88,130,15343,21,8,1:0:0:0:
249,118,15482,1,0,3:0:0:0:
131,337,15622,53,10,1:0:0:0:
84,75,15761,1,0,3:0:0:0:
213,48,15901,69,8,1:0:0:0:
168,345,16040,1,0,3:0:0:0:
286,367,16180,21,10,1:0:0:0:
243,41,16320,1,0,3:0:0:0:
374,17,16459,69,8,1:0:0:0:
314,372,16599,1,0,3:0:0:0:
26,259,16738,21,10,1:0:0:0:
0,262,16878,1,0,3:0:0:0:
487,125,17017,69,8,1:0:0:0:
512,121,17157,1,0,3:0:0:0:
213,384,17296,21,10,1:0:0:0:
295,1,17436,1,0,3:0:0:0:
446,285,17575,85,8,1:0:0:0:
446,292,17645,1,8,1:0:0:0:
446,299,17715,1,8,1:0:0:0:
446,306,17785,1,8,1:0:0:0:
446,313,17854,37,10,1:1:0:0:
438,41,18133,1,10,1:1:0:0:
446,313,18413,21,0,3:0:0:0:
346,371,18552,2,0,L|202:377,1,101.999996887207,0|8,3:0|1:0,0:0:0:0:
131,277,18831,70,0,B|99:220|130:182|130:182|122:165|122:165|154:131|114:51,1,203.999993774414,6|0,3:1|3:0,0:0:0:0:
150,285,19250,1,8,1:0:0:0:
79,19,19389,2,0,B|131:-13|174:18|174:18|191:10|191:10|225:42|305:2,1,203.999993774414,2|0,3:1|3:1,0:0:0:0:
10,91,19808,21,8,1:0:0:0:
10,84,19878,1,8,1:0:0:0:
10,77,19947,1,8,1:0:0:0:
10,70,20017,1,8,1:0:0:0:
10,63,20087,69,10,1:1:0:0:
35,330,20366,1,10,1:1:0:0:
10,63,20645,21,0,3:0:0:0:
132,27,20785,2,0,L|276:21,1,101.999996887207,0|8,3:0|1:0,0:0:0:0:
411,29,21064,70,0,P|422:75|431:173,1,101.999996887207,2|0,3:1|0:0,0:0:0:0:
329,245,21273,2,0,P|335:194|347:144,1,101.999996887207,2|0,3:1|0:0,0:0:0:0:
485,19,21482,2,0,P|496:65|505:163,1,101.999996887207,2|0,3:1|0:0,0:0:0:0:
288,96,21692,2,0,P|267:153|253:249,1,152.999995330811,2|0,3:1|0:0,0:0:0:0:
451,338,22320,21,10,1:1:0:0:
60,359,22599,1,10,1:1:0:0:
451,338,22878,69,0,3:0:0:0:
344,289,23017,2,0,L|231:300,1,101.999996887207,0|8,3:0|1:0,0:0:0:0:
140,168,23296,2,0,P|152:265|277:284,1,203.999993774414,6|0,3:1|3:0,0:0:0:0:
118,160,23715,1,8,1:0:0:0:
226,48,23854,2,0,P|129:60|110:185,1,203.999993774414,10|0,1:0|3:0,0:0:0:0:
301,18,24273,21,8,1:1:0:0:
308,18,24343,1,8,1:1:0:0:
315,18,24413,1,8,1:1:0:0:
322,18,24482,1,8,1:1:0:0:
329,18,24552,69,14,1:1:0:0:
0,14,24831,1,10,1:1:0:0:
329,18,25110,37,0,3:0:0:0:
374,103,25250,2,0,L|366:215,1,101.999996887207,0|8,3:0|1:0,0:0:0:0:
443,349,25529,6,0,L|449:247,1,101.999996887207,2|0,3:1|0:0,0:0:0:0:
456,153,25738,2,0,L|448:253,1,93.5000028533936,2|0,3:1|0:0,0:0:0:0:
386,303,25947,2,0,L|468:230,1,85,2|0,3:1|0:0,0:0:0:0:
508,197,26192,2,0,L|427:265,1,76.4999976654053,2|0,3:1|0:0,0:0:0:0:
390,242,26436,2,0,L|450:246,1,59.4999981842042,2|0,3:1|0:0,0:0:0:0:
491,249,26645,2,0,L|432:244,1,42.5,2|0,3:1|0:0,0:0:0:0:
293,311,26854,54,0,L|203:319,1,89.2499972763062,6|0,3:1|0:0,0:0:0:0:
193,320,27901,70,0,P|188:300|189:282,1,38.25,6|0,3:1|0:0,0:0:0:0:
191,272,28599,53,0,3:0:0:0:
36,373,28738,21,8,1:0:0:0:
38,381,28773,1,8,1:0:0:0:
156,161,28878,1,0,3:0:0:0:
251,197,29017,38,0,P|291:208|339:198,1,85,2|0,3:1|3:0,0:0:0:0:
132,152,29296,1,10,1:1:0:0:
169,266,29436,1,0,3:0:0:0:
170,56,29575,6,0,L|91:66,1,63.75,2|0,3:1|0:0,0:0:0:0:
68,32,29854,2,0,L|211:50,1,141.609999762312,8|0,1:0|0:0,0:0:0:0:
450,158,30133,85,2,3:1:0:0:
404,3,30273,1,0,3:0:0:0:
462,174,30413,2,0,B|432:195|432:195|357:191,1,85,10|0,1:1|3:0,0:0:0:0:
240,261,30692,6,0,B|270:240|270:240|345:244,1,85,2|0,3:1|0:0,0:0:0:0:
221,277,30971,2,0,L|67:274,1,141.609999762312,8|0,1:0|0:0,0:0:0:0:
206,167,31250,85,2,3:1:0:0:
65,262,31389,1,0,3:0:0:0:
222,147,31529,2,0,L|217:62,1,85,10|0,1:1|3:0,0:0:0:0:
114,349,31808,6,0,L|31:346,1,82.8749962062838,2|0,3:1|0:0,0:0:0:0:
0,368,32087,2,0,L|156:362,1,140.250001337528,8|0,1:0|0:0,0:0:0:0:
420,353,32366,85,2,3:1:0:0:
286,338,32506,1,0,3:0:0:0:
424,253,32645,2,0,L|439:373,1,85,10|0,1:1|3:0,0:0:0:0:
355,126,32924,2,0,L|374:-17,1,127.500004863739,2|0,3:1|0:0,0:0:0:0:
446,194,33203,2,0,L|440:252,1,42.5,8|0,1:0|3:0,0:0:0:0:
224,116,33482,54,0,B|172:146|172:146|114:262|114:262|46:303,1,255,10|0,1:1|0:0,0:0:0:0:
297,349,33761,2,0,B|296:288|296:288|224:180|224:180|223:101,1,255,10|0,1:1|0:0,0:0:0:0:
57,295,34040,2,0,B|109:324|109:324|239:316|239:316|308:354,1,255,10|0,1:1|0:0,0:0:0:0:
112,184,34320,5,10,1:1:0:0:
10,203,34459,1,0,3:0:0:0:
314,1,34599,86,0,B|451:26|337:123|493:170,1,255,10|0,1:1|0:0,0:0:0:0:
256,232,34878,2,0,B|209:100|349:150|312:-8,1,255,10|0,1:1|0:0,0:0:0:0:
486,167,35157,2,0,B|394:273|368:126|249:238,1,255,10|0,1:1|0:0,0:0:0:0:
414,38,35436,5,10,1:1:0:0:
512,52,35575,1,0,3:0:0:0:
231,148,35715,54,0,P|147:148|61:51,1,216.750004134178,10|0,1:1|0:0,0:0:0:0:
63,54,35994,2,0,P|105:126|64:249,1,216.750004134178,10|0,1:1|0:0,0:0:0:0:
67,247,36273,2,0,P|108:174|235:148,1,216.750004134178,10|0,1:1|0:0,0:0:0:0:
287,231,36552,37,10,1:1:0:0:
296,330,36692,1,0,3:0:0:0:
391,78,36831,54,0,P|319:120|401:133,1,216.750004134178,10|0,1:1|0:0,0:0:0:0:
398,72,37110,2,0,P|311:123|411:139,1,255,10|0,1:1|0:0,0:0:0:0:
402,67,37389,2,0,P|304:125|416:142,1,293.2500055933,10|0,1:1|0:0,0:0:0:0:
404,56,37668,22,0,B|375:35|337:29|291:71|289:109|289:109|319:293,1,331.499984825135,10|0,1:1|0:0,0:0:0:0:
377,362,37947,6,0,L|425:365,3,34,10|0|8|0,1:1|3:0|1:0|3:0,0:0:0:0:
305,303,38506,2,0,L|231:307,3,68,10|0|8|0,1:1|3:0|1:0|3:0,0:0:0:0:
376,213,39064,2,0,L|536:223,3,136,10|0|8|0,1:1|3:0|1:0|3:0,0:0:0:0:
271,103,39622,2,0,L|-49:123,3,272,10|0|8|0,1:1|3:0|1:0|3:0,0:0:0:0:
462,8,40180,85,10,1:1:0:0:
503,284,40320,1,0,3:0:0:0:
353,376,40459,5,8,1:0:0:0:
390,101,40599,1,0,3:0:0:0:
303,5,40738,21,10,1:1:0:0:
344,280,40878,1,0,3:0:0:0:
194,373,41017,5,8,1:0:0:0:
232,98,41157,1,0,3:0:0:0:
141,7,41296,5,10,1:1:0:0:
390,101,41436,1,0,3:0:0:0:
48,256,41575,69,8,1:0:0:0:
141,7,41715,1,0,3:0:0:0:
297,350,41854,21,10,1:1:0:0:
48,256,41994,1,0,3:0:0:0:
390,101,42133,6,0,L|378:131,1,25.5,14|0,1:0|0:0,0:0:0:0:
420,261,42413,54,0,L|406:82,1,178.499994552612,6|0,3:1|3:0,0:0:0:0:
403,281,42971,1,8,1:0:0:0:
133,105,43250,86,0,L|270:112,1,118.999996368408,2|0,3:1|0:0,0:0:0:0:
54,232,43808,2,0,L|145:225,1,89.2499972763062,2|0,3:1|0:0,0:0:0:0:
167,239,44087,1,8,1:0:0:0:
31,106,44366,6,0,L|10:323,1,208.249993644715,2|0,3:1|0:0,0:0:0:0:
26,337,44924,85,2,3:0:0:0:
105,371,45064,1,2,3:0:0:0:
178,328,45203,2,0,L|307:316,1,118.999996368408,10|2,1:0|3:0,0:0:0:0:
496,346,45761,5,2,3:3:0:0:
320,312,46040,1,2,3:3:0:0:
500,129,46319,1,10,1:1:0:0:
256,197,46599,1,8,1:0:0:0:
292,113,46738,1,8,1:0:0:0:
209,47,46878,86,0,L|24:62,1,178.499994552612,2|0,3:1|3:0,0:0:0:0:
227,27,47436,1,8,1:0:0:0:
15,78,47715,2,0,L|5:197,1,118.999996368408,2|0,3:1|0:0,0:0:0:0:
139,325,48273,6,0,L|143:384,1,59.4999981842042,2|0,3:1|0:0,0:0:0:0:
136,294,48552,2,0,L|133:252,1,34,8|0,1:1|0:0,0:0:0:0:
266,175,48831,86,0,L|509:187,1,237.999992736817,2|0,3:1|3:0,0:0:0:0:
247,190,49668,1,8,1:0:0:0:
409,103,49947,2,0,L|489:108,1,59.4999981842042
270,267,50226,2,0,L|166:273,1,89.2499972763062,0|0,3:0|0:0,0:0:0:0:
158,285,50506,5,10,1:0:0:0:
452,326,50785,1,10,1:0:0:0:
134,303,51064,2,0,L|127:199,1,89.2499972763062,0|0,3:0|0:0,0:0:0:0:
56,112,51343,86,0,L|260:92,1,178.499994552612,2|0,3:1|3:0,0:0:0:0:
31,99,51901,1,8,1:0:0:0:
258,108,52180,6,0,L|245:237,1,118.999996368408,2|0,3:1|0:0,0:0:0:0:
415,265,52738,2,0,L|426:355,1,89.2499972763062,2|0,3:1|0:0,0:0:0:0:
414,384,53017,1,8,1:1:0:0:
482,173,53296,86,0,L|234:197,1,237.999992736817,2|2,3:1|3:3,0:0:0:0:
171,236,53994,1,2,0:3:0:0:
105,190,54133,2,0,L|93:66,1,118.999996368408,8|2,1:0|0:3,0:0:0:0:
257,0,54692,5,0,3:0:0:0:
77,52,54971,1,10,1:0:0:0:
350,68,55250,85,10,1:0:0:0:
62,33,55529,1,0,3:0:0:0:
138,189,55808,6,0,P|126:226|62:281,2,118.999996368408,8|0|0,1:0|3:0|3:0,0:0:0:0:
267,306,56645,2,0,P|240:277|225:194,2,118.999996368408,8|0|0,1:0|3:0|3:0,0:0:0:0:
100,358,57482,2,0,P|138:349|208:371,1,104.124996822357,8|0,1:0|0:0,0:0:0:0:
213,377,58040,1,8,1:0:0:0:
219,384,58075,1,8,1:0:0:0:
35,8,58599,21,8,3:0:0:0:
383,126,59064,1,8,1:0:0:0:
391,167,59157,1,8,1:0:0:0:
489,31,59436,1,8,3:0:0:0:
512,253,59715,1,8,1:0:0:0:
507,265,59750,1,8,1:0:0:0:
489,31,59994,1,0,3:0:0:0:
366,243,60273,6,0,B|318:268|258:248|258:248|305:290|370:285,1,220.999989883423,2|8,3:1|1:0,0:0:0:0:
302,172,61110,2,0,B|250:154|194:183|194:183|176:153|137:146,1,165.749992412568,2|0,3:1|0:0,0:0:0:0:
131,147,61668,1,2,3:1:0:0:
277,0,61947,1,8,1:0:0:0:
75,81,62226,2,0,P|90:162|80:251,1,165.749992412568,2|0,3:1|0:0,0:0:0:0:
63,267,62785,1,2,3:1:0:0:
199,127,63064,1,8,1:0:0:0:
370,109,63343,1,2,0:3:0:0:
371,117,63413,1,2,0:3:0:0:
372,125,63482,1,2,0:3:0:0:
373,133,63552,1,2,0:3:0:0:
374,141,63622,1,2,0:3:0:0:
374,141,63901,21,2,0:3:0:0:
464,135,64040,1,0,3:0:0:0:
318,222,64180,2,0,L|314:310,1,76.4999976654053,8|2,1:0|3:1,0:0:0:0:
315,299,64738,70,0,B|256:267|212:302|212:302|169:341|105:306,1,220.999989883423,2|8,3:1|1:0,0:0:0:0:
102,324,65575,2,0,B|159:359|208:318|208:318|180:322|155:308,1,165.749992412568,2|0,3:1|0:0,0:0:0:0:
143,297,66133,1,2,3:1:0:0:
318,384,66413,1,8,1:0:0:0:
471,317,66692,2,0,B|507:272|470:235|469:230|468:226|437:190|474:147,1,165.749992412568,2|0,3:1|0:0,0:0:0:0:
482,143,67250,1,2,3:1:0:0:
416,2,67529,1,8,1:0:0:0:
246,21,67808,1,2,0:3:0:0:
238,22,67878,1,2,0:3:0:0:
230,23,67947,1,2,0:3:0:0:
222,24,68017,1,2,0:3:0:0:
214,25,68087,1,2,0:3:0:0:
214,25,68366,21,2,0:3:0:0:
296,96,68506,1,0,3:0:0:0:
213,155,68645,2,0,L|86:149,1,110.499994941712,8|2,1:0|3:1,0:0:0:0:
40,101,69203,70,0,B|8:158|43:201|43:201|81:244|47:306,1,220.999989883423,2|8,3:1|1:0,0:0:0:0:
112,365,70040,2,0,B|58:393|3:382|-2:326|34:285|58:314,1,165.749992412568,2|0,3:1|0:0,0:0:0:0:
62,307,70599,1,2,3:1:0:0:
224,384,70878,1,8,1:0:0:0:
372,303,71157,2,0,P|367:217|360:118,1,165.749992412568,2|0,3:1|0:0,0:0:0:0:
359,114,71715,1,2,3:1:0:0:
510,131,71994,1,8,1:0:0:0:
444,0,72273,1,2,0:3:0:0:
264,83,72552,22,0,L|258:17,1,55.2499974708558,2|2,0:3|0:3,0:0:0:0:
285,104,72831,1,2,0:3:0:0:
277,190,72971,1,0,3:0:0:0:
244,20,73110,1,8,1:0:0:0:
205,256,73389,1,2,3:1:0:0:
358,325,73668,70,0,B|322:307|276:307,2,85,10|0|0,1:0|3:0|3:0,0:0:0:0:
149,318,74506,2,0,B|184:296|206:256,2,85,10|0|0,1:0|3:0|3:0,0:0:0:0:
254,141,75343,2,0,B|257:182|287:225,1,85,14|2,1:0|0:3,0:0:0:0:
284,220,76459,1,2,0:3:0:0:
284,220,77017,1,2,0:3:0:0:
363,269,77296,38,0,L|366:317,1,42.5,6|0,0:2|0:0,0:0:0:0:
369,350,77575,1,2,0:3:0:0:
431,206,77854,1,0,3:3:0:0:
218,242,78133,86,0,B|267:188|247:93|156:85|127:168|178:193,1,220.999989883423,2|8,3:1|1:0,0:0:0:0:
229,258,78971,2,0,P|259:173|213:103,1,165.749992412568,2|0,3:1|0:0,0:0:0:0:
196,106,79529,1,2,3:1:0:0:
57,29,79808,1,8,1:0:0:0:
5,170,80087,2,0,B|-9:212|18:243|18:243|54:288|36:326,1,165.749992412568,2|0,3:1|0:0,0:0:0:0:
19,345,80645,1,2,3:1:0:0:
87,192,80924,1,8,1:0:0:0:
237,153,81203,1,2,0:3:0:0:
248,154,81273,1,2,0:3:0:0:
258,155,81343,1,2,0:3:0:0:
269,156,81413,1,2,0:3:0:0:
280,157,81482,1,2,0:3:0:0:
280,157,81761,69,2,0:3:0:0:
330,233,81901,1,0,3:0:0:0:
343,94,82040,2,0,P|287:72|224:85,1,110.499994941712,8|2,1:0|3:1,0:0:0:0:
288,301,82599,22,0,B|360:338|388:285|391:285|395:284|437:240|502:268,1,220.999989883423,2|8,3:1|1:0,0:0:0:0:
512,287,83436,2,0,P|421:290|404:362,1,165.749992412568,2|0,3:1|0:0,0:0:0:0:
407,376,83994,1,2,3:1:0:0:
293,238,84273,1,8,1:0:0:0:
136,319,84552,2,0,B|95:345|88:384|88:384|44:366|35:317,1,165.749992412568,2|0,3:1|0:0,0:0:0:0:
37,307,85110,1,2,3:1:0:0:
214,367,85389,1,8,1:0:0:0:
145,216,85668,1,2,0:3:0:0:
144,207,85738,1,2,0:3:0:0:
143,198,85808,1,2,0:3:0:0:
142,189,85878,1,2,0:3:0:0:
141,180,85947,2,0,L|134:117,1,55.2499974708558,2|2,0:3|0:3,0:0:0:0:
132,100,86226,69,2,0:3:0:0:
51,36,86366,1,0,3:0:0:0:
147,0,86506,2,0,L|260:5,1,110.499994941712,8|2,1:0|3:1,0:0:0:0:
465,151,87064,22,0,P|373:98|253:134,1,220.999989883423,2|8,3:1|1:0,0:0:0:0:
294,194,87901,2,0,B|313:213|368:182|358:120|298:111|262:124,1,165.749992412568,2|0,3:1|0:0,0:0:0:0:
241,132,88459,1,2,3:1:0:0:
145,320,88738,1,8,1:0:0:0:
323,244,89017,2,0,B|410:239|392:308|485:291,1,165.749992412568,2|0,3:1|0:0,0:0:0:0:
512,285,89575,1,2,3:1:0:0:
340,319,89854,1,8,1:0:0:0:
488,192,90133,1,2,0:3:0:0:
487,183,90203,1,2,0:3:0:0:
486,174,90273,1,2,0:3:0:0:
485,165,90343,1,2,0:3:0:0:
484,156,90413,1,2,0:3:0:0:
484,156,90692,69,2,0:3:0:0:
510,64,90831,1,0,3:0:0:0:
389,18,90971,2,0,L|327:16,1,55.2499974708558,8|0,1:0|0:0,0:0:0:0:
409,19,91250,1,2,3:1:0:0:
242,60,91529,22,0,L|221:194,2,110.499994941712,8|0|0,1:0|3:0|3:0,0:0:0:0:
187,261,92366,2,0,L|81:175,2,110.499994941712,8|0|0,1:0|3:0|3:0,0:0:0:0:
40,112,93203,2,0,L|168:62,1,112.199999657593,8|2,1:0|0:3,0:0:0:0:
144,71,94319,1,2,0:3:0:0:
144,71,94878,1,2,0:3:0:0:
55,63,95157,1,2,0:3:0:0:
21,373,95436,38,0,L|-13:371,1,34,8|0,1:0|3:0,0:0:0:0:
329,384,95994,1,4,3:0:0:0:
438,169,104505,54,0,B|384:135|316:151|316:151|247:161|195:101,1,255.000009727478,2|2,0:1|0:1,0:0:0:0:
366,221,105312,2,0,P|373:251|368:283,1,63.7500024318696,2|0,0:1|0:0,0:0:0:0:
285,77,105581,2,0,P|379:68|472:95,1,191.250007295609
204,202,106119,2,0,P|196:171|201:139,1,63.7500024318696,2|0,0:1|0:0,0:0:0:0:
273,253,106388,70,0,B|220:302|154:271|154:271|92:239|33:276,1,255.000009727478,2|2,0:1|0:1,0:0:0:0:
200,140,107195,2,0,P|207:109|202:77,1,63.7500024318696
93,335,107464,2,0,P|172:366|294:344,1,191.250007295609,2|0,0:1|0:0,0:0:0:0:
332,254,108002,1,2,0:1:0:0:
461,154,108271,1,0,3:0:0:0:
260,205,108540,1,2,3:1:0:0:
324,52,108809,54,0,L|428:44,1,85,0|0,3:0|0:0,0:0:0:0:
238,9,109074,2,0,L|134:1,1,85,0|0,3:1|0:0,0:0:0:0:
306,76,109339,2,0,L|410:68,1,85,2|0,3:1|0:0,0:0:0:0:
220,33,109605,2,0,L|116:25,1,85,2|0,3:1|0:0,0:0:0:0:
8,258,109870,70,0,L|0:366,1,106.25,0|0,3:0|0:0,0:0:0:0:
57,135,110136,2,0,L|48:26,1,106.25,2|0,3:1|0:0,0:0:0:0:
33,277,110401,2,0,L|24:385,1,106.25,0|0,3:0|0:0,0:0:0:0:
82,153,110667,2,0,L|73:44,1,106.25,2|0,3:1|0:0,0:0:0:0:
298,137,110932,21,0,3:0:0:0:
78,187,111198,1,2,3:1:0:0:
478,278,111463,69,0,3:0:0:0:
203,215,111729,1,0,3:1:0:0:
385,55,111994,70,0,L|394:161,1,106.25,2|0,3:1|0:0,0:0:0:0:
470,384,112260,2,0,L|479:278,1,106.25,2|0,3:1|0:0,0:0:0:0:
234,62,112525,70,0,L|181:58,1,44.6249986381531,8|0,1:0|0:0,0:0:0:0:
170,56,112791,1,2,3:1:0:0:
313,203,113056,86,0,B|364:220|413:209|379:192|438:176|479:195,1,170,6|0,3:1|3:0,0:0:0:0:
492,209,113456,1,0,3:0:0:0:
353,136,113589,2,0,B|303:115|249:132|286:148|235:167|187:144,1,170,2|0,1:0|3:0,0:0:0:0:
175,131,113989,1,0,3:0:0:0:
313,203,114122,86,0,L|307:342,1,127.5,2|0,0:1|0:0,0:0:0:0:
310,333,114389,1,2,3:1:0:0:
399,278,114522,1,0,3:0:0:0:
209,297,114656,2,0,L|99:307,1,85,10|0,1:1|0:0,0:0:0:0:
19,384,114922,6,0,B|13:291|13:291|53:222|53:222|36:24,1,340,2|2,3:1|3:1,0:0:0:0:
97,308,115722,1,8,1:0:0:0:
38,55,115989,2,0,B|204:40|204:40|273:80|273:80|366:74,1,340,2|0,3:1|3:0,0:0:0:0:
183,119,116789,2,0,L|88:127,1,85,8|0,1:0|0:0,0:0:0:0:
403,246,117056,85,8,1:0:0:0:
303,226,117189,1,8,1:0:0:0:
203,206,117322,2,0,B|152:197|152:197|136:270|136:270|193:281,1,170,2|0,3:1|3:0,0:0:0:0:
203,283,117722,1,0,3:0:0:0:
85,156,117856,2,0,B|34:165|34:165|18:92|18:92|75:81,1,170,10|0,1:0|3:0,0:0:0:0:
85,79,118256,1,0,3:0:0:0:
53,254,118389,6,0,L|34:344,1,85,2|0,0:1|0:0,0:0:0:0:
220,366,118656,2,0,L|202:282,1,85,2|0,3:1|3:0,0:0:0:0:
344,200,118922,2,0,L|325:290,1,85,10|0,1:1|0:0,0:0:0:0:
512,322,119189,22,0,L|474:174,1,148.750001418591,2|0,3:1|0:0,0:0:0:0:
416,124,119589,2,0,L|453:270,1,127.500004863739,2|0,3:1|0:0,0:0:0:0:
414,311,119989,2,0,L|293:298,1,116.875003566742,2|0,3:1|0:0,0:0:0:0:
277,278,120456,2,0,L|182:288,1,85,2|0,3:1|0:0,0:0:0:0:
166,296,120922,2,0,L|213:304,1,42.5,2|0,3:1|0:0,0:0:0:0:
219,309,121322,1,2,3:1:0:0:
185,144,121589,6,0,B|123:139|123:139|83:101|83:101|13:95,1,170,6|0,3:1|3:0,0:0:0:0:
0,94,121989,1,0,3:0:0:0:
160,65,122122,2,0,B|222:70|222:70|262:108|262:108|332:114,1,170,10|0,1:0|3:0,0:0:0:0:
343,115,122522,1,0,3:0:0:0:
267,320,122656,2,0,L|258:171,1,127.5,2|0,0:1|0:0,0:0:0:0:
259,183,122922,1,2,3:1:0:0:
172,297,123056,1,0,3:0:0:0:
344,279,123189,2,0,L|428:270,1,85,10|0,1:1|0:0,0:0:0:0:
512,336,123456,54,0,B|518:243|518:243|478:174|478:174|495:-24,1,340,2|2,3:1|3:1,0:0:0:0:
428,270,124256,1,8,1:0:0:0:
492,7,124522,2,0,B|325:-7|325:-7|256:32|256:32|163:26,1,340,2|0,3:1|3:0,0:0:0:0:
349,73,125322,2,0,L|449:84,1,85,8|0,1:0|0:0,0:0:0:0:
135,164,125589,85,8,1:0:0:0:
168,159,125656,1,8,1:0:0:0:
201,154,125722,1,8,1:0:0:0:
235,150,125789,1,8,1:0:0:0:
267,144,125856,2,0,B|303:172|348:180|348:180|301:192|272:224,1,170,2|0,3:1|3:0,0:0:0:0:
266,235,126256,1,0,3:0:0:0:
370,300,126389,2,0,B|406:328|451:336|451:336|404:348|375:380,1,170,10|0,1:0|3:0,0:0:0:0:
367,384,126789,1,0,3:0:0:0:
440,227,126922,6,0,P|442:161|436:108,1,85,2|0,0:1|0:0,0:0:0:0:
347,0,127189,2,0,P|345:66|351:119,1,85,2|0,3:1|3:0,0:0:0:0:
512,190,127456,2,0,P|511:232|506:274,1,85,10|0,1:1|0:0,0:0:0:0:
454,359,127722,54,0,P|366:366|302:359,1,144.500002756119,2|0,3:1|0:0,0:0:0:0:
236,306,128122,2,0,P|148:299|84:306,1,127.500004863739,2|0,3:1|0:0,0:0:0:0:
50,352,128522,2,0,P|52:317|42:218,1,116.875003566742,2|0,3:1|0:0,0:0:0:0:
11,168,128989,2,0,P|5:122|6:76,1,76.4999976654053,2|0,3:1|0:0,0:0:0:0:
28,66,129389,2,0,P|57:59|117:59,1,76.4999976654053,2|0,3:1|0:0,0:0:0:0:
119,68,129799,2,0,P|136:73|160:76,1,29.7499990921021,6|0,3:1|0:0,0:0:0:0:
263,143,130121,21,2,3:1:0:0:
270,142,130192,1,8,1:0:0:0:
278,142,130263,1,0,3:0:0:0:
286,141,130335,1,8,1:0:0:0:
294,141,130406,1,2,3:1:0:0:
302,140,130478,1,8,1:0:0:0:
310,140,130549,1,0,3:0:0:0:
318,140,130621,1,8,1:0:0:0:
326,139,130692,1,2,3:1:0:0:
334,139,130763,1,8,1:0:0:0:
342,138,130835,1,0,3:0:0:0:
350,138,130906,1,8,1:0:0:0:
358,138,130978,1,2,3:1:0:0:
366,137,131049,1,8,1:0:0:0:
374,137,131121,1,0,3:0:0:0:
382,136,131192,1,8,1:0:0:0:
390,136,131263,21,2,3:1:0:0:
380,130,131335,1,8,1:0:0:0:
371,126,131406,1,0,3:0:0:0:
361,122,131478,1,8,1:0:0:0:
350,120,131549,1,2,3:1:0:0:
340,120,131621,1,8,1:0:0:0:
329,120,131692,1,0,3:0:0:0:
318,122,131763,1,8,1:0:0:0:
308,124,131835,69,2,3:1:0:0:
323,133,131906,1,8,1:0:0:0:
337,140,131978,1,0,3:0:0:0:
352,146,132049,1,8,1:0:0:0:
368,149,132121,1,2,3:1:0:0:
384,149,132192,1,8,1:0:0:0:
400,149,132263,1,0,3:0:0:0:
417,146,132335,1,8,1:0:0:0:
432,143,132406,21,2,3:1:0:0:
411,130,132478,1,8,1:0:0:0:
391,120,132549,1,0,3:0:0:0:
370,112,132621,1,8,1:0:0:0:
348,108,132692,1,2,3:1:0:0:
325,108,132763,1,8,1:0:0:0:
303,108,132835,1,0,3:0:0:0:
279,112,132906,1,8,1:0:0:0:
258,116,132978,69,2,3:1:0:0:
285,132,133049,1,8,1:0:0:0:
311,145,133121,1,0,3:0:0:0:
338,156,133192,1,8,1:0:0:0:
367,161,133263,1,2,3:1:0:0:
396,161,133335,1,8,1:0:0:0:
425,161,133406,1,0,3:0:0:0:
456,156,133478,1,8,1:0:0:0:
484,151,133549,21,2,3:1:0:0:
447,140,133621,1,8,1:0:0:0:
409,142,133692,1,0,3:0:0:0:
374,158,133763,1,8,1:0:0:0:
348,187,133835,69,2,3:1:0:0:
318,219,133906,1,8,1:0:0:0:
279,237,133978,1,0,3:0:0:0:
236,239,134049,1,8,1:0:0:0:
196,227,134121,22,0,P|170:212|143:186,3,42.5,2|8|0|8,3:1|1:0|3:0|1:0,0:0:0:0:
258,116,134406,2,0,P|250:87|249:49,3,42.5,2|8|0|8,3:1|1:0|3:0|1:0,0:0:0:0:
279,287,134692,21,2,3:1:0:0:
279,287,134835,1,0,3:0:0:0:
351,332,134978,85,10,1:0:0:0:
319,359,135049,1,10,1:0:0:0:
278,369,135121,1,10,1:0:0:0:
237,358,135192,1,10,1:0:0:0:
206,332,135263,5,2,3:1:0:0:
206,332,135406,1,0,3:0:0:0:
118,327,135549,85,10,1:0:0:0:
116,279,135621,1,10,1:0:0:0:
114,232,135692,1,10,1:0:0:0:
113,185,135763,1,10,1:0:0:0:
112,137,135835,5,2,3:1:0:0:
112,137,135978,1,0,3:0:0:0:
41,86,136121,85,10,1:0:0:0:
73,59,136192,1,10,1:0:0:0:
114,49,136263,1,10,1:0:0:0:
155,60,136335,1,10,1:0:0:0:
186,86,136406,5,2,3:1:0:0:
186,86,136549,1,0,3:0:0:0:
196,173,136692,85,10,1:0:0:0:
244,171,136763,1,10,1:0:0:0:
291,169,136835,1,10,1:0:0:0:
338,168,136906,1,10,1:0:0:0:
386,167,136978,5,2,3:1:0:0:
386,167,137121,1,0,3:0:0:0:
439,94,137263,85,10,1:0:0:0:
466,126,137335,1,10,1:0:0:0:
476,167,137406,1,10,1:0:0:0:
465,208,137478,1,10,1:0:0:0:
439,239,137549,5,2,3:1:0:0:
439,239,137692,1,0,3:0:0:0:
386,312,137835,85,10,1:0:0:0:
359,280,137906,1,10,1:0:0:0:
349,239,137978,1,10,1:0:0:0:
360,198,138049,1,10,1:0:0:0:
386,167,138121,5,2,3:1:0:0:
386,167,138263,1,0,3:0:0:0:
348,89,138406,85,10,1:0:0:0:
300,91,138478,1,10,1:0:0:0:
253,93,138549,1,10,1:0:0:0:
206,94,138621,1,10,1:0:0:0:
158,95,138692,5,2,3:1:0:0:
158,95,138835,1,0,3:0:0:0:
217,183,138978,70,0,L|223:224,3,42.5,10|10|10|10,1:0|1:0|1:0|1:0,0:0:0:0:
248,240,139263,69,2,3:1:0:0:
242,242,139335,1,8,1:0:0:0:
234,242,139406,1,0,3:0:0:0:
226,243,139478,1,8,1:0:0:0:
218,243,139549,1,2,3:1:0:0:
210,244,139621,1,8,1:0:0:0:
202,244,139692,1,0,3:0:0:0:
194,244,139763,1,8,1:0:0:0:
186,245,139835,1,2,3:1:0:0:
178,245,139906,1,8,1:0:0:0:
170,246,139978,1,0,3:0:0:0:
162,246,140049,1,8,1:0:0:0:
154,246,140121,1,2,3:1:0:0:
146,247,140192,1,8,1:0:0:0:
138,247,140263,1,0,3:0:0:0:
130,248,140335,1,8,1:0:0:0:
122,248,140406,21,2,3:1:0:0:
132,254,140478,1,8,1:0:0:0:
141,258,140549,1,0,3:0:0:0:
151,262,140621,1,8,1:0:0:0:
162,264,140692,1,2,3:1:0:0:
172,264,140763,1,8,1:0:0:0:
183,264,140835,1,0,3:0:0:0:
194,262,140906,1,8,1:0:0:0:
204,260,140978,69,2,3:1:0:0:
189,251,141049,1,8,1:0:0:0:
175,244,141121,1,0,3:0:0:0:
160,238,141192,1,8,1:0:0:0:
144,235,141263,1,2,3:1:0:0:
128,235,141335,1,8,1:0:0:0:
112,235,141406,1,0,3:0:0:0:
95,238,141478,1,8,1:0:0:0:
80,241,141549,21,2,3:1:0:0:
101,254,141621,1,8,1:0:0:0:
121,264,141692,1,0,3:0:0:0:
142,272,141763,1,8,1:0:0:0:
164,276,141835,1,2,3:1:0:0:
187,276,141906,1,8,1:0:0:0:
209,276,141978,1,0,3:0:0:0:
233,272,142049,1,8,1:0:0:0:
254,268,142121,69,2,3:1:0:0:
227,252,142192,1,8,1:0:0:0:
201,239,142263,1,0,3:0:0:0:
174,228,142335,1,8,1:0:0:0:
145,223,142406,1,2,3:1:0:0:
116,223,142478,1,8,1:0:0:0:
87,223,142549,1,0,3:0:0:0:
56,228,142621,1,8,1:0:0:0:
28,233,142692,21,2,3:1:0:0:
65,244,142763,1,8,1:0:0:0:
103,242,142835,1,0,3:0:0:0:
138,226,142906,1,8,1:0:0:0:
164,197,142978,69,2,3:1:0:0:
194,165,143049,1,8,1:0:0:0:
233,147,143121,1,0,3:0:0:0:
276,145,143192,1,8,1:0:0:0:
316,157,143263,22,0,P|342:172|369:198,3,42.5,2|8|0|8,3:1|1:0|3:0|1:0,0:0:0:0:
254,268,143549,2,0,P|261:296|262:334,3,42.5,2|8|0|8,3:1|1:0|3:0|1:0,0:0:0:0:
82,156,143835,21,2,3:1:0:0:
82,156,143978,1,0,3:0:0:0:
7,106,144121,85,10,1:0:0:0:
39,79,144192,1,10,1:0:0:0:
80,69,144263,1,10,1:0:0:0:
121,80,144335,1,10,1:0:0:0:
152,106,144406,5,2,3:1:0:0:
152,106,144549,1,0,3:0:0:0:
227,156,144692,85,10,1:0:0:0:
195,183,144763,1,10,1:0:0:0:
154,193,144835,1,10,1:0:0:0:
113,182,144906,1,10,1:0:0:0:
82,156,144978,5,2,3:1:0:0:
82,156,145121,1,0,3:0:0:0:
231,70,145263,85,10,1:0:0:0:
279,68,145335,1,10,1:0:0:0:
326,66,145406,1,10,1:0:0:0:
373,65,145478,1,10,1:0:0:0:
421,64,145549,5,2,3:1:0:0:
421,64,145692,1,0,3:0:0:0:
494,152,145835,85,10,1:0:0:0:
446,154,145906,1,10,1:0:0:0:
399,156,145978,1,10,1:0:0:0:
352,157,146049,1,10,1:0:0:0:
304,158,146121,5,2,3:1:0:0:
304,158,146263,1,0,3:0:0:0:
258,230,146406,85,10,1:0:0:0:
231,198,146478,1,10,1:0:0:0:
221,157,146549,1,10,1:0:0:0:
232,116,146621,1,10,1:0:0:0:
258,85,146692,5,2,3:1:0:0:
258,85,146835,1,0,3:0:0:0:
328,272,146978,85,10,1:0:0:0:
296,299,147049,1,10,1:0:0:0:
255,309,147121,1,10,1:0:0:0:
214,298,147192,1,10,1:0:0:0:
183,272,147263,5,2,3:1:0:0:
183,272,147406,1,0,3:0:0:0:
406,155,147549,85,10,1:0:0:0:
403,202,147621,1,10,1:0:0:0:
402,250,147692,1,10,1:0:0:0:
401,297,147763,1,10,1:0:0:0:
400,345,147835,5,2,3:1:0:0:
400,345,147978,1,0,3:0:0:0:
183,272,148121,86,0,L|174:218,3,42.5,10|10|10|10,1:0|1:0|1:0|1:0,0:0:0:0:
30,123,148406,86,0,B|63:130|63:130|77:144|77:144|108:151,1,85,6|2,3:1|0:1,0:0:0:0:
331,89,148692,2,0,B|298:96|298:96|283:110|283:110|252:117,1,85,8|2,1:0|0:1,0:0:0:0:
67,342,148978,69,2,3:1:0:0:
13,144,149121,1,2,0:1:0:0:
159,0,149263,21,8,1:0:0:0:
125,188,149406,1,2,0:1:0:0:
253,67,149549,70,0,B|299:68|299:68|347:100,1,85,2|2,3:1|0:1,0:0:0:0:
432,234,149835,2,0,B|474:233|474:233|511:206,1,85,8|2,1:0|0:1,0:0:0:0:
237,96,150121,2,0,B|283:97|283:97|331:129,1,85,2|2,3:1|0:1,0:0:0:0:
416,263,150406,2,0,B|458:262|458:262|492:236,1,85,8|2,1:0|0:1,0:0:0:0:
213,193,150692,21,2,3:1:0:0:
299,384,150835,1,2,0:1:0:0:
54,308,150978,69,8,1:0:0:0:
149,129,151121,1,2,0:1:0:0:
337,252,151263,22,0,B|371:276|371:276|429:270,1,85,2|2,3:1|0:1,0:0:0:0:
151,278,151549,2,0,B|117:302|117:302|59:296,1,85,8|2,1:0|0:1,0:0:0:0:
269,119,151835,69,2,3:1:0:0:
271,98,151978,1,2,0:1:0:0:
398,312,152121,21,8,1:0:0:0:
401,327,152263,1,2,0:1:0:0:
196,62,152406,70,0,B|163:69|163:69|148:83|148:83|117:90,1,85,2|2,3:1|0:1,0:0:0:0:
417,178,152692,2,0,B|450:185|450:185|464:199|464:199|495:206,1,85,8|2,1:0|0:1,0:0:0:0:
512,16,152978,53,2,3:1:0:0:
512,16,153121,1,0,3:0:0:0:
434,78,153263,53,10,1:0:0:0:
429,103,153335,1,8,1:0:0:0:
425,128,153406,1,8,1:0:0:0:
421,153,153478,1,8,1:0:0:0:
417,178,153549,37,2,3:1:0:0:
417,178,153692,1,0,3:0:0:0:
318,187,153835,53,10,1:0:0:0:
323,212,153906,1,8,1:0:0:0:
327,237,153978,1,8,1:0:0:0:
331,262,154049,1,8,1:0:0:0:
335,287,154121,37,2,3:1:0:0:
335,287,154263,1,0,3:0:0:0:
411,318,154406,53,10,1:0:0:0:
392,344,154478,1,8,1:0:0:0:
366,361,154549,1,8,1:0:0:0:
335,367,154621,1,8,1:0:0:0:
304,360,154692,37,2,3:1:0:0:
304,360,154835,1,0,3:0:0:0:
251,290,154978,53,10,1:0:0:0:
226,295,155049,1,8,1:0:0:0:
201,299,155121,1,8,1:0:0:0:
176,303,155192,1,8,1:0:0:0:
151,307,155263,37,2,3:1:0:0:
151,307,155406,1,0,3:0:0:0:
118,383,155549,53,10,1:0:0:0:
92,364,155621,1,8,1:0:0:0:
75,338,155692,1,8,1:0:0:0:
69,307,155763,1,8,1:0:0:0:
76,276,155835,37,2,3:1:0:0:
76,276,155978,1,0,3:0:0:0:
151,307,156121,53,10,1:0:0:0:
158,276,156192,1,8,1:0:0:0:
152,245,156263,1,8,1:0:0:0:
135,219,156335,1,8,1:0:0:0:
109,200,156406,37,2,3:1:0:0:
109,200,156549,1,0,3:0:0:0:
21,203,156692,53,10,1:0:0:0:
16,178,156763,1,8,1:0:0:0:
12,153,156835,1,8,1:0:0:0:
8,128,156906,1,8,1:0:0:0:
4,103,156978,37,2,3:1:0:0:
4,103,157121,1,0,3:0:0:0:
105,100,157263,53,10,1:0:0:0:
110,75,157335,1,8,1:0:0:0:
114,50,157406,1,8,1:0:0:0:
118,25,157478,1,8,1:0:0:0:
122,0,157549,5,6,3:1:0:0:
390,384,157835,1,6,3:1:0:0:
0,284,159835,5,6,3:1:0:0:
512,100,160121,1,6,3:1:0:0:
266,204,161835,6,0,L|267:172,1,25.5,8|0,1:0|0:0,0:0:0:0:
351,121,162121,85,2,3:1:0:0:
360,116,162192,1,8,1:0:0:0:
370,114,162263,1,0,3:0:0:0:
381,114,162335,1,8,1:0:0:0:
391,117,162406,1,2,3:1:0:0:
400,122,162478,1,8,1:0:0:0:
408,130,162549,1,0,3:0:0:0:
414,138,162621,1,8,1:0:0:0:
417,149,162692,53,2,3:1:0:0:
401,170,162763,1,8,1:0:0:0:
380,186,162835,1,2,3:1:0:0:
355,196,162906,1,8,1:0:0:0:
329,200,162978,1,2,3:1:0:0:
303,196,163049,1,8,1:0:0:0:
278,185,163121,1,0,3:0:0:0:
258,169,163192,1,8,1:0:0:0:
242,148,163263,37,2,3:1:0:0:
221,120,163335,1,8,1:0:0:0:
194,98,163406,1,0,3:0:0:0:
163,85,163478,1,8,1:0:0:0:
129,80,163549,1,2,3:1:0:0:
94,84,163621,1,8,1:0:0:0:
63,98,163692,1,0,3:0:0:0:
36,119,163763,1,8,1:0:0:0:
26,151,163835,86,0,L|19:204,1,42.5,2|8,3:1|1:0,0:0:0:0:
155,231,163978,2,0,L|162:178,1,42.5,2|8,3:1|1:0,0:0:0:0:
50,185,164121,70,0,L|43:238,1,42.5,2|8,3:1|1:0,0:0:0:0:
179,265,164263,2,0,L|186:212,1,42.5,2|8,3:1|1:0,0:0:0:0:
0,341,164406,53,2,3:1:0:0:
0,341,164692,21,8,1:0:0:0:
12,343,164763,1,0,3:0:0:0:
24,344,164835,1,0,3:0:0:0:
36,343,164906,1,0,3:0:0:0:
48,341,164978,1,8,1:0:0:0:
63,335,165049,1,0,3:0:0:0:
78,326,165121,1,0,3:0:0:0:
90,314,165192,1,0,3:0:0:0:
106,300,165263,1,8,1:0:0:0:
125,291,165335,1,0,3:0:0:0:
145,288,165406,1,0,3:0:0:0:
170,292,165478,1,0,3:0:0:0:
191,305,165549,53,8,1:0:0:0:
208,329,165621,1,0,3:0:0:0:
235,340,165692,1,0,3:0:0:0:
268,338,165763,1,0,3:0:0:0:
298,322,165835,1,8,1:0:0:0:
322,293,165906,1,0,3:0:0:0:
328,254,165978,1,0,3:0:0:0:
311,219,166049,1,0,3:0:0:0:
276,192,166121,69,8,1:0:0:0:
233,188,166192,1,0,3:0:0:0:
195,213,166263,1,0,3:0:0:0:
174,258,166335,1,0,3:0:0:0:
183,306,166406,1,8,1:0:0:0:
221,336,166478,1,0,3:0:0:0:
276,338,166549,1,0,3:0:0:0:
322,299,166621,1,0,3:0:0:0:
325,228,166692,22,0,L|320:196,8,21.25,14|0|0|0|0|0|0|0|0,1:0|0:0|0:0|0:0|0:0|0:0|0:0|0:0|0:0,0:0:0:0:
