osu file format v14

[General]
AudioFilename: audio.mp3
AudioLeadIn: 0
PreviewTime: 111480
Countdown: 0
SampleSet: Soft
StackLeniency: 0.7
Mode: 0
LetterboxInBreaks: 0
WidescreenStoryboard: 1

[Editor]
DistanceSpacing: 1.15
BeatDivisor: 4
GridSize: 32
TimelineZoom: 1.5

[Metadata]
Title:24 Hr Drive-Thru
TitleUnicode:24 Hr Drive-Thru
Artist:Origami Angel
ArtistUnicode:Origami Angel
Creator:SMOKELIND
Version:Aqua's Hard
Source:
Tags:Rock English Somewhere City drive-through through emo 24h hours -Aqua Laplus- La+- Mocaotic
BeatmapID:3586376
BeatmapSetID:1724847

[Difficulty]
HPDrainRate:5
CircleSize:4
OverallDifficulty:6.5
ApproachRate:8
SliderMultiplier:1.67
SliderTickRate:1

[Events]
//Background and Video events
0,0,"75359026_p0.jpg",0,0
//Break Periods
2,74567,79811
//Storyboard Layer 0 (Background)
//Storyboard Layer 1 (Fail)
//Storyboard Layer 2 (Pass)
//Storyboard Layer 3 (Foreground)
//Storyboard Layer 4 (Overlay)
//Storyboard Sound Samples

[TimingPoints]
45,387.096774193548,4,2,77,27,1,0
11657,-100,4,2,77,77,0,0
12432,-86.9565217391304,4,2,77,77,0,0
24819,-100,4,2,77,67,0,0
37206,-100,4,2,77,77,0,0
49593,-86.9565217391304,4,2,77,77,0,0
74367,-100,4,2,77,77,0,0
74561,-100,4,2,77,47,0,0
80561,-100,4,3,77,67,0,0
86754,-93.4579439252336,4,3,77,77,0,0
98754,-93.4579439252336,4,2,77,77,0,0
99141,-86.9565217391304,4,2,77,77,0,0
104948,-93.4579439252336,4,2,77,77,0,0
105335,-86.9565217391304,4,2,77,77,0,0
111722,-86.9565217391304,4,2,77,57,0,0
113077,-100,4,2,77,57,0,0
113657,-100,4,2,77,57,0,0
113851,-100,4,2,77,67,0,0
114625,-100,4,2,77,77,0,0
123915,-86.9565217391304,4,2,77,77,0,0
147335,-86.9565217391304,4,2,77,47,0,0

[Colours]
Combo1 : 192,192,192
Combo2 : 191,163,0

[HitObjects]
19,342,11657,6,0,P|59:353|98:367,1,83.5,0|8,1:0|0:0,0:0:0:0:
206,323,12044,1,8,0:0:0:0:
206,323,12238,1,8,0:0:0:0:
100,229,12432,6,0,P|115:183|128:137,1,96.0250018315315,6|2,1:0|1:0,0:0:0:0:
127,137,12819,1,10,0:0:0:0:
0,72,13012,2,0,B|115:69|49:11|183:-2,1,192.050003663063,2|2,1:0|1:0,0:0:0:0:
226,79,13593,2,0,P|288:95|331:108,1,96.0250018315316,10|0,0:0|1:0,0:0:0:0:
390,32,13980,5,6,1:0:0:0:
390,32,14174,1,2,1:0:0:0:
450,117,14367,1,10,0:0:0:0:
344,210,14561,2,0,P|282:226|239:239,1,96.0250018315316,2|0,1:0|1:0,0:0:0:0:
251,235,14948,1,0,1:0:0:0:
333,307,15141,2,0,P|328:330|322:353,3,48.0125009157658,8|8|8|8,0:0|0:0|0:0|0:0,0:0:0:0:
272,358,15528,6,0,B|166:357|232:290|88:264,1,192.050003663063,6|10,1:0|0:0,0:0:0:0:
13,291,16109,1,2,1:0:0:0:
13,291,16303,2,0,P|31:233|41:192,1,96.0250018315316,0|0,1:0|1:0,0:0:0:0:
151,190,16690,2,0,P|132:132|122:91,1,96.0250018315316,10|2,0:0|1:0,0:0:0:0:
0,46,17077,6,0,P|58:72|164:-9,1,192.050003663063,6|10,1:0|0:0,0:0:0:0:
158,9,17657,1,2,1:0:0:0:
304,89,17851,1,2,1:0:0:0:
224,136,18044,1,8,0:0:0:0:
224,136,18238,1,8,0:0:0:0:
224,136,18432,1,8,0:0:0:0:
295,192,18625,6,0,P|277:276|273:297,1,96.0250018315316,6|2,1:0|1:0,0:0:0:0:
275,285,19012,1,10,0:0:0:0:
199,353,19206,2,0,P|260:314|394:363,1,192.050003663063,2|0,1:0|1:0,0:0:0:0:
450,384,19786,2,0,P|468:300|472:279,1,96.0250018315316,10|2,0:0|1:0,0:0:0:0:
383,194,20174,6,0,P|392:146|402:100,1,96.0250018315316,6|2,1:0|1:0,0:0:0:0:
295,135,20561,2,0,P|285:182|275:228,1,96.0250018315316,10|2,0:0|1:0,0:0:0:0:
275,228,20948,1,2,0:0:0:0:
351,302,21141,1,2,1:0:0:0:
273,356,21335,2,0,P|225:365|179:375,1,96.0250018315316,8|2,0:0|1:0,0:0:0:0:
42,303,21722,5,4,1:2:0:0:
42,303,21915,1,8,1:3:0:0:
106,234,22109,2,0,P|96:186|86:140,1,96.0250018315316
172,21,22496,5,4,1:2:0:0:
172,21,22689,1,8,1:3:0:0:
236,90,22883,2,0,P|226:137|216:183,1,96.0250018315316
313,293,23270,5,4,1:2:0:0:
313,293,23463,1,12,1:3:0:0:
377,224,23657,2,0,P|367:176|357:130,1,96.0250018315316
410,69,24044,2,0,P|447:61|485:53,3,48.0125009157658,8|8|8|8,0:0|0:3|0:3|0:3,0:0:0:0:
462,74,24432,6,0,B|382:59|444:34|327:-7,1,144.037502747297,8|0,0:0|0:0,0:0:0:0:
330,15,24819,2,0,P|282:24|236:34,1,83.5,6|0,1:0|1:0,0:0:0:0:
105,100,25206,6,0,P|167:86|242:155,1,167,10|0,0:0|1:0,0:0:0:0:
240,148,25786,1,0,1:0:0:0:
157,207,25980,2,0,P|145:257|139:303,1,83.5,10|2,0:0|0:0,0:0:0:0:
212,366,26367,6,0,P|224:316|230:270,1,83.5,2|2,1:0|1:0,0:0:0:0:
316,252,26754,1,10,0:0:0:0:
322,267,27141,2,0,P|372:279|418:285,1,83.5,2|0,1:0|1:0,0:0:0:0:
463,362,27528,2,0,P|517:338|502:239,1,167,10|2,0:0|1:0,0:0:0:0:
507,243,28109,5,0,1:0:0:0:
428,201,28303,2,0,B|408:113|502:156|481:37,1,167,10|0,0:0|1:0,0:0:0:0:
405,10,28883,1,0,1:0:0:0:
321,58,29077,2,0,P|266:40|234:34,1,83.5,10|2,0:0|0:0,0:0:0:0:
142,110,29464,6,0,P|182:119|222:132,1,83.5,2|2,1:0|1:0,0:0:0:0:
273,214,29851,1,10,0:0:0:0:
273,214,30044,1,2,0:0:0:0:
338,294,30238,2,0,P|297:303|257:316,1,83.5,2|0,1:0|1:0,0:0:0:0:
200,383,30625,1,10,0:0:0:0:
200,383,30819,1,0,0:0:0:0:
101,358,31012,6,0,P|91:317|78:277,1,83.5,2|0,1:0|1:0,0:0:0:0:
0,242,31399,2,0,P|57:244|125:155,1,167,10|2,0:0|1:0,0:0:0:0:
124,165,31980,1,2,1:0:0:0:
147,74,32174,2,0,P|187:64|227:51,1,83.5,10|2,0:0|0:0,0:0:0:0:
291,140,32561,6,0,P|331:149|371:162,1,83.5,2|2,1:0|1:0,0:0:0:0:
371,162,32948,1,10,0:0:0:0:
312,238,33141,2,0,P|225:257|141:286,1,167,2|2,0:0|1:0,0:0:0:0:
267,341,33722,2,0,P|354:360|438:389,1,167,10|2,0:0|1:0,0:0:0:0:
505,312,34303,5,2,1:0:0:0:
505,312,34496,2,0,P|526:251|496:232,1,83.5,10|2,0:0|0:0,0:0:0:0:
464,173,34883,2,0,P|476:133|486:77,1,83.5,2|0,1:0|1:0,0:0:0:0:
403,28,35270,1,10,0:0:0:0:
383,35,35657,6,0,P|371:75|361:131,1,83.5,2|2,1:0|1:0,0:0:0:0:
281,172,36044,1,10,0:0:0:0:
281,172,36238,2,0,B|196:149|253:112|128:51,1,167,2|2,0:0|1:0,0:0:0:0:
79,7,36819,1,10,0:0:0:0:
79,7,37012,1,2,0:0:0:0:
0,80,37206,6,0,P|12:124|21:162,1,83.5,2|8,1:0|0:0,0:0:0:0:
116,197,37593,1,8,0:0:0:0:
116,197,37786,1,2,1:0:0:0:
80,285,37980,2,0,P|36:273|-2:264,2,83.5,2|8|8,1:0|0:0|0:0,0:0:0:0:
80,285,38561,1,2,1:0:0:0:
145,373,38754,6,0,P|178:350|239:368,1,83.5,2|8,1:0|0:0,0:0:0:0:
275,260,39141,1,8,0:0:0:0:
275,260,39335,1,2,1:0:0:0:
206,172,39528,2,0,L|218:108,3,41.75,10|8|8|8,0:0|0:3|0:3|0:3,0:0:0:0:
234,128,39915,1,10,0:0:0:0:
234,128,40109,1,2,1:0:0:0:
313,34,40303,6,0,P|382:55|423:64,1,83.5,6|2,1:0|1:0,0:0:0:0:
481,121,40690,2,0,P|440:131|400:144,1,83.5,10|2,0:0|1:0,0:0:0:0:
400,144,41077,1,2,1:0:0:0:
341,230,41270,2,0,P|353:269|364:310,1,83.5,2|8,1:0|0:0,0:0:0:0:
428,384,41657,6,0,P|334:332|228:378,1,167,2|0,1:0|1:0,0:0:0:0:
210,276,42238,1,8,0:0:0:0:
135,352,42432,2,0,B|82:304|82:304|109:190,1,167,0|0,1:0|1:0,0:0:0:0:
24,148,43012,1,10,0:0:0:0:
24,148,43206,1,2,1:0:0:0:
88,62,43399,6,0,P|130:54|170:41,1,83.5,2|8,1:0|0:0,0:0:0:0:
241,125,43786,1,8,0:0:0:0:
241,125,43979,1,2,1:0:0:0:
338,92,44173,2,0,P|369:66|359:10,2,83.5,2|8|8,1:0|0:0|0:0,0:0:0:0:
338,92,44754,1,2,1:0:0:0:
452,107,44948,6,0,P|460:149|473:189,1,83.5,2|8,1:0|0:0,0:0:0:0:
393,240,45334,1,8,0:0:0:0:
393,240,45528,1,2,1:0:0:0:
466,296,45722,2,0,P|502:285|526:287,3,41.75,10|8|8|8,0:0|0:3|0:3|0:3,0:0:0:0:
458,323,46109,1,10,0:0:0:0:
458,323,46303,1,2,1:0:0:0:
375,384,46496,6,0,P|335:371|294:363,1,83.5,6|2,1:0|1:0,0:0:0:0:
294,363,46883,1,10,0:0:0:0:
219,289,47077,2,0,P|160:243|227:162,1,167,2|2,1:0|1:0,0:0:0:0:
286,130,47657,1,10,0:0:0:0:
286,130,47851,1,2,1:0:0:0:
229,45,48044,1,0,1:0:0:0:
28,146,48819,5,10,0:0:0:0:
28,146,49012,1,2,1:0:0:0:
28,146,49206,2,0,P|39:190|49:246,1,83.5,10|2,0:0|1:0,0:0:0:0:
36,359,49593,6,0,P|84:342|163:332,1,96.0250018315316,6|0,1:0|1:0,0:0:0:0:
128,333,49980,1,8,0:0:0:0:
179,232,50174,2,0,P|247:298|359:264,1,192.050003663063,0|0,1:0|1:0,0:0:0:0:
380,373,50754,1,8,0:0:0:0:
480,286,50948,6,0,B|520:210|520:210|438:127,1,192.050003663063,2|0,1:0|1:0,0:0:0:0:
445,134,51528,1,8,0:0:0:0:
512,56,51722,2,0,P|444:45|396:32,1,96.0250018315316,0|0,1:0|1:0,0:0:0:0:
331,93,52109,1,2,1:0:0:0:
331,93,52303,1,10,0:0:0:0:
262,22,52496,1,2,1:0:0:0:
209,154,52690,6,0,P|230:219|239:259,1,96.0250018315316,2|2,1:0|1:0,0:0:0:0:
236,245,53077,1,10,0:0:0:0:
333,228,53270,2,0,B|220:261|320:312|140:342,1,192.050003663063,2|2,1:0|1:0,0:0:0:0:
93,384,53851,1,8,0:0:0:0:
93,384,54044,1,2,1:0:0:0:
21,267,54238,6,0,P|12:224|-2:170,1,96.0250018315316,2|2,1:0|1:0,0:0:0:0:
45,86,54625,1,10,0:0:0:0:
138,141,54819,2,0,P|263:108|390:81,1,192.050003663063,2|2,1:0|1:2,0:0:0:0:
324,94,55399,1,10,0:2:0:0:
407,26,55593,1,10,0:2:0:0:
421,14,55690,1,8,0:3:0:0:
441,15,55786,2,0,P|472:35|436:109,1,96.0250018315316,8|0,0:3|1:0,0:0:0:0:
477,235,56174,6,0,P|415:210|344:202,1,96.0250018315316,14|0,0:0|0:0,0:0:0:0:
360,309,56561,2,0,P|259:332|165:374,1,192.050003663063,2|10,1:0|0:0,0:0:0:0:
100,327,57141,1,2,1:0:0:0:
163,225,57335,5,6,1:0:0:0:
163,225,57528,1,2,1:0:0:0:
71,190,57722,1,10,0:0:0:0:
118,103,57915,2,0,B|225:87|152:13|293:-4,1,192.050003663063,2|2,1:0|1:0,0:0:0:0:
347,63,58496,2,0,P|336:108|318:193,1,96.0250018315316,10|2,0:0|1:0,0:0:0:0:
211,231,58883,6,0,P|221:277|232:324,1,96.0250018315316,6|2,1:0|1:0,0:0:0:0:
232,324,59270,1,10,0:0:0:0:
329,384,59464,2,0,P|412:345|387:245,1,192.050003663063,2|2,1:0|1:0,0:0:0:0:
494,197,60044,1,10,0:0:0:0:
382,73,60238,6,0,P|263:48|160:20,1,192.050003663063,2|0,1:0|1:0,0:0:0:0:
126,108,60819,2,0,P|221:128|303:150,1,96.0250018315316,8|2,0:0|1:0,0:0:0:0:
283,203,61206,1,10,0:0:0:0:
283,203,61399,1,2,1:0:0:0:
214,263,61593,1,10,0:0:0:0:
214,263,61786,1,2,1:0:0:0:
273,347,61980,6,0,P|177:367|95:389,1,96.0250018315316,6|2,1:0|1:0,0:0:0:0:
111,311,62367,1,8,0:0:0:0:
111,311,62561,1,0,1:0:0:0:
0,229,62754,2,0,P|40:189|107:238,1,96.0250018315316,2|0,1:0|1:0,0:0:0:0:
75,192,63141,1,8,0:0:0:0:
129,64,63335,6,0,B|241:88|164:148|338:171,1,192.050003663063,2|2,1:0|1:0,0:0:0:0:
196,222,63915,2,0,P|189:268|168:342,1,96.0250018315316,8|0,0:0|1:0,0:0:0:0:
252,384,64303,1,2,1:0:0:0:
252,384,64496,1,2,1:0:0:0:
339,346,64690,1,10,0:0:0:0:
339,346,64883,1,2,1:0:0:0:
470,384,65077,6,0,P|506:357|455:284,1,96.0250018315316,6|2,1:0|1:0,0:0:0:0:
433,251,65464,1,10,0:0:0:0:
511,184,65657,2,0,P|405:190|355:112,1,192.050003663063,2|2,1:0|1:0,0:0:0:0:
381,19,66238,2,0,P|330:34|250:51,1,96.0250018315316,8|0,0:0|1:0,0:0:0:0:
259,175,66625,6,0,P|208:160|128:143,1,96.0250018315316,2|2,1:0|1:0,0:0:0:0:
166,150,67012,1,10,0:0:0:0:
104,68,67206,2,0,B|17:120|17:120|53:219,1,192.050003663063,2|2,1:0|1:0,0:0:0:0:
3,298,67786,1,10,0:0:0:0:
99,340,67980,5,10,0:2:0:0:
112,334,68077,1,8,0:3:0:0:
124,330,68174,1,8,0:3:0:0:
195,367,68367,1,0,1:0:0:0:
302,274,68561,2,0,P|320:208|243:167,1,144.037502747297,14|0,0:0|0:0,0:0:0:0:
245,173,68948,2,0,P|229:125|206:61,1,96.0250018315316,2|0,1:0|1:0,0:0:0:0:
283,6,69335,1,10,0:0:0:0:
283,6,69528,1,2,1:0:0:0:
408,67,69722,6,0,P|453:50|498:35,2,96.0250018315316,2|2|10,1:0|1:0|0:0,0:0:0:0:
339,152,70303,2,0,B|348:259|441:190|448:308,1,192.050003663063,2|2,1:0|1:0,0:0:0:0:
374,365,70883,1,10,0:0:0:0:
374,365,71077,1,2,1:0:0:0:
256,297,71270,6,0,P|194:282|133:272,1,96.0250018315316,6|2,1:0|0:0,0:0:0:0:
75,332,71657,2,0,P|39:308|54:238,1,96.0250018315316,10|2,0:0|1:0,0:0:0:0:
0,165,72044,1,2,1:0:0:0:
0,165,72238,2,0,P|47:155|93:144,1,96.0250018315316,2|10,1:0|0:0,0:0:0:0:
164,20,72625,6,0,B|278:43|199:104|341:114,1,192.050003663063,2|0,1:0|1:0,0:0:0:0:
355,212,73206,2,0,P|422:226|466:237,1,96.0250018315316,10|2,0:0|1:0,0:0:0:0:
512,316,73593,2,0,P|445:330|401:341,1,96.0250018315316,2|0,1:0|1:0,0:0:0:0:
334,384,73980,1,6,1:0:0:0:
334,384,74174,1,8,0:3:0:0:
221,295,74367,5,14,1:2:0:0:
221,295,80561,6,0,P|230:250|233:198,1,83.5,8|0,0:2|3:2,0:2:0:0:
324,193,80948,2,0,P|315:148|312:96,1,83.5,8|0,0:2|0:2,0:2:0:0:
298,95,81238,1,8,0:2:0:0:
225,34,81432,1,8,0:2:0:0:
217,47,81528,1,0,0:2:0:0:
128,84,81722,2,0,P|136:124|139:166,1,83.5,8|0,0:2|0:2,0:2:0:0:
50,215,82109,6,0,P|22:251|38:297,1,83.5,8|0,0:2|0:2,0:2:0:0:
105,357,82496,2,0,P|145:348|187:345,1,83.5,8|0,0:2|0:2,0:2:0:0:
197,327,82786,1,8,0:2:0:0:
284,267,82980,1,8,0:2:0:0:
288,287,83077,1,0,0:2:0:0:
376,344,83270,2,0,P|379:302|387:261,1,83.5,8|0,0:2|0:2,0:2:0:0:
480,228,83657,6,0,P|507:171|480:137,1,83.5,8|0,0:2|0:2,0:2:0:0:
456,71,84044,2,0,P|414:67|373:59,1,83.5,8|0,0:2|0:2,0:2:0:0:
358,73,84335,1,8,0:2:0:0:
267,135,84528,1,8,0:2:0:0:
249,143,84625,1,0,0:0:0:0:
306,222,84819,2,0,P|302:263|294:304,1,83.5,8|0,0:2|0:2,0:2:0:0:
300,312,85109,1,0,0:2:0:0:
306,318,85206,1,8,1:2:0:0:
221,272,85399,6,0,P|216:251|213:230,3,41.75,0|0|0|0,0:2|0:2|0:2|0:2,0:0:0:0:
165,222,85786,1,0,0:0:0:0:
129,311,85980,6,0,P|134:343|141:368,3,41.75,8|8|8|8,0:2|0:2|0:2|0:2,0:0:0:0:
107,308,86367,2,0,P|80:278|88:238,1,83.5,4|0,1:2|0:0,0:0:0:0:
20,149,86754,6,8,P|97:137|136:127,1,89.3449972734071,8|8,0:3|0:3,0:3:0:0:
114,140,87044,1,8,0:3:0:0:
120,145,87141,1,8,0:2:0:0:
183,55,87335,1,8,0:3:0:0:
192,43,87432,2,0,P|235:51|280:57,1,89.3449972734071,8|8,0:3|0:3,0:0:0:0:
295,61,87722,1,8,0:3:0:0:
393,5,87915,2,0,P|428:54|407:88,1,89.3449972734071,8|8,0:2|0:3,0:0:0:0:
512,150,88303,5,8,1:3:0:0:
472,233,88496,1,8,0:3:0:0:
467,241,88593,1,8,0:3:0:0:
462,248,88690,2,8,P|414:231|370:219,1,89.3449972734071,8|8,0:2|0:3,0:3:0:0:
366,235,88980,1,8,0:3:0:0:
300,155,89174,1,8,0:3:0:0:
281,165,89270,1,8,0:3:0:0:
214,232,89464,2,0,P|207:276|239:302,1,89.3449972734071,8|8,0:2|0:3,0:0:0:0:
164,376,89851,6,8,P|121:360|79:348,1,89.3449972734071,8|8,1:3|0:3,0:3:0:0:
74,340,90141,1,8,0:3:0:0:
68,332,90238,1,8,0:2:0:0:
15,243,90432,1,8,0:3:0:0:
3,234,90529,2,0,P|11:191|17:146,1,89.3449972734071,8|8,0:3|0:3,0:0:0:0:
21,131,90819,1,8,0:3:0:0:
105,75,91012,2,8,P|110:119|119:163,1,89.3449972734071,8|8,0:2|0:3,0:3:0:0:
199,213,91399,5,8,1:3:0:0:
288,178,91593,1,8,0:3:0:0:
298,183,91690,1,8,0:3:0:0:
309,188,91787,2,8,P|293:230|281:272,1,89.3449972734071,8|8,0:2|0:3,0:3:0:0:
270,282,92077,1,8,0:3:0:0:
338,344,92271,1,8,0:3:0:0:
343,359,92367,1,8,0:3:0:0:
442,352,92561,2,0,P|458:310|470:268,1,89.3449972734071,8|8,0:2|0:3,0:0:0:0:
393,198,92948,6,8,P|357:154|401:116,1,89.3449972734071,8|8,1:3|0:3,0:3:0:0:
373,125,93238,1,8,0:3:0:0:
378,119,93335,1,8,0:2:0:0:
422,34,93529,1,8,0:3:0:0:
413,22,93626,2,0,P|370:30|325:36,1,89.3449972734071,8|8,0:3|0:3,0:0:0:0:
310,40,93916,1,8,0:3:0:0:
263,126,94109,2,0,P|220:118|175:112,1,89.3449972734071,8|8,0:2|0:3,0:0:0:0:
107,47,94497,5,8,1:3:0:0:
24,102,94690,1,8,0:3:0:0:
16,107,94787,1,8,0:3:0:0:
9,112,94884,2,8,P|26:160|38:204,1,89.3449972734071,8|8,0:2|0:3,0:3:0:0:
54,197,95174,1,8,0:3:0:0:
132,247,95368,1,8,0:3:0:0:
122,266,95464,1,8,0:3:0:0:
57,344,95658,2,8,P|84:376|126:368,1,89.3449972734071,8|8,0:2|0:3,0:3:0:0:
208,295,96045,6,8,P|250:282|292:267,1,89.3449972734071,8|8,1:3|0:3,0:3:0:0:
296,275,96335,1,8,0:3:0:0:
299,282,96432,1,8,0:2:0:0:
363,368,96626,1,8,0:3:0:0:
382,377,96723,2,0,P|412:346|408:303,1,89.3449972734071,8|8,0:3|0:3,0:0:0:0:
498,252,97013,1,8,0:3:0:0:
448,163,97206,2,8,P|404:158|360:149,1,89.3449972734071,8|8,0:2|0:3,0:3:0:0:
356,156,97496,1,8,0:3:0:0:
353,162,97593,5,8,0:2:0:0:
353,162,98754,2,0,P|436:144|521:135,1,134.017495910111,8|0,0:0|0:0,0:0:0:0:
494,124,99141,6,0,P|488:58|392:45,1,144.037502747297,6|8,1:0|0:0,0:0:0:0:
410,47,99528,1,0,1:0:0:0:
332,0,99722,1,8,0:0:0:0:
257,76,99915,2,0,P|186:58|104:45,1,144.037502747297,0|8,1:0|0:0,0:0:0:0:
102,57,100303,2,0,P|87:113|77:179,1,96.0250018315316,0|8,1:0|0:0,0:0:0:0:
0,268,100690,6,0,P|71:257|114:313,1,144.037502747297,2|8,1:0|0:0,0:0:0:0:
107,325,101077,1,0,1:0:0:0:
190,384,101270,1,8,0:0:0:0:
262,304,101464,2,0,L|250:247,3,48.0125009157658,2|8|8|8,1:0|0:2|0:2|0:2,0:0:0:0:
224,242,101851,2,0,L|236:185,3,48.0125009157658,0|0|8|8,1:0|0:0|0:0|0:0,0:0:0:0:
253,175,102238,6,0,L|405:209,1,144.037502747297,6|8,1:0|0:0,0:0:0:0:
404,221,102625,2,0,P|450:172|419:128,1,96.0250018315316,0|8,1:0|0:0,0:0:0:0:
512,69,103012,2,0,L|360:35,1,144.037502747297,0|8,1:0|0:0,0:0:0:0:
357,53,103399,1,0,1:0:0:0:
275,12,103593,1,8,0:0:0:0:
180,103,103786,6,0,P|186:138|191:184,2,64.0166678876877,8|8|8,1:2|0:0|0:0,0:0:0:0:
269,164,104174,2,0,P|263:199|258:245,2,64.0166678876877,8|8|8,1:2|0:0|0:0,0:0:0:0:
198,271,104561,2,0,P|163:265|117:260,2,64.0166678876877,8|8|8,1:2|0:0|0:0,0:0:0:0:
252,328,104948,2,0,P|287:322|331:319,2,59.5633315156047,8|8|8,0:3|0:3|0:3,0:0:0:0:
208,384,105335,6,0,L|45:360,1,144.037502747297,6|8,1:0|0:0,0:0:0:0:
58,340,105722,1,0,1:0:0:0:
134,261,105916,1,8,0:0:0:0:
58,178,106109,2,0,P|129:166|198:148,1,144.037502747297,0|8,1:0|0:0,0:0:0:0:
206,130,106497,2,0,P|191:74|181:8,1,96.0250018315316,0|8,1:0|0:0,0:0:0:0:
314,69,106883,6,0,P|335:145|346:228,1,144.037502747297,2|8,1:0|0:0,0:0:0:0:
324,223,107271,1,0,1:0:0:0:
392,291,107464,1,8,0:0:0:0:
472,241,107658,2,0,L|462:194,3,48.0125009157658,10|8|8|8,0:0|0:0|0:0|0:0,0:0:0:0:
432,174,108045,2,0,L|420:117,3,48.0125009157658,8|8|8|8,1:2|1:2|1:2|1:2,0:0:0:0:
459,96,108432,6,0,P|423:56|336:69,1,144.037502747297,14|8,1:2|0:0,0:0:0:0:
327,87,108819,1,4,1:0:0:0:
245,26,109012,1,8,0:0:0:0:
173,99,109206,2,0,L|204:239,1,144.037502747297,4|8,1:0|0:0,0:0:0:0:
223,247,109593,1,0,1:0:0:0:
316,297,109787,1,8,0:0:0:0:
212,353,109980,6,0,P|131:376|109:385,1,96.0250018315316,12|0,0:0|1:0,0:0:0:0:
21,345,110367,1,0,1:0:0:0:
21,345,110561,1,0,1:0:0:0:
74,262,110754,2,0,P|60:213|54:200,7,48.0125009157658,8|8|8|8|10|8|10|8,0:0|0:0|0:0|0:0|1:2|1:2|1:2|1:2,0:0:0:0:
36,204,111528,5,10,0:0:0:0:
36,204,113077,2,0,B|175:217|84:280|251:286,1,208.75,2|0,0:0|0:0,0:0:0:0:
241,270,113657,1,2,1:0:0:0:
315,353,113851,2,0,P|397:334|427:332,1,83.5,10|8,0:0|0:0,0:0:0:0:
400,327,114141,1,8,0:3:0:0:
403,320,114238,1,8,0:3:0:0:
364,235,114432,1,0,1:0:0:0:
466,150,114625,6,0,P|425:139|385:126,1,83.5,6|2,1:0|1:0,0:0:0:0:
327,31,115012,2,0,P|286:41|246:54,1,83.5,10|2,0:0|1:0,0:0:0:0:
246,53,115399,1,2,1:0:0:0:
192,134,115592,2,0,P|205:173|215:214,1,83.5,2|8,1:0|0:0,0:0:0:0:
319,234,115979,6,0,P|390:305|341:373,1,167,2|0,1:0|1:0,0:0:0:0:
270,332,116560,1,8,0:0:0:0:
187,384,116754,2,0,B|84:372|154:317|41:300,1,167,0|0,1:0|1:0,0:0:0:0:
0,230,117334,1,10,0:0:0:0:
0,230,117528,1,2,1:0:0:0:
85,180,117721,6,0,P|72:140|64:99,1,83.5,2|8,1:0|0:0,0:0:0:0:
132,22,118108,1,8,0:0:0:0:
132,22,118303,1,2,1:0:0:0:
209,86,118496,2,0,P|221:125|229:166,2,83.5,2|8|8,1:0|0:0|0:0,0:0:0:0:
209,86,119076,1,2,1:0:0:0:
274,20,119270,6,0,P|316:12|356:-1,1,83.5,2|8,1:0|0:0,0:0:0:0:
444,67,119656,1,8,0:0:0:0:
444,67,119850,1,2,1:0:0:0:
394,153,120044,2,0,P|373:156|354:164,3,41.75,10|8|8|8,0:0|0:3|0:3|0:3,0:0:0:0:
354,190,120431,1,10,0:0:0:0:
354,190,120625,1,2,1:0:0:0:
419,260,120818,6,0,P|459:268|499:280,1,83.5,6|2,1:0|1:0,0:0:0:0:
512,380,121205,1,10,0:0:0:0:
512,380,121399,2,0,P|433:351|345:339,1,167,2|2,1:0|1:0,0:0:0:0:
287,269,121979,1,10,0:0:0:0:
287,269,122173,1,2,1:0:0:0:
209,324,122367,6,0,P|177:302|188:243,1,83.5,0|0,1:0|0:0,0:0:0:0:
242,187,122754,1,10,0:0:0:0:
242,187,122947,1,10,0:0:0:0:
242,187,123141,2,0,P|253:143|263:87,1,83.5,10|10,0:0|0:0,0:0:0:0:
179,38,123528,2,0,P|168:82|158:138,1,83.5,10|10,0:0|0:0,0:0:0:0:
152,131,123819,1,0,0:0:0:0:
143,139,123915,6,0,P|95:122|16:112,1,96.0250018315316,6|0,1:0|1:0,0:0:0:0:
50,113,124302,1,8,0:0:0:0:
35,217,124496,2,0,P|8:315|103:350,1,192.050003663063,0|0,1:0|1:0,0:0:0:0:
133,260,125076,1,8,0:0:0:0:
257,310,125270,6,0,B|373:321|302:379|450:386,1,192.050003663063,2|0,1:0|1:0,0:0:0:0:
474,285,125850,1,8,0:0:0:0:
474,285,126044,2,0,P|490:218|508:171,1,96.0250018315316,0|0,1:0|1:0,0:0:0:0:
416,134,126431,1,2,1:0:0:0:
416,134,126625,1,10,0:0:0:0:
503,76,126818,1,2,1:0:0:0:
387,0,127012,6,0,P|341:15|295:27,1,96.0250018315316,2|2,1:0|1:0,0:0:0:0:
279,121,127399,1,10,0:0:0:0:
176,169,127593,2,0,P|260:152|326:234,1,192.050003663063,2|2,1:0|1:0,0:0:0:0:
253,280,128173,1,8,0:0:0:0:
253,280,128366,1,2,1:0:0:0:
159,372,128560,6,0,P|112:359|65:350,1,96.0250018315316,2|2,1:0|1:0,0:0:0:0:
0,269,128947,1,10,0:0:0:0:
107,234,129141,2,0,P|74:109|47:-18,1,192.050003663063,2|2,1:0|1:2,0:0:0:0:
60,47,129721,1,10,0:2:0:0:
168,72,129915,1,10,0:2:0:0:
171,83,130012,1,8,0:3:0:0:
175,93,130109,2,0,P|191:155|205:219,1,96.0250018315316,8|0,0:3|1:0,0:0:0:0:
337,220,130496,6,0,P|383:219|410:182,1,96.0250018315316,14|0,0:0|0:0,0:0:0:0:
442,76,130883,2,0,B|421:192|536:153|507:271,1,192.050003663063,2|10,1:0|0:0,0:0:0:0:
511,243,131463,1,2,1:0:0:0:
434,350,131657,5,6,1:0:0:0:
434,350,131850,1,2,1:0:0:0:
345,301,132044,1,10,0:0:0:0:
252,343,132238,2,0,P|158:363|58:385,1,192.050003663063,2|2,1:0|1:0,0:0:0:0:
112,282,132818,2,0,P|67:271|-18:253,1,96.0250018315316,10|2,0:0|1:0,0:0:0:0:
136,168,133205,6,0,P|182:158|229:147,1,96.0250018315316,6|2,1:0|1:0,0:0:0:0:
229,146,133592,1,10,0:0:0:0:
307,225,133786,2,0,P|403:243|474:182,1,192.050003663063,2|2,1:0|1:0,0:0:0:0:
508,103,134366,1,10,0:0:0:0:
404,12,134560,6,0,B|288:16|352:75|217:64,1,192.050003663063,2|0,1:0|1:0,0:0:0:0:
122,28,135141,2,0,P|132:74|141:121,1,96.0250018315316,8|2,0:0|1:0,0:0:0:0:
72,187,135528,1,10,0:0:0:0:
72,187,135721,1,2,1:0:0:0:
167,248,135915,1,10,0:0:0:0:
167,248,136108,1,2,1:0:0:0:
109,334,136302,6,0,P|205:354|287:376,1,96.0250018315316,6|2,1:0|1:0,0:0:0:0:
282,288,136689,1,8,0:0:0:0:
282,288,136883,1,0,1:0:0:0:
388,379,137076,2,0,P|428:339|379:272,1,96.0250018315316,2|0,1:0|1:0,0:0:0:0:
424,303,137463,1,8,0:0:0:0:
512,196,137657,6,0,P|431:260|353:224,1,192.050003663063,2|2,1:0|1:0,0:0:0:0:
276,167,138238,2,0,P|287:120|295:73,1,96.0250018315316,8|0,0:0|1:0,0:0:0:0:
225,0,138625,1,2,1:0:0:0:
225,0,138818,1,2,1:0:0:0:
148,57,139012,1,10,0:0:0:0:
148,57,139205,1,2,1:0:0:0:
10,0,139399,6,0,P|21:46|29:93,1,96.0250018315316,6|2,1:0|1:0,0:0:0:0:
29,93,139786,1,10,0:0:0:0:
127,155,139980,2,0,P|111:254|86:351,1,192.050003663063,2|2,1:0|1:0,0:0:0:0:
192,384,140560,2,0,P|203:337|216:291,1,96.0250018315316,8|0,0:0|1:0,0:0:0:0:
334,238,140947,6,0,P|369:191|328:147,1,96.0250018315316,2|2,1:0|1:0,0:0:0:0:
356,161,141334,1,10,0:0:0:0:
257,118,141528,2,0,B|355:101|294:48|414:16,1,192.050003663063,2|2,1:0|1:0,0:0:0:0:
504,73,142108,1,10,0:0:0:0:
446,140,142302,5,10,0:2:0:0:
450,154,142399,1,8,0:3:0:0:
453,166,142496,1,8,0:3:0:0:
512,215,142689,1,0,1:0:0:0:
371,239,142883,2,0,P|357:312|341:390,1,144.037502747297,14|0,0:0|0:0,0:0:0:0:
326,384,143270,2,0,P|280:367|230:357,1,96.0250018315316,2|0,1:0|1:0,0:0:0:0:
183,271,143657,1,10,0:0:0:0:
183,271,143850,1,2,1:0:0:0:
286,195,144044,6,0,P|269:150|254:105,2,96.0250018315316,2|2|10,1:0|1:0|0:0,0:0:0:0:
369,267,144625,2,0,P|404:173|435:79,1,192.050003663063,2|2,1:0|1:0,0:0:0:0:
370,10,145205,1,10,0:0:0:0:
370,10,145399,1,2,1:0:0:0:
253,104,145592,6,0,P|191:89|130:79,1,96.0250018315316,6|2,1:0|0:0,0:0:0:0:
78,16,145979,2,0,P|42:40|57:110,1,96.0250018315316,10|2,0:0|1:0,0:0:0:0:
109,171,146366,1,2,1:0:0:0:
109,171,146560,2,0,P|119:218|130:264,1,96.0250018315316,2|10,1:0|0:0,0:0:0:0:
57,328,146948,1,2,1:0:0:0:
223,359,147141,5,0,1:0:0:0:
256,192,147238,12,0,159980,0:0:0:0:
