osu file format v14

[General]
AudioFilename: audio.mp3
AudioLeadIn: 0
PreviewTime: 49953
Countdown: 0
SampleSet: None
StackLeniency: 0.9
Mode: 0
LetterboxInBreaks: 0
WidescreenStoryboard: 1

[Editor]
DistanceSpacing: 1.7
BeatDivisor: 4
GridSize: 4
TimelineZoom: 1.600006

[Metadata]
Title:Wonder Drive
TitleUnicode:Wonder Drive
Artist:Oresama
ArtistUnicode:Oresama
Creator:KiriShenpai
Version:Hard
Source:Alice To Zouroku
Tags:anime alice to zouroku TV size
BeatmapID:1375656
BeatmapSetID:607421

[Difficulty]
HPDrainRate:7
CircleSize:4
OverallDifficulty:6
ApproachRate:8
SliderMultiplier:1
SliderTickRate:1

[Events]
//Background and Video events
0,0,"hq720.jpg",0,0
//Break Periods
//Storyboard Layer 0 (Background)
//Storyboard Layer 1 (Fail)
//Storyboard Layer 2 (Pass)
//Storyboard Layer 3 (Foreground)
//Storyboard Sound Samples

[TimingPoints]
453,375,4,1,0,75,1,0
49859,-83.3333333333333,4,1,0,75,0,0
51171,-100,4,1,0,75,0,0
52859,-83.3333333333333,4,1,0,75,0,0
53984,-100,4,1,0,75,0,0
61859,-83.3333333333333,4,1,0,75,0,0
62984,-100,4,1,0,75,0,0
86984,-83.3333333333333,4,1,0,75,0,0

[HitObjects]
152,276,1015,5,2,0:0:0:0:
228,276,1203,1,2,0:0:0:0:
287,227,1388,2,0,L|312:172,1,50
304,112,1765,5,2,0:0:0:0:
248,72,1953,1,2,0:0:0:0:
180,60,2140,2,0,P|143:74|143:96,1,50
92,124,2515,2,0,L|78:173,2,50
160,156,3078,1,0,0:0:0:0:
158,169,3265,2,4,L|158:225,1,50
120,304,3828,5,2,0:0:0:0:
160,304,4015,2,0,L|216:304,1,50
252,236,4391,5,2,0:0:0:0:
284,236,4578,2,0,L|332:272,1,50
386,227,4953,6,8,L|340:128,1,100
282,192,5515,6,8,L|243:96,1,100
168,74,6078,6,6,L|146:101,18,25
121,74,7953,6,4,P|64:76|65:118,1,100
80,136,8515,1,8,0:0:0:0:
125,142,8703,2,4,P|171:121|178:161,1,100
172,200,9265,1,8,0:0:0:0:
125,208,9453,2,4,P|75:195|65:232,1,100
56,288,10015,1,8,0:0:0:0:
110,271,10203,2,2,P|145:277|157:254,3,50
200,240,10953,5,2,0:0:0:0:
260,260,11140,1,2,0:0:0:0:
285,213,11328,2,0,P|335:213|321:159,1,100
304,112,11890,5,2,0:0:0:0:
272,88,12078,1,2,0:0:0:0:
231,80,12265,2,2,P|180:77|170:124,3,100
212,176,13765,5,2,0:0:0:0:
276,140,13953,1,2,0:0:0:0:
316,216,14328,5,2,0:0:0:0:
252,252,14515,1,2,0:0:0:0:
322,280,14890,5,0,0:0:0:0:
364,264,15078,2,0,P|448:185|392:132,2,200
256,192,16953,12,0,19015,0:0:0:0:
256,124,19390,5,2,0:0:0:0:
364,44,19765,5,8,0:0:0:0:
381,53,19953,2,0,B|475:125|475:125,1,100
348,132,20515,5,8,0:0:0:0:
365,140,20703,2,0,B|452:212|452:212,1,100
328,216,21265,5,8,0:0:0:0:
341,219,21453,2,6,B|384:258|384:258,7,50
257,255,22953,6,0,L|157:226,1,100
156,208,23515,1,2,0:0:0:0:
180,176,23703,1,4,0:0:0:0:
216,144,23890,1,2,0:0:0:0:
252,120,24078,2,0,L|304:108,1,50
368,76,24453,2,0,L|416:128,1,50
436,192,24828,2,0,L|388:236,1,50
344,132,25203,5,0,0:0:0:0:
348,140,25390,1,4,0:0:0:0:
353,148,25578,2,2,L|255:194,1,100
372,240,26140,1,4,0:0:0:0:
361,240,26328,2,2,P|322:281|278:258,1,100
184,232,26890,1,4,0:0:0:0:
164,220,27078,2,2,P|111:205|110:158,1,100
136,96,27640,1,4,0:0:0:0:
160,96,27828,2,2,B|171:32|240:46|240:46,2,100
272,108,28953,5,0,0:0:0:0:
316,72,29140,1,0,0:0:0:0:
351,101,29328,2,2,P|364:107|357:142,1,50
324,244,29703,1,0,0:0:0:0:
284,288,29890,1,0,0:0:0:0:
231,268,30078,2,2,P|211:257|225:234,1,50
200,100,30453,5,0,0:0:0:0:
148,68,30640,1,0,0:0:0:0:
113,93,30828,2,2,P|92:93|79:121,1,50
48,204,31203,1,0,0:0:0:0:
56,268,31390,1,0,0:0:0:0:
108,296,31578,1,0,0:0:0:0:
136,216,31765,5,2,0:0:0:0:
154,204,31953,2,0,L|224:125,1,100
280,176,32516,1,2,0:0:0:0:
287,177,32703,2,0,P|336:192|312:237,1,100
252,260,33265,2,2,P|266:281|301:288,4,50
384,260,34203,5,2,0:0:0:0:
414,254,34390,2,0,P|435:195|407:174,1,100
392,152,34953,1,2,0:0:0:0:
340,96,35140,6,0,P|291:81|258:114,1,100
152,76,35703,1,2,0:0:0:0:
112,116,35890,1,2,0:0:0:0:
80,140,36078,2,0,L|56:184,1,50
64,272,36453,2,0,L|128:304,1,50
196,212,36828,2,0,L|216:264,1,50
296,324,37203,5,8,0:0:0:0:
304,328,37390,1,8,0:0:0:0:
309,330,37578,2,2,L|352:288,1,50
312,168,37953,1,8,0:0:0:0:
320,164,38140,1,8,0:0:0:0:
329,161,38328,2,2,P|324:129|302:112,1,50
188,88,38703,5,8,0:0:0:0:
176,84,38890,1,8,0:0:0:0:
164,84,39078,2,2,P|137:84|110:107,1,50
79,170,39453,2,0,L|106:223,2,50
188,248,40015,1,0,0:0:0:0:
195,250,40203,2,6,P|233:252|242:221,2,75
184,128,40953,5,0,0:0:0:0:
216,88,41140,1,0,0:0:0:0:
260,108,41328,2,0,L|478:57,1,200
444,180,42453,1,0,0:0:0:0:
432,232,42640,1,0,0:0:0:0:
384,216,42828,1,0,0:0:0:0:
352,208,43015,2,0,L|248:232,1,100
196,284,43578,6,0,L|168:220,1,50
96,244,43953,5,0,0:0:0:0:
104,240,44140,1,0,0:0:0:0:
112,236,44328,2,0,L|104:172,1,50
64,124,44703,5,2,0:0:0:0:
68,120,44890,1,0,0:0:0:0:
72,120,45078,2,0,L|140:128,1,50
197,52,45453,2,0,L|256:68,1,50
248,164,45828,1,0,0:0:0:0:
265,152,46015,2,0,L|319:124,1,50
356,80,46390,1,0,0:0:0:0:
380,84,46578,1,0,0:0:0:0:
416,188,46953,5,0,0:0:0:0:
312,272,47328,1,0,0:0:0:0:
248,272,47515,1,0,0:0:0:0:
124,228,47890,1,0,0:0:0:0:
230,190,48265,2,6,L|251:169,16,25
391,66,49953,6,0,L|348:110,1,59.9999981689454
187,66,50328,2,0,L|231:114,1,59.9999981689454
296,270,50703,2,0,L|296:205,1,59.9999981689454
116,144,51078,1,0,0:0:0:0:
96,168,51265,2,0,L|96:228,4,50
200,256,52203,1,4,0:0:0:0:
216,252,52390,2,0,L|244:308,2,50
360,264,52953,6,2,L|360:204,1,59.9999981689454
440,76,53328,2,2,L|392:116,1,59.9999981689454
248,76,53703,2,2,L|292:120,1,59.9999981689454
192,48,54078,1,0,0:0:0:0:
164,64,54265,2,2,P|140:72|136:96,4,50
32,100,55203,1,8,0:0:0:0:
4,168,55390,1,8,0:0:0:0:
72,156,55578,2,6,L|112:196,2,50
204,120,56328,5,0,0:0:0:0:
216,116,56515,1,0,0:0:0:0:
228,108,56703,2,0,L|276:64,1,50
432,128,57078,5,8,0:0:0:0:
424,140,57265,2,0,L|376:176,1,50
304,212,57640,2,0,P|268:196|264:180,1,50
316,88,58015,2,0,P|260:60|224:76,1,100
160,80,58578,1,0,0:0:0:0:
144,132,58765,1,0,0:0:0:0:
100,208,58953,5,0,0:0:0:0:
144,256,59140,2,0,L|208:256,1,50
224,180,59515,2,0,P|239:160|278:168,1,50,0|0,0:3|0:3,0:3:0:0:
292,60,59890,1,0,0:0:0:0:
304,60,60078,1,0,0:0:0:0:
320,60,60265,2,4,B|272:204|436:-16|400:168,1,200
352,220,61390,1,0,0:0:0:0:
324,256,61578,1,0,0:0:0:0:
200,302,61953,6,2,L|200:241,1,59.9999981689454
79,73,62328,2,2,L|130:115,1,59.9999981689454
303,64,62703,2,2,L|261:110,1,59.9999981689454
384,96,63078,6,4,L|424:144,1,50
380,192,63453,1,0,0:0:0:0:
336,236,63640,2,4,L|292:264,1,50
232,264,64015,2,4,L|184:236,1,50
140,188,64390,1,0,0:0:0:0:
64,296,64765,5,0,0:0:0:0:
16,248,64953,2,0,P|41:194|87:196,1,100
160,192,65515,1,0,0:0:0:0:
208,212,65703,2,6,L|240:168,4,50
348,212,66640,5,0,0:0:0:0:
396,192,66828,1,0,0:0:0:0:
416,168,67015,2,0,P|404:120|348:100,1,100
280,80,67578,5,0,0:0:0:0:
264,88,67765,1,0,0:0:0:0:
252,92,67953,2,0,L|208:136,1,50
140,176,68328,6,6,L|168:208,10,25
224,252,69453,1,0,0:0:0:0:
280,296,69640,2,0,L|324:240,3,50
360,120,70390,1,0,0:0:0:0:
336,96,70578,1,0,0:0:0:0:
216,56,70953,6,2,P|152:76|136:104,1,100
100,168,71515,6,4,P|88:216|140:232,1,100
180,172,72078,6,0,P|264:192|224:280,1,200,2|10,1:0|1:0,1:0:0:0:
352,236,73015,5,2,0:0:0:0:
304,188,73203,1,2,0:0:0:0:
360,148,73390,2,0,L|408:116,1,50
356,80,73765,5,2,0:0:0:0:
288,72,73953,1,2,0:0:0:0:
232,100,74140,1,2,0:0:0:0:
256,192,74515,12,0,76578,0:0:0:0:
344,220,76953,6,2,L|372:120,1,100
260,244,77515,2,2,L|192:152,1,100
256,76,78078,2,0,P|108:68|112:200,1,300
144,288,79390,5,0,0:0:0:0:
216,232,79578,1,0,0:0:0:0:
304,264,79953,6,2,L|380:192,1,100
292,164,80515,2,2,L|176:128,1,100
232,228,81078,5,2,0:0:0:0:
220,228,81265,2,0,P|184:244|164:228,1,50
124,180,81640,5,2,0:0:0:0:
126,162,81827,2,0,P|162:147|181:164,1,50
232,188,82203,5,2,0:0:0:0:
241,195,82390,1,2,0:0:0:0:
248,204,82578,2,0,L|283:243,1,50
160,304,82953,6,0,L|208:276,2,50
236,268,83515,2,0,L|292:272,2,50
368,216,84078,1,0,0:0:0:0:
364,212,84265,2,0,L|352:176,2,25
280,168,84640,2,0,L|304:132,2,25
256,80,85015,2,0,L|212:96,2,25
208,236,85390,2,0,L|176:204,2,25
160,136,85953,5,2,0:0:0:0:
184,136,86140,1,2,0:0:0:0:
200,136,86328,2,0,L|256:136,1,50
364,144,86890,5,0,0:0:0:0:
352,160,87078,2,0,L|316:200,1,50
216,220,88390,5,0,0:0:0:0:
232,232,88578,2,0,L|272:280,1,59.9999981689454
