osu file format v14

[General]
AudioFilename: audio.mp3
AudioLeadIn: 0
PreviewTime: 49953
Countdown: 0
SampleSet: None
StackLeniency: 0.7
Mode: 0
LetterboxInBreaks: 0
WidescreenStoryboard: 0

[Editor]
DistanceSpacing: 1.7
BeatDivisor: 4
GridSize: 4
TimelineZoom: 1

[Metadata]
Title:Wonder Drive
TitleUnicode:Wonder Drive
Artist:Oresama
ArtistUnicode:Oresama
Creator:KiriShenpai
Version:Easy
Source:Alice To Zouroku
Tags:anime alice to zouroku TV size
BeatmapID:1439959
BeatmapSetID:607421

[Difficulty]
HPDrainRate:2
CircleSize:3
OverallDifficulty:2
ApproachRate:3
SliderMultiplier:0.8
SliderTickRate:1

[Events]
//Background and Video events
0,0,"hq720.jpg",0,0
//Break Periods
//Storyboard Layer 0 (Background)
//Storyboard Layer 1 (Fail)
//Storyboard Layer 2 (Pass)
//Storyboard Layer 3 (Foreground)
//Storyboard Sound Samples

[TimingPoints]
453,375,4,3,0,100,1,0

[HitObjects]
92,200,4953,5,2,0:0:0:0:
140,260,5515,1,2,0:0:0:0:
208,328,6078,2,2,L|392:168,1,240,2|0,0:0|0:0,0:0:0:0:
344,112,7953,5,2,1:0:0:0:
288,44,8703,1,2,0:0:0:0:
212,104,9453,5,8,0:0:0:0:
152,68,9828,1,8,0:0:0:0:
148,136,10203,1,8,0:0:0:0:
144,248,10953,5,2,0:0:0:0:
208,312,11703,1,2,0:0:0:0:
280,252,12453,5,8,0:0:0:0:
336,288,12828,1,8,0:0:0:0:
336,216,13203,1,8,0:0:0:0:
276,140,13953,6,2,L|116:140,1,160,2|4,0:0|0:0,0:0:0:0:
64,52,15453,2,2,L|240:52,1,160,6|2,0:0|0:0,0:0:0:0:
256,192,16953,12,0,18453,0:0:0:0:
256,168,19390,5,12,0:0:0:0:
152,176,19953,6,2,P|250:74|361:185,1,320,2|6,0:3|0:3,0:3:0:0:
252,160,22203,1,2,0:3:0:0:
316,224,22578,2,0,L|244:268,1,80
172,204,23703,1,2,0:3:0:0:
115,211,24078,1,6,0:3:0:0:
96,256,24453,1,6,0:3:0:0:
152,336,25953,5,8,0:0:0:0:
104,276,26515,1,0,0:0:0:0:
204,252,27453,2,0,L|388:88,1,240,2|2,0:0|0:0,0:0:0:0:
452,160,28953,5,8,0:0:0:0:
408,224,29515,1,0,0:0:0:0:
328,164,30453,5,8,0:0:0:0:
372,100,31015,1,0,0:0:0:0:
260,88,31953,6,4,P|104:88|104:220,2,320,2|0|0,0:0|0:0|0:0,0:0:0:0:
264,164,35515,1,0,0:0:0:0:
268,280,36453,5,2,0:0:0:0:
328,252,36828,1,2,0:0:0:0:
360,196,37203,1,2,0:0:0:0:
304,72,37953,2,4,B|284:212|144:216|120:204,2,240,2|4|4,3:3|3:3|3:3,3:3:0:0:
184,96,40953,5,4,0:0:0:0:
288,92,41703,2,2,B|584:136|48:224|420:304,1,400
184,268,43953,5,2,0:0:0:0:
116,200,44703,1,0,0:0:0:0:
188,132,45452,1,2,0:0:0:0:
256,200,46203,1,0,0:0:0:0:
376,212,46953,2,0,P|352:116|220:52,2,240
272,160,49952,5,8,0:0:0:0:
232,112,50327,1,8,0:0:0:0:
188,160,50702,1,8,0:0:0:0:
144,248,51452,2,2,L|340:92,1,240
420,168,52952,5,8,0:0:0:0:
392,224,53327,1,8,0:0:0:0:
328,232,53702,1,8,0:0:0:0:
248,300,54452,2,2,L|80:120,1,240
168,112,56327,5,2,0:0:0:0:
216,64,56702,1,2,0:0:0:0:
272,80,57078,2,0,L|220:148,1,80,2|2,0:0|0:0,0:0:0:0:
288,156,57828,1,2,0:0:0:0:
352,156,58203,1,2,0:0:0:0:
168,232,58953,6,2,P|204:284|272:232,3,160
336,188,61953,5,8,0:0:0:0:
384,148,62328,1,8,0:0:0:0:
336,124,62703,1,8,0:0:0:0:
268,80,63453,2,2,L|232:168,1,80
184,72,64203,2,2,L|144:160,1,80
72,144,64953,6,0,L|128:204,1,80
200,180,65703,1,2,0:0:0:0:
208,100,66078,2,0,P|284:96|292:168,1,160,0|2,0:0|0:0,0:0:0:0:
368,188,67203,1,2,0:0:0:0:
344,228,67578,1,2,0:0:0:0:
300,244,67953,1,2,0:0:0:0:
232,260,68328,2,2,B|112:236|104:136|144:48|232:8|332:24|408:144|308:240,1,560
248,160,71515,1,0,0:0:0:0:
244,64,72078,1,0,0:0:0:0:
256,192,73953,12,0,76953,0:0:0:0:
