osu file format v14

[General]
AudioFilename: audio.mp3
AudioLeadIn: 0
PreviewTime: 49953
Countdown: 0
SampleSet: None
StackLeniency: 0.7
Mode: 0
LetterboxInBreaks: 0
WidescreenStoryboard: 1

[Editor]
DistanceSpacing: 1
BeatDivisor: 4
GridSize: 4
TimelineZoom: 1

[Metadata]
Title:Wonder Drive
TitleUnicode:Wonder Drive
Artist:Oresama
ArtistUnicode:Oresama
Creator:KiriShenpai
Version:Normal
Source:Alice To Zouroku
Tags:anime alice to zouroku TV size
BeatmapID:1439960
BeatmapSetID:607421

[Difficulty]
HPDrainRate:4
CircleSize:3.5
OverallDifficulty:4
ApproachRate:5
SliderMultiplier:0.9
SliderTickRate:1

[Events]
//Background and Video events
0,0,"hq720.jpg",0,0
//Break Periods
//Storyboard Layer 0 (Background)
//Storyboard Layer 1 (Fail)
//Storyboard Layer 2 (Pass)
//Storyboard Layer 3 (Foreground)
//Storyboard Sound Samples

[TimingPoints]
453,375,4,3,0,100,1,0

[HitObjects]
216,88,4952,5,2,0:0:0:0:
320,152,5515,1,2,0:0:0:0:
216,212,6077,1,2,0:0:0:0:
272,280,6453,2,8,B|215:323|113:293|98:178|176:140,1,270,10|10,0:0|0:0,0:0:0:0:
204,72,7953,6,2,L|256:152,3,90
288,60,9453,2,2,L|340:136,1,90
372,48,10203,2,2,L|428:132,1,90
408,200,10953,6,2,L|340:288,3,90
320,188,12453,2,2,L|252:276,1,90
228,176,13203,2,2,L|168:256,1,90
200,96,13952,6,0,L|300:96,1,90
340,132,14702,2,0,L|340:224,1,90
296,256,15452,2,0,L|192:256,1,90
164,228,16202,2,0,L|164:120,1,90
256,192,16953,12,0,18453,0:0:0:0:
260,224,19015,5,8,0:0:0:0:
256,192,19390,5,2,0:0:0:0:
192,120,19953,2,0,P|220:64|288:88,1,135
344,132,20890,1,2,0:0:0:0:
312,212,21265,1,2,0:0:0:0:
224,212,21640,1,2,0:0:0:0:
256,132,22015,1,2,0:0:0:0:
168,96,22390,2,2,P|108:123|125:189,1,135
120,304,23328,1,2,0:0:0:0:
128,300,23515,2,0,L|212:252,1,90
244,224,24078,1,2,0:0:0:0:
320,256,24453,6,0,P|372:172|320:124,1,180
424,96,25578,1,2,0:0:0:0:
388,68,25953,2,0,P|344:48|252:40,1,135,8|8,0:0|0:0,0:0:0:0:
172,48,27078,1,2,0:0:0:0:
144,80,27453,2,8,P|80:156|72:240,1,180
124,272,28578,5,2,0:0:0:0:
180,292,28953,2,8,L|272:172,1,135
368,128,30078,1,2,0:0:0:0:
404,160,30453,2,8,L|316:280,1,135
288,288,31578,5,2,0:0:0:0:
236,272,31953,2,0,P|144:200|148:144,1,180
176,100,33078,1,2,0:0:0:0:
232,72,33453,2,0,B|324:72|224:136|344:132,1,135
408,128,34390,2,2,B|504:224|496:184|480:240,1,135
392,292,35328,1,2,0:0:0:0:
400,204,35703,2,0,L|296:224,1,90
324,296,36453,5,2,0:0:0:0:
244,304,36828,1,2,0:0:0:0:
236,224,37203,1,2,0:0:0:0:
316,216,37578,1,2,0:0:0:0:
264,132,37953,6,2,P|184:68|120:188,2,270
168,256,40953,5,0,0:0:0:0:
252,256,41328,1,0,0:0:0:0:
320,216,41703,1,0,0:0:0:0:
288,144,42078,2,2,L|376:84,4,90
460,136,43953,6,0,B|356:204|344:212|388:264,1,180,2|0,0:0|0:0,0:0:0:0:
336,272,45078,1,8,0:0:0:0:
284,284,45453,2,0,B|280:212|276:208|160:168,1,180,2|0,0:0|0:0,0:0:0:0:
232,104,46953,1,4,0:0:0:0:
344,148,47515,1,0,0:0:0:0:
300,228,47890,1,2,0:0:0:0:
240,220,48265,1,2,0:0:0:0:
148,300,48828,5,8,0:0:0:0:
80,248,49203,1,8,0:0:0:0:
76,168,49578,1,8,0:0:0:0:
120,84,49953,5,2,0:0:0:0:
156,172,50328,1,2,0:0:0:0:
236,120,50703,1,2,0:0:0:0:
380,80,51078,5,2,0:0:0:0:
388,96,51265,1,2,0:0:0:0:
384,188,51828,1,2,0:0:0:0:
324,240,52203,1,2,0:0:0:0:
248,260,52578,1,2,0:0:0:0:
132,200,52953,6,0,L|204:128,2,90,2|0|0,0:0|0:0|0:0,0:0:0:0:
172,280,54077,1,0,0:0:0:0:
188,280,54264,1,0,0:0:0:0:
280,280,54827,2,0,L|352:208,1,90,2|0,0:0|0:0,0:0:0:0:
380,296,55577,2,0,L|452:224,3,90,2|0|0|0,0:0|0:0|0:0|0:0,0:0:0:0:
376,112,57077,5,2,0:0:0:0:
364,104,57264,1,2,0:0:0:0:
268,68,57640,2,0,L|172:68,1,90,2|0,0:0|0:0,0:0:0:0:
272,160,58389,5,0,0:0:0:0:
288,156,58577,1,2,0:0:0:0:
308,152,58764,1,0,0:0:0:0:
392,120,58953,5,2,0:0:0:0:
408,196,59328,1,0,0:0:0:0:
352,248,59703,5,2,0:0:0:0:
276,260,60078,1,0,0:0:0:0:
204,236,60453,1,2,0:0:0:0:
108,240,60828,6,0,P|24:192|52:120,1,180
128,80,61953,6,0,L|176:164,2,90
272,76,63078,2,8,L|332:76,1,45
392,136,63639,1,0,0:0:0:0:
380,160,63827,2,0,L|200:160,1,180,2|0,0:0|0:0,0:0:0:0:
164,176,64766,1,0,0:0:0:0:
144,200,64953,1,0,0:0:0:0:
188,288,65328,2,2,L|384:288,3,180
420,188,67953,6,0,L|348:116,1,90,2|0,0:0|0:0,0:0:0:0:
288,56,68703,2,0,L|224:120,1,90,2|0,0:0|0:0,0:0:0:0:
288,184,69453,2,0,L|188:184,1,90,2|0,0:0|0:0,0:0:0:0:
136,264,70203,2,0,L|240:264,1,90,2|0,0:0|0:0,0:0:0:0:
344,244,70953,5,0,0:0:0:0:
408,160,71328,5,2,0:0:0:0:
396,148,71515,1,2,0:0:0:0:
328,88,71890,5,2,0:0:0:0:
312,80,72078,1,2,0:0:0:0:
256,192,73203,12,0,76953,0:0:0:0:
