osu file format v14

[General]
AudioFilename: Reset My Refrain.mp3
AudioLeadIn: 0
PreviewTime: 107298
Countdown: 0
SampleSet: Soft
StackLeniency: 0.7
Mode: 0
LetterboxInBreaks: 1
WidescreenStoryboard: 1

[Editor]
DistanceSpacing: 0.7
BeatDivisor: 4
GridSize: 32
TimelineZoom: 2.5

[Metadata]
Title:Reset My Refrain
TitleUnicode:Reset My Refrain
Artist:Oreore-Usagi
ArtistUnicode:オレオレウサギ
Creator:captin1
Version:Reset
Source:
Tags:restrain this ぎゃぷいち ぎゃぷい 以下略 IZNA tac-t!s yuta えんどる kippuichi gippui ika ryaku endoru
BeatmapID:1034570
BeatmapSetID:485103

[Difficulty]
HPDrainRate:6
CircleSize:4.2
OverallDifficulty:9
ApproachRate:9.7
SliderMultiplier:1.7
SliderTickRate:2

[Events]
//Background and Video events
0,0,"refrain.jpg",0,0
//Break Periods
2,24123,27576
2,165193,166052
2,286349,298176
//Storyboard Layer 0 (Background)
//Storyboard Layer 1 (Fail)
//Storyboard Layer 2 (Pass)
//Storyboard Layer 3 (Foreground)
//Storyboard Sound Samples

[TimingPoints]
1099,260.869565217391,4,2,1,50,1,0
1099,-133.333333333333,4,2,1,50,0,0
2142,-100,4,1,1,60,0,0
11533,260.869565217391,3,1,1,70,1,0
24055,260.869565217391,4,2,1,70,1,0
28229,-100,4,1,1,50,0,0
32402,-142.857142857143,4,2,1,30,0,0
32924,-125,4,2,1,40,0,0
33446,-111.111111111111,4,2,1,50,0,0
33968,-100,4,1,1,50,0,0
34489,260.869565217391,4,1,1,60,1,0
51184,-90.9090909090909,4,1,1,70,0,0
54706,-76.9230769230769,4,1,1,70,0,0
55228,-90.9090909090909,4,1,1,70,0,0
59532,-100,4,1,1,60,0,0
76228,-90.9090909090909,4,1,1,70,0,0
83403,441.176470588235,4,2,1,60,1,0
83844,333.333333333333,4,2,1,60,1,0
84177,370.37037037037,4,2,1,60,1,0
84917,428.571428571429,6,2,1,60,1,0
87488,428.571428571429,7,2,1,60,1,0
90488,-100,7,1,1,60,0,0
93488,428.571428571429,6,1,1,60,1,0
95202,-100,6,1,1,60,0,0
95630,419.58041958042,6,1,1,60,1,0
95630,-55.5555555555556,6,1,1,60,0,0
96049,214.285714285714,4,1,1,60,1,0
102906,-111.111111111111,4,1,1,60,0,0
106334,-100,4,1,1,60,0,0
109763,-90.9090909090909,4,1,1,70,0,1
137191,428.571428571429,4,2,1,50,1,0
161191,461.538461538462,4,2,1,60,1,0
161191,-111.111111111111,4,2,1,60,0,0
163037,521.739130434783,4,2,1,50,1,0
163037,-125,4,2,1,50,0,0
164080,-125,4,2,1,30,0,0
164341,-125,4,2,1,40,0,0
164602,-125,4,2,1,50,0,0
164863,-125,4,2,1,60,0,0
165123,258.920689655173,4,1,1,70,1,0
167064,-90.9090909090909,4,1,1,70,0,0
167194,260.869565217391,4,1,1,70,1,0
167194,-90.9090909090909,4,1,1,70,0,0
173454,260.869565217391,4,1,1,60,1,0
190149,-133.333333333333,4,1,1,50,0,0
198497,-100,4,1,1,50,0,0
198758,-133.333333333333,4,1,1,50,0,0
199019,-100,4,1,1,50,0,0
199280,-133.333333333333,4,1,1,50,0,0
199540,-100,4,1,1,50,0,0
199801,-133.333333333333,4,1,1,50,0,0
200062,-100,4,1,1,50,0,0
200323,-133.333333333333,4,1,1,50,0,0
200584,-100,4,1,1,50,0,0
200845,-133.333333333333,4,1,1,50,0,0
201106,-100,4,1,1,50,0,0
201367,-133.333333333333,4,1,1,50,0,0
202671,-111.111111111111,4,1,1,60,0,0
223540,-133.333333333333,4,1,1,60,0,0
240236,-111.111111111111,4,1,1,60,0,0
252236,-133.333333333333,4,1,1,50,0,0
269453,-111.111111111111,4,1,1,60,0,0
298671,-111.111111111111,4,1,1,40,0,0
302062,-111.111111111111,4,1,1,70,0,0
302714,-83.3333333333333,4,1,1,70,0,1
318367,379.746835443038,4,2,1,70,1,0
319885,428.571428571429,4,2,1,60,1,0
319885,-166.666666666667,4,2,1,40,0,0
330170,-166.666666666667,4,2,1,50,0,0
333599,-125,4,2,1,60,0,0
340456,214.285714285714,4,2,1,60,1,0
340456,-166.666666666667,4,2,1,60,0,0
343884,-111.111111111111,4,1,1,60,0,0
347313,-166.666666666666,4,2,1,60,0,0
347742,214.285714285714,4,1,1,70,1,1
347742,-90.9090909090909,4,1,1,70,0,1
375170,-133.333333333333,4,1,1,70,0,0
375599,-133.333333333333,4,1,1,70,0,1
382027,-100,4,1,1,70,0,1
384599,-100,4,1,1,70,0,0
385456,-83.3333333333333,4,1,1,70,0,1
392313,-100,4,2,1,70,0,0
394027,-100,4,2,1,60,0,0
395741,-100,4,2,1,50,0,0
397456,-100,4,2,1,40,0,0
399170,-100,4,2,1,30,0,0
400027,-100,4,2,1,20,0,0
400884,-100,4,2,1,10,0,0
401527,-100,4,2,1,5,0,0

[Colours]
Combo1 : 128,128,255
Combo2 : 173,173,173
Combo3 : 72,164,255
Combo4 : 255,36,146

[HitObjects]
136,306,1099,6,0,L|53:296,1,63.7500024318696
188,192,1359,2,0,L|105:202,1,63.7500024318696,2|0,0:0|0:0,0:0:0:0:
38,94,1620,2,0,L|121:104,1,63.7500024318696,2|0,0:0|0:0,0:0:0:0:
274,212,1881,2,0,L|191:222,1,63.7500024318696,2|0,0:0|0:0,0:0:0:0:
116,335,2142,6,0,L|52:327,3,42.5,8|0|8|0,0:0|0:0|0:0|0:0,0:0:0:0:
202,309,2403,2,0,L|209:359,3,42.5
211,220,2664,1,0,0:0:0:0:
242,208,2729,1,0,0:0:0:0:
275,208,2794,1,0,0:0:0:0:
305,222,2859,1,0,0:0:0:0:
328,247,2925,1,0,0:0:0:0:
409,370,3055,1,0,0:0:0:0:
409,370,3120,1,0,0:0:0:0:
409,370,3185,6,0,L|418:269,1,85,12|0,0:0|0:0,0:0:0:0:
248,9,3446,2,0,L|257:110,1,85,10|2,0:0|0:0,0:0:0:0:
353,222,3707,1,8,0:0:0:0:
165,170,3838,1,0,0:0:0:0:
325,185,3968,2,0,L|222:197,1,85,10|2,0:0|0:0,0:0:0:0:
88,91,4229,5,8,0:0:0:0:
59,294,4359,1,0,0:0:0:0:
165,170,4490,2,0,P|176:120|180:86,1,85,8|2,0:0|0:0,0:0:0:0:
433,145,4751,2,0,P|386:157|344:173,1,85,8|0,0:0|0:0,0:0:0:0:
212,354,5012,1,10,0:0:0:0:
212,354,5142,1,2,0:0:0:0:
295,285,5272,6,0,L|288:182,1,85,8|0,0:0|0:0,0:0:0:0:
69,111,5533,1,10,0:0:0:0:
195,31,5664,1,2,0:0:0:0:
138,197,5794,2,0,P|94:217|46:227,1,85,8|0,0:0|0:0,0:0:0:0:
271,100,6055,2,0,P|312:110|350:128,1,85,10|2,0:0|0:0,0:0:0:0:
408,354,6316,5,8,0:0:0:0:
243,188,6446,1,0,0:0:0:0:
435,272,6577,1,10,0:0:0:0:
196,274,6707,1,2,0:0:0:0:
338,82,6838,2,0,L|328:186,1,85,8|0,0:0|0:0,0:0:0:0:
250,348,7098,1,10,0:0:0:0:
112,283,7229,1,10,0:0:0:0:
112,283,7294,1,8,0:0:0:0:
112,283,7359,6,0,L|206:274,1,85,12|0,0:0|0:0,0:0:0:0:
434,235,7620,2,0,P|392:217|349:206,1,85,10|2,0:0|0:0,0:0:0:0:
169,167,7881,1,8,0:0:0:0:
229,329,8012,1,0,0:0:0:0:
287,176,8142,2,0,L|202:186,1,85,10|2,0:0|0:0,0:0:0:0:
43,79,8403,5,8,0:0:0:0:
178,25,8533,1,0,0:0:0:0:
134,243,8664,2,0,P|81:220|52:201,1,85,10|2,0:0|0:0,0:0:0:0:
258,157,8925,2,0,L|272:249,1,85,8|0,0:0|0:0,0:0:0:0:
387,337,9185,1,10,0:0:0:0:
387,337,9316,1,2,0:0:0:0:
472,222,9446,6,0,L|379:231,1,85,8|0,0:0|0:0,0:0:0:0:
208,310,9707,1,10,0:0:0:0:
169,126,9838,1,2,0:0:0:0:
360,192,9968,2,0,P|321:226|280:250,1,85,8|0,0:0|0:0,0:0:0:0:
43,204,10229,2,0,L|143:211,1,85,10|2,0:0|0:0,0:0:0:0:
287,91,10490,5,12,0:0:0:0:
225,300,10620,1,0,0:0:0:0:
227,151,10751,1,8,0:0:0:0:
289,360,10881,1,0,0:0:0:0:
286,218,11012,2,0,L|327:210,3,42.5,8|0|8|0,0:0|0:0|0:0|0:0,0:0:0:0:
179,224,11272,1,8,0:3:0:0:
148,208,11338,1,0,0:0:0:0:
126,181,11403,1,8,0:3:0:0:
113,149,11468,1,0,0:0:0:0:
104,116,11533,6,0,L|115:17,1,85,6|8,0:0|0:0,0:0:0:0:
31,213,11794,1,0,0:0:0:0:
217,151,11925,2,0,P|211:193|195:248,1,85,10|0,0:0|0:0,0:0:0:0:
56,317,12186,1,10,0:0:0:0:
28,101,12316,1,2,0:0:0:0:
178,159,12447,1,8,0:0:0:0:
79,289,12577,2,0,L|74:192,1,85,2|8,0:0|0:0,0:0:0:0:
277,104,12838,2,0,L|272:188,1,85,2|8,0:0|0:0,0:0:0:0:
190,353,13099,5,2,0:0:0:0:
362,319,13229,2,0,P|309:303|270:295,1,85,8|0,0:0|0:0,0:0:0:0:
46,135,13489,2,0,P|94:118|127:103,1,85,10|0,0:0|0:0,0:0:0:0:
213,28,13750,1,10,0:0:0:0:
187,192,13881,2,0,L|176:283,1,85,2|8,0:0|0:0,0:0:0:0:
119,86,14142,1,0,0:0:0:0:
260,251,14272,2,0,P|271:296|283:340,1,85,10|0,0:0|0:0,0:0:0:0:
151,296,14533,1,8,0:0:0:0:
312,175,14663,6,0,P|354:184|405:205,1,85,2|8,0:0|0:0,0:0:0:0:
268,290,14925,1,0,0:0:0:0:
181,113,15055,2,0,L|276:95,1,85,10|0,0:0|0:0,0:0:0:0:
417,28,15316,1,10,0:0:0:0:
372,227,15447,1,2,0:0:0:0:
279,69,15577,1,8,0:0:0:0:
87,136,15706,2,0,L|196:152,1,85,2|8,0:0|0:0,0:0:0:0:
483,302,15968,2,0,L|374:318,1,85,2|8,0:0|0:0,0:0:0:0:
157,170,16229,5,2,0:0:0:0:
305,138,16360,2,0,P|298:188|287:227,1,85,8|0,0:0|0:0,0:0:0:0:
72,361,16620,2,0,L|64:274,1,85,10|0,0:0|0:0,0:0:0:0:
187,71,16881,1,10,0:0:0:0:
5,238,17012,2,0,P|59:218|97:198,1,85,2|8,0:0|0:0,0:0:0:0:
197,36,17273,1,2,0:0:0:0:
201,280,17403,1,10,0:0:0:0:
26,124,17533,2,0,B|66:104|66:104|121:107,1,85,2|8,0:0|0:0,0:0:0:0:
363,243,17793,6,0,L|263:234,1,85,6|8,0:0|0:0,0:0:0:0:
183,117,18054,1,0,0:0:0:0:
398,185,18185,2,0,P|388:226|373:266,1,85,10|0,0:0|0:0,0:0:0:0:
222,348,18446,1,10,0:0:0:0:
137,200,18576,1,2,0:0:0:0:
286,254,18706,1,8,0:0:0:0:
105,189,18837,2,0,L|14:194,1,85,2|8,0:0|0:0,0:0:0:0:
174,34,19098,2,0,P|228:55|268:75,1,85,2|8,0:0|0:0,0:0:0:0:
262,270,19359,5,2,0:0:0:0:
390,158,19489,2,0,L|290:168,1,85,8|0,0:0|0:0,0:0:0:0:
27,346,19750,2,0,P|65:313|93:283,1,85,10|0,0:0|0:0,0:0:0:0:
125,126,20011,1,10,0:0:0:0:
128,337,20141,2,0,L|140:241,1,85,2|8,0:0|0:0,0:0:0:0:
39,73,20402,1,0,0:0:0:0:
235,163,20532,1,10,0:0:0:0:
112,153,20663,1,0,0:0:0:0:
112,153,20728,1,0,0:0:0:0:
112,153,20793,1,8,0:0:0:0:
112,153,20859,1,0,0:0:0:0:
112,153,20924,6,0,L|212:141,1,85,2|8,0:0|0:0,0:0:0:0:
441,88,21185,1,0,0:0:0:0:
271,198,21315,2,0,P|239:160|221:127,1,85,10|0,0:0|0:0,0:0:0:0:
381,17,21576,1,10,0:0:0:0:
357,236,21706,1,2,0:0:0:0:
237,108,21837,1,8,0:0:0:0:
279,344,21967,2,0,L|381:329,1,85,2|8,0:0|0:0,0:0:0:0:
497,134,22228,2,0,P|448:144|399:161,1,85,2|8,0:0|0:0,0:0:0:0:
117,199,22489,5,2,0:0:0:0:
212,60,22619,2,0,L|197:152,1,85,8|0,0:0|0:0,0:0:0:0:
150,356,22880,2,0,P|192:324|220:295,1,85,10|0,0:0|0:0,0:0:0:0:
288,90,23141,1,10,0:0:0:0:
73,74,23272,2,0,P|93:128|110:155,1,85,2|8,0:0|0:0,0:0:0:0:
345,170,23532,1,2,0:0:0:0:
171,122,23663,1,8,0:0:0:0:
364,207,23793,2,0,L|474:194,1,85,2|8,0:0|0:0,0:0:0:0:
132,233,28228,6,0,L|127:279,7,42.5,2|0|0|0|0|0|0|0,0:0|0:0|0:0|0:0|0:0|0:0|0:0|0:0,0:0:0:0:
206,173,28750,2,0,L|203:124,3,42.5,2|0|0|0,0:0|0:0|0:0|0:0,0:0:0:0:
293,105,29011,2,0,L|295:62,3,42.5
367,155,29272,5,8,0:0:0:0:
370,175,29337,1,0,0:0:0:0:
373,195,29402,1,8,0:0:0:0:
376,216,29468,1,0,0:0:0:0:
380,236,29533,2,0,L|371:330,1,85
465,196,29794,1,8,0:0:0:0:
462,176,29859,1,0,0:0:0:0:
459,156,29924,1,8,0:0:0:0:
456,135,29990,1,0,0:0:0:0:
452,115,30055,2,0,L|461:21,1,85
270,177,30315,6,0,P|220:198|188:207,1,85,2|0,0:0|0:0,0:0:0:0:
35,98,30576,2,0,L|29:55,3,42.5,8|0|0|0,0:3|0:0|0:0|0:0,0:0:0:0:
120,140,30837,2,0,P|113:189|101:232,1,85,2|0,0:0|0:0,0:0:0:0:
34,320,31098,1,8,0:3:0:0:
34,320,31163,1,0,0:0:0:0:
34,320,31228,1,0,0:0:0:0:
34,320,31294,1,0,0:0:0:0:
34,320,31359,6,0,L|82:330,3,42.5
156,291,31620,2,0,L|204:281,3,42.5
261,331,31881,1,4,0:3:0:0:
282,332,31946,1,0,0:0:0:0:
303,333,32011,1,0,0:0:0:0:
324,334,32076,1,0,0:0:0:0:
345,335,32141,1,0,0:0:0:0:
366,337,32207,1,0,0:0:0:0:
387,339,32272,1,0,0:0:0:0:
408,341,32337,1,0,0:0:0:0:
424,327,32402,6,0,L|417:257,1,59.4999981842042,2|0,0:0|0:0,0:0:0:0:
480,210,32663,2,0,L|473:140,1,59.4999981842042,2|0,0:0|0:0,0:0:0:0:
322,264,32924,6,0,L|315:194,1,68,2|0,0:0|0:0,0:0:0:0:
382,144,33185,2,0,L|375:74,1,68,2|0,0:0|0:0,0:0:0:0:
219,196,33446,6,0,L|211:117,1,76.4999976654053,2|0,0:0|0:0,0:0:0:0:
287,76,33707,2,0,L|279:0,1,76.4999976654053,2|0,0:0|0:0,0:0:0:0:
93,46,33968,5,8,0:0:0:0:
71,72,34033,1,0,0:0:0:0:
66,105,34098,1,8,0:3:0:0:
78,136,34163,1,0,0:0:0:0:
105,155,34228,1,8,0:3:0:0:
238,30,34359,1,8,0:0:0:0:
32,154,34489,6,0,P|19:209|14:242,1,85,6|8,0:0|0:0,0:0:0:0:
163,357,34749,1,0,0:0:0:0:
159,335,34815,1,0,0:0:0:0:
155,314,34880,1,10,0:0:0:0:
65,136,35010,1,2,0:0:0:0:
33,334,35141,1,8,0:0:0:0:
219,257,35271,2,0,P|238:209|252:165,1,85,2|8,0:0|0:0,0:0:0:0:
380,20,35532,6,0,L|396:117,1,85,2|8,0:0|0:0,0:0:0:0:
465,293,35793,1,0,0:0:0:0:
461,313,35858,1,0,0:0:0:0:
458,333,35923,1,10,0:0:0:0:
321,199,36054,1,2,0:0:0:0:
441,119,36184,1,8,0:0:0:0:
380,338,36315,2,0,L|311:324,2,42.5,2|0|8,0:0|0:0|0:0,0:0:0:0:
345,171,36575,6,0,P|290:184|245:201,1,85,2|8,0:0|0:0,0:0:0:0:
93,331,36836,2,0,L|79:270,1,42.5
151,214,36967,1,10,0:0:0:0:
183,358,37097,1,2,0:0:0:0:
18,213,37228,2,0,L|4:118,1,85,8|2,0:0|0:0,0:0:0:0:
264,130,37489,1,10,0:0:0:0:
264,130,37619,6,0,L|275:41,1,85,0|8,0:0|0:0,0:0:0:0:
142,172,37880,1,2,0:0:0:0:
146,193,37945,1,0,0:0:0:0:
151,214,38010,1,10,0:0:0:0:
329,304,38141,2,0,P|340:263|347:221,1,85,0|8,0:0|0:0,0:0:0:0:
233,39,38402,2,0,L|180:30,2,42.5,2|0|10,0:0|0:0|0:0,0:0:0:0:
311,212,38662,6,0,P|372:192|407:175,1,85,2|8,0:0|0:0,0:0:0:0:
487,44,38923,1,0,0:0:0:0:
466,37,38988,1,0,0:0:0:0:
445,30,39054,1,10,0:0:0:0:
395,217,39184,1,2,0:0:0:0:
502,69,39315,1,8,0:0:0:0:
305,49,39445,2,0,L|323:155,1,85,2|8,0:0|0:0,0:0:0:0:
189,352,39706,6,0,P|165:298|155:268,1,85,2|8,0:0|0:0,0:0:0:0:
30,138,39967,1,0,0:0:0:0:
49,129,40032,1,0,0:0:0:0:
68,120,40097,1,10,0:0:0:0:
282,131,40228,1,2,0:0:0:0:
85,96,40358,1,8,0:0:0:0:
265,244,40488,2,0,L|317:231,2,42.5,2|0|8,0:0|0:0|0:0,0:0:0:0:
206,47,40749,6,0,P|258:27|298:19,1,85,2|8,0:0|0:0,0:0:0:0:
481,146,41010,1,0,0:0:0:0:
460,141,41075,1,0,0:0:0:0:
438,137,41141,1,10,0:0:0:0:
317,22,41271,1,0,0:0:0:0:
372,291,41402,1,8,0:0:0:0:
175,170,41532,2,0,L|272:181,1,85,2|8,0:0|0:0,0:0:0:0:
474,73,41793,6,0,P|429:86|389:103,1,85,0|8,0:0|0:0,0:0:0:0:
101,257,42054,2,0,L|161:278,1,42.5,2|0,0:0|0:0,0:0:0:0:
239,277,42184,1,8,0:0:0:0:
129,107,42315,1,2,0:0:0:0:
72,351,42445,1,8,0:0:0:0:
265,189,42575,1,0,0:0:0:0:
269,167,42641,1,0,0:0:0:0:
273,146,42706,1,8,0:0:0:0:
146,22,42836,6,0,P|159:73|179:115,1,85,6|8,0:0|0:0,0:0:0:0:
344,275,43097,1,0,0:0:0:0:
340,253,43163,1,0,0:0:0:0:
336,232,43228,1,10,0:0:0:0:
252,107,43358,1,2,0:0:0:0:
263,324,43488,1,8,0:0:0:0:
413,216,43619,2,0,P|424:172|431:124,1,85,2|8,0:0|0:0,0:0:0:0:
151,134,43880,6,0,L|255:148,1,85,2|8,0:0|0:0,0:0:0:0:
432,309,44141,1,0,0:0:0:0:
411,314,44206,1,0,0:0:0:0:
390,320,44271,1,10,0:0:0:0:
213,228,44402,1,2,0:0:0:0:
279,69,44532,1,8,0:0:0:0:
287,318,44662,2,0,L|293:378,2,42.5,2|0|8,0:0|0:0|0:0,0:0:0:0:
28,182,44923,6,0,P|86:193|122:207,1,85,2|10,0:0|0:0,0:0:0:0:
276,151,45184,2,0,L|229:169,1,42.5
155,279,45315,1,10,0:0:0:0:
192,84,45445,1,2,0:0:0:0:
351,223,45575,2,0,L|344:314,1,85,8|2,0:0|0:0,0:0:0:0:
129,164,45836,1,10,0:0:0:0:
129,164,45967,6,0,L|136:255,1,85,0|8,0:0|0:0,0:0:0:0:
272,103,46228,1,2,0:0:0:0:
274,82,46293,1,0,0:0:0:0:
276,61,46358,1,10,0:0:0:0:
351,223,46488,1,0,0:0:0:0:
189,108,46619,1,10,0:0:0:0:
385,25,46749,2,0,P|368:74|351:112,1,85,2|8,0:0|0:0,0:0:0:0:
480,350,47010,6,0,L|465:266,1,85,2|8,0:0|0:0,0:0:0:0:
251,216,47271,1,0,0:0:0:0:
230,221,47336,1,0,0:0:0:0:
209,226,47402,1,10,0:0:0:0:
70,162,47532,1,2,0:0:0:0:
190,87,47662,1,8,0:0:0:0:
181,313,47793,2,0,P|130:302|85:297,1,85,2|8,0:0|0:0,0:0:0:0:
325,345,48054,6,0,L|419:324,1,85,2|8,0:0|0:0,0:0:0:0:
506,154,48315,1,0,0:0:0:0:
485,148,48380,1,0,0:0:0:0:
464,142,48445,1,10,0:0:0:0:
316,156,48575,1,2,0:0:0:0:
423,347,48706,1,8,0:0:0:0:
442,146,48836,2,0,L|446:104,2,42.5,2|0|8,0:0|0:0|0:0,0:0:0:0:
236,286,49097,6,0,P|210:234|197:197,1,85,2|8,0:0|0:0,0:0:0:0:
259,26,49358,1,0,0:0:0:0:
257,47,49423,1,0,0:0:0:0:
255,68,49488,1,10,0:0:0:0:
104,217,49619,1,0,0:0:0:0:
321,160,49749,1,8,0:0:0:0:
148,45,49880,2,0,P|155:100|166:143,1,85,0|10,0:0|0:0,0:0:0:0:
430,287,50141,6,0,L|330:273,1,85,0|8,0:0|0:0,0:0:0:0:
207,329,50402,1,10,0:0:0:0:
182,305,50467,1,0,0:0:0:0:
150,291,50532,1,8,0:3:0:0:
116,296,50597,1,0,0:0:0:0:
86,312,50662,2,0,L|77:370,3,42.5,8|0|8|0,0:0|0:0|0:3|0:0,0:0:0:0:
32,226,50923,2,0,L|21:169,1,42.5,8|0,0:0|0:0,0:0:0:0:
123,125,51054,2,0,L|143:58,1,42.5,8|0,0:0|0:0,0:0:0:0:
239,180,51184,6,0,P|295:183|407:100,1,187.000005706787,4|8,0:0|0:0,0:0:0:0:
224,46,51575,1,0,0:0:0:0:
175,268,51706,1,2,0:0:0:0:
307,206,51836,1,0,0:0:0:0:
168,111,51967,1,8,0:0:0:0:
243,306,52097,6,0,L|345:315,1,93.5000028533936,6|0,0:0|0:0,0:0:0:0:
489,134,52358,2,0,L|387:143,1,93.5000028533936,10|0,0:0|0:0,0:0:0:0:
255,198,52619,1,2,0:0:0:0:
453,293,52749,1,0,0:0:0:0:
396,142,52880,1,8,0:0:0:0:
258,234,53010,1,0,0:0:0:0:
448,206,53141,6,0,P|478:146|395:61,1,187.000005706787,6|0,0:0|0:0,0:0:0:0:
217,138,53532,1,8,0:0:0:0:
167,231,53662,1,0,0:0:0:0:
167,231,53728,1,0,0:0:0:0:
167,231,53793,2,0,B|211:243|211:243|273:230,1,93.5000028533936
294,65,54054,1,8,0:0:0:0:
70,188,54184,6,0,P|73:237|92:296,1,93.5000028533936,6|0,0:0|0:0,0:0:0:0:
267,348,54445,2,0,P|279:302|281:256,1,93.5000028533936,10|0,0:0|0:0,0:0:0:0:
127,103,54706,6,0,B|58:93|58:93|17:110,1,110.499994941712,2|0,0:0|0:0,0:0:0:0:
307,245,54967,2,0,B|376:255|376:255|417:238,1,110.499994941712,6|0,0:2|0:0,0:0:0:0:
230,21,55228,6,0,P|203:83|272:172,1,187.000005706787,6|0,0:0|0:0,0:0:0:0:
382,103,55619,1,8,0:0:0:0:
442,291,55749,1,0,0:0:0:0:
264,207,55880,1,2,0:0:0:0:
450,142,56010,1,0,0:0:0:0:
384,361,56141,1,8,0:0:0:0:
303,100,56271,6,0,L|292:2,1,93.5000028533936,6|0,0:0|0:0,0:0:0:0:
45,89,56532,1,10,0:0:0:0:
207,101,56662,1,8,0:3:0:0:
25,112,56793,2,0,B|16:161|16:161|29:209,1,93.5000028533936,8|0,0:3|0:0,0:0:0:0:
265,317,57054,2,0,B|276:274|276:274|267:225,1,93.5000028533936,10|0,0:0|0:0,0:0:0:0:
119,85,57315,6,0,P|165:31|279:51,1,187.000005706787,6|0,0:0|0:0,0:0:0:0:
385,198,57706,1,8,0:0:0:0:
381,235,57771,1,0,0:0:0:0:
377,272,57836,1,8,0:0:0:0:
373,309,57902,1,0,0:0:0:0:
349,337,57967,2,0,L|281:348,2,46.7500014266968,8|0|0,0:3|0:0|0:3,0:0:0:0:
476,184,58228,1,8,0:0:0:0:
261,124,58358,6,0,P|270:178|283:221,1,93.5000028533936,2|0,0:0|0:0,0:0:0:0:
94,339,58619,2,0,P|106:294|113:247,1,93.5000028533936,10|0,0:0|0:0,0:0:0:0:
200,54,58880,2,0,P|265:95|242:201,1,187.000005706787,2|8,0:0|0:0,0:0:0:0:
11,190,59271,1,8,0:0:0:0:
0,163,59336,1,0,0:0:0:0:
1,134,59402,1,8,0:0:0:0:
19,113,59467,1,0,0:0:0:0:
44,102,59532,6,0,L|149:109,1,85,4|2,0:0|0:0,0:0:0:0:
402,240,59793,2,0,L|297:247,1,85,8|2,0:0|0:0,0:0:0:0:
80,270,60054,1,0,0:0:0:0:
175,216,60184,1,2,0:0:0:0:
134,363,60315,2,0,L|36:351,1,85,8|2,0:0|0:0,0:0:0:0:
112,132,60575,6,0,B|179:121|179:121|212:130|212:130|307:115,1,170,0|8,0:0|0:0,0:0:0:0:
359,47,60967,1,2,0:0:0:0:
341,220,61097,2,0,P|298:209|258:193,1,85,0|2,0:0|0:0,0:0:0:0:
77,311,61358,2,0,P|120:300|160:284,1,85,8|2,0:0|0:0,0:0:0:0:
355,318,61619,5,0,0:0:0:0:
355,318,61749,1,2,0:0:0:0:
260,271,61880,2,0,L|251:182,1,85,8|2,0:0|0:0,0:0:0:0:
305,17,62141,2,0,P|341:38|328:164,1,170,0|8,0:0|0:0,0:0:0:0:
160,152,62532,1,2,0:0:0:0:
86,88,62662,6,0,L|74:4,1,85,0|2,0:0|0:0,0:0:0:0:
145,258,62923,2,0,L|133:342,1,85,8|2,0:0|0:0,0:0:0:0:
245,217,63184,1,0,0:0:0:0:
100,172,63315,1,2,0:0:0:0:
222,312,63445,2,0,L|271:307,1,42.5,8|0,0:0|0:0,0:0:0:0:
369,177,63575,1,2,0:0:0:0:
335,311,63706,6,0,P|320:246|316:209,1,85,4|2,0:0|0:0,0:0:0:0:
158,90,63967,2,0,P|205:113|236:133,1,85,8|2,0:0|0:0,0:0:0:0:
489,245,64228,2,0,P|445:243|401:239,1,85,0|2,0:0|0:0,0:0:0:0:
167,309,64488,2,0,P|209:301|265:292,1,85,8|2,0:0|0:0,0:0:0:0:
400,221,64749,5,0,0:0:0:0:
275,319,64880,1,2,0:0:0:0:
319,153,65010,2,0,L|314:252,1,85,8|2,0:0|0:0,0:0:0:0:
175,334,65271,2,0,P|134:314|124:191,1,170,0|8,0:0|0:0,0:0:0:0:
302,123,65662,1,2,0:0:0:0:
354,276,65793,6,0,L|183:246,1,170,4|8,0:0|0:0,0:0:0:0:
32,152,66184,1,2,0:0:0:0:
178,50,66315,2,0,P|173:95|162:144,1,85,0|2,0:0|0:0,0:0:0:0:
274,314,66575,2,0,L|263:227,1,85,8|2,0:0|0:0,0:0:0:0:
441,122,66836,6,0,P|396:129|343:144,1,85,0|2,0:0|0:0,0:0:0:0:
187,275,67097,1,8,0:0:0:0:
354,286,67228,1,2,0:0:0:0:
293,85,67358,2,0,L|207:74,1,85,0|2,0:0|0:0,0:0:0:0:
48,194,67619,2,0,L|0:178,2,42.5,8|0|2,0:0|0:0|0:0,0:0:0:0:
118,279,67880,6,0,P|145:240|158:190,1,85,0|2,0:0|0:0,0:0:0:0:
96,22,68141,2,0,L|105:122,1,85,8|2,0:0|0:0,0:0:0:0:
223,276,68402,1,0,0:0:0:0:
193,360,68532,1,2,0:0:0:0:
206,250,68662,2,0,L|212:159,1,85,8|2,0:0|0:0,0:0:0:0:
288,45,68923,6,0,P|346:33|420:121,1,170,0|8,0:0|0:0,0:0:0:0:
373,294,69315,1,2,0:0:0:0:
208,199,69445,2,0,L|320:211,1,85,0|2,0:0|0:0,0:0:0:0:
445,302,69706,2,0,L|333:314,1,85,8|2,0:0|0:0,0:0:0:0:
52,314,69967,6,0,B|108:301|108:301|159:316|159:316|223:301,1,170,0|8,0:0|0:0,0:0:0:0:
294,185,70358,1,2,0:0:0:0:
170,127,70488,2,0,P|163:174|164:218,1,85,0|2,0:0|0:0,0:0:0:0:
396,308,70749,2,0,P|403:261|402:217,1,85,8|2,0:0|0:0,0:0:0:0:
180,103,71010,6,0,P|135:116|93:126,1,85,0|2,0:0|0:0,0:0:0:0:
296,288,71271,2,0,P|341:301|383:311,1,85,8|2,0:0|0:0,0:0:0:0:
262,87,71532,1,0,0:0:0:0:
217,304,71662,1,2,0:0:0:0:
337,166,71793,2,0,L|334:120,2,42.5,0|0|2,0:0|0:0|0:0,0:0:0:0:
123,158,72054,6,0,P|80:169|40:185,1,85,0|2,0:0|0:0,0:0:0:0:
156,239,72315,1,8,0:0:0:0:
174,96,72445,1,2,0:0:0:0:
24,201,72575,2,0,L|33:292,1,85,0|2,0:0|0:0,0:0:0:0:
285,359,72836,2,0,P|301:312|308:278,1,85,8|2,0:0|0:0,0:0:0:0:
205,28,73097,6,0,B|162:64|162:64|182:184,1,170,0|8,0:0|0:0,0:0:0:0:
180,176,73488,1,2,0:0:0:0:
352,157,73619,2,0,L|340:251,1,85,0|2,0:0|0:0,0:0:0:0:
115,232,73880,2,0,L|127:326,1,85,8|2,0:0|0:0,0:0:0:0:
423,266,74141,6,0,L|394:85,2,170,4|8|0,0:0|0:0|0:0,0:0:0:0:
356,348,74793,1,2,0:0:0:0:
236,187,74923,2,0,P|301:191|344:204,1,85,8|2,0:0|0:0,0:0:0:0:
500,77,75184,6,0,P|457:96|414:108,1,85,0|2,0:0|0:0,0:0:0:0:
202,44,75445,1,8,0:0:0:0:
174,63,75510,1,0,0:0:0:0:
159,93,75575,1,8,0:0:0:0:
162,127,75641,1,0,0:0:0:0:
180,155,75706,2,0,L|231:165,3,42.5,8|0|8|0,0:3|0:0|0:3|0:0,0:0:0:0:
342,228,75967,2,0,L|291:238,1,42.5,8|0,0:0|0:0,0:0:0:0:
117,290,76097,2,0,L|168:300,1,42.5,8|0,0:0|0:0,0:0:0:0:
404,334,76228,6,0,P|348:310|236:369,1,187.000005706787,6|8,0:0|0:0,0:0:0:0:
408,295,76619,1,0,0:0:0:0:
362,130,76749,1,2,0:0:0:0:
300,236,76880,1,0,0:0:0:0:
488,269,77010,1,8,0:0:0:0:
350,102,77141,6,0,L|251:115,1,93.5000028533936,6|0,0:0|0:0,0:0:0:0:
99,309,77402,2,0,P|126:269|147:222,1,93.5000028533936,10|8,0:0|0:3,0:0:0:0:
115,30,77662,1,8,0:3:0:0:
40,198,77793,1,0,0:0:0:0:
231,137,77923,1,8,0:0:0:0:
101,56,78054,1,0,0:0:0:0:
181,263,78184,6,0,B|246:254|296:277|296:277|369:258,1,187.000005706787,6|0,0:0|0:0,0:0:0:0:
434,110,78575,1,8,0:0:0:0:
315,51,78706,1,0,0:0:0:0:
376,226,78836,2,0,L|489:243,1,93.5000028533936,2|0,0:0|0:0,0:0:0:0:
253,338,79097,1,8,0:0:0:0:
335,152,79228,6,0,L|350:255,1,93.5000028533936,6|0,0:0|0:0,0:0:0:0:
106,256,79488,1,10,0:0:0:0:
262,295,79619,1,8,0:3:0:0:
99,227,79749,2,0,P|39:249|7:268,1,93.5000028533936,8|0,0:3|0:0,0:0:0:0:
290,301,80010,2,0,P|350:279|382:260,1,93.5000028533936,10|0,0:0|0:0,0:0:0:0:
294,12,80271,6,0,L|321:207,1,187.000005706787,6|0,0:0|0:0,0:0:0:0:
236,344,80662,1,8,0:0:0:0:
151,170,80793,1,0,0:0:0:0:
354,194,80923,1,2,0:0:0:0:
152,148,81054,1,0,0:0:0:0:
105,352,81184,1,8,0:0:0:0:
259,132,81315,6,0,P|272:83|277:36,1,93.5000028533936,6|0,0:0|0:0,0:0:0:0:
95,201,81575,1,10,0:0:0:0:
309,285,81706,1,8,0:3:0:0:
150,102,81836,2,0,L|45:115,1,93.5000028533936,8|0,0:3|0:0,0:0:0:0:
291,305,82097,2,0,P|276:260|257:217,1,93.5000028533936,10|0,0:0|0:0,0:0:0:0:
13,276,82358,6,0,B|85:286|85:286|120:272|120:272|201:285,1,187.000005706787,6|0,0:0|0:0,0:0:0:0:
368,272,82749,2,0,L|428:283,1,46.7500014266968,8|0,0:0|0:0,0:0:0:0:
378,171,82880,2,0,L|438:160,1,46.7500014266968,8|0,0:0|0:0,0:0:0:0:
296,102,83010,1,8,0:3:0:0:
271,88,83075,1,0,0:0:0:0:
242,88,83141,1,8,0:3:0:0:
216,100,83206,1,0,0:0:0:0:
198,121,83271,1,8,0:0:0:0:
187,147,83336,1,0,0:0:0:0:
187,175,83403,6,0,L|212:305,1,127.5,4|0,1:0|0:0,0:0:0:0:
157,354,83844,2,0,P|116:328|72:318,1,85
283,285,84177,2,0,L|376:297,1,85,4|0,1:0|0:0,0:0:0:0:
384,167,84547,2,0,L|477:179,1,85
309,68,84917,5,6,1:0:0:0:
272,297,85131,1,0,0:0:0:0:
103,222,85345,2,0,L|204:212,1,85,8|0,0:0|0:0,0:0:0:0:
265,326,85774,1,2,1:0:0:0:
322,126,85988,1,0,0:0:0:0:
124,86,86202,1,8,0:0:0:0:
249,194,86417,1,0,0:0:0:0:
278,37,86631,2,0,P|234:34|185:51,1,85,2|0,1:0|0:0,0:0:0:0:
217,293,87059,2,0,P|260:295|310:279,1,85,8|0,0:0|0:0,0:0:0:0:
424,90,87488,5,2,1:0:0:0:
229,165,87702,1,8,0:0:0:0:
307,96,87916,1,0,1:0:0:0:
296,293,88130,1,0,0:0:0:0:
130,186,88345,2,0,L|119:94,1,85,8|0,0:0|0:0,0:0:0:0:
67,25,88773,5,2,1:0:0:0:
222,135,88988,1,0,0:0:0:0:
111,314,89202,1,8,0:0:0:0:
128,141,89416,1,0,0:0:0:0:
295,183,89630,2,0,L|306:274,1,85,2|0,1:0|0:0,0:0:0:0:
401,346,90059,1,8,0:0:0:0:
465,254,90273,1,8,0:0:0:0:
465,254,90380,1,8,0:0:0:0:
465,254,90488,6,0,L|477:186,3,42.5,6|0|0|0,0:0|0:0|0:0|0:0,0:0:0:0:
398,129,90916,2,0,L|386:61,3,42.5,8|0|0|0,0:0|0:0|0:0|0:0,0:0:0:0:
296,149,91345,2,0,L|243:141,1,42.5,2|0,0:0|0:0,0:0:0:0:
127,58,91559,2,0,L|180:66,1,42.5
262,169,91773,2,0,L|219:162,1,42.5,8|0,0:0|0:0,0:0:0:0:
93,78,91987,2,0,L|135:84,1,42.5
178,233,92202,6,0,L|190:329,1,85,2|0,0:0|0:0,0:0:0:0:
262,355,92523,1,0,0:0:0:0:
262,355,92630,2,0,L|324:343,1,42.5,8|0,0:0|0:0,0:0:0:0:
375,294,92845,2,0,L|437:306,1,42.5
477,239,93059,1,2,0:0:0:0:
472,213,93166,1,0,0:0:0:0:
467,187,93273,2,0,L|474:115,1,42.5,8|0,0:0|0:0,0:0:0:0:
482,66,93488,5,2,0:0:0:0:
192,131,93702,1,0,0:0:0:0:
337,43,93916,2,0,L|332:98,1,42.5,8|0,0:0|0:0,0:0:0:0:
291,187,94130,2,0,L|296:242,1,42.5
356,323,94345,1,2,0:0:0:0:
312,160,94559,1,0,0:0:0:0:
178,280,94773,2,0,P|131:274|85:256,1,85,8|0,0:0|0:0,0:0:0:0:
34,92,95202,5,8,0:0:0:0:
34,92,95309,1,8,0:0:0:0:
115,44,95416,1,8,0:0:0:0:
115,44,95523,1,8,0:0:0:0:
191,102,95630,2,8,L|202:188,1,76.4999976654053
259,260,95839,1,8,0:0:0:0:
127,241,95944,1,8,0:0:0:0:
261,297,96049,6,0,P|333:283|429:272,1,170,4|8,0:0|0:0,0:0:0:0:
429,95,96370,1,0,0:0:0:0:
324,160,96477,2,0,P|339:207|357:247,1,85
248,362,96691,2,0,P|264:322|277:282,1,85,8|0,0:0|0:0,0:0:0:0:
188,76,96906,6,0,P|164:151|229:230,1,170,0|8,0:0|0:0,0:0:0:0:
413,172,97227,2,0,B|335:138|335:138|242:142,1,170
96,257,97549,2,0,P|47:282|10:296,1,85,8|0,0:0|0:0,0:0:0:0:
149,154,97763,6,0,L|130:340,1,170,4|8,0:0|0:0,0:0:0:0:
51,135,98084,1,0,0:0:0:0:
208,78,98191,2,0,L|306:98,1,85
493,107,98406,2,0,P|449:119|410:138,1,85,8|0,0:0|0:0,0:0:0:0:
280,345,98620,6,0,B|332:316|332:316|361:182,1,170,0|8,0:0|0:0,0:0:0:0:
241,31,98941,2,0,P|215:105|301:179,1,170
448,170,99263,2,0,B|451:126|451:126|433:80,1,85,8|0,0:0|0:0,0:0:0:0:
248,201,99477,6,0,L|74:180,1,170,4|8,0:0|0:0,0:0:0:0:
139,100,99799,1,0,0:0:0:0:
192,292,99906,2,0,P|230:311|271:326,1,85
482,258,100120,2,0,L|382:272,1,85,8|0,0:0|0:0,0:0:0:0:
193,194,100334,6,0,P|236:144|345:171,1,170,0|8,0:0|0:0,0:0:0:0:
146,282,100656,2,0,B|110:253|110:253|91:117,1,170
271,23,100977,2,0,P|258:72|241:117,1,85,8|0,0:0|0:0,0:0:0:0:
351,343,101191,6,0,L|327:165,1,170,0|8,0:0|0:0,0:0:0:0:
389,62,101513,1,0,0:0:0:0:
365,262,101620,2,0,P|307:243|266:221,1,85
52,180,101834,2,0,P|90:162|131:150,1,85,8|0,0:0|0:0,0:0:0:0:
237,306,102048,6,0,B|295:301|345:309|345:309|417:289,1,170,0|8,0:0|0:0,0:0:0:0:
417,169,102370,2,0,P|464:185|469:312,1,170
316,375,102691,2,0,L|324:281,1,85,8|0,0:0|0:0,0:0:0:0:
346,76,102906,5,12,0:0:0:0:
101,177,103120,1,0,0:0:0:0:
101,177,103227,1,0,0:0:0:0:
180,135,103334,2,0,L|266:149,1,76.4999976654053,8|0,0:0|0:0,0:0:0:0:
321,249,103548,2,0,L|407:235,1,76.4999976654053
485,175,103763,5,8,0:0:0:0:
245,323,103977,2,0,P|228:287|214:242,1,76.4999976654053
297,70,104191,2,0,P|284:106|268:140,1,76.4999976654053,8|0,0:0|0:0,0:0:0:0:
333,346,104406,2,0,L|347:260,1,76.4999976654053
424,152,104620,5,8,0:0:0:0:
125,226,104834,1,0,0:0:0:0:
49,188,104941,1,0,0:0:0:0:
71,108,105048,2,0,L|158:94,1,76.4999976654053,8|0,0:0|0:0,0:0:0:0:
336,197,105263,2,0,L|249:183,1,76.4999976654053
122,313,105477,6,0,P|171:327|259:275,1,152.999995330811,8|0,0:0|0:0,0:0:0:0:
230,178,105798,1,0,0:0:0:0:
230,178,105906,2,0,L|239:93,1,76.4999976654053,8|0,0:0|0:0,0:0:0:0:
398,101,106120,2,0,L|389:16,1,76.4999976654053
336,197,106334,6,0,P|376:219|420:231,1,85
269,69,106548,2,0,L|173:84,1,85,8|0,0:0|0:0,0:0:0:0:
91,268,106763,1,2,0:0:0:0:
172,223,106870,1,2,0:0:0:0:
23,188,106977,2,0,L|9:289,1,85,8|0,0:0|0:0,0:0:0:0:
260,306,107191,6,0,B|249:236|249:236|263:211|263:211|252:134,1,170,2|8,0:0|0:0,0:0:0:0:
319,61,107513,1,0,0:0:0:0:
352,237,107620,1,2,0:0:0:0:
352,237,107727,1,2,0:0:0:0:
433,189,107834,2,0,L|446:96,1,85,8|0,0:0|0:0,0:0:0:0:
173,80,108048,6,0,P|129:84|64:106,1,85,2|0,0:0|0:0,0:0:0:0:
188,278,108263,1,10,0:0:0:0:
228,179,108370,1,8,0:0:0:0:
85,239,108477,2,0,L|-6:225,1,85,0|0,0:3|0:0,0:0:0:0:
207,151,108691,2,0,L|298:165,1,85,0|0,0:3|0:0,0:0:0:0:
456,295,108906,5,8,0:0:0:0:
314,262,109013,1,0,0:0:0:0:
445,314,109120,1,8,0:0:0:0:
339,263,109227,1,0,0:0:0:0:
367,343,109334,5,8,0:0:0:0:
283,329,109441,1,8,0:0:0:0:
224,267,109548,1,8,0:0:0:0:
139,278,109656,1,8,0:0:0:0:
74,222,109763,6,0,P|25:165|60:46,1,187.000005706787,4|8,0:0|0:0,0:0:0:0:
187,63,110084,1,0,0:0:0:0:
228,192,110191,2,0,L|218:303,1,93.5000028533936
93,340,110406,2,0,L|103:229,1,93.5000028533936,8|0,0:0|0:0,0:0:0:0:
267,110,110620,6,0,B|316:87|316:87|301:247,1,187.000005706787,0|8,0:0|0:0,0:0:0:0:
419,279,110941,2,0,P|443:230|454:187,1,93.5000028533936
346,92,111156,1,0,0:0:0:0:
296,241,111263,2,0,L|316:344,1,93.5000028533936,8|0,0:0|0:0,0:0:0:0:
58,213,111477,6,0,P|109:200|160:195,1,93.5000028533936
352,259,111691,2,0,P|305:253|260:241,1,93.5000028533936,8|0,0:0|0:0,0:0:0:0:
117,94,111906,1,0,0:0:0:0:
208,51,112013,1,0,0:0:0:0:
234,228,112120,2,0,L|243:332,1,93.5000028533936,8|0,0:0|0:0,0:0:0:0:
500,291,112334,6,0,B|454:301|454:301|416:274|416:274|315:261,1,187.000005706787,0|8,0:0|0:0,0:0:0:0:
156,352,112656,2,0,P|133:304|125:253,1,93.5000028533936
198,36,112870,1,0,0:0:0:0:
239,96,112977,2,0,L|225:195,1,93.5000028533936,8|0,0:0|0:0,0:0:0:0:
354,342,113191,6,0,P|403:284|339:181,1,187.000005706787,0|8,0:0|0:0,0:0:0:0:
191,223,113513,1,0,0:0:0:0:
122,293,113620,2,0,L|31:311,1,93.5000028533936
258,156,113834,2,0,L|349:174,1,93.5000028533936,8|0,0:0|0:0,0:0:0:0:
192,260,114048,6,0,B|152:223|152:223|168:78,1,187.000005706787,0|8,0:0|0:0,0:0:0:0:
327,130,114370,2,0,L|425:111,2,93.5000028533936
312,247,114691,2,0,P|365:267|406:279,1,93.5000028533936,8|0,0:0|0:0,0:0:0:0:
197,280,114906,6,0,L|93:298,1,93.5000028533936
30,89,115120,2,0,P|76:119|111:153,1,93.5000028533936,8|0,0:0|0:0,0:0:0:0:
65,367,115334,1,2,0:2:0:0:
12,283,115441,1,0,0:0:0:0:
173,237,115548,2,0,L|287:247,1,93.5000028533936,10|0,0:2|0:0,0:0:0:0:
414,98,115763,6,0,P|370:111|316:135,1,93.5000028533936,2|0,0:2|0:0,0:0:0:0:
274,359,115977,2,0,L|286:263,1,93.5000028533936,10|0,0:2|0:0,0:0:0:0:
243,43,116191,1,2,0:2:0:0:
171,185,116298,2,0,P|228:230|355:200,1,187.000005706787,2|0,0:2|0:0,0:0:0:0:
130,78,116620,6,0,B|0:104|0:104|60:130,1,187.000005706787,4|8,0:0|0:0,0:0:0:0:
202,175,116941,1,0,0:0:0:0:
291,92,117048,2,0,L|276:-6,1,93.5000028533936
175,195,117263,2,0,L|267:231,1,93.5000028533936,8|0,0:0|0:0,0:0:0:0:
413,190,117477,6,0,P|348:194|244:292,1,187.000005706787,0|8,0:0|0:0,0:0:0:0:
75,309,117798,2,0,L|259:355,1,187.000005706787
302,169,118120,2,0,P|253:175|204:187,1,93.5000028533936,8|0,0:0|0:0,0:0:0:0:
363,274,118334,6,0,P|427:239|401:123,1,187.000005706787,0|8,0:0|0:0,0:0:0:0:
184,10,118656,1,0,0:0:0:0:
264,44,118763,2,0,L|282:142,1,93.5000028533936
141,341,118977,2,0,P|146:286|157:238,1,93.5000028533936,8|0,0:0|0:0,0:0:0:0:
309,143,119191,6,0,B|348:174|348:174|325:310,1,187.000005706787,0|8,0:0|0:0,0:0:0:0:
180,259,119513,2,0,B|124:239|124:239|263:214,1,187.000005706787
436,177,119834,2,0,L|418:280,1,93.5000028533936,8|0,0:0|0:0,0:0:0:0:
222,130,120048,6,0,P|281:61|373:82,1,187.000005706787,0|8,0:0|0:0,0:0:0:0:
260,242,120370,1,0,0:0:0:0:
150,220,120477,2,0,L|36:232,1,93.5000028533936
155,41,120691,2,0,L|136:140,1,93.5000028533936,8|0,0:0|0:0,0:0:0:0:
232,360,120906,6,0,P|251:315|263:262,1,93.5000028533936
237,98,121120,1,8,0:0:0:0:
155,187,121227,2,0,B|212:202|212:202|260:183|260:183|294:202|343:198,1,187.000005706787
489,101,121548,2,0,P|439:116|389:146,1,93.5000028533936,8|0,0:0|0:0,0:0:0:0:
337,311,121763,6,0,L|323:218,1,93.5000028533936
139,163,121977,2,0,L|152:70,1,93.5000028533936,8|0,0:0|0:0,0:0:0:0:
267,13,122191,2,0,P|298:80|226:173,1,187.000005706787,0|8,0:0|0:0,0:0:0:0:
106,229,122513,1,0,0:0:0:0:
19,112,122620,6,0,B|107:77|107:77|214:82,1,187.000005706787,0|8,0:0|0:0,0:0:0:0:
255,144,122941,1,0,0:0:0:0:
336,141,123048,1,0,0:0:0:0:
393,80,123156,1,0,0:0:0:0:
474,96,123263,2,0,P|480:141|495:206,1,93.5000028533936,8|0,0:0|0:0,0:0:0:0:
344,352,123477,6,0,L|355:259,1,93.5000028533936,4|0,0:0|0:0,0:0:0:0:
440,332,123691,1,8,0:0:0:0:
250,304,123798,1,0,0:0:0:0:
250,304,123906,2,0,P|200:317|74:381,1,187.000005706787,0|8,0:0|0:0,0:0:0:0:
99,183,124227,1,0,0:0:0:0:
191,263,124334,6,0,L|197:375,1,93.5000028533936
319,354,124548,2,0,L|313:242,1,93.5000028533936,8|0,0:0|0:0,0:0:0:0:
286,86,124763,1,0,0:0:0:0:
250,180,124870,1,0,0:0:0:0:
379,121,124977,2,0,L|487:112,1,93.5000028533936,8|0,0:0|0:0,0:0:0:0:
186,103,125191,6,0,B|144:122|144:122|101:103|101:103|54:113|20:167,1,187.000005706787,0|8,0:0|0:0,0:0:0:0:
0,247,125513,1,0,0:0:0:0:
44,328,125620,2,0,B|76:344|76:344|138:334,1,93.5000028533936
331,327,125834,2,0,B|305:301|305:301|243:292,1,93.5000028533936,8|0,0:0|0:0,0:0:0:0:
102,189,126048,6,0,L|7:212,1,93.5000028533936
208,108,126263,2,0,L|113:85,1,93.5000028533936,8|0,0:0|0:0,0:0:0:0:
266,221,126477,1,0,0:0:0:0:
365,148,126584,1,0,0:0:0:0:
288,54,126691,2,0,L|276:153,1,93.5000028533936,8|0,0:0|0:0,0:0:0:0:
328,286,126906,6,0,B|375:284|375:284|423:260,1,93.5000028533936
221,209,127120,2,0,B|179:188|179:188|132:186,1,93.5000028533936,8|0,0:0|0:0,0:0:0:0:
53,269,127334,1,0,0:0:0:0:
53,269,127441,1,0,0:0:0:0:
108,360,127548,2,0,L|227:350,1,93.5000028533936,8|0,0:0|0:0,0:0:0:0:
161,260,127763,6,0,L|183:59,1,187.000005706787,0|8,0:0|0:0,0:0:0:0:
365,73,128084,2,0,P|321:98|263:117,1,93.5000028533936
121,15,128298,1,0,0:0:0:0:
74,84,128406,2,0,L|84:186,1,93.5000028533936,8|0,0:0|0:0,0:0:0:0:
125,324,128620,6,0,P|77:310|34:287,1,93.5000028533936
239,240,128834,2,0,L|345:229,1,93.5000028533936,8|0,0:0|0:0,0:0:0:0:
477,38,129048,1,2,0:2:0:0:
380,50,129156,1,0,0:0:0:0:
436,217,129263,2,0,L|417:313,1,93.5000028533936,10|0,0:2|0:0,0:0:0:0:
279,360,129477,6,0,P|250:300|237:258,1,93.5000028533936,2|0,0:2|0:0,0:0:0:0:
280,66,129691,2,0,L|260:173,1,93.5000028533936,10|0,0:2|0:0,0:0:0:0:
62,273,129906,1,2,0:2:0:0:
90,82,130013,2,0,B|136:109|136:109|151:251,1,187.000005706787,2|0,0:2|0:0,0:0:0:0:
244,362,130334,6,0,P|196:290|91:327,1,187.000005706787,4|8,0:0|0:0,0:0:0:0:
107,305,130656,1,0,0:0:0:0:
261,240,130763,2,0,L|363:251,1,93.5000028533936
470,139,130977,2,0,L|368:128,1,93.5000028533936,8|0,0:0|0:0,0:0:0:0:
320,332,131191,6,0,P|374:284|389:266,1,93.5000028533936
261,77,131406,1,8,0:0:0:0:
209,192,131513,2,0,L|414:172,1,187.000005706787
154,289,131834,2,0,P|125:251|99:203,1,93.5000028533936,8|0,0:0|0:0,0:0:0:0:
342,34,132048,6,0,L|333:138,1,93.5000028533936
320,350,132263,1,8,0:0:0:0:
230,252,132370,2,0,L|239:148,1,93.5000028533936
422,167,132584,2,0,P|477:152|510:136,2,93.5000028533936,0|8|0,0:0|0:0|0:0,0:0:0:0:
241,128,132906,6,0,P|186:143|153:159,1,93.5000028533936
185,351,133120,2,0,B|204:319|204:319|198:248,1,93.5000028533936,8|0,0:0|0:0,0:0:0:0:
51,100,133334,2,0,L|81:297,1,187.000005706787,0|8,0:0|0:0,0:0:0:0:
449,79,133763,6,0,L|355:63,1,93.5000028533936
137,83,133977,1,8,0:0:0:0:
137,83,134084,1,0,0:0:0:0:
214,147,134191,2,0,P|269:123|311:96,1,93.5000028533936
465,233,134406,2,0,P|424:209|381:191,1,93.5000028533936,8|0,0:0|0:0,0:0:0:0:
148,331,134620,6,0,P|226:341|309:239,1,187.000005706787,0|8,0:0|0:0,0:0:0:0:
132,220,134941,1,0,0:0:0:0:
44,292,135048,2,0,L|60:384,1,93.5000028533936
165,195,135263,2,0,L|181:103,1,93.5000028533936,8|0,0:0|0:0,0:0:0:0:
0,103,135477,6,0,P|46:123|97:132,1,93.5000028533936
251,147,135691,1,8,0:0:0:0:
187,44,135798,2,0,B|162:85|162:85|188:230,1,187.000005706787
265,288,136120,2,0,L|253:381,1,93.5000028533936,8|0,0:0|0:0,0:0:0:0:
75,247,136334,6,0,B|121:231|121:231|167:237,1,93.5000028533936,8|0,0:3|0:0,0:0:0:0:
421,220,136548,2,0,B|376:225|376:225|330:209,1,93.5000028533936,8|0,0:3|0:0,0:0:0:0:
166,112,136763,1,8,0:0:0:0:
241,74,136870,1,0,0:0:0:0:
323,88,136977,1,8,0:0:0:0:
405,103,137084,1,8,0:0:0:0:
405,103,137191,6,0,L|415:208,1,85,4|0,1:0|0:0,0:0:0:0:
484,243,137619,2,0,L|474:348,1,85,8|0,0:0|0:0,0:0:0:0:
322,204,138048,1,0,1:0:0:0:
219,215,138262,1,0,0:0:0:0:
337,238,138476,2,0,L|349:336,1,85,8|0,0:0|0:0,0:0:0:0:
120,268,138905,5,0,1:0:0:0:
65,172,139119,2,0,P|55:120|53:78,1,85,2|8,0:0|0:0,0:0:0:0:
148,31,139548,1,0,0:0:0:0:
223,191,139762,2,0,L|212:276,1,85,2|0,1:2|0:0,0:0:0:0:
273,337,140083,1,2,0:2:0:0:
273,337,140191,2,0,P|317:352|359:357,1,85,8|2,0:0|0:0,0:0:0:0:
122,298,140619,6,0,L|19:312,1,85,2|0,1:2|0:0,0:0:0:0:
125,154,141048,2,0,L|22:168,1,85,8|0,0:0|0:0,0:0:0:0:
213,313,141476,1,0,1:0:0:0:
213,313,141691,1,0,0:0:0:0:
23,198,141905,2,0,L|126:184,1,85,8|0,0:0|0:0,0:0:0:0:
230,83,142333,5,0,1:0:0:0:
301,177,142548,2,0,P|350:170|385:155,1,85,2|8,0:0|0:0,0:0:0:0:
248,56,142976,1,0,0:0:0:0:
169,163,143191,1,2,1:2:0:0:
316,286,143405,1,8,0:0:0:0:
316,286,143512,1,2,0:2:0:0:
316,286,143619,1,0,1:0:0:0:
129,288,143833,1,10,0:0:0:0:
328,253,144048,6,0,L|432:268,1,85,2|0,1:2|0:0,0:0:0:0:
293,116,144476,2,0,L|189:101,1,85,8|0,0:0|0:0,0:0:0:0:
275,345,144905,2,0,L|379:330,1,85,0|0,1:0|0:0,0:0:0:0:
346,23,145333,2,0,L|242:38,1,85,8|0,0:0|0:0,0:0:0:0:
75,190,145762,5,0,1:0:0:0:
188,178,145976,2,0,P|214:139|235:89,1,85,2|8,0:0|0:0,0:0:0:0:
59,163,146405,1,0,0:0:0:0:
182,277,146619,2,0,L|281:264,1,85,2|0,1:2|0:0,0:0:0:0:
337,316,146941,1,2,0:0:0:0:
337,316,147048,2,0,L|436:303,1,85,8|2,0:0|0:0,0:0:0:0:
512,154,147476,6,0,P|468:136|431:129,1,85,2|0,1:2|0:0,0:0:0:0:
187,152,147905,2,0,P|231:170|268:177,1,85,8|0,0:0|0:0,0:0:0:0:
439,18,148333,2,0,P|421:62|414:99,1,85,2|0,1:2|0:0,0:0:0:0:
260,288,148762,2,0,P|278:244|285:207,1,85,8|0,0:0|0:0,0:0:0:0:
135,37,149191,6,0,P|176:45|215:61,1,85,2|0,1:2|0:0,0:0:0:0:
483,244,149619,2,0,P|443:260|402:268,1,85,8|0,0:0|0:0,0:0:0:0:
157,151,150048,1,2,1:2:0:0:
345,52,150262,1,8,0:0:0:0:
248,275,150476,1,0,1:0:0:0:
214,278,150583,1,8,0:0:0:0:
179,282,150691,1,8,0:0:0:0:
145,286,150798,1,8,0:0:0:0:
111,290,150905,6,0,L|8:273,1,85,6|0,1:0|0:0,0:0:0:0:
194,97,151333,1,8,1:0:0:0:
194,97,151441,1,0,1:0:0:0:
194,97,151548,1,0,1:0:0:0:
194,97,151655,1,0,1:0:0:0:
194,97,151762,1,0,1:0:0:0:
210,316,151976,1,0,1:0:0:0:
380,203,152191,2,0,L|283:190,1,85,8|0,0:0|1:0,0:0:0:0:
31,237,152619,6,0,L|128:224,1,85,0|2,1:0|0:0,0:0:0:0:
277,113,153048,1,8,1:0:0:0:
304,132,153155,1,0,1:0:0:0:
320,161,153262,1,0,1:0:0:0:
318,194,153369,1,0,1:0:0:0:
304,225,153476,2,0,B|262:229|262:229|212:211,1,85,2|0,1:2|1:0,0:0:0:0:
149,115,153905,1,8,0:0:0:0:
144,320,154119,1,0,1:0:0:0:
326,223,154333,6,0,L|317:110,1,85,2|0,1:2|0:0,0:0:0:0:
456,31,154762,1,8,1:0:0:0:
451,64,154869,1,0,1:0:0:0:
447,97,154976,1,0,1:0:0:0:
443,130,155083,1,0,1:0:0:0:
439,164,155191,1,0,1:0:0:0:
224,229,155405,1,0,1:0:0:0:
326,54,155619,2,0,L|317:167,1,85,8|0,0:0|1:0,0:0:0:0:
269,345,156048,6,0,P|316:333|359:314,1,85,0|2,1:0|0:0,0:0:0:0:
191,138,156476,1,8,1:0:0:0:
191,138,156583,1,0,1:0:0:0:
191,138,156691,1,0,1:0:0:0:
191,138,156798,1,0,1:0:0:0:
191,138,156905,2,0,P|151:121|110:111,1,85,2|0,1:2|1:0,0:0:0:0:
48,365,157333,1,8,0:0:0:0:
12,138,157548,1,0,1:0:0:0:
202,264,157762,6,0,L|298:243,1,85,6|0,1:2|0:0,0:0:0:0:
432,122,158191,1,8,1:0:0:0:
457,144,158298,1,0,1:0:0:0:
466,176,158405,1,0,1:0:0:0:
458,209,158512,1,0,1:0:0:0:
435,234,158619,1,0,1:0:0:0:
241,144,158833,1,0,1:0:0:0:
331,85,159048,2,0,B|346:128|346:128|338:188,1,85,8|0,0:0|1:0,0:0:0:0:
171,298,159476,6,0,B|156:255|156:255|164:195,1,85,0|2,1:0|0:0,0:0:0:0:
270,41,159905,1,8,1:0:0:0:
277,74,160012,1,0,1:0:0:0:
284,107,160119,1,0,1:0:0:0:
291,140,160226,1,0,1:0:0:0:
298,173,160333,2,0,L|192:152,1,85,2|0,1:0|1:0,0:0:0:0:
24,228,160762,1,8,0:0:0:0:
86,100,160976,1,0,1:0:0:0:
136,330,161191,6,0,L|219:352,1,76.4999976654053,0|0,1:0|0:0,0:0:0:0:
370,299,161652,2,0,L|412:292,3,38.2499988327027,8|0|0|0,1:0|1:0|1:0|1:0,1:0:0:0:
296,260,162114,2,0,P|281:218|272:173,1,76.4999976654053,0|0,1:0|1:0,0:0:0:0:
363,26,162575,2,0,L|349:117,1,76.4999976654053,8|0,0:0|1:0,0:0:0:0:
160,185,163037,6,0,L|90:177,1,68,0|0,1:0|0:0,0:0:0:0:
21,303,163558,2,0,L|9:257,3,34,8|0|0|0,1:0|1:0|1:0|1:0,1:0:0:0:
93,345,164080,2,0,L|135:351,1,34,8|8,0:0|0:0,0:0:0:0:
227,284,164341,2,0,L|185:290,1,34,8|8,0:0|0:0,0:0:0:0:
64,189,164602,2,0,L|106:195,1,34,8|8,0:0|0:0,0:0:0:0:
220,90,164863,2,0,L|178:96,1,34,8|8,0:0|0:0,0:0:0:0:
188,128,166547,6,0,L|194:220,1,85,2|0,0:2|2:0,0:0:0:0:
304,363,166805,2,0,L|310:271,1,85,2|0,0:2|2:0,0:0:0:0:
230,47,167064,6,0,P|148:44|99:129,1,188,4|0,0:0|0:0,0:0:0:0:
211,246,167454,1,8,0:0:0:0:
243,83,167585,1,0,0:0:0:0:
159,176,167715,1,0,0:0:0:0:
350,228,167846,1,0,0:0:0:0:
247,47,167976,1,8,0:0:0:0:
241,248,168107,6,0,L|252:346,1,93.5000028533936,4|0,0:0|0:0,0:0:0:0:
114,209,168367,2,0,L|119:161,1,46.7500014266968,8|0,0:0|0:0,0:0:0:0:
164,46,168498,2,0,L|169:91,1,46.7500014266968,8|0,0:3|0:0,0:0:0:0:
168,278,168628,2,0,P|123:298|75:308,1,93.5000028533936,8|0,0:3|0:0,0:0:0:0:
281,132,168889,2,0,P|327:143|371:163,1,93.5000028533936,8|0,0:0|0:0,0:0:0:0:
222,361,169150,6,0,L|203:170,1,187.000005706787,4|0,0:0|0:0,0:0:0:0:
66,86,169541,1,8,0:0:0:0:
264,104,169672,1,0,0:0:0:0:
33,67,169802,1,0,0:0:0:0:
87,252,169933,1,0,0:0:0:0:
145,39,170063,1,8,0:0:0:0:
12,223,170194,6,0,B|7:270|7:270|34:329,1,93.5000028533936,4|0,0:0|0:0,0:0:0:0:
243,200,170454,1,8,0:0:0:0:
222,188,170520,1,0,0:0:0:0:
199,182,170585,1,8,0:3:0:0:
175,184,170650,1,0,0:0:0:0:
153,193,170715,2,0,L|141:297,1,93.5000028533936,8|0,0:3|0:0,0:0:0:0:
385,174,170976,2,0,L|373:70,1,93.5000028533936,8|0,0:0|0:0,0:0:0:0:
101,126,171237,6,0,B|156:145|156:145|295:125,1,187.000005706787,4|0,0:0|0:0,0:0:0:0:
400,50,171628,2,0,L|444:33,1,46.7500014266968,8|0,0:0|0:0,0:0:0:0:
472,159,171759,2,0,L|424:149,1,46.7500014266968,8|0,0:0|0:0,0:0:0:0:
371,235,171889,1,8,0:3:0:0:
343,252,171954,1,0,0:0:0:0:
310,256,172020,1,8,0:3:0:0:
280,242,172085,1,0,0:0:0:0:
260,215,172150,1,8,0:0:0:0:
230,200,172215,1,0,0:0:0:0:
197,204,172280,6,0,L|101:226,1,93.5000028533936,4|0,0:0|0:0,0:0:0:0:
66,337,172541,1,0,0:0:0:0:
7,129,172672,1,8,0:0:0:0:
142,283,172802,2,0,L|155:231,1,46.7500014266968
205,68,172933,1,8,0:0:0:0:
336,202,173063,1,0,0:0:0:0:
328,219,173128,1,0,0:0:0:0:
321,236,173194,5,8,0:0:0:0:
294,210,173259,1,0,0:0:0:0:
288,173,173324,1,8,0:0:0:0:
297,136,173389,1,0,0:0:0:0:
323,114,173454,6,0,L|432:95,1,85,4|0,0:0|0:0,0:0:0:0:
234,40,173714,1,8,0:0:0:0:
275,256,173845,1,2,0:0:0:0:
165,137,173975,1,8,0:0:0:0:
382,167,174106,1,2,0:0:0:0:
382,167,174171,1,0,0:0:0:0:
382,167,174236,2,0,L|394:263,1,85,10|0,0:0|0:0,0:0:0:0:
166,322,174497,6,0,L|178:226,1,85,10|0,0:0|0:0,0:0:0:0:
153,85,174758,1,8,0:0:0:0:
76,257,174888,1,2,0:0:0:0:
248,153,175019,1,8,0:0:0:0:
268,149,175084,1,0,0:0:0:0:
288,146,175149,1,2,0:0:0:0:
192,258,175280,1,8,0:0:0:0:
82,91,175410,1,0,0:0:0:0:
102,87,175475,1,0,0:0:0:0:
122,84,175540,6,0,L|105:190,1,85,10|0,0:0|0:0,0:0:0:0:
259,346,175801,2,0,P|272:305|280:260,1,85,8|2,0:0|0:0,0:0:0:0:
326,62,176062,1,8,0:0:0:0:
185,140,176193,1,2,0:0:0:0:
350,83,176323,2,0,L|435:63,1,85,8|0,0:0|0:0,0:0:0:0:
346,285,176584,5,10,0:0:0:0:
261,91,176714,1,0,0:0:0:0:
379,182,176845,1,8,0:0:0:0:
222,319,176975,1,2,0:0:0:0:
270,126,177106,2,0,B|282:168|282:168|265:214,1,85,8|2,0:0|0:0,0:0:0:0:
106,342,177367,1,8,0:0:0:0:
197,167,177497,1,0,0:0:0:0:
197,167,177562,1,0,0:0:0:0:
197,167,177627,6,0,L|96:153,1,85,10|0,0:0|0:0,0:0:0:0:
20,233,177888,1,8,0:0:0:0:
224,182,178019,1,2,0:0:0:0:
88,43,178149,2,0,P|92:89|102:136,1,85,8|2,0:0|0:0,0:0:0:0:
360,233,178410,2,0,P|356:190|348:148,1,85,8|0,0:0|0:0,0:0:0:0:
131,147,178671,6,0,L|227:137,1,85,10|0,0:0|0:0,0:0:0:0:
347,35,178932,1,8,0:0:0:0:
326,251,179062,1,2,0:0:0:0:
326,251,179127,1,0,0:0:0:0:
326,251,179193,2,0,L|340:351,1,85,8|2,0:0|0:0,0:0:0:0:
218,114,179454,1,8,0:0:0:0:
425,119,179584,1,0,0:0:0:0:
425,119,179649,1,0,0:0:0:0:
425,119,179715,6,0,L|411:219,1,85,10|0,0:0|0:0,0:0:0:0:
225,339,179975,1,8,0:0:0:0:
116,232,180106,2,0,L|164:240,1,42.5,10|0,0:0|0:0,0:0:0:0:
265,178,180236,1,0,0:3:0:0:
14,146,180367,1,8,0:3:0:0:
18,167,180432,1,0,0:0:0:0:
22,188,180497,1,8,0:3:0:0:
56,348,180627,1,0,0:0:0:0:
178,193,180758,6,0,L|169:95,1,85,4|0,0:0|0:0,0:0:0:0:
397,42,181019,1,8,0:0:0:0:
330,227,181149,1,0,0:0:0:0:
308,208,181214,1,0,0:0:0:0:
306,177,181280,1,8,0:0:0:0:
303,147,181345,1,0,0:0:0:0:
301,117,181410,1,2,0:0:0:0:
420,15,181540,1,8,0:0:0:0:
398,295,181671,1,10,0:0:0:0:
208,160,181801,6,0,L|96:181,1,85,12|0,0:0|0:0,0:0:0:0:
107,200,181997,1,0,0:0:0:0:
77,195,182062,1,0,0:0:0:0:
47,190,182127,1,0,0:0:0:0:
17,185,182193,1,2,0:0:0:0:
111,308,182323,2,0,L|201:286,1,85,0|10,0:0|0:0,0:0:0:0:
409,270,182584,2,0,P|353:245|320:235,1,85,0|8,0:0|0:0,0:0:0:0:
209,88,182845,5,2,0:0:0:0:
197,227,182975,1,8,0:0:0:0:
323,88,183106,1,0,0:0:0:0:
138,28,183236,2,0,L|123:117,1,85,10|0,0:0|0:0,0:0:0:0:
162,321,183497,1,10,0:0:0:0:
34,212,183627,1,0,0:0:0:0:
34,212,183693,1,0,0:0:0:0:
34,212,183758,1,8,0:0:0:0:
186,169,183888,6,0,P|230:174|286:189,1,85,6|8,0:0|0:0,0:0:0:0:
477,91,184149,2,0,L|378:113,1,85,0|10,0:0|0:0,0:0:0:0:
320,316,184410,1,0,0:0:0:0:
258,131,184540,1,10,0:0:0:0:
419,203,184671,1,0,0:0:0:0:
214,215,184801,1,8,0:0:0:0:
259,39,184932,6,0,L|347:31,1,85,2|8,0:0|0:0,0:0:0:0:
148,243,185193,1,0,0:0:0:0:
71,140,185323,2,0,L|85:43,1,85,10|0,0:0|0:0,0:0:0:0:
268,221,185584,2,0,P|279:262|287:311,1,85,10|0,0:0|0:0,0:0:0:0:
235,366,185780,1,0,0:0:0:0:
235,366,185845,1,8,0:0:0:0:
377,293,185975,5,2,0:0:0:0:
262,143,186106,1,8,0:0:0:0:
341,321,186236,2,0,L|447:338,1,85,0|10,0:0|0:0,0:0:0:0:
386,93,186497,2,0,P|373:133|364:180,1,85,0|10,0:0|0:0,0:0:0:0:
218,317,186758,2,0,P|209:275|196:234,1,85,0|8,0:0|0:0,0:0:0:0:
43,195,187019,5,2,0:0:0:0:
163,52,187149,1,8,0:0:0:0:
133,314,187280,1,0,0:0:0:0:
24,162,187410,1,10,0:0:0:0:
44,156,187475,1,0,0:0:0:0:
64,150,187540,1,0,0:0:0:0:
249,186,187671,1,10,0:0:0:0:
153,20,187801,2,0,L|169:121,1,85,0|8,0:0|0:0,0:0:0:0:
260,308,188062,6,0,P|222:356|112:335,1,170,4|0,0:0|0:0,0:0:0:0:
282,189,188453,1,0,0:0:0:0:
350,347,188584,2,0,L|441:328,1,85,8|0,0:0|0:0,0:0:0:0:
169,227,188845,2,0,L|78:246,1,85
263,280,189106,5,8,0:3:0:0:
286,82,189236,1,0,0:0:0:0:
117,114,189367,2,0,P|129:158|153:210,1,85
430,190,189627,2,0,P|362:171|239:154,1,170,8|0,0:3|0:0,0:0:0:0:
86,334,190149,5,2,0:0:0:0:
86,334,190280,1,0,0:0:0:0:
172,52,190671,2,0,L|180:125,1,63.7500024318696,2|0,0:0|0:0,0:0:0:0:
197,323,191193,5,2,0:0:0:0:
197,323,191324,1,0,0:0:0:0:
283,41,191715,2,0,L|291:114,1,63.7500024318696,2|0,0:0|0:0,0:0:0:0:
308,312,192236,5,2,0:0:0:0:
308,312,192367,1,0,0:0:0:0:
394,30,192758,2,0,L|402:103,1,63.7500024318696,2|0,0:0|0:0,0:0:0:0:
171,238,193280,6,0,P|120:219|94:206,1,63.7500024318696,2|0,0:0|0:0,0:0:0:0:
341,146,193540,2,0,P|392:165|418:178,1,63.7500024318696
259,295,193801,2,0,L|249:148,1,127.500004863739,10|0,0:0|0:0,0:0:0:0:
310,58,194193,1,8,0:0:0:0:
423,274,194323,5,2,0:0:0:0:
423,274,194453,1,0,0:0:0:0:
89,110,194845,1,2,0:0:0:0:
89,110,194975,1,0,0:0:0:0:
293,347,195367,5,2,0:0:0:0:
293,347,195497,1,0,0:0:0:0:
219,37,195888,1,2,0:0:0:0:
219,37,196018,1,0,0:0:0:0:
89,274,196410,5,2,0:0:0:0:
89,274,196540,1,0,0:0:0:0:
423,110,196932,1,2,0:0:0:0:
423,110,197062,1,0,0:0:0:0:
237,248,197453,6,0,P|203:217|207:129,1,127.500004863739,2|0,0:0|0:0,0:0:0:0:
381,238,197975,2,0,L|452:249,1,63.7500024318696,10|0,0:0|0:0,0:0:0:0:
311,324,198236,1,0,0:0:0:0:
289,171,198367,1,8,0:0:0:0:
405,101,198497,6,0,L|425:5,1,85,2|0,0:0|0:0,0:0:0:0:
302,137,198758,2,0,L|317:212,1,63.7500024318696
178,127,199019,2,0,L|198:31,1,85,2|0,0:0|0:0,0:0:0:0:
75,163,199280,2,0,L|90:238,1,63.7500024318696
220,317,199540,6,0,L|308:304,1,85,2|0,0:0|0:0,0:0:0:0:
377,331,199801,2,0,L|311:321,1,63.7500024318696
85,108,200062,2,0,L|173:121,1,85,2|0,0:0|0:0,0:0:0:0:
242,94,200323,2,0,L|176:103,1,63.7500024318696
68,265,200584,6,0,P|64:317|69:361,1,85,2|0,0:0|0:0,0:0:0:0:
101,243,200845,2,0,P|69:240|37:243,1,63.7500024318696
324,203,201106,2,0,P|328:151|323:107,1,85,2|0,0:0|0:0,0:0:0:0:
291,225,201367,2,0,P|322:227|354:224,1,63.7500024318696
174,56,201627,6,0,P|134:64|106:76,1,63.7500024318696,2|0,0:0|0:0,0:0:0:0:
266,245,201888,2,0,P|295:256|327:261,1,63.7500024318696
272,125,202149,1,10,0:0:0:0:
272,125,202280,1,0,0:0:0:0:
148,239,202410,2,0,L|159:307,1,63.7500024318696,0|8,0:0|0:0,0:0:0:0:
358,280,202671,6,0,L|439:292,2,76.4999976654053,4|0|8,0:0|0:0|0:0,0:0:0:0:
267,347,203062,1,2,0:0:0:0:
287,177,203193,2,0,P|335:156|364:149,1,76.4999976654053
234,320,203453,2,0,L|157:300,1,76.4999976654053,10|0,0:0|0:0,0:0:0:0:
52,199,203714,6,0,P|20:248|67:353,1,152.999995330811,2|10,0:0|0:0,0:0:0:0:
149,213,204106,1,0,0:0:0:0:
82,104,204236,2,0,L|69:25,1,76.4999976654053,2|0,0:0|0:0,0:0:0:0:
248,137,204497,2,0,L|261:216,1,76.4999976654053,10|0,0:0|0:0,0:0:0:0:
181,361,204758,6,0,P|142:324|166:226,1,152.999995330811,6|8,0:0|0:0,0:0:0:0:
329,296,205149,1,2,0:0:0:0:
329,296,205280,2,0,L|413:303,1,76.4999976654053
490,149,205540,2,0,L|406:142,1,76.4999976654053,10|0,0:0|0:0,0:0:0:0:
188,102,205801,5,2,0:0:0:0:
188,102,205932,1,0,0:0:0:0:
129,207,206062,2,0,P|83:228|47:239,1,76.4999976654053,10|0,0:0|0:0,0:0:0:0:
229,275,206323,2,0,P|275:296|311:307,1,76.4999976654053,2|0,0:0|0:0,0:0:0:0:
114,334,206584,2,0,P|68:355|32:366,1,76.4999976654053,10|0,0:0|0:0,0:0:0:0:
141,102,206845,6,0,L|147:205,1,76.4999976654053,6|0,0:0|0:0,0:0:0:0:
237,326,207106,2,0,P|256:272|260:246,1,76.4999976654053,8|2,0:0|0:0,0:0:0:0:
223,104,207367,1,0,0:0:0:0:
223,104,207497,1,0,0:0:0:0:
152,319,207627,2,0,L|236:299,1,76.4999976654053,10|0,0:0|0:0,0:0:0:0:
468,239,207888,6,0,P|415:193|319:216,1,152.999995330811,2|8,0:0|0:0,0:0:0:0:
420,316,208280,1,0,0:0:0:0:
426,149,208410,2,0,L|343:133,1,76.4999976654053,2|0,0:0|0:0,0:0:0:0:
153,291,208671,2,0,L|236:275,1,76.4999976654053,8|0,0:0|0:0,0:0:0:0:
315,100,208932,6,0,B|351:134|351:134|334:242,1,152.999995330811,6|8,0:0|0:0,0:0:0:0:
142,259,209323,1,2,0:0:0:0:
96,183,209453,2,0,B|133:167|133:167|181:176,1,76.4999976654053
186,337,209714,2,0,B|149:353|149:353|101:344,1,76.4999976654053,10|0,0:0|0:0,0:0:0:0:
55,172,209975,6,0,L|70:82,1,76.4999976654053,2|0,0:0|0:0,0:0:0:0:
279,100,210236,1,10,0:0:0:0:
138,46,210367,1,0,0:0:0:0:
217,199,210497,2,0,L|207:277,1,76.4999976654053,8|0,0:3|0:0,0:0:0:0:
145,75,210758,1,10,0:0:0:0:
251,61,210888,1,0,0:0:0:0:
319,144,211019,6,0,L|484:128,1,152.999995330811,6|8,0:0|0:0,0:0:0:0:
319,243,211410,1,0,0:0:0:0:
225,219,211540,2,0,P|179:225|144:232,1,76.4999976654053,2|0,0:0|0:0,0:0:0:0:
211,44,211801,2,0,L|200:126,1,76.4999976654053,8|0,0:0|0:0,0:0:0:0:
247,319,212062,6,0,P|289:311|322:298,2,76.4999976654053,2|0|8,0:0|0:0|0:0,0:0:0:0:
28,335,212453,1,2,0:0:0:0:
92,266,212584,2,0,L|183:286,1,76.4999976654053
378,194,212845,2,0,L|287:174,1,76.4999976654053,10|0,0:0|0:0,0:0:0:0:
220,103,213106,5,2,0:0:0:0:
205,278,213236,1,0,0:0:0:0:
298,96,213367,2,0,P|261:36|170:42,1,152.999995330811,8|0,0:0|0:0,0:0:0:0:
23,158,213758,1,0,0:0:0:0:
86,319,213888,2,0,L|70:244,1,76.4999976654053,10|0,0:0|0:0,0:0:0:0:
55,55,214149,6,0,P|92:65|132:82,1,76.4999976654053
287,230,214410,2,0,P|251:244|214:254,1,76.4999976654053,10|0,0:0|0:0,0:0:0:0:
245,109,214671,1,2,0:0:0:0:
368,228,214801,1,0,0:0:0:0:
248,351,214932,2,0,L|168:336,1,76.4999976654053,10|0,0:0|0:0,0:0:0:0:
17,143,215193,6,0,L|102:131,1,76.4999976654053,14|0,0:0|0:0,0:0:0:0:
185,60,215453,1,0,0:0:0:0:
185,60,215584,1,0,0:0:0:0:
66,208,215714,2,0,P|104:182|143:160,1,76.4999976654053,10|0,0:0|0:0,0:0:0:0:
234,224,215975,1,0,0:0:0:0:
234,224,216106,1,0,0:0:0:0:
195,338,216236,5,10,0:0:0:0:
332,294,216367,1,0,0:0:0:0:
194,228,216497,2,0,L|105:244,1,76.4999976654053
254,115,216758,2,0,P|294:125|339:132,1,76.4999976654053,10|0,0:0|0:0,0:0:0:0:
429,75,217019,2,0,L|469:58,2,38.2499988327027
319,236,217280,6,0,P|375:252|445:195,1,152.999995330811,10|0,0:0|0:0,0:0:0:0:
304,127,217671,1,0,0:0:0:0:
248,339,217801,2,0,L|338:320,1,76.4999976654053,10|0,0:0|0:0,0:0:0:0:
200,230,218062,1,0,0:0:0:0:
293,117,218193,1,0,0:0:0:0:
185,24,218323,6,0,L|195:118,1,76.4999976654053,8|0,0:3|0:0,0:0:0:0:
80,334,218584,2,0,P|60:288|50:252,1,76.4999976654053,8|0,0:0|0:0,0:0:0:0:
116,115,218845,1,2,0:0:0:0:
106,351,218975,1,2,0:0:0:0:
13,121,219106,2,0,L|93:134,1,76.4999976654053,8|0,0:0|0:0,0:0:0:0:
348,86,219367,5,0,0:0:0:0:
187,156,219497,1,0,0:0:0:0:
286,20,219627,1,8,0:0:0:0:
260,266,219758,1,8,0:0:0:0:
404,167,219888,2,0,L|327:183,1,76.4999976654053,8|0,0:3|0:0,0:0:0:0:
169,121,220149,1,0,0:0:0:0:
169,121,220280,1,0,0:0:0:0:
226,38,220410,5,8,0:0:0:0:
237,230,220540,1,8,0:0:0:0:
73,150,220671,2,0,L|86:64,1,76.4999976654053
390,95,220932,1,8,0:3:0:0:
189,132,221062,1,0,0:0:0:0:
405,63,221193,2,0,L|395:149,1,76.4999976654053,8|0,0:0|0:0,0:0:0:0:
439,346,221453,5,0,0:0:0:0:
439,346,221584,1,4,0:2:0:0:
257,273,221845,5,0,0:0:0:0:
257,273,221976,1,4,0:2:0:0:
75,200,222236,5,0,0:0:0:0:
75,200,222367,1,4,0:2:0:0:
180,202,223540,6,0,L|49:221,1,127.500004863739,6|0,0:0|0:0,0:0:0:0:
264,157,223932,2,0,P|308:173|337:180,1,63.7500024318696
180,109,224193,1,0,0:0:0:0:
221,288,224323,2,0,L|266:300,2,31.8750012159348
62,199,224584,6,0,P|121:179|179:201,1,127.500004863739,8|8,0:0|0:3,0:0:0:0:
134,340,224975,2,0,L|121:268,1,63.7500024318696,0|0,0:0|0:3,0:0:0:0:
264,157,225236,1,0,0:0:0:0:
180,109,225367,2,0,L|112:119,1,63.7500024318696,0|0,0:3|0:0,0:0:0:0:
262,256,225627,6,0,L|325:268,2,63.7500024318696
394,208,226019,2,0,P|417:232|438:260,1,63.7500024318696,2|0,0:0|0:0,0:0:0:0:
264,157,226280,2,0,P|283:131|305:108,1,63.7500024318696,2|0,0:0|0:0,0:0:0:0:
221,288,226540,1,2,0:0:0:0:
343,210,226671,6,0,L|353:63,1,127.500004863739,8|0,0:0|0:0,0:0:0:0:
434,302,227193,1,8,0:0:0:0:
262,256,227323,1,2,0:0:0:0:
387,147,227453,1,8,0:3:0:0:
356,239,227584,1,2,0:0:0:0:
197,185,227714,6,0,P|167:221|183:314,1,127.500004863739,4|0,0:0|0:0,0:0:0:0:
291,164,228106,2,0,L|278:81,1,63.7500024318696,2|0,0:0|0:0,0:0:0:0:
102,120,228367,1,2,0:0:0:0:
102,120,228497,2,0,L|89:203,1,63.7500024318696,0|2,0:0|0:0,0:0:0:0:
244,231,228758,6,0,P|324:236|364:190,1,127.500004863739,8|8,0:0|0:3,0:0:0:0:
343,53,229149,1,2,0:0:0:0:
343,53,229280,2,0,L|271:68,1,63.7500024318696,0|2,0:3|0:0,0:0:0:0:
131,120,229540,2,0,L|203:135,1,63.7500024318696,2|0,0:3|0:0,0:0:0:0:
244,231,229801,6,0,L|258:363,1,127.500004863739,4|0,0:0|0:0,0:0:0:0:
329,169,230193,2,0,L|340:100,1,63.7500024318696,0|2,0:0|0:0,0:0:0:0:
193,133,230453,1,0,0:0:0:0:
136,197,230584,2,0,L|147:266,1,63.7500024318696,2|2,0:0|0:0,0:0:0:0:
103,336,230845,5,8,0:0:0:0:
218,214,230975,1,0,0:0:0:0:
103,336,231106,2,0,L|22:326,1,63.7500024318696,2|0,0:0|0:0,0:0:0:0:
214,280,231367,1,10,0:0:0:0:
185,355,231497,1,8,0:3:0:0:
162,216,231627,1,8,0:3:0:0:
291,270,231758,1,4,0:3:0:0:
88,252,231888,6,0,L|72:115,1,127.500004863739,4|0,0:0|0:0,0:0:0:0:
143,76,232280,2,0,L|151:9,1,63.7500024318696,2|0,0:0|0:0,0:0:0:0:
217,115,232540,1,2,0:0:0:0:
14,70,232671,2,0,P|43:51|81:42,1,63.7500024318696,0|2,0:0|0:0,0:0:0:0:
146,161,232932,6,0,L|132:294,1,127.500004863739,8|8,0:0|0:3,0:0:0:0:
192,347,233323,1,2,0:0:0:0:
270,320,233453,2,0,L|345:328,1,63.7500024318696,0|2,0:3|0:0,0:0:0:0:
461,262,233714,2,0,L|386:270,1,63.7500024318696,0|2,0:3|0:0,0:0:0:0:
319,245,233975,6,0,L|309:168,2,63.7500024318696
373,129,234367,2,0,P|387:92|394:66,1,63.7500024318696,2|0,0:0|0:0,0:0:0:0:
326,12,234627,1,2,0:0:0:0:
224,166,234758,2,0,P|232:196|244:226,1,63.7500024318696,0|2,0:0|0:0,0:0:0:0:
416,227,235019,6,0,P|382:187|300:186,1,127.500004863739,8|8,0:0|0:3,0:0:0:0:
265,303,235410,1,2,0:0:0:0:
381,157,235540,1,8,0:3:0:0:
213,123,235671,1,2,0:0:0:0:
344,250,235801,2,0,L|407:246,1,63.7500024318696,0|2,0:3|0:0,0:0:0:0:
140,176,236062,6,0,B|91:182|91:182|69:200|69:200|6:208,1,127.500004863739,4|0,0:0|0:0,0:0:0:0:
185,252,236453,2,0,L|254:262,1,63.7500024318696,2|0,0:0|0:0,0:0:0:0:
307,330,236714,1,0,0:0:0:0:
291,189,236845,2,0,L|299:145,2,31.8750012159348
119,307,237106,6,0,L|41:315,1,63.7500024318696,8|0,0:0|0:0,0:0:0:0:
10,157,237367,2,0,L|88:165,1,63.7500024318696,8|2,0:3|0:0,0:0:0:0:
239,241,237627,2,0,L|161:249,1,63.7500024318696,8|2,0:3|0:0,0:0:0:0:
130,91,237888,2,0,L|208:99,1,63.7500024318696,8|0,0:3|0:0,0:0:0:0:
305,296,238149,6,0,L|297:365,2,63.7500024318696
373,136,238540,2,0,P|314:119|257:175,1,127.500004863739,2|2,0:0|0:0,0:0:0:0:
428,216,238932,2,0,L|504:202,1,63.7500024318696
365,29,239193,6,0,L|357:98,1,63.7500024318696,8|0,0:0|0:0,0:0:0:0:
168,267,239453,2,0,L|176:336,1,63.7500024318696,8|2,0:0|0:0,0:0:0:0:
257,352,239714,1,8,0:0:0:0:
220,182,239845,1,10,0:0:0:0:
76,278,239975,1,8,0:0:0:0:
276,260,240106,1,8,0:0:0:0:
154,103,240236,6,0,B|100:98|100:98|63:72|63:72|8:64,1,152.999995330811,4|10,0:0|0:0,0:0:0:0:
240,172,240627,1,0,0:0:0:0:
132,25,240758,2,0,L|209:21,1,76.4999976654053,2|2,0:0|0:0,0:0:0:0:
180,254,241019,1,8,0:0:0:0:
101,191,241149,1,0,0:0:0:0:
240,172,241280,6,0,L|230:254,1,76.4999976654053,2|0,0:0|0:0,0:0:0:0:
428,356,241540,2,0,L|418:274,1,76.4999976654053,10|0,0:0|0:0,0:0:0:0:
297,94,241801,1,2,0:0:0:0:
340,301,241932,1,2,0:0:0:0:
218,164,242062,1,0,0:0:0:0:
445,104,242193,1,0,0:0:0:0:
237,193,242323,6,0,L|216:361,1,152.999995330811,4|10,0:0|0:0,0:0:0:0:
218,344,242714,1,0,0:0:0:0:
55,254,242845,2,0,P|100:242|131:229,1,76.4999976654053,2|2,0:0|0:0,0:0:0:0:
198,14,243106,2,0,P|190:55|183:98,1,76.4999976654053,8|0,0:0|0:0,0:0:0:0:
275,276,243367,5,2,0:0:0:0:
275,276,243497,1,0,0:0:0:0:
106,196,243627,2,0,L|187:208,1,76.4999976654053,10|0,0:0|0:0,0:0:0:0:
388,111,243888,1,2,0:0:0:0:
229,91,244019,1,2,0:0:0:0:
357,133,244149,2,0,P|365:174|369:211,1,76.4999976654053,8|0,0:0|0:0,0:0:0:0:
290,348,244410,6,0,P|244:299|261:222,1,152.999995330811,4|10,0:0|0:0,0:0:0:0:
388,111,244801,1,0,0:0:0:0:
394,285,244932,2,0,P|350:281|293:268,1,76.4999976654053,2|2,0:0|0:0,0:0:0:0:
86,194,245193,2,0,P|123:187|161:183,1,76.4999976654053,8|0,0:0|0:0,0:0:0:0:
300,119,245453,5,2,0:0:0:0:
185,342,245584,1,0,0:0:0:0:
171,107,245714,2,0,L|160:195,1,76.4999976654053,10|0,0:0|0:0,0:0:0:0:
305,345,245975,2,0,L|294:257,1,76.4999976654053,2|2,0:0|0:0,0:0:0:0:
422,99,246236,2,0,L|411:187,1,76.4999976654053,8|0,0:0|0:0,0:0:0:0:
262,268,246497,6,0,B|227:235|227:235|216:124,1,152.999995330811,4|10,0:0|0:0,0:0:0:0:
274,59,246888,1,0,0:0:0:0:
141,204,247019,2,0,L|130:289,1,76.4999976654053,2|2,0:0|0:0,0:0:0:0:
298,199,247280,1,8,0:0:0:0:
104,109,247410,1,0,0:0:0:0:
231,217,247540,6,0,L|330:226,1,76.4999976654053,2|0,0:0|0:0,0:0:0:0:
464,302,247801,2,0,L|388:296,1,76.4999976654053,10|0,0:0|0:0,0:0:0:0:
359,28,248062,1,2,0:0:0:0:
308,179,248193,1,2,0:0:0:0:
440,69,248323,2,0,P|447:106|452:146,1,76.4999976654053,8|0,0:0|0:0,0:0:0:0:
365,318,248584,6,0,L|187:335,1,152.999995330811,4|8,0:0|0:0,0:0:0:0:
71,199,248975,2,0,P|56:239|41:285,1,76.4999976654053,2|0,0:0|0:0,0:0:0:0:
254,193,249236,2,0,P|226:160|194:124,1,76.4999976654053,2|8,0:0|0:0,0:0:0:0:
167,354,249497,2,0,P|209:346|256:336,1,76.4999976654053,2|0,0:0|0:0,0:0:0:0:
353,192,249758,5,0,0:0:0:0:
395,332,249888,1,8,0:0:0:0:
217,227,250019,2,0,L|206:138,1,76.4999976654053,2|0,0:0|0:0,0:0:0:0:
414,48,250280,2,0,L|403:137,1,76.4999976654053,2|8,0:0|0:0,0:0:0:0:
246,258,250540,1,2,0:0:0:0:
270,80,250671,6,0,B|315:52|315:52|297:169,1,152.999995330811,4|8,0:0|0:0,0:0:0:0:
388,315,251062,5,8,0:0:0:0:
116,204,251193,1,8,0:0:0:0:
380,205,251323,5,8,0:0:0:0:
170,325,251453,1,8,0:0:0:0:
484,264,251584,5,8,0:0:0:0:
211,117,251714,1,8,0:0:0:0:
211,117,252236,6,0,B|216:163|227:190|227:190|195:211|195:211|218:240|222:288,1,191.250007295609,8|0,0:0|0:0,0:0:0:0:
143,331,252758,6,0,L|72:318,1,63.7500024318696,4|0,0:0|0:0,0:0:0:0:
195,211,253019,2,0,L|124:198,1,63.7500024318696
41,103,253280,2,0,L|57:248,1,127.500004863739,8|0,0:0|0:0,0:0:0:0:
238,303,253671,1,0,0:0:0:0:
238,303,253801,5,0,0:0:0:0:
310,227,253932,2,0,L|302:146,1,63.7500024318696,8|0,0:0|0:0,0:0:0:0:
466,21,254323,2,0,L|453:149,1,127.500004863739,8|0,0:0|0:0,0:0:0:0:
481,235,254714,1,0,0:0:0:0:
198,107,254845,6,0,P|238:88|265:82,1,63.7500024318696,4|0,0:0|0:0,0:0:0:0:
420,299,255106,2,0,P|390:290|362:276,1,63.7500024318696
229,188,255367,2,0,L|89:197,1,127.500004863739,8|0,0:0|0:0,0:0:0:0:
25,149,255758,1,0,0:0:0:0:
56,272,255888,5,0,0:0:0:0:
160,154,256019,2,0,L|173:79,2,63.7500024318696,8|0|0,0:0|0:0|0:0,0:0:0:0:
166,315,256410,2,0,L|176:378,1,63.7500024318696,8|0,0:0|0:0,0:0:0:0:
254,153,256671,2,0,L|244:216,1,63.7500024318696
384,368,256932,6,0,P|451:368|498:330,2,127.500004863739,4|0|8,0:0|0:0|0:0,0:0:0:0:
300,182,257714,1,0,0:0:0:0:
300,182,257845,1,0,0:0:0:0:
381,115,257975,5,0,0:0:0:0:
369,267,258106,2,0,L|294:275,1,63.7500024318696,8|0,0:0|0:0,0:0:0:0:
92,223,258367,1,0,0:0:0:0:
92,223,258497,2,0,L|233:235,1,127.500004863739,8|0,0:0|0:0,0:0:0:0:
290,310,258888,1,0,0:0:0:0:
198,82,259019,6,0,P|190:119|185:155,1,63.7500024318696,4|0,0:0|0:0,0:0:0:0:
256,317,259280,1,0,0:0:0:0:
256,317,259410,1,0,0:0:0:0:
178,358,259540,2,0,L|107:347,1,63.7500024318696,8|0,0:0|0:0,0:0:0:0:
13,217,259801,2,0,L|84:228,1,63.7500024318696
237,286,260062,5,0,0:0:0:0:
175,133,260193,2,0,P|176:168|180:204,1,63.7500024318696,8|0,0:0|0:0,0:0:0:0:
340,285,260453,1,0,0:0:0:0:
340,285,260584,2,0,L|360:148,1,127.500004863739,8|8,0:0|0:0,0:0:0:0:
467,64,260975,1,8,0:0:0:0:
439,205,261106,6,0,P|403:191|360:166,1,63.7500024318696,4|0,0:0|0:0,0:0:0:0:
289,17,261367,2,0,L|277:88,1,63.7500024318696
371,270,261627,2,0,L|359:199,1,63.7500024318696,8|0,0:0|0:0,0:0:0:0:
201,91,261888,2,0,P|165:105|122:130,1,63.7500024318696
105,303,262149,5,0,0:0:0:0:
168,205,262280,1,8,0:0:0:0:
15,199,262410,2,0,L|89:216,1,63.7500024318696
254,333,262671,2,0,L|180:350,1,63.7500024318696,8|0,0:0|0:0,0:0:0:0:
170,113,262932,2,0,P|210:125|230:134,1,63.7500024318696
493,145,263193,6,0,L|424:158,1,63.7500024318696,4|0,0:0|0:0,0:0:0:0:
340,323,263453,2,0,P|360:274|366:248,1,63.7500024318696
313,117,263714,2,0,L|308:44,1,63.7500024318696,8|0,0:0|0:0,0:0:0:0:
392,170,263975,1,0,0:0:0:0:
392,170,264106,1,0,0:0:0:0:
226,141,264236,5,0,0:0:0:0:
328,213,264367,1,8,0:0:0:0:
301,38,264497,2,0,L|224:46,1,63.7500024318696
125,179,264758,2,0,L|48:171,1,63.7500024318696,8|0,0:0|0:0,0:0:0:0:
247,324,265019,2,0,L|170:332,1,63.7500024318696
379,174,265280,6,0,P|432:139|494:150,1,127.500004863739,4|0,0:0|0:0,0:0:0:0:
326,329,265671,1,0,0:0:0:0:
326,329,265801,2,0,L|315:255,1,63.7500024318696,8|0,0:0|0:0,0:0:0:0:
238,108,266062,2,0,L|227:182,1,63.7500024318696
151,272,266323,5,0,0:0:0:0:
37,180,266453,2,0,L|108:188,1,63.7500024318696,8|0,0:0|0:0,0:0:0:0:
394,103,266845,2,0,L|257:122,1,127.500004863739,8|0,0:0|0:0,0:0:0:0:
189,76,267236,1,0,0:0:0:0:
242,206,267367,6,0,L|236:280,1,63.7500024318696,4|0,0:0|0:0,0:0:0:0:
287,340,267627,1,0,0:0:0:0:
163,314,267758,1,0,0:0:0:0:
324,218,267888,2,0,L|390:227,1,63.7500024318696,8|0,0:0|0:0,0:0:0:0:
507,334,268149,2,0,L|441:325,1,63.7500024318696
312,132,268410,5,0,0:0:0:0:
412,209,268540,1,8,0:0:0:0:
253,245,268671,1,0,0:0:0:0:
337,140,268801,1,0,0:0:0:0:
322,342,268932,1,8,0:0:0:0:
322,342,269453,6,0,L|317:251,1,76.4999976654053,14|0,0:0|0:0,0:0:0:0:
378,152,269714,1,0,0:0:0:0:
237,206,269845,1,0,0:0:0:0:
374,183,269975,1,10,0:0:0:0:
374,183,270236,2,0,P|332:174|293:163,1,76.4999976654053
60,57,270497,5,10,0:0:0:0:
224,96,270627,1,0,0:0:0:0:
60,57,270758,2,0,L|146:46,1,76.4999976654053
162,211,271019,1,10,0:0:0:0:
77,152,271149,1,0,0:0:0:0:
216,124,271280,2,0,L|302:135,1,76.4999976654053
374,47,271540,5,10,0:0:0:0:
374,47,271671,1,0,0:0:0:0:
458,201,271801,2,0,L|470:110,1,76.4999976654053
320,160,272062,2,0,L|335:328,1,152.999995330811,10|0,0:0|0:0,0:0:0:0:
155,349,272453,1,0,0:0:0:0:
155,349,272584,6,0,P|201:326|226:317,1,76.4999976654053,10|0,0:0|0:0,0:0:0:0:
414,319,272845,2,0,P|378:305|344:287,1,76.4999976654053
228,144,273106,1,10,0:0:0:0:
324,48,273236,1,0,0:0:0:0:
337,251,273367,2,0,L|252:258,1,76.4999976654053
59,204,273627,6,0,L|144:211,1,76.4999976654053,14|0,0:0|0:0,0:0:0:0:
228,144,273888,1,0,0:0:0:0:
166,319,274019,1,0,0:0:0:0:
98,195,274149,2,0,B|75:153|75:153|93:21,1,152.999995330811,10|0,0:0|0:0,0:0:0:0:
180,14,274540,1,0,0:0:0:0:
235,193,274671,5,10,0:0:0:0:
235,193,274801,1,0,0:0:0:0:
176,112,274932,2,0,P|214:99|270:97,1,76.4999976654053
215,295,275193,1,10,0:0:0:0:
251,180,275323,1,0,0:0:0:0:
269,364,275453,2,0,P|231:377|175:379,1,76.4999976654053
30,206,275714,6,0,L|109:214,1,76.4999976654053,10|0,0:0|0:0,0:0:0:0:
237,158,275975,1,0,0:0:0:0:
194,305,276106,1,0,0:0:0:0:
159,141,276236,1,10,0:0:0:0:
159,141,276497,2,0,P|171:94|177:62,1,76.4999976654053
91,26,276758,5,10,0:0:0:0:
96,214,276888,1,0,0:0:0:0:
253,112,277019,2,0,P|248:85|245:47,2,50.9999984436036
312,185,277280,2,0,L|302:272,1,76.4999976654053,10|0,0:0|0:0,0:0:0:0:
168,363,277540,2,0,L|158:276,1,76.4999976654053
221,136,277801,5,12,0:0:0:0:
117,115,277932,1,0,0:0:0:0:
227,233,278062,2,0,L|320:222,1,76.4999976654053,2|2,0:0|0:0,0:0:0:0:
389,282,278323,1,8,0:0:0:0:
389,282,278453,1,0,0:0:0:0:
293,192,278584,2,0,P|283:152|274:106,1,76.4999976654053,2|2,0:0|0:0,0:0:0:0:
437,41,278845,6,0,P|398:41|350:35,1,76.4999976654053,8|0,0:0|0:0,0:0:0:0:
97,95,279106,2,0,P|142:104|171:115,1,76.4999976654053,2|2,0:0|0:0,0:0:0:0:
289,299,279367,2,0,P|299:253|303:216,1,76.4999976654053,8|0,0:0|0:0,0:0:0:0:
69,79,279627,2,0,L|157:63,1,76.4999976654053,2|2,0:0|0:0,0:0:0:0:
371,146,279888,5,8,0:0:0:0:
293,69,280019,1,0,0:0:0:0:
277,254,280149,2,0,L|357:236,1,76.4999976654053,2|2,0:0|0:0,0:0:0:0:
390,110,280410,1,8,0:0:0:0:
336,330,280540,1,0,0:0:0:0:
189,214,280671,2,0,L|105:198,1,76.4999976654053,2|2,0:0|0:0,0:0:0:0:
33,27,280932,6,0,P|42:65|46:104,1,76.4999976654053,8|0,0:0|0:0,0:0:0:0:
91,352,281193,2,0,P|106:315|116:279,1,76.4999976654053,2|2,0:0|0:0,0:0:0:0:
256,58,281453,2,0,P|264:101|273:135,1,76.4999976654053,8|0,0:0|0:0,0:0:0:0:
439,267,281714,2,0,P|402:270|357:278,1,76.4999976654053,2|2,0:0|0:0,0:0:0:0:
127,244,281975,5,12,0:0:0:0:
91,103,282106,1,0,0:0:0:0:
231,154,282236,2,0,L|245:238,1,76.4999976654053,2|2,0:0|0:0,0:0:0:0:
340,351,282497,2,0,P|288:327|177:320,1,152.999995330811,8|2,0:0|0:0,0:0:0:0:
105,357,282888,1,2,0:0:0:0:
22,205,283019,6,0,L|36:121,1,76.4999976654053,8|0,0:0|0:0,0:0:0:0:
235,137,283280,1,2,0:0:0:0:
203,37,283410,1,2,0:0:0:0:
179,224,283540,2,0,B|213:241|213:241|260:240,1,76.4999976654053,8|0,0:0|0:0,0:0:0:0:
396,102,283801,2,0,B|362:85|362:85|315:86,1,76.4999976654053,2|2,0:0|0:0,0:0:0:0:
296,310,284062,6,0,L|309:365,2,50.9999984436036,2|0|0,0:0|0:0|0:0,0:0:0:0:
232,227,284323,1,8,0:0:0:0:
232,227,284410,2,0,L|245:160,1,50.9999984436036
160,103,284584,2,0,L|101:118,2,50.9999984436036,2|0|0,0:0|0:0|0:0,0:0:0:0:
240,23,284845,1,8,0:0:0:0:
240,23,284932,2,0,L|311:33,1,50.9999984436036
371,123,285106,6,0,L|459:106,1,76.4999976654053,2|0,0:0|0:0,0:0:0:0:
292,297,285367,2,0,L|204:314,1,76.4999976654053,8|0,0:0|0:0,0:0:0:0:
395,220,285627,1,10,0:0:0:0:
395,220,285758,1,2,0:0:0:0:
343,355,285888,1,10,0:0:0:0:
311,154,286019,1,10,0:0:0:0:
501,226,286149,5,0,0:0:0:0:
256,192,298671,12,0,302062,0:0:0:0:
337,103,302323,5,10,0:0:0:0:
284,355,302453,5,10,0:0:0:0:
423,71,302714,6,0,P|358:44|258:118,1,203.999993774414,6|0,0:0|0:0,0:0:0:0:
320,341,303106,1,8,0:0:0:0:
350,188,303236,1,0,0:0:0:0:
174,269,303367,1,2,0:0:0:0:
348,326,303497,1,0,0:0:0:0:
149,293,303627,1,8,0:0:0:0:
312,110,303758,6,0,L|323:8,1,101.999996887207,6|0,0:0|0:0,0:0:0:0:
196,245,304019,1,10,0:0:0:0:
198,268,304084,1,0,0:0:0:0:
201,291,304149,1,8,0:3:0:0:
204,314,304214,1,0,0:0:0:0:
206,337,304279,1,8,0:3:0:0:
291,181,304410,1,0,0:0:0:0:
93,180,304540,2,0,P|79:228|66:279,1,101.999996887207,10|0,0:0|0:0,0:0:0:0:
346,255,304801,6,0,B|311:258|282:271|282:271|230:250|230:250|199:261|145:265,1,203.999993774414,6|0,0:0|0:0,0:0:0:0:
56,108,305193,1,8,0:0:0:0:
258,68,305323,1,0,0:0:0:0:
83,132,305453,2,0,L|70:236,1,101.999996887207,2|0,0:0|0:0,0:0:0:0:
262,351,305714,1,8,0:0:0:0:
334,191,305845,6,0,P|274:177|224:179,1,101.999996887207,6|0,0:0|0:0,0:0:0:0:
403,99,306106,1,10,0:0:0:0:
407,291,306236,1,0,0:0:0:0:
148,163,306367,2,0,B|131:136|131:136|135:62,1,101.999996887207,8|0,0:3|0:0,0:0:0:0:
425,213,306627,2,0,B|441:240|441:240|438:314,1,101.999996887207,10|0,0:0|0:0,0:0:0:0:
91,241,306888,6,0,P|170:169|263:194,1,203.999993774414,6|0,0:0|0:0,0:0:0:0:
286,346,307280,1,8,0:0:0:0:
394,187,307410,1,0,0:0:0:0:
194,128,307540,1,2,0:0:0:0:
289,256,307671,1,0,0:0:0:0:
273,44,307801,1,8,0:0:0:0:
114,177,307932,6,0,P|111:222|117:279,1,101.999996887207,6|0,0:0|0:0,0:0:0:0:
387,249,308193,1,10,0:0:0:0:
194,128,308323,1,8,0:3:0:0:
487,320,308453,2,0,P|489:274|484:218,1,101.999996887207,8|0,0:3|0:0,0:0:0:0:
283,26,308714,2,0,L|296:127,1,101.999996887207,10|0,0:0|0:0,0:0:0:0:
117,373,308975,6,0,B|92:322|92:322|113:172,1,203.999993774414,6|0,0:0|0:0,0:0:0:0:
357,60,309367,1,8,0:0:0:0:
377,71,309432,1,0,0:0:0:0:
391,89,309497,1,8,0:0:0:0:
395,111,309562,1,0,0:0:0:0:
390,133,309627,2,0,L|373:183,1,50.9999984436036,10|0,0:3|0:0,0:0:0:0:
265,228,309758,2,0,L|277:288,1,50.9999984436036,8|0,0:3|0:0,0:0:0:0:
347,368,309888,1,8,0:0:0:0:
485,182,310019,6,0,L|379:193,1,101.999996887207,6|0,0:0|0:0,0:0:0:0:
112,115,310280,1,10,0:0:0:0:
134,118,310345,1,0,0:0:0:0:
156,121,310410,1,0,0:0:0:0:
339,22,310540,2,0,P|353:71|358:120,1,101.999996887207,2|0,0:0|0:0,0:0:0:0:
254,354,310801,1,8,0:0:0:0:
212,235,310932,1,0,0:0:0:0:
361,300,311062,1,0,0:0:0:0:
136,289,311193,6,0,L|32:304,1,101.999996887207,6|0,0:0|0:0,0:0:0:0:
215,153,311453,1,8,0:0:0:0:
257,335,311584,1,0,0:0:0:0:
293,92,311714,1,2,0:0:0:0:
217,259,311845,1,0,0:0:0:0:
411,211,311975,1,8,0:0:0:0:
300,50,312106,6,0,B|257:27|257:27|187:41,1,101.999996887207,6|0,0:0|0:0,0:0:0:0:
45,226,312367,2,0,B|89:247|89:247|158:235,1,101.999996887207,10|8,0:0|0:3,0:0:0:0:
301,124,312627,1,8,0:3:0:0:
268,316,312758,1,0,0:0:0:0:
125,195,312888,2,0,L|227:212,1,101.999996887207,10|0,0:0|0:0,0:0:0:0:
474,121,313149,6,0,B|402:120|346:150|346:150|370:169|420:178,1,203.999993774414,6|0,0:0|0:0,0:0:0:0:
466,261,313540,1,8,0:0:0:0:
424,37,313671,1,0,0:0:0:0:
316,246,313801,2,0,L|214:261,1,101.999996887207,2|0,0:0|0:0,0:0:0:0:
16,152,314062,1,8,0:0:0:0:
197,303,314193,6,0,P|220:249|232:205,1,101.999996887207,6|0,0:0|0:0,0:0:0:0:
126,70,314453,1,10,0:0:0:0:
31,344,314584,1,8,0:3:0:0:
276,280,314714,2,0,L|262:173,1,101.999996887207,0|0,0:3|0:0,0:0:0:0:
463,17,314975,2,0,L|450:119,1,101.999996887207,8|0,0:0|0:0,0:0:0:0:
267,362,315236,6,0,P|210:319|242:206,1,203.999993774414,6|0,0:0|0:0,0:0:0:0:
417,216,315627,1,8,0:0:0:0:
245,86,315758,1,0,0:0:0:0:
448,198,315888,1,2,0:0:0:0:
168,257,316019,1,0,0:0:0:0:
324,106,316149,1,8,0:0:0:0:
248,348,316280,6,0,P|197:357|144:359,1,101.999996887207,6|0,0:0|0:0,0:0:0:0:
52,95,316540,1,10,0:0:0:0:
318,205,316671,1,8,0:3:0:0:
131,332,316801,2,0,L|145:228,1,101.999996887207,8|0,0:3|0:0,0:0:0:0:
262,19,317062,2,0,L|276:122,1,101.999996887207,10|0,0:0|0:0,0:0:0:0:
485,246,317323,6,0,P|438:249|321:344,1,203.999993774414,6|0,0:0|0:0,0:0:0:0:
117,265,317714,1,8,0:0:0:0:
100,248,317780,1,0,0:0:0:0:
93,225,317845,1,8,0:0:0:0:
92,201,317910,1,0,0:0:0:0:
98,178,317975,1,8,0:3:0:0:
110,158,318040,1,0,0:0:0:0:
128,143,318106,1,8,0:3:0:0:
261,108,318236,1,8,0:0:0:0:
294,241,318367,6,0,L|273:371,1,127.5,6|0,1:0|0:0,0:0:0:0:
351,348,318746,2,0,P|395:336|439:333,1,85
211,159,319126,2,0,L|123:168,1,85,6|2,1:0|0:0,0:0:0:0:
137,66,319506,2,0,L|49:75,1,85,2|2,0:0|0:0,0:0:0:0:
364,39,319885,6,0,B|396:70|407:127|343:174|343:174|377:186|439:242|418:301|356:337|308:318|296:269|323:243,1,407.999987548829,2|0,0:0|0:0,0:0:0:0:
313,257,323313,6,0,B|286:275|286:275|227:282|172:251|172:251|178:305|178:305|135:303|95:279|95:279|90:231|105:194|105:194|151:189,1,407.999987548829,2|0,0:0|0:0,0:0:0:0:
133,190,326742,6,0,B|136:120|67:118|51:37|51:37|137:46|136:120|219:98,1,356.999989105225,2|0,0:0|0:0,0:0:0:0:
321,33,328456,6,0,L|371:23,1,50.9999984436036,2|0,0:0|0:0,0:0:0:0:
377,117,328885,2,0,L|427:127,1,50.9999984436036,2|0,0:0|0:0,0:0:0:0:
288,214,329313,2,0,L|338:204,1,50.9999984436036,2|0,0:0|0:0,0:0:0:0:
344,298,329742,2,0,L|394:308,1,50.9999984436036,2|0,0:0|0:0,0:0:0:0:
237,347,330170,6,0,L|175:357,1,50.9999984436036,2|0,0:0|0:0,0:0:0:0:
26,256,330599,2,0,L|88:266,1,50.9999984436036,2|0,0:0|0:0,0:0:0:0:
237,165,331027,2,0,L|175:175,1,50.9999984436036,2|0,0:0|0:0,0:0:0:0:
26,74,331456,2,0,L|88:84,1,50.9999984436036,2|0,0:0|0:0,0:0:0:0:
279,59,331885,2,0,L|266:4,1,50.9999984436036,2|0,0:0|0:0,0:0:0:0:
402,158,332313,2,0,L|415:103,1,50.9999984436036,2|0,0:0|0:0,0:0:0:0:
279,257,332742,6,0,L|266:202,1,50.9999984436036,2|0,0:0|0:0,0:0:0:0:
402,356,333170,2,0,L|415:301,1,50.9999984436036,2|0,0:0|0:0,0:0:0:0:
436,199,333599,6,0,L|479:187,2,34,2|0|0,1:0|0:0|0:0,0:0:0:0:
337,125,334027,1,2,1:0:0:0:
337,125,334135,1,0,0:0:0:0:
337,125,334242,1,0,0:0:0:0:
247,222,334456,2,0,L|290:234,2,34,2|0|0,1:0|0:0|0:0,0:0:0:0:
136,169,334885,1,2,1:0:0:0:
136,169,334992,1,0,0:0:0:0:
136,169,335099,1,0,0:0:0:0:
182,353,335313,6,0,L|190:303,1,34,2|0,1:0|0:0,0:0:0:0:
237,255,335527,1,0,0:0:0:0:
347,324,335742,2,0,L|297:316,1,34,2|0,1:0|0:0,0:0:0:0:
249,269,335956,1,0,0:0:0:0:
318,159,336170,2,0,L|310:209,1,34,2|0,1:0|0:0,0:0:0:0:
263,257,336384,1,0,0:0:0:0:
153,188,336599,2,0,L|203:196,1,34,2|0,1:0|0:0,0:0:0:0:
251,243,336813,1,0,0:0:0:0:
408,225,337027,6,0,L|448:233,2,34,2|0|0,1:0|0:0|0:0,0:0:0:0:
358,105,337456,1,2,1:0:0:0:
358,105,337563,1,0,0:0:0:0:
358,105,337670,1,0,0:0:0:0:
267,257,337885,2,0,L|307:265,2,34,2|0|0,1:0|0:0|0:0,0:0:0:0:
217,137,338314,1,2,1:0:0:0:
217,137,338421,1,0,0:0:0:0:
217,137,338528,1,0,0:0:0:0:
122,265,338742,6,0,L|127:301,1,34,2|0,1:0|0:0,0:0:0:0:
87,366,338956,1,0,0:0:0:0:
190,187,339170,2,0,L|185:151,1,34,2|0,1:0|0:0,0:0:0:0:
225,86,339384,1,0,0:0:0:0:
110,183,339599,2,0,L|74:188,1,34,2|0,1:0|0:0,0:0:0:0:
9,148,339813,1,0,0:0:0:0:
202,269,340027,2,0,L|238:264,1,34,10|0,1:0|0:0,0:0:0:0:
303,304,340241,1,8,0:3:0:0:
390,176,340456,6,0,L|460:185,1,50.9999984436036,10|0,0:0|0:0,0:0:0:0:
493,84,340670,2,0,L|423:75,1,50.9999984436036,0|0,1:0|0:0,0:0:0:0:
302,198,340884,2,0,L|232:207,1,50.9999984436036,10|0,0:0|0:0,0:0:0:0:
199,106,341098,2,0,L|269:97,1,50.9999984436036,0|0,1:0|0:0,0:0:0:0:
242,315,341313,6,0,L|235:366,2,50.9999984436036,10|0|0,0:0|0:0|1:0,0:0:0:0:
44,327,341741,1,10,0:0:0:0:
203,207,341956,2,0,L|199:147,1,50.9999984436036,0|0,1:0|0:0,0:0:0:0:
275,24,342170,6,0,L|271:84,1,50.9999984436036,10|0,0:0|0:0,0:0:0:0:
123,267,342384,2,0,L|119:207,1,50.9999984436036,0|0,1:0|0:0,0:0:0:0:
56,46,342598,1,10,0:0:0:0:
238,198,342813,1,0,1:0:0:0:
31,320,343027,5,10,0:0:0:0:
142,131,343241,1,0,1:0:0:0:
142,131,343348,1,0,0:0:0:0:
142,131,343455,2,0,L|213:124,1,50.9999984436036,10|0,0:0|0:0,0:0:0:0:
283,50,343670,1,0,1:0:0:0:
353,227,343884,6,0,L|340:316,1,76.4999976654053,2|0,0:0|0:0,0:0:0:0:
202,363,344098,2,0,P|162:353|117:335,1,76.4999976654053,8|0,0:0|0:0,0:0:0:0:
16,186,344313,1,2,0:0:0:0:
16,186,344420,1,0,0:0:0:0:
108,234,344527,2,0,L|188:224,1,76.4999976654053,8|0,0:0|0:0,0:0:0:0:
327,130,344741,6,0,L|407:140,1,76.4999976654053,2|0,0:0|0:0,0:0:0:0:
341,352,344956,1,10,0:0:0:0:
276,272,345063,1,0,0:0:0:0:
431,291,345170,2,0,L|511:281,1,76.4999976654053,2|2,0:0|0:0,0:0:0:0:
267,96,345384,2,0,L|347:106,1,76.4999976654053,8|0,0:0|0:0,0:0:0:0:
187,304,345598,6,0,P|142:319|103:327,1,76.4999976654053,2|0,0:0|0:0,0:0:0:0:
82,80,345813,1,8,0:0:0:0:
153,174,345920,1,8,0:3:0:0:
75,259,346027,2,0,L|-6:243,1,76.4999976654053,0|0,0:3|0:0,0:0:0:0:
263,138,346241,2,0,L|344:154,1,76.4999976654053,8|0,0:3|0:0,0:0:0:0:
465,321,346456,5,8,0:0:0:0:
383,357,346563,1,8,0:0:0:0:
307,310,346670,1,8,0:0:0:0:
314,221,346777,1,8,0:0:0:0:
361,324,346884,5,8,0:0:0:0:
248,356,346991,1,8,0:0:0:0:
172,267,347098,1,8,0:0:0:0:
212,154,347206,1,8,0:0:0:0:
349,302,347313,6,0,B|363:245|363:245|344:206|344:206|360:135,1,152.999995330811,4|0,0:3|0:0,0:0:0:0:
491,39,347742,6,0,P|448:59|395:73,1,93.5000028533936,4|0,0:0|0:0,0:0:0:0:
142,52,347956,2,0,L|242:38,1,93.5000028533936,8|0,0:0|0:0,0:0:0:0:
419,209,348170,2,0,P|364:233|273:150,1,187.000005706787,0|8,0:0|0:0,0:0:0:0:
430,99,348492,1,0,0:0:0:0:
486,248,348599,6,0,L|496:345,1,93.5000028533936
289,353,348813,1,8,0:0:0:0:
355,156,348920,2,0,B|394:190|394:190|386:329,1,187.000005706787
195,257,349242,2,0,L|86:273,1,93.5000028533936,8|0,0:0|0:0,0:0:0:0:
337,85,349456,6,0,L|446:101,1,93.5000028533936
136,183,349670,2,0,L|27:167,1,93.5000028533936,8|0,0:0|0:0,0:0:0:0:
223,252,349884,1,0,0:0:0:0:
223,252,349992,1,0,0:0:0:0:
193,81,350099,2,0,P|136:97|91:118,1,93.5000028533936,8|0,0:0|0:0,0:0:0:0:
177,331,350313,6,0,B|241:339|241:339|267:326|267:326|373:340,1,187.000005706787,0|8,0:0|0:0,0:0:0:0:
463,196,350634,1,0,0:0:0:0:
382,161,350742,2,0,B|376:209|376:209|394:252,1,93.5000028533936
273,364,350956,2,0,B|279:316|279:316|261:273,1,93.5000028533936,8|0,0:0|0:0,0:0:0:0:
148,216,351170,6,0,B|19:236|19:236|63:189,1,187.000005706787,4|8,0:0|0:0,0:0:0:0:
213,101,351492,1,0,0:0:0:0:
249,176,351599,2,0,P|249:223|239:275,1,93.5000028533936
391,361,351813,2,0,P|390:313|401:262,1,93.5000028533936,8|0,0:0|0:0,0:0:0:0:
508,211,352027,6,0,L|307:231,1,187.000005706787,0|8,0:0|0:0,0:0:0:0:
200,236,352349,1,0,0:0:0:0:
145,130,352456,2,0,L|254:138,1,93.5000028533936
457,77,352670,2,0,P|411:63|366:47,1,93.5000028533936,8|0,0:0|0:0,0:0:0:0:
213,146,352884,6,0,B|196:190|196:190|201:245,1,93.5000028533936
365,368,353099,2,0,B|382:324|382:324|377:269,1,93.5000028533936,8|0,0:0|0:0,0:0:0:0:
291,39,353313,1,2,0:0:0:0:
312,132,353420,1,0,0:0:0:0:
178,309,353527,2,0,L|186:215,1,93.5000028533936,10|0,0:0|0:0,0:0:0:0:
48,32,353742,6,0,P|58:83|70:128,1,93.5000028533936,2|0,0:0|0:0,0:0:0:0:
132,368,353956,2,0,L|144:273,1,93.5000028533936,10|0,0:0|0:0,0:0:0:0:
366,164,354170,1,2,0:0:0:0:
261,301,354277,2,0,B|241:247|241:247|267:204|267:204|273:167|256:110,1,187.000005706787,2|0,0:0|0:0,0:0:0:0:
87,175,354599,6,0,B|116:183|116:183|182:174,1,93.5000028533936,4|0,0:0|0:0,0:0:0:0:
380,71,354813,1,8,0:0:0:0:
286,52,354920,1,0,0:0:0:0:
383,171,355027,2,0,P|379:207|362:270,1,93.5000028533936
215,340,355242,2,0,L|311:329,1,93.5000028533936,8|0,0:0|0:0,0:0:0:0:
496,212,355456,6,0,L|402:200,1,93.5000028533936
322,84,355670,1,8,0:0:0:0:
256,251,355777,2,0,P|318:252|411:156,1,187.000005706787
291,55,356099,2,0,L|301:160,1,93.5000028533936,8|0,0:0|0:0,0:0:0:0:
108,348,356313,6,0,B|100:332|80:325|80:325|102:308|129:242|90:180,1,187.000005706787,0|8,0:0|0:0,0:0:0:0:
10,82,356634,1,0,0:0:0:0:
10,82,356742,2,0,P|54:54|101:51,1,93.5000028533936
215,228,356956,2,0,P|169:222|130:196,1,93.5000028533936,8|0,0:0|0:0,0:0:0:0:
217,91,357170,6,0,L|412:109,1,187.000005706787,0|8,0:0|0:0,0:0:0:0:
412,349,357492,2,0,B|372:306|372:306|358:170,1,187.000005706787
213,46,357813,2,0,L|204:141,1,93.5000028533936,8|0,0:0|0:0,0:0:0:0:
228,327,358027,6,0,P|186:349|65:269,1,187.000005706787,4|8,0:0|0:0,0:0:0:0:
288,224,358349,1,0,0:0:0:0:
306,373,358456,2,0,L|210:351,1,93.5000028533936
6,231,358670,2,0,L|102:209,1,93.5000028533936,8|0,0:0|0:0,0:0:0:0:
300,136,358884,6,0,P|321:87|330:46,1,93.5000028533936
242,11,359099,1,8,0:0:0:0:
240,195,359206,2,0,B|311:181|311:181|345:197|345:197|377:174|435:169,1,187.000005706787
266,302,359527,2,0,L|155:320,1,93.5000028533936,8|0,0:0|0:0,0:0:0:0:
50,123,359742,6,0,P|108:138|157:160,1,93.5000028533936
203,375,359956,2,0,P|174:317|163:273,1,93.5000028533936,8|0,0:0|0:0,0:0:0:0:
254,95,360170,2,0,L|447:78,1,187.000005706787,0|8,0:0|0:0,0:0:0:0:
297,185,360492,1,0,0:0:0:0:
163,84,360599,6,0,P|178:37|311:25,1,187.000005706787,0|8,0:0|0:0,0:0:0:0:
399,163,360920,1,0,0:0:0:0:
399,163,361027,2,0,L|383:266,1,93.5000028533936
147,346,361242,2,0,P|139:292|128:244,1,93.5000028533936,8|0,0:0|0:0,0:0:0:0:
205,85,361456,6,0,L|92:73,1,93.5000028533936,4|0,0:0|0:0,0:0:0:0:
231,215,361670,1,8,0:0:0:0:
231,215,361777,1,0,0:0:0:0:
339,116,361884,2,0,B|300:87|300:87|163:105,1,187.000005706787,0|8,0:0|0:0,0:0:0:0:
79,291,362206,1,0,0:0:0:0:
170,220,362313,6,0,L|184:112,1,93.5000028533936
341,207,362527,2,0,L|353:299,1,93.5000028533936,8|0,0:0|0:0,0:0:0:0:
194,357,362742,1,0,0:0:0:0:
112,298,362849,1,0,0:0:0:0:
277,302,362956,2,0,P|319:306|375:319,1,93.5000028533936,8|0,0:0|0:0,0:0:0:0:
477,73,363170,6,0,P|420:69|361:178,1,187.000005706787,0|8,0:0|0:0,0:0:0:0:
405,342,363492,1,0,0:0:0:0:
454,242,363599,2,0,L|439:127,1,93.5000028533936
166,126,363813,2,0,P|117:147|60:166,1,93.5000028533936,8|0,0:0|0:0,0:0:0:0:
247,8,364027,6,0,P|301:2|349:29,1,93.5000028533936
254,282,364242,1,8,0:0:0:0:
253,128,364349,2,0,B|285:74|285:74|299:202,1,187.000005706787
209,354,364670,2,0,P|181:319|176:256,1,93.5000028533936,8|0,0:0|0:0,0:0:0:0:
390,214,364884,6,0,B|397:260|397:260|381:323,1,93.5000028533936,4|0,0:0|0:0,0:0:0:0:
93,316,365099,2,0,B|86:270|86:270|102:207,1,93.5000028533936,8|0,0:0|0:0,0:0:0:0:
292,138,365313,1,0,0:0:0:0:
292,138,365420,1,0,0:0:0:0:
310,255,365527,2,0,L|191:230,1,93.5000028533936,8|0,0:0|0:0,0:0:0:0:
42,111,365742,6,0,P|90:100|144:95,1,93.5000028533936
201,258,365956,1,8,0:0:0:0:
127,321,366063,1,0,0:0:0:0:
155,179,366170,2,0,L|260:171,1,93.5000028533936
487,231,366384,2,0,P|430:250|397:268,1,93.5000028533936,8|0,0:0|0:0,0:0:0:0:
232,144,366599,6,0,L|243:32,1,93.5000028533936
54,222,366813,2,0,L|65:334,1,93.5000028533936,8|0,0:0|0:0,0:0:0:0:
304,266,367027,1,2,0:0:0:0:
327,157,367134,1,0,0:0:0:0:
196,292,367242,2,0,L|184:386,1,93.5000028533936,10|0,0:0|0:0,0:0:0:0:
426,165,367456,6,0,L|438:259,1,93.5000028533936,2|0,0:0|0:0,0:0:0:0:
108,240,367670,2,0,L|96:146,1,93.5000028533936,10|0,0:0|0:0,0:0:0:0:
176,61,367884,1,2,0:0:0:0:
196,315,367992,2,0,B|142:332|142:332|15:301,1,187.000005706787
283,251,368313,6,0,L|374:280,1,93.5000028533936,4|0,0:0|0:0,0:0:0:0:
488,93,368527,2,0,L|417:157,1,93.5000028533936,8|0,0:0|0:0,0:0:0:0:
489,346,368742,2,0,P|503:278|507:234,1,93.5000028533936
323,104,368956,2,0,L|221:119,1,93.5000028533936,8|0,0:0|0:0,0:0:0:0:
3,179,369170,6,0,P|93:168|145:94,1,187.000005706787,0|8,0:0|0:0,0:0:0:0:
72,33,369492,1,0,0:0:0:0:
94,214,369599,2,0,P|85:254|81:315,1,93.5000028533936
294,371,369813,2,0,P|283:315|278:269,1,93.5000028533936,8|0,0:0|0:0,0:0:0:0:
408,120,370027,6,0,L|421:28,1,93.5000028533936
457,227,370242,1,8,0:0:0:0:
295,125,370349,2,0,P|250:129|193:141,1,93.5000028533936
97,381,370563,1,0,0:0:0:0:
206,336,370670,2,0,L|182:213,1,93.5000028533936,8|0,0:0|0:0,0:0:0:0:
27,85,370884,6,0,P|87:102|123:117,1,93.5000028533936
329,263,371099,2,0,L|221:254,1,93.5000028533936,8|0,0:0|0:0,0:0:0:0:
0,281,371313,2,0,P|63:289|157:182,1,187.000005706787,0|8,0:0|0:0,0:0:0:0:
472,135,371741,6,0,B|422:113|422:113|284:135,1,187.000005706787,4|8,0:0|0:0,0:0:0:0:
207,251,372063,1,0,0:0:0:0:
254,328,372170,2,0,L|364:311,1,93.5000028533936
478,170,372384,2,0,P|428:152|384:144,1,93.5000028533936,8|0,0:0|0:0,0:0:0:0:
176,235,372599,6,0,P|132:210|146:82,1,187.000005706787,0|8,0:0|0:0,0:0:0:0:
269,194,372920,1,0,0:0:0:0:
178,338,373027,2,0,B|128:344|128:344|68:323,1,93.5000028533936
0,138,373241,2,0,B|50:132|50:132|110:153,1,93.5000028533936,8|0,0:0|0:0,0:0:0:0:
286,220,373456,6,0,L|275:321,1,93.5000028533936
395,113,373670,1,8,0:0:0:0:
445,204,373777,2,0,P|386:216|247:174,1,187.000005706787
185,103,374099,2,0,L|89:112,1,93.5000028533936,8|0,0:0|0:0,0:0:0:0:
22,274,374313,6,0,L|118:265,1,93.5000028533936,8|0,0:3|0:0,0:0:0:0:
266,342,374527,2,0,P|289:288|298:247,1,93.5000028533936,8|0,0:3|0:0,0:0:0:0:
291,103,374741,1,8,0:0:0:0:
221,177,374849,1,0,0:0:0:0:
278,77,374956,1,8,0:0:0:0:
278,77,375063,1,8,0:0:0:0:
305,235,375170,6,0,L|370:223,2,63.7500024318696,8|8|8,0:3|0:3|0:3,0:0:0:0:
36,90,375599,1,12,0:0:0:0:
187,305,375813,2,0,L|182:373,1,63.7500024318696
321,152,376027,2,0,L|316:84,1,63.7500024318696,0|8,0:0|0:0,0:0:0:0:
209,186,376241,1,0,0:0:0:0:
418,292,376456,1,8,0:0:0:0:
329,58,376670,1,0,0:0:0:0:
137,232,376884,5,2,0:0:0:0:
137,232,377099,1,2,0:0:0:0:
443,184,377313,2,0,L|317:171,1,127.500004863739,8|0,0:0|0:0,0:0:0:0:
498,256,377634,1,0,0:0:0:0:
498,256,377741,2,0,L|504:325,2,63.7500024318696,0|10|0,0:0|0:0|0:0,0:0:0:0:
483,106,378170,1,10,0:0:0:0:
239,238,378384,1,0,0:0:0:0:
57,53,378599,5,2,0:0:0:0:
362,72,378813,1,0,0:0:0:0:
181,366,379027,1,10,0:0:0:0:
201,161,379241,2,0,L|195:92,1,63.7500024318696,2|0,0:0|0:0,0:0:0:0:
276,120,379456,1,2,0:0:0:0:
282,62,379563,1,8,0:0:0:0:
288,5,379670,1,2,0:0:0:0:
376,247,379884,1,10,0:0:0:0:
80,221,380099,1,0,0:0:0:0:
424,32,380313,5,2,0:0:0:0:
323,346,380527,2,0,L|260:356,2,63.7500024318696,0|2|8,0:0|0:0|0:0,0:0:0:0:
399,279,380849,1,0,0:0:0:0:
471,203,380956,2,0,L|480:128,1,63.7500024318696,2|0,0:0|0:0,0:0:0:0:
304,122,381170,2,0,L|295:47,1,63.7500024318696,2|8,0:0|0:0,0:0:0:0:
176,233,381384,2,0,L|167:308,1,63.7500024318696
42,176,381599,1,8,0:0:0:0:
122,163,381706,1,0,0:0:0:0:
202,150,381813,1,8,0:3:0:0:
282,137,381920,1,0,0:0:0:0:
339,205,382027,6,0,L|324:292,1,85,4|0,0:0|0:0,0:0:0:0:
469,108,382241,2,0,P|423:56|304:71,1,170,8|0,0:0|0:0,0:0:0:0:
217,197,382563,1,0,0:0:0:0:
217,197,382670,2,0,L|117:174,1,85,8|0,0:0|0:0,0:0:0:0:
75,359,382884,5,0,0:0:0:0:
17,281,382991,1,0,0:0:0:0:
85,209,383099,2,0,L|185:195,1,85,8|0,0:0|0:0,0:0:0:0:
424,84,383313,2,0,L|324:70,1,85
236,300,383527,2,0,P|285:284|334:259,1,85,8|0,0:0|0:0,0:0:0:0:
275,27,383741,6,0,B|257:77|257:77|250:221,1,170,0|8,0:0|0:0,0:0:0:0:
319,298,384063,1,8,0:0:0:0:
139,240,384170,2,0,P|101:242|53:253,1,85,8|0,0:3|0:0,0:0:0:0:
369,100,384384,2,0,P|412:115|466:125,1,85,8|0,0:3|0:0,0:0:0:0:
98,26,384599,5,0,0:0:0:0:
98,26,385456,6,0,L|128:140,1,101.999996887207,12|0,0:0|0:0,0:0:0:0:
224,362,385670,2,0,L|249:263,1,101.999996887207,10|2,0:0|0:0,0:0:0:0:
314,118,385884,1,8,0:0:0:0:
331,306,385991,1,0,0:0:0:0:
144,186,386099,2,0,L|157:291,1,101.999996887207,10|2,0:0|0:0,0:0:0:0:
494,203,386313,6,0,P|438:182|383:178,1,101.999996887207,8|0,0:0|0:0,0:0:0:0:
19,236,386527,2,0,P|69:229|116:210,1,101.999996887207,10|2,0:0|0:0,0:0:0:0:
369,85,386741,1,8,0:0:0:0:
276,241,386849,1,0,0:0:0:0:
152,127,386956,2,0,L|269:142,1,101.999996887207,10|2,0:0|0:0,0:0:0:0:
472,25,387170,6,0,P|460:85|453:132,1,101.999996887207,12|0,0:0|0:0,0:0:0:0:
237,360,387384,2,0,L|229:254,1,101.999996887207,10|2,0:0|0:0,0:0:0:0:
30,148,387599,2,0,P|90:128|142:100,1,101.999996887207,8|0,0:0|0:0,0:0:0:0:
453,234,387813,2,0,L|339:214,1,101.999996887207,10|2,0:0|0:0,0:0:0:0:
112,89,388027,5,8,0:0:0:0:
160,257,388134,1,0,0:0:0:0:
298,148,388241,2,0,P|321:102|340:55,1,101.999996887207,10|2,0:0|0:0,0:0:0:0:
246,280,388456,1,8,0:0:0:0:
186,171,388563,1,0,0:0:0:0:
341,249,388670,1,10,0:0:0:0:
188,360,388777,1,2,0:0:0:0:
102,158,388884,6,0,L|-8:141,1,101.999996887207,12|0,0:0|0:0,0:0:0:0:
290,71,389099,2,0,P|343:90|394:120,1,101.999996887207,10|2,0:0|0:0,0:0:0:0:
237,348,389313,1,8,0:0:0:0:
220,229,389420,1,0,0:0:0:0:
446,313,389527,2,0,L|340:327,1,101.999996887207,10|2,0:0|0:0,0:0:0:0:
80,335,389741,6,0,P|56:278|44:238,1,101.999996887207,8|0,0:0|0:0,0:0:0:0:
432,49,389956,2,0,P|456:106|468:146,1,101.999996887207,10|2,0:0|0:0,0:0:0:0:
178,267,390170,1,8,0:0:0:0:
360,192,390277,1,0,0:0:0:0:
268,342,390384,2,0,L|261:230,1,101.999996887207,10|2,0:0|0:0,0:0:0:0:
53,20,390599,6,0,L|42:126,1,101.999996887207,12|0,0:0|0:0,0:0:0:0:
161,339,390813,2,8,B|166:288|166:288|150:233,1,101.999996887207,10|2,0:0|0:0,0:0:0:0:
340,22,391027,2,0,B|335:73|335:73|351:128,1,101.999996887207,8|0,0:0|0:0,0:0:0:0:
183,249,391241,2,0,P|191:191|209:142,1,101.999996887207,10|2,0:0|0:0,0:0:0:0:
484,163,391456,6,0,L|361:144,1,101.999996887207,8|0,0:0|0:0,0:0:0:0:
42,166,391670,2,0,L|165:185,1,101.999996887207,10|10,0:0|0:0,0:0:0:0:
312,222,391884,1,8,0:3:0:0:
221,79,391991,1,8,0:3:0:0:
183,249,392099,1,8,0:3:0:0:
369,154,392206,1,8,0:3:0:0:
124,49,392313,5,4,1:0:0:0:
256,192,392366,12,0,401527,0:0:0:0:
