osu file format v14

[General]
AudioFilename: audio.mp3
AudioLeadIn: 0
PreviewTime: 305146
Countdown: 0
SampleSet: Drum
StackLeniency: 0.5
Mode: 0
LetterboxInBreaks: 0
WidescreenStoryboard: 0

[Editor]
Bookmarks: 19483,37912,57112,116188,160315,188172,249457,267885,281457
DistanceSpacing: 1.6
BeatDivisor: 4
GridSize: 16
TimelineZoom: 1.8

[Metadata]
Title:To The End
TitleUnicode:To The End
Artist:ORDEN OGAN
ArtistUnicode:ORDEN OGAN
Creator:xChorse
Version:Like The Saints We Will Ascend
Source:
Tags:english folk power metal speed rock melodic
BeatmapID:1952042
BeatmapSetID:935030

[Difficulty]
HPDrainRate:5
CircleSize:4.5
OverallDifficulty:9
ApproachRate:9.5
SliderMultiplier:1.4
SliderTickRate:1

[Events]
//Background and Video events
0,0,"bg.jpg",0,0
//Break Periods
2,302696,304710
//Storyboard Layer 0 (Background)
//Storyboard Layer 1 (Fail)
//Storyboard Layer 2 (Pass)
//Storyboard Layer 3 (Foreground)
//Storyboard Layer 4 (Overlay)
//Storyboard Sound Samples

[TimingPoints]
191,285.714285714286,4,3,1,70,1,0
9333,-100,4,3,2,70,0,0
9905,-100,4,3,1,70,0,0
19476,-133.333333333333,4,3,1,70,0,0
27476,-133.333333333333,4,3,2,70,0,0
28762,-133.333333333333,4,3,1,70,0,0
36619,-133.333333333333,4,3,2,70,0,0
37904,-100,4,3,1,70,0,0
37905,300,4,3,1,80,1,0
37905,-80,4,3,1,80,0,0
41505,-80,4,3,2,70,0,0
42705,-80,4,3,1,80,0,0
51105,-80,4,3,2,70,0,0
52305,-80,4,3,1,80,0,0
54705,-80,4,3,1,90,0,0
55905,-80,4,3,2,70,0,0
56805,-80,4,3,1,70,0,0
57105,631.578947368421,4,3,1,70,1,0
77315,571.428571428571,4,3,1,60,1,0
77315,-125,4,3,1,60,0,0
79457,-50.251256281407,4,3,1,60,0,0
79603,285.714285714286,4,3,1,70,1,0
86604,-100,4,3,2,70,0,0
87176,-100,4,3,1,70,0,0
87747,-100,4,3,2,70,0,0
88176,-100,4,3,1,70,0,0
88604,-100,4,3,1,70,0,0
97746,-133.333333333333,4,3,1,70,0,0
105747,-133.333333333333,4,3,2,70,0,0
107033,-133.333333333333,4,3,1,70,0,0
114890,-133.333333333333,4,3,2,70,0,0
116177,304.568527918782,4,3,1,80,1,0
135060,-100,4,3,2,70,0,0
135673,631.578947368421,4,3,1,70,1,0
136936,-100,4,3,2,70,0,0
137567,-100,4,3,1,90,0,0
138199,-100,4,3,1,70,0,0
155251,-100,4,3,1,70,0,0
155883,571.428571428571,4,3,1,70,1,0
155883,-125,4,3,1,70,0,0
158025,-50,4,3,1,60,0,0
158168,285.714285714286,4,3,1,60,1,0
176310,-100,4,3,1,60,0,0
177691,-100,4,2,2,60,0,0
178167,-100,4,3,2,60,0,0
178263,-100,4,2,2,60,0,0
178739,-100,4,3,1,70,0,0
194596,-100,4,3,1,80,0,0
213025,-100,4,3,1,85,0,1
217596,-100,4,3,1,70,0,1
221025,-100,4,3,1,70,0,0
249453,-100,4,3,1,70,0,1
267882,-83.3333333333333,4,3,1,80,0,0
268882,-100,4,3,1,50,0,0
269025,-100,4,3,1,80,0,0
280453,-100,4,3,1,70,0,0
289882,-100,4,3,2,70,0,0
290168,-100,4,3,1,70,0,0
299736,285.714285714286,4,3,1,70,1,0
300186,300,4,3,1,40,1,0
300186,-200,4,3,1,40,0,0
300511,315.789473684211,4,3,1,50,1,0
300511,-200,4,3,1,50,0,0
300825,333.333333333333,4,3,1,60,1,0
300825,-200,4,3,1,60,0,0
301137,352.941176470588,4,3,1,70,1,0
301137,-200,4,3,1,70,0,0
301494,375,4,3,1,80,1,0
301494,-200,4,3,1,80,0,0
301852,413.793103448276,4,3,1,80,1,0
301852,-200,4,3,1,80,0,0
302274,444.444444444444,4,3,1,90,1,0
302274,-200,4,3,1,90,0,0
305235,631.578947368421,4,3,1,70,1,0
309024,-100,4,3,1,80,0,0
325445,-100,4,3,1,90,0,1
326077,-100,4,3,1,100,0,0
326550,-100,4,3,1,90,0,0
335550,-100,4,3,1,90,0,1
336182,-66.6666666666667,4,3,1,100,0,0
336498,-100,4,3,1,90,0,0
343129,-100,4,3,2,90,0,0
345024,-100,4,3,1,90,0,0
345656,-100,4,3,1,90,0,0
346919,-100,4,3,1,70,0,0
347077,-100,4,3,1,80,0,0
347235,-100,4,3,1,75,0,0
347550,-100,4,3,1,65,0,0
347866,-100,4,3,1,55,0,0
348182,-100,4,3,1,45,0,0
348498,-100,4,3,1,35,0,0
348813,-100,4,3,1,25,0,0
349129,-100,4,3,1,5,0,0

[Colours]
Combo1 : 255,60,60
Combo2 : 255,164,119
Combo3 : 221,38,70
Combo4 : 255,107,36

[HitObjects]
340,59,191,5,0,1:0:0:0:
340,59,333,2,0,P|295:48|256:9,1,70,8|0,0:0|0:0,0:0:0:0:
418,141,619,1,0,1:0:0:0:
418,141,762,2,0,P|450:107|503:93,1,70,8|0,0:0|0:0,0:0:0:0:
307,167,1048,1,0,1:0:0:0:
307,167,1191,6,0,P|319:211|284:304,1,140,4|0,1:3|1:0,0:0:0:0:
152,256,1619,2,0,P|177:231|209:220,1,70,8|0,0:0|1:0,0:0:0:0:
290,298,1905,1,8,0:0:0:0:
137,344,2048,2,8,L|47:323,1,70,0|0,1:0|0:0,0:0:0:0:
120,131,2333,6,0,B|154:160|154:160|152:256,1,140,0|0,1:0|1:0,0:0:0:0:
69,328,2762,1,8,0:0:0:0:
258,283,2905,1,0,1:0:0:0:
14,232,3048,2,0,P|6:195|6:152,1,70,8|0,0:0|1:0,0:0:0:0:
73,57,3333,1,8,0:0:0:0:
258,283,3476,6,0,L|411:258,1,140,4|0,1:3|1:0,0:0:0:0:
459,155,3905,2,0,P|458:120|443:88,1,70,8|0,0:0|1:0,0:0:0:0:
333,74,4191,1,8,0:0:0:0:
396,260,4333,2,0,L|375:350,1,70,0|8,1:0|0:0,0:0:0:0:
302,178,4619,1,0,1:0:0:0:
189,259,4762,5,8,0:3:0:0:
155,267,4833,1,0,0:0:0:0:
121,261,4905,1,0,1:0:0:0:
92,241,4976,1,0,0:0:0:0:
75,211,5048,1,8,0:0:0:0:
101,86,5191,1,0,1:0:0:0:
1,265,5333,2,0,P|-5:352|-11:369,1,70,8|0,0:0|1:0,0:0:0:0:
5,124,5619,1,8,0:0:0:0:
161,172,5762,1,0,1:0:0:0:
161,172,5833,1,0,0:0:0:0:
161,172,5905,6,0,P|195:175|230:173,1,70,12|0,0:3|1:0,0:0:0:0:
347,111,6191,2,0,P|327:138|311:170,1,70,8|0,0:0|1:0,0:0:0:0:
359,250,6476,1,8,0:0:0:0:
220,271,6619,2,0,L|151:255,1,70,0|8,1:0|0:0,0:0:0:0:
280,47,6905,6,0,B|314:76|314:76|312:172,1,140,0|0,1:0|1:0,0:0:0:0:
220,271,7333,1,8,0:0:0:0:
231,173,7476,1,0,1:0:0:0:
306,341,7619,2,0,P|343:333|386:333,1,70,8|0,0:0|1:0,0:0:0:0:
447,249,7905,1,8,0:0:0:0:
220,271,8048,6,0,L|197:132,1,140,4|0,1:3|1:0,0:0:0:0:
347,47,8476,2,0,L|333:129,1,70,8|0,0:0|1:0,0:0:0:0:
122,189,8762,2,0,L|110:119,1,70,8|0,0:0|1:0,0:0:0:0:
222,8,9048,1,8,0:0:0:0:
276,164,9191,1,0,1:0:0:0:
141,32,9333,5,8,1:0:0:0:
107,24,9405,1,0,1:0:0:0:
73,30,9476,1,0,1:0:0:0:
44,50,9548,1,0,1:0:0:0:
27,80,9619,5,0,1:0:0:0:
27,91,9691,1,0,1:0:0:0:
28,103,9762,1,0,1:0:0:0:
28,114,9833,1,0,1:0:0:0:
29,126,9905,6,0,L|23:186,1,35,4|0,1:3|0:0,0:0:0:0:
110,246,10048,2,0,L|106:211,1,35,4|0,1:3|0:0,0:0:0:0:
193,111,10191,2,0,L|187:171,1,35,4|0,1:3|0:0,0:0:0:0:
256,295,10333,6,0,B|286:325|286:325|296:228,1,140,0|0,1:3|1:0,0:0:0:0:
282,72,10762,2,0,P|307:97|339:108,1,70,8|0,0:0|1:0,0:0:0:0:
464,104,11048,1,8,0:0:0:0:
296,228,11191,2,0,L|206:207,1,70,0|8,1:0|0:0,0:0:0:0:
99,113,11476,6,0,P|141:155|146:232,1,140,0|0,1:0|1:0,1:0:0:0:
64,341,11905,1,8,0:0:0:0:
56,199,12048,1,0,1:0:0:0:
199,343,12191,2,0,L|289:322,1,70,8|0,0:0|1:0,0:0:0:0:
355,210,12476,1,8,0:0:0:0:
420,363,12619,6,0,L|442:224,1,140,4|0,1:3|1:0,1:0:0:0:
362,119,13048,2,0,P|327:118|295:103,1,70,8|0,0:0|1:0,0:0:0:0:
241,24,13333,1,8,0:0:0:0:
163,143,13476,2,0,L|142:233,1,70,0|8,1:0|0:0,0:0:0:0:
224,291,13762,1,0,1:0:0:0:
295,157,13905,5,8,0:3:0:0:
329,149,13976,1,0,0:0:0:0:
363,155,14048,1,0,1:0:0:0:
392,175,14119,1,0,0:0:0:0:
409,205,14191,1,8,0:0:0:0:
383,330,14333,1,0,1:0:0:0:
212,200,14476,2,0,L|129:187,1,70,8|0,0:0|1:0,0:0:0:0:
113,301,14762,1,8,0:0:0:0:
295,157,14905,1,0,1:0:0:0:
295,157,14976,1,0,0:0:0:0:
295,157,15048,6,0,L|378:144,1,70,12|0,0:3|1:0,0:0:0:0:
182,311,15333,2,0,L|113:301,1,70,8|0,0:0|1:0,0:0:0:0:
333,282,15619,1,8,0:0:0:0:
143,189,15762,2,0,L|60:176,1,70,0|8,1:0|0:0,0:0:0:0:
262,32,16048,6,0,B|296:61|296:61|294:157,1,140,0|0,1:0|1:0,1:0:0:0:
182,311,16476,1,8,0:0:0:0:
221,190,16619,1,0,1:0:0:0:
328,360,16762,2,0,P|365:352|408:352,1,70,8|0,0:0|1:0,0:0:0:0:
468,294,17048,1,8,0:0:0:0:
221,190,17191,6,0,L|82:167,1,140,4|0,1:3|1:0,1:0:0:0:
290,111,17619,2,0,P|319:152|324:190,1,70,8|0,0:0|1:0,0:0:0:0:
187,249,17905,2,0,P|198:215|220:189,1,70,8|0,0:0|1:0,0:0:0:0:
346,261,18191,1,8,0:0:0:0:
202,104,18333,6,0,L|63:81,1,140,0|0,1:0|1:0,1:0:0:0:
0,268,18762,1,8,0:0:0:0:
221,192,18905,1,0,1:0:0:0:
221,192,18976,1,0,0:0:0:0:
221,192,19048,1,8,0:0:0:0:
153,341,19191,1,8,0:0:0:0:
64,82,19333,1,8,0:0:0:0:
332,134,19476,6,0,P|390:144|434:127,1,105.000004005432,4|0,1:3|1:0,1:0:0:0:
255,34,19905,2,0,L|246:97,1,52.5000020027161,8|0,0:0|0:0,0:0:0:0:
221,192,20191,1,0,1:0:0:0:
332,134,20333,1,0,1:0:0:0:
171,124,20476,1,8,0:0:0:0:
350,123,20619,6,0,L|333:236,1,105.000004005432,0|0,1:0|0:0,1:0:0:0:
423,324,21048,2,0,L|415:272,1,52.5000020027161,8|0,0:0|0:0,0:0:0:0:
302,317,21333,1,0,1:0:0:0:
335,227,21476,1,0,1:0:0:0:
200,292,21619,1,8,0:0:0:0:
233,202,21762,1,0,1:0:0:0:
101,254,21905,6,0,L|115:357,1,105.000004005432,4|8,1:3|0:0,0:0:0:0:
13,250,22333,2,0,P|16:190|20:176,1,52.5000020027161,0|0,0:0|1:0,0:0:0:0:
134,123,22619,2,0,P|80:150|66:153,1,52.5000020027161,0|8,1:0|0:0,0:0:0:0:
1,52,22905,6,0,L|14:103,1,52.5000020027161,4|0,0:3|0:0,0:0:0:0:
101,254,23191,1,2,1:3:0:0:
134,123,23333,1,8,0:0:0:0:
185,307,23476,6,0,P|182:333|172:357,1,52.5000020027161,4|0,1:3|0:0,0:0:0:0:
328,187,23762,1,2,1:3:0:0:
233,90,23905,1,8,0:0:0:0:
280,274,24048,6,0,P|295:294|377:328,1,105.000004005432,4|0,1:3|1:0,0:0:0:0:
476,242,24476,2,0,L|487:190,1,52.5000020027161,8|0,0:0|0:0,0:0:0:0:
406,144,24762,1,0,1:0:0:0:
489,98,24905,1,0,1:0:0:0:
354,65,25048,1,8,0:0:0:0:
379,245,25191,6,0,L|409:132,1,105.000004005432,0|0,1:0|1:0,1:0:0:0:
263,54,25619,2,0,P|266:93|276:110,1,52.5000020027161,8|0,0:0|0:0,0:0:0:0:
295,206,25905,2,0,P|259:189|240:189,1,52.5000020027161,0|0,1:0|1:0,0:0:0:0:
147,157,26191,2,0,P|179:134|188:117,1,52.5000020027161,8|0,0:0|1:0,0:0:0:0:
43,100,26476,6,0,L|35:211,1,105.000004005432,4|8,1:3|0:0,0:0:0:0:
107,320,26905,1,0,0:0:0:0:
132,231,27048,1,0,1:0:0:0:
216,299,27191,1,0,1:0:0:0:
241,210,27333,1,8,0:0:0:0:
328,351,27476,6,0,L|367:360,1,26.2500010013581,0|0,1:0|1:0,0:0:0:0:
454,317,27619,1,0,1:0:0:0:
467,300,27691,1,0,1:0:0:0:
473,280,27762,1,0,1:0:0:0:
474,259,27833,1,0,1:0:0:0:
467,238,27905,5,8,1:0:0:0:
444,205,27976,1,8,1:0:0:0:
468,173,28048,1,8,1:0:0:0:
444,141,28119,1,8,1:0:0:0:
467,109,28191,5,0,1:0:0:0:
458,86,28262,1,0,1:0:0:0:
438,69,28333,1,0,1:0:0:0:
429,44,28405,1,0,1:0:0:0:
430,16,28476,1,0,1:0:0:0:
419,14,28548,1,0,1:0:0:0:
408,12,28619,1,0,1:0:0:0:
397,10,28691,1,0,1:0:0:0:
364,31,28762,6,0,P|321:21|297:7,1,52.5000020027161,4|0,1:3|0:0,0:0:0:0:
233,174,29048,2,0,P|257:164|283:160,1,52.5000020027161,8|0,0:0|0:0,0:0:0:0:
467,109,29333,1,0,1:0:0:0:
407,226,29476,1,0,1:0:0:0:
364,31,29619,1,8,0:0:0:0:
233,174,29762,6,0,L|122:159,1,105.000004005432,0|0,1:0|1:0,1:0:0:0:
1,92,30191,2,0,L|67:83,1,52.5000020027161,8|0,0:0|0:0,0:0:0:0:
144,10,30476,1,0,1:0:0:0:
128,159,30619,1,0,1:0:0:0:
238,35,30762,1,8,0:0:0:0:
297,119,30905,1,0,1:0:0:0:
376,0,31048,5,4,1:3:0:0:
291,138,31191,2,0,P|296:162|301:207,1,52.5000020027161,0|8,0:0|0:0,0:0:0:0:
46,221,31476,2,0,P|49:194|54:169,1,52.5000020027161,0|0,0:0|1:0,0:0:0:0:
238,35,31762,2,0,P|230:58|212:99,1,52.5000020027161,0|8,1:0|0:0,0:0:0:0:
124,367,32048,6,0,P|113:342|105:317,1,52.5000020027161,4|0,1:3|0:0,0:0:0:0:
232,197,32333,1,4,1:3:0:0:
291,310,32476,1,8,0:0:0:0:
386,109,32619,6,0,P|360:114|334:117,1,52.5000020027161,4|0,1:3|0:0,0:0:0:0:
154,71,32905,1,4,1:3:0:0:
270,24,33048,1,8,0:0:0:0:
113,214,33191,6,0,L|105:339,1,105.000004005432,4|0,1:3|0:0,1:0:0:0:
278,340,33619,2,0,P|269:302|262:286,1,52.5000020027161,8|0,0:0|0:0,0:0:0:0:
331,199,33905,1,0,1:0:0:0:
379,297,34048,1,0,1:0:0:0:
434,150,34191,1,8,0:0:0:0:
307,206,34333,6,0,L|182:198,1,105.000004005432,0|0,1:0|1:0,1:0:0:0:
239,60,34762,1,8,0:0:0:0:
129,83,34905,2,0,P|119:107|114:133,1,52.5000020027161,0|0,0:0|1:0,0:0:0:0:
217,249,35191,2,0,P|212:223|202:198,1,52.5000020027161,0|8,1:0|0:0,0:0:0:0:
60,250,35476,1,0,1:0:0:0:
239,60,35619,6,0,L|364:52,1,105.000004005432,4|8,1:3|0:0,0:0:0:0:
483,196,36048,1,0,0:0:0:0:
483,196,36191,2,0,L|358:188,1,105.000004005432,0|8,1:0|0:0,0:0:0:0:
293,294,36619,6,0,L|254:283,1,26.2500010013581,0|0,1:0|1:0,0:0:0:0:
148,335,36762,1,0,1:0:0:0:
151,309,36833,1,0,1:0:0:0:
148,283,36905,1,0,1:0:0:0:
136,266,36976,1,0,1:0:0:0:
131,248,37048,1,0,1:0:0:0:
131,228,37119,1,0,1:0:0:0:
137,210,37191,1,0,1:0:0:0:
148,186,37262,1,0,1:0:0:0:
149,160,37333,5,0,1:0:0:0:
138,137,37405,1,0,1:0:0:0:
118,120,37476,1,0,1:0:0:0:
93,113,37548,1,0,1:0:0:0:
68,124,37619,1,0,1:0:0:0:
76,106,37691,1,0,1:0:0:0:
81,87,37762,1,0,1:0:0:0:
82,67,37833,1,0,1:0:0:0:
78,48,37905,6,0,L|189:33,1,87.5,12|0,0:0|1:0,0:0:0:0:
368,147,38205,1,8,0:0:0:0:
368,147,38355,2,0,L|281:135,1,87.5,0|8,1:0|0:0,0:0:0:0:
260,0,38655,1,0,1:0:0:0:
157,224,38805,1,8,0:0:0:0:
328,57,38955,1,0,1:0:0:0:
144,233,39105,6,0,L|130:327,1,87.5,12|0,0:0|1:0,0:0:0:0:
375,360,39405,1,8,0:0:0:0:
375,360,39555,2,0,L|362:273,1,87.5,0|8,1:0|0:0,0:0:0:0:
281,135,39855,1,0,1:0:0:0:
145,307,40005,1,8,0:0:0:0:
393,155,40155,1,0,1:0:0:0:
131,319,40305,6,0,L|44:306,1,87.5,12|0,0:0|1:0,0:0:0:0:
195,148,40605,1,8,0:0:0:0:
195,148,40755,2,0,L|281:135,1,87.5,0|8,1:0|0:0,0:0:0:0:
154,44,41055,1,0,1:0:0:0:
166,229,41205,1,8,0:0:0:0:
269,11,41355,1,0,1:0:0:0:
173,245,41505,5,0,1:0:0:0:
171,266,41580,1,0,1:0:0:0:
170,288,41655,1,0,1:0:0:0:
169,310,41730,1,0,1:0:0:0:
166,331,41805,5,8,1:0:0:0:
198,302,41880,1,8,1:0:0:0:
240,290,41955,1,8,1:0:0:0:
282,299,42030,1,8,1:0:0:0:
316,326,42105,5,0,1:0:0:0:
337,324,42180,1,0,1:0:0:0:
359,323,42255,1,0,1:0:0:0:
381,322,42330,1,0,1:0:0:0:
402,319,42405,1,0,1:3:0:0:
415,302,42480,1,0,1:0:0:0:
425,282,42555,1,0,1:0:0:0:
430,261,42630,1,0,1:0:0:0:
428,240,42705,6,0,P|420:201|382:162,1,87.5,4|0,1:3|1:0,0:0:0:0:
213,137,43005,1,8,0:0:0:0:
213,137,43155,2,0,P|250:149|303:136,1,87.5,0|8,1:0|0:0,0:0:0:0:
347,26,43455,1,0,1:0:0:0:
325,223,43605,1,8,0:0:0:0:
448,13,43755,1,0,1:0:0:0:
316,231,43905,6,0,L|297:316,1,87.5,12|0,0:0|1:0,0:0:0:0:
104,370,44205,1,8,0:0:0:0:
104,370,44355,2,0,L|85:285,1,87.5,0|8,1:0|0:0,0:0:0:0:
128,65,44655,1,0,1:0:0:0:
297,140,44805,1,8,0:0:0:0:
43,176,44955,1,0,1:0:0:0:
314,132,45105,6,0,L|399:151,1,87.5,12|0,0:3|1:0,0:0:0:0:
480,310,45405,1,8,0:0:0:0:
480,310,45555,2,0,L|395:291,1,87.5,0|8,1:0|0:0,0:0:0:0:
274,41,45855,2,0,P|243:61|216:144,1,87.5,0|8,1:0|0:0,0:0:0:0:
211,336,46155,1,0,1:0:0:0:
18,129,46305,5,8,0:0:0:0:
282,279,46455,1,0,1:0:0:0:
13,240,46605,5,8,0:0:0:0:
218,104,46755,1,0,1:0:0:0:
211,336,46905,5,8,0:0:0:0:
88,58,47055,1,0,1:0:0:0:
371,183,47205,5,8,0:0:0:0:
91,345,47355,1,0,1:0:0:0:
484,258,47505,6,0,L|502:172,1,87.5,12|0,0:0|1:0,0:0:0:0:
200,19,47805,1,8,0:0:0:0:
200,19,47955,2,0,L|218:104,1,87.5,0|8,1:0|0:0,0:0:0:0:
325,268,48255,1,0,1:0:0:0:
385,92,48405,1,8,0:0:0:0:
217,280,48555,1,0,1:0:0:0:
395,76,48705,6,0,L|480:57,1,87.5,12|0,0:0|1:0,0:0:0:0:
168,187,49005,1,8,0:0:0:0:
168,187,49155,2,0,L|83:168,1,87.5,0|8,1:0|0:0,0:0:0:0:
123,43,49455,1,0,1:0:0:0:
47,263,49605,1,8,0:0:0:0:
17,81,49755,1,0,1:0:0:0:
43,277,49905,6,0,L|62:362,1,87.5,12|0,0:0|1:0,0:0:0:0:
252,366,50205,1,8,0:0:0:0:
252,366,50355,2,0,L|271:281,1,87.5,0|8,1:0|0:0,0:0:0:0:
208,36,50655,1,0,1:0:0:0:
49,152,50805,1,8,0:0:0:0:
290,120,50955,1,0,1:0:0:0:
160,223,51105,5,8,1:0:0:0:
158,233,51180,1,0,1:0:0:0:
157,244,51255,1,0,1:0:0:0:
155,255,51330,1,0,1:0:0:0:
154,266,51405,5,0,1:0:0:0:
191,287,51480,1,0,1:0:0:0:
234,284,51555,1,0,1:0:0:0:
269,259,51630,1,0,1:0:0:0:
284,218,51705,5,8,1:0:0:0:
321,196,51780,1,0,1:0:0:0:
364,199,51855,1,0,1:0:0:0:
399,224,51930,1,0,1:0:0:0:
414,265,52005,5,0,1:0:0:0:
412,275,52080,1,0,1:0:0:0:
411,286,52155,1,0,1:0:0:0:
409,297,52230,1,0,1:0:0:0:
408,308,52305,6,0,L|517:284,1,87.5,12|0,0:0|1:0,0:0:0:0:
334,120,52605,1,8,0:0:0:0:
334,120,52755,2,0,L|248:101,1,87.5,0|8,1:0|0:0,0:0:0:0:
512,32,53055,1,0,1:0:0:0:
468,188,53205,1,8,0:0:0:0:
389,0,53355,1,0,1:0:0:0:
284,218,53505,6,0,L|175:194,1,87.5,12|0,0:0|1:0,0:0:0:0:
30,345,53805,1,8,0:0:0:0:
30,345,53955,2,0,L|115:326,1,87.5,0|8,1:0|0:0,0:0:0:0:
230,384,54255,1,0,1:0:0:0:
356,216,54405,2,0,L|380:107,1,87.5,8|0,0:0|1:0,0:0:0:0:
464,37,54705,5,12,0:0:0:0:
221,37,54855,2,0,P|178:29|104:-7,1,87.5,0|8,1:0|0:0,0:0:0:0:
214,282,55155,2,0,P|242:248|310:202,1,87.5,0|8,1:0|0:0,0:0:0:0:
0,170,55455,2,0,P|14:211|20:293,1,87.5,0|8,1:0|0:0,0:0:0:0:
116,326,55755,1,0,1:0:0:0:
273,148,55905,5,8,1:0:0:0:
296,117,55980,1,0,1:0:0:0:
330,103,56055,1,0,1:0:0:0:
368,109,56130,1,0,1:0:0:0:
397,132,56205,1,0,1:0:0:0:
411,168,56280,1,0,1:0:0:0:
404,205,56355,1,0,1:0:0:0:
380,234,56430,1,0,1:0:0:0:
344,246,56505,5,0,1:0:0:0:
322,242,56580,1,0,1:0:0:0:
300,239,56655,1,0,1:0:0:0:
279,236,56730,1,0,1:0:0:0:
255,247,56805,2,0,P|241:291|242:308,1,43.75,8|0,0:0|0:0,0:0:0:0:
188,134,56955,2,0,P|183:112|174:92,1,43.75,8|0,0:0|0:0,0:0:0:0:
8,158,57105,5,0,1:0:0:0:
30,189,57262,1,0,1:0:0:0:
18,228,57420,1,0,1:0:0:0:
84,259,57578,1,0,1:0:0:0:
0,362,57736,2,0,P|60:334|131:337,1,105,12|0,0:0|0:0,0:0:0:0:
241,289,58368,6,0,P|274:299|288:301,2,35,4|0|0,1:3|1:0|1:0,1:0:0:0:
196,221,58841,1,0,1:0:0:0:
196,221,58999,2,0,P|211:180|212:161,1,35,8|0,0:0|0:0,0:0:0:0:
312,174,59315,1,0,0:0:0:0:
312,174,59473,6,0,P|297:133|296:89,1,70
220,36,59947,2,0,P|203:30|187:22,1,35,0|0,0:0|0:0,0:0:0:0:
114,128,60262,2,0,P|130:122|146:114,1,35,8|0,0:0|0:0,0:0:0:0:
29,38,60578,1,0,0:0:0:0:
29,38,60736,1,0,0:0:0:0:
29,38,60894,6,0,L|15:127,1,70,4|0,1:3|0:0,0:0:0:0:
45,237,61368,1,0,1:0:0:0:
45,237,61447,1,0,0:0:0:0:
45,237,61526,2,0,P|81:240|42:229,1,122.5,12|0,0:3|0:0,0:0:0:0:
45,237,62157,2,0,P|41:283|31:326,1,70,4|0,1:3|0:0,0:0:0:0:
238,65,62789,6,0,P|262:48|272:44,1,35,8|0,0:0|0:0,0:0:0:0:
351,89,63105,2,0,P|353:118|352:128,1,35,0|0,0:0|0:0,0:0:0:0:
273,174,63420,2,0,P|246:161|237:155,1,35,4|0,1:3|0:0,0:0:0:0:
238,65,63736,2,0,P|262:48|272:44,1,35,0|0,0:0|0:0,0:0:0:0:
142,61,64052,1,8,0:0:0:0:
142,61,64210,2,0,L|133:117,1,35,0|0,0:0|0:0,0:0:0:0:
126,221,64526,5,0,1:0:0:0:
28,102,64683,1,12,0:3:0:0:
157,338,64999,5,0,1:0:0:0:
242,159,65157,1,12,0:0:0:0:
308,372,65473,5,0,1:0:0:0:
126,221,65631,1,12,0:3:0:0:
378,207,65947,5,0,1:0:0:0:
157,338,66105,1,12,0:3:0:0:
149,125,66420,5,0,1:0:0:0:
308,372,66578,2,0,L|367:363,1,35,12|0,0:3|0:0,0:0:0:0:
495,217,66894,1,8,0:0:0:0:
482,341,67052,1,8,0:0:0:0:
409,185,67210,5,0,1:0:0:0:
378,207,67368,1,0,1:0:0:0:
339,195,67526,1,0,1:0:0:0:
300,263,67683,1,0,1:0:0:0:
221,173,67841,2,0,L|201:39,1,105,12|0,0:0|0:0,0:0:0:0:
285,70,68473,6,0,P|318:80|332:82,2,35,4|0|0,1:3|1:0|1:0,1:0:0:0:
194,19,68947,1,0,1:0:0:0:
133,91,69105,1,8,0:0:0:0:
29,32,69263,2,0,P|34:48|42:64,1,35
138,121,69578,6,0,L|149:193,1,70
252,297,70052,2,0,P|269:291|285:283,2,35,0|0|8,0:0|0:0|0:0,0:0:0:0:
105,333,70526,2,0,P|87:336|69:337,1,35
239,198,70841,1,0,0:0:0:0:
239,198,70999,6,0,L|228:125,1,70,4|8,1:3|0:0,0:0:0:0:
168,268,71473,1,8,0:0:0:0:
306,126,71631,2,0,L|295:56,1,70,4|0,1:3|0:0,0:0:0:0:
202,45,72105,1,0,1:0:0:0:
384,114,72262,2,0,L|394:183,1,70,4|0,1:3|0:0,0:0:0:0:
229,350,72894,6,0,P|253:367|263:371,1,35,8|0,0:0|0:0,0:0:0:0:
342,326,73210,2,0,P|344:297|343:287,1,35,0|0,0:0|0:0,0:0:0:0:
264,241,73526,2,0,P|237:254|228:260,1,35,4|0,1:3|0:0,0:0:0:0:
229,350,73841,2,0,P|253:367|263:371,1,35,0|0,0:0|0:0,0:0:0:0:
133,354,74157,1,8,0:0:0:0:
133,354,74315,2,0,L|124:298,1,35,0|0,0:0|0:0,0:0:0:0:
122,178,74631,5,0,1:0:0:0:
229,350,74789,1,12,0:3:0:0:
0,226,75105,5,0,1:0:0:0:
170,58,75262,1,12,0:3:0:0:
239,252,75578,5,0,1:0:0:0:
36,100,75736,1,12,0:3:0:0:
319,80,76052,5,0,1:0:0:0:
115,301,76210,1,12,0:3:0:0:
170,57,76526,5,0,1:0:0:0:
239,252,76683,2,0,L|298:243,1,35,12|0,0:3|0:0,0:0:0:0:
336,172,76999,2,0,L|277:163,1,35,12|0,0:3|0:0,0:0:0:0:
294,324,77315,6,0,B|339:319|368:346|368:346|389:323|389:323|408:357|464:367|492:335,1,224,4|0,1:3|1:0,1:0:0:0:
411,134,79457,6,0,P|343:123|281:152,1,140,4|0,1:3|1:0,1:0:0:0:
323,290,79889,2,0,P|348:265|359:233,1,70,8|0,0:0|1:0,0:0:0:0:
281,152,80175,1,8,0:0:0:0:
441,214,80318,2,0,L|462:304,1,70,0|8,1:0|0:0,0:0:0:0:
258,320,80603,6,0,B|229:284|229:284|329:290,1,140,0|0,1:0|1:0,1:0:0:0:
405,358,81032,1,8,0:0:0:0:
441,214,81175,1,0,1:0:0:0:
258,320,81318,2,0,L|169:315,1,70,8|0,0:0|1:0,0:0:0:0:
102,242,81603,1,8,0:0:0:0:
326,211,81746,6,0,P|338:167|303:74,1,140,4|0,1:3|1:0,1:0:0:0:
171,122,82175,2,0,P|196:147|228:158,1,70,8|0,0:0|1:0,0:0:0:0:
309,80,82460,1,8,0:0:0:0:
240,251,82603,2,0,L|219:341,1,70,0|8,1:0|0:0,0:0:0:0:
304,367,82889,1,0,1:0:0:0:
134,284,83032,5,8,0:0:0:0:
100,276,83103,1,0,0:0:0:0:
66,282,83175,1,4,1:3:0:0:
37,302,83246,1,0,0:0:0:0:
20,332,83318,1,8,0:0:0:0:
105,380,83460,1,0,1:3:0:0:
168,205,83603,2,0,L|152:136,1,70,8|4,0:0|1:3,1:0:0:0:
80,66,83889,1,8,0:0:0:0:
217,67,84032,1,0,1:0:0:0:
217,67,84103,1,0,0:0:0:0:
217,67,84175,6,0,P|251:70|286:68,1,70,12|0,0:3|1:0,0:0:0:0:
436,152,84460,2,0,P|402:149|367:151,1,70,8|0,0:0|1:0,0:0:0:0:
280,222,84746,1,8,0:0:0:0:
369,68,84889,2,0,L|384:0,1,70,0|8,1:0|0:0,0:0:0:0:
436,152,85175,6,0,L|478:333,1,140,0|0,1:0|1:0,1:0:0:0:
351,356,85603,1,8,0:0:0:0:
280,222,85746,1,0,1:0:0:0:
169,333,85889,2,0,P|134:331|99:324,1,70,8|0,0:0|1:0,0:0:0:0:
38,182,86175,1,8,0:0:0:0:
280,222,86318,2,0,P|296:191|306:157,1,70,4|0,1:3|0:0,0:0:0:0:
203,22,86603,5,0,1:0:0:0:
169,14,86675,1,0,1:0:0:0:
135,20,86746,1,0,1:0:0:0:
106,40,86818,1,0,1:0:0:0:
89,70,86889,5,0,1:0:0:0:
89,81,86960,1,0,1:0:0:0:
90,93,87032,1,0,1:0:0:0:
90,104,87103,1,0,1:0:0:0:
91,116,87174,1,0,0:0:0:0:
84,150,87245,1,0,0:0:0:0:
66,181,87318,2,0,L|69:219,1,35,8|8,0:0|0:0,0:0:0:0:
178,259,87460,2,0,L|182:225,3,35,8|0|0|0,1:3|0:0|0:0|0:0,0:0:0:0:
248,330,87746,5,0,1:0:0:0:
282,338,87818,1,0,1:0:0:0:
316,332,87889,1,0,1:0:0:0:
345,312,87960,1,0,1:0:0:0:
362,282,88032,5,0,1:0:0:0:
362,271,88103,1,0,1:0:0:0:
361,259,88175,2,0,L|367:199,1,35,8|0,0:0|0:0,0:0:0:0:
304,39,88318,2,0,L|307:73,1,35,8|0,0:0|0:0,0:0:0:0:
478,192,88460,2,0,L|484:132,1,35,8|0,0:0|0:0,0:0:0:0:
231,111,88603,6,0,L|237:180,1,70,4|0,1:3|0:0,0:0:0:0:
364,224,88889,1,0,1:0:0:0:
206,262,89032,2,0,L|116:241,1,70,8|0,0:0|1:0,0:0:0:0:
231,111,89318,1,8,0:0:0:0:
66,181,89460,2,0,P|42:232|43:266,1,70,0|8,1:0|0:0,0:0:0:0:
141,116,89746,6,0,P|81:82|14:96,1,140,0|0,1:0|1:0,1:0:0:0:
0,276,90175,1,8,0:0:0:0:
66,181,90318,1,0,1:0:0:0:
93,355,90460,2,0,L|183:334,1,70,8|0,0:0|1:0,0:0:0:0:
205,231,90746,1,8,0:0:0:0:
336,368,90889,6,0,L|358:229,1,140,4|0,1:3|1:0,1:0:0:0:
278,124,91318,2,0,P|243:123|211:108,1,70,8|0,0:0|1:0,0:0:0:0:
157,29,91603,1,8,0:0:0:0:
79,148,91746,2,0,L|58:238,1,70,0|8,1:0|0:0,0:0:0:0:
140,296,92032,1,0,1:0:0:0:
211,162,92175,5,8,0:0:0:0:
245,154,92246,1,0,0:0:0:0:
279,160,92318,1,4,1:3:0:0:
308,180,92389,1,0,0:0:0:0:
325,210,92460,1,8,0:0:0:0:
271,335,92603,1,0,1:0:0:0:
426,223,92746,2,0,L|439:140,1,70,8|4,0:0|1:3,0:0:0:0:
319,43,93032,1,8,0:0:0:0:
211,162,93175,1,0,1:0:0:0:
211,162,93246,1,0,0:0:0:0:
211,162,93318,6,0,L|128:149,1,70,12|0,0:3|1:0,0:0:0:0:
189,275,93603,2,0,L|258:285,1,70,8|0,0:0|1:0,0:0:0:0:
342,241,93889,1,8,0:0:0:0:
183,358,94032,2,0,L|100:345,1,70,0|8,1:0|0:0,0:0:0:0:
67,192,94318,6,0,B|107:167|107:167|105:263,1,140,0|0,1:0|1:0,1:0:0:0:
183,358,94746,1,8,0:0:0:0:
215,212,94889,1,0,1:0:0:0:
279,370,95032,2,0,P|316:362|359:362,1,70,8|0,0:0|1:0,0:0:0:0:
404,280,95318,1,8,0:0:0:0:
215,212,95460,6,0,L|238:73,1,140,4|0,1:3|1:0,1:0:0:0:
411,20,95889,2,0,P|440:61|445:99,1,70,8|0,0:0|1:0,0:0:0:0:
308,158,96175,2,0,P|319:124|341:98,1,70,8|0,0:0|1:0,0:0:0:0:
467,170,96460,1,8,0:0:0:0:
238,74,96603,6,0,L|99:51,1,140,0|0,1:0|1:0,1:0:0:0:
16,153,97032,1,8,0:0:0:0:
14,170,97103,1,0,0:0:0:0:
12,187,97175,1,0,1:0:0:0:
10,205,97246,1,0,0:0:0:0:
8,222,97318,1,8,0:0:0:0:
97,298,97460,1,8,0:0:0:0:
16,62,97603,1,8,0:0:0:0:
260,109,97746,6,0,P|318:119|362:102,1,105.000004005432,4|0,1:3|1:0,1:0:0:0:
455,24,98175,2,0,L|446:87,1,52.5000020027161,8|0,0:0|0:0,0:0:0:0:
374,197,98460,1,0,1:0:0:0:
485,255,98603,1,0,1:0:0:0:
324,265,98746,1,8,0:0:0:0:
503,266,98889,6,0,L|486:153,1,105.000004005432,0|0,1:0|1:0,1:0:0:0:
360,103,99318,2,0,L|352:155,1,52.5000020027161,8|0,0:0|1:0,0:0:0:0:
250,217,99603,1,0,1:0:0:0:
259,122,99746,1,0,1:0:0:0:
145,220,99889,1,8,0:0:0:0:
153,125,100032,1,0,1:0:0:0:
58,271,100175,6,0,L|72:374,1,105.000004005432,0|8,1:0|0:0,0:0:0:0:
176,312,100603,2,0,P|236:315|250:319,1,52.5000020027161,0|0,0:0|1:0,0:0:0:0:
327,356,100889,1,0,1:0:0:0:
380,266,101032,1,8,0:0:0:0:
490,355,101175,6,0,L|477:304,1,52.5000020027161,4|0,1:3|0:0,0:0:0:0:
381,242,101460,1,2,1:3:0:0:
477,147,101603,1,8,0:0:0:0:
293,195,101746,6,0,P|271:210|256:231,1,52.5000020027161,4|0,1:3|0:0,0:0:0:0:
325,11,102032,1,2,1:3:0:0:
457,45,102175,1,8,0:0:0:0:
274,96,102318,6,0,P|249:93|178:38,1,105.000004005432,4|0,1:3|0:0,1:0:0:0:
90,131,102746,2,0,L|79:183,1,52.5000020027161,8|0,0:0|0:0,0:0:0:0:
160,245,103032,1,0,1:0:0:0:
77,199,103175,1,0,1:0:0:0:
212,166,103318,1,8,0:0:0:0:
187,343,103460,6,0,P|163:297|160:245,1,105.000004005432,0|0,1:0|1:0,1:0:0:0:
303,155,103889,2,0,P|300:194|290:211,1,52.5000020027161,8|0,0:0|0:0,0:0:0:0:
326,303,104175,2,0,P|361:286|380:286,1,52.5000020027161,0|0,1:0|1:0,0:0:0:0:
443,210,104460,2,0,P|410:187|401:170,1,52.5000020027161,8|0,0:0|1:0,0:0:0:0:
310,50,104746,6,0,L|302:161,1,105.000004005432,0|8,1:0|0:0,0:0:0:0:
252,239,105175,1,0,0:0:0:0:
185,174,105318,1,0,1:0:0:0:
147,275,105460,1,0,1:0:0:0:
37,208,105603,1,8,0:0:0:0:
106,100,105746,5,0,1:0:0:0:
106,100,105818,1,0,1:0:0:0:
106,100,105889,1,0,1:0:0:0:
127,85,105960,1,0,1:0:0:0:
152,77,106031,1,0,1:0:0:0:
178,77,106103,1,0,1:0:0:0:
203,85,106175,5,8,1:0:0:0:
247,96,106245,1,8,1:0:0:0:
287,70,106318,1,8,1:0:0:0:
331,81,106388,1,8,1:0:0:0:
354,59,106460,5,0,1:0:0:0:
374,54,106532,1,0,1:0:0:0:
394,58,106602,1,0,1:0:0:0:
411,69,106674,1,0,1:0:0:0:
423,85,106745,1,0,1:0:0:0:
429,105,106818,1,0,1:0:0:0:
425,125,106889,1,0,1:0:0:0:
413,142,106960,1,0,1:0:0:0:
396,155,107032,6,0,P|406:198|420:222,1,52.5000020027161,4|0,1:3|0:0,0:0:0:0:
311,341,107318,2,0,L|318:289,1,52.5000020027161,8|0,0:0|0:0,0:0:0:0:
287,195,107603,1,0,1:0:0:0:
448,303,107746,1,0,1:0:0:0:
219,266,107889,1,8,0:0:0:0:
465,289,108032,6,0,L|480:178,1,105.000004005432,0|0,1:0|0:0,1:0:0:0:
360,68,108460,2,0,L|367:120,1,52.5000020027161,8|0,0:0|0:0,0:0:0:0:
318,289,108746,1,0,1:0:0:0:
181,158,108889,1,0,1:0:0:0:
219,266,109032,1,8,0:0:0:0:
286,116,109175,1,0,1:0:0:0:
122,247,109318,5,0,1:0:0:0:
122,247,109460,2,0,P|117:271|112:316,1,52.5000020027161,0|8,0:0|0:0,0:0:0:0:
7,196,109746,2,0,P|4:169|-1:144,1,52.5000020027161,0|0,0:0|1:0,0:0:0:0:
140,36,110032,2,0,P|132:59|114:100,1,52.5000020027161,0|8,1:0|0:0,0:0:0:0:
219,266,110318,6,0,P|208:241|200:216,1,52.5000020027161,4|0,1:3|0:0,0:0:0:0:
363,105,110602,1,4,1:3:0:0:
378,315,110745,1,8,0:0:0:0:
267,57,110889,6,0,P|241:62|215:65,1,52.5000020027161,4|0,1:3|0:0,0:0:0:0:
480,183,111175,1,4,1:3:0:0:
402,0,111318,1,8,0:0:0:0:
287,168,111460,6,0,L|279:293,1,105.000004005432,4|0,1:3|1:0,1:0:0:0:
206,360,111889,2,0,P|197:322|190:306,1,52.5000020027161,8|0,0:0|0:0,0:0:0:0:
190,208,112175,1,0,1:0:0:0:
350,307,112318,1,0,1:0:0:0:
216,124,112460,1,8,0:0:0:0:
111,263,112603,6,0,L|-14:255,1,105.000004005432,0|0,1:0|1:0,1:0:0:0:
51,101,113032,2,0,P|61:125|65:150,1,52.5000020027161,8|0,0:0|0:0,0:0:0:0:
111,263,113318,1,0,1:0:0:0:
216,124,113460,1,0,1:0:0:0:
192,310,113603,2,0,P|216:320|241:324,1,52.5000020027161,8|0,0:0|1:0,0:0:0:0:
428,104,113889,6,0,L|436:229,1,105.000004005432,4|8,1:3|0:0,0:0:0:0:
336,368,114318,1,0,0:0:0:0:
336,368,114460,2,0,L|344:243,1,105.000004005432,0|8,1:0|0:0,0:0:0:0:
219,222,114889,6,0,L|180:233,1,26.2500010013581,0|0,1:0|1:0,0:0:0:0:
71,356,115032,1,0,1:0:0:0:
68,332,115103,1,0,1:0:0:0:
66,308,115175,1,0,1:0:0:0:
64,285,115246,1,0,1:0:0:0:
61,261,115318,1,0,1:0:0:0:
73,241,115389,1,0,1:0:0:0:
80,218,115460,1,0,1:0:0:0:
80,195,115532,1,0,1:0:0:0:
73,172,115603,5,0,1:0:0:0:
61,152,115675,1,0,1:0:0:0:
30,146,115746,1,0,1:0:0:0:
12,127,115818,1,0,1:0:0:0:
8,101,115889,1,0,1:0:0:0:
20,78,115960,1,0,1:0:0:0:
43,66,116032,1,0,1:0:0:0:
57,47,116103,1,0,1:0:0:0:
62,22,116177,6,0,L|131:9,1,70,12|0,0:3|1:0,0:0:0:0:
258,92,116481,1,8,0:0:0:0:
258,92,116633,2,0,L|170:77,1,70,0|8,1:0|0:0,0:0:0:0:
339,34,116938,1,0,1:0:0:0:
347,49,117014,1,0,0:0:0:0:
354,65,117090,1,8,0:0:0:0:
357,82,117166,1,0,0:0:0:0:
357,100,117242,1,0,1:0:0:0:
354,117,117319,1,0,0:0:0:0:
348,133,117395,6,0,L|363:221,1,70,12|0,0:3|1:0,0:0:0:0:
277,338,117699,1,8,0:0:0:0:
277,338,117852,2,0,L|288:268,1,70,0|8,1:0|0:0,0:0:0:0:
228,161,118156,1,0,1:0:0:0:
212,152,118232,1,0,0:0:0:0:
196,145,118308,1,8,0:0:0:0:
179,142,118385,1,0,0:0:0:0:
161,142,118461,1,0,1:0:0:0:
144,145,118537,1,0,0:0:0:0:
129,152,118613,6,0,L|41:137,1,70,12|0,0:3|1:0,0:0:0:0:
157,323,118918,1,8,0:0:0:0:
157,323,119070,2,0,L|168:253,1,70,0|8,1:0|0:0,0:0:0:0:
224,105,119374,1,0,1:0:0:0:
240,96,119451,1,0,0:0:0:0:
256,89,119527,1,8,0:0:0:0:
273,86,119603,1,0,0:0:0:0:
291,86,119679,1,0,1:0:0:0:
308,89,119755,1,0,0:0:0:0:
323,96,119831,5,12,0:0:0:0:
285,245,119984,1,0,1:0:0:0:
450,101,120136,5,8,0:0:0:0:
485,247,120289,1,0,1:0:0:0:
389,36,120440,5,8,0:0:0:0:
380,294,120593,1,0,1:0:0:0:
196,170,120745,5,8,0:0:0:0:
512,168,120898,1,0,1:0:0:0:
204,26,121050,6,0,L|116:11,1,70,12|0,0:3|1:0,0:0:0:0:
7,189,121354,1,8,0:0:0:0:
7,189,121506,2,0,L|22:277,1,70,0|8,1:0|0:0,0:0:0:0:
210,241,121811,1,0,1:0:0:0:
213,217,121887,1,0,0:0:0:0:
217,194,121963,1,8,0:0:0:0:
221,171,122039,1,0,0:0:0:0:
225,148,122116,1,0,1:0:0:0:
229,125,122192,1,0,0:0:0:0:
233,102,122268,6,0,P|296:81|319:80,1,70,12|0,0:3|1:0,0:0:0:0:
395,200,122572,1,8,0:0:0:0:
395,200,122725,2,0,P|331:179|308:177,1,70,0|8,1:0|0:0,0:0:0:0:
210,241,123029,1,0,1:0:0:0:
187,237,123105,1,0,0:0:0:0:
164,233,123182,1,8,0:0:0:0:
141,229,123258,1,0,0:0:0:0:
118,225,123334,1,0,1:0:0:0:
95,222,123410,1,0,0:0:0:0:
71,218,123486,6,0,P|50:155|49:132,1,70,12|0,0:3|1:0,0:0:0:0:
166,29,123791,1,8,0:0:0:0:
166,29,123943,2,0,P|158:63|144:95,1,70,0|8,1:0|0:0,0:0:0:0:
210,241,124248,1,0,1:0:0:0:
233,237,124324,1,0,0:0:0:0:
256,233,124400,1,8,0:0:0:0:
279,229,124476,1,0,0:0:0:0:
302,225,124552,1,0,1:0:0:0:
325,222,124628,1,0,0:0:0:0:
349,218,124704,6,0,P|370:155|371:132,1,70,4|0,0:3|1:0,0:0:0:0:
334,60,125009,1,0,1:3:0:0:
247,107,125161,1,0,1:0:0:0:
247,107,125237,1,0,0:0:0:0:
247,107,125314,1,0,1:0:0:0:
416,84,125466,1,0,1:0:0:0:
167,17,125618,2,0,L|82:29,1,70,8|0,0:0|1:0,0:0:0:0:
12,141,125923,6,0,L|100:156,1,70,12|0,0:3|1:0,0:0:0:0:
247,107,126227,1,8,0:0:0:0:
247,107,126380,2,0,L|159:92,1,70,0|8,1:0|0:0,0:0:0:0:
329,49,126684,1,0,1:0:0:0:
337,64,126760,1,0,0:0:0:0:
344,80,126836,1,8,0:0:0:0:
347,97,126913,1,0,0:0:0:0:
347,115,126989,1,0,1:0:0:0:
344,132,127065,1,0,0:0:0:0:
338,148,127141,6,0,L|353:236,1,70,12|0,0:3|1:0,0:0:0:0:
445,302,127446,1,8,0:0:0:0:
445,302,127598,2,0,L|456:232,1,70,0|8,1:0|0:0,0:0:0:0:
265,296,127902,1,0,1:0:0:0:
249,305,127979,1,0,0:0:0:0:
233,312,128055,1,8,0:0:0:0:
216,315,128131,1,0,0:0:0:0:
198,315,128207,1,0,1:0:0:0:
181,312,128283,1,0,0:0:0:0:
166,305,128359,6,0,L|78:320,1,70,12|0,0:3|1:0,0:0:0:0:
5,193,128664,1,8,0:0:0:0:
5,193,128816,2,0,L|75:204,1,70,0|8,1:0|0:0,0:0:0:0:
265,296,129121,1,0,1:0:0:0:
274,280,129197,1,0,0:0:0:0:
281,264,129273,1,8,0:0:0:0:
284,247,129349,1,0,0:0:0:0:
284,229,129425,1,0,1:0:0:0:
281,212,129501,1,0,0:0:0:0:
274,197,129577,5,12,0:0:0:0:
431,215,129730,1,0,1:0:0:0:
377,97,129882,5,8,0:0:0:0:
341,312,130035,1,0,1:0:0:0:
141,94,130187,5,8,0:0:0:0:
177,309,130340,1,0,1:0:0:0:
456,134,130491,5,8,0:0:0:0:
171,317,130644,1,0,1:0:0:0:
486,343,130796,6,8,L|501:255,1,70,12|0,0:3|1:0,0:0:0:0:
421,49,131100,1,8,0:0:0:0:
421,49,131253,2,0,L|406:137,1,70,0|8,1:0|0:0,0:0:0:0:
274,197,131557,1,0,1:0:0:0:
250,194,131633,1,0,0:0:0:0:
227,190,131709,1,8,0:0:0:0:
204,186,131786,1,0,0:0:0:0:
181,182,131862,1,0,1:0:0:0:
158,178,131938,1,0,0:0:0:0:
135,174,132014,6,0,P|114:111|113:88,1,70,12|0,0:3|1:0,0:0:0:0:
256,20,132319,1,8,0:0:0:0:
256,20,132471,2,0,P|211:70|192:83,1,70,0|8,1:0|0:0,0:0:0:0:
16,88,132775,1,0,1:0:0:0:
20,111,132852,1,0,0:0:0:0:
24,134,132928,1,8,0:0:0:0:
28,157,133004,1,0,0:0:0:0:
32,180,133080,1,0,1:0:0:0:
35,203,133156,1,0,0:0:0:0:
39,227,133232,6,0,P|102:248|125:249,1,70,12|0,0:3|1:0,0:0:0:0:
225,362,133537,1,8,0:0:0:0:
225,362,133689,2,0,P|217:328|203:296,1,70,0|8,1:0|0:0,0:0:0:0:
197,183,133994,1,0,1:0:0:0:
220,179,134070,1,0,0:0:0:0:
243,175,134146,1,8,0:0:0:0:
266,171,134222,1,0,0:0:0:0:
289,167,134298,1,0,1:0:0:0:
312,164,134374,1,0,0:0:0:0:
336,160,134451,6,0,P|357:97|358:74,1,70,4|0,1:3|0:0,0:0:0:0:
220,18,134755,2,0,P|227:52|241:84,1,70,4|0,1:3|0:0,0:0:0:0:
456,113,135060,1,8,1:0:0:0:
446,137,135136,1,0,1:0:0:0:
443,163,135212,1,0,1:0:0:0:
448,189,135288,1,0,1:0:0:0:
461,212,135364,1,8,1:0:0:0:
466,238,135440,1,0,1:0:0:0:
463,264,135517,1,0,1:0:0:0:
452,288,135593,1,0,1:0:0:0:
438,305,135673,5,0,1:0:0:0:
379,364,135830,1,0,1:0:0:0:
321,266,135988,1,0,1:0:0:0:
255,370,136146,1,0,1:0:0:0:
189,216,136304,2,0,L|84:202,1,105,12|0,0:0|0:0,0:0:0:0:
9,312,136936,5,0,1:0:0:0:
16,296,137015,1,0,1:0:0:0:
20,279,137094,1,0,1:0:0:0:
21,261,137173,1,0,1:0:0:0:
13,243,137251,1,0,1:0:0:0:
5,227,137330,1,0,1:0:0:0:
1,210,137409,1,0,1:0:0:0:
0,192,137488,1,0,1:0:0:0:
2,175,137567,1,4,0:3:0:0:
11,87,138199,6,0,L|66:72,1,35,0|0,1:0|0:0,0:0:0:0:
128,0,138515,2,0,L|113:55,1,35,0|0,0:0|0:0,0:0:0:0:
144,144,138830,2,0,L|103:103,1,35,8|0,0:0|0:0,0:0:0:0:
244,137,139146,1,0,0:0:0:0:
244,137,139304,1,0,0:0:0:0:
244,137,139462,6,0,L|231:233,1,70,4|0,1:3|0:0,0:0:0:0:
305,294,139936,1,0,0:0:0:0:
305,294,140015,1,0,0:0:0:0:
305,294,140094,2,0,P|302:330|313:291,1,122.5,12|0,0:3|0:0,0:0:0:0:
305,294,140725,2,0,P|259:290|216:280,1,70,4|0,1:3|0:0,0:0:0:0:
390,166,141357,6,0,P|414:183|424:187,1,35,8|0,0:0|0:0,0:0:0:0:
503,142,141673,2,0,P|505:113|504:103,1,35,0|0,0:0|0:0,0:0:0:0:
425,57,141988,2,0,P|398:70|389:76,1,35,4|0,1:3|0:0,0:0:0:0:
390,166,142304,2,0,P|414:183|424:187,1,35,0|0,0:0|0:0,0:0:0:0:
294,170,142620,1,8,0:0:0:0:
294,170,142778,2,0,L|285:114,1,35,0|0,0:0|0:0,0:0:0:0:
204,48,143094,5,0,1:0:0:0:
204,48,143173,1,0,0:0:0:0:
204,48,143251,1,12,0:3:0:0:
218,282,143567,5,0,1:0:0:0:
311,85,143725,1,12,0:3:0:0:
409,306,144041,5,0,1:0:0:0:
183,153,144199,1,12,0:3:0:0:
461,137,144515,5,0,1:0:0:0:
218,282,144673,1,12,0:3:0:0:
204,48,144988,5,0,1:0:0:0:
409,306,145146,2,0,L|468:297,1,35,12|0,0:3|0:0,0:0:0:0:
461,137,145462,1,8,0:0:0:0:
324,358,145620,1,8,0:0:0:0:
218,282,145778,5,0,1:0:0:0:
173,345,145936,1,0,1:0:0:0:
127,264,146094,1,0,1:0:0:0:
84,369,146251,1,0,1:0:0:0:
15,221,146409,2,0,L|-5:87,1,105,12|0,0:0|0:0,0:0:0:0:
76,114,147041,6,0,P|109:124|123:126,2,35,4|0|0,1:3|1:0|1:0,1:0:0:0:
183,196,147515,1,0,1:0:0:0:
183,196,147673,2,0,P|224:181|243:180,1,35,8|0,0:0|0:0,0:0:0:0:
266,48,147988,1,0,0:0:0:0:
266,48,148146,6,0,L|277:120,1,70
349,162,148620,2,0,P|366:156|382:148,2,35,0|0|8,0:0|0:0|0:0,0:0:0:0:
292,232,149094,2,0,P|290:249|288:266,1,35,0|0,0:0|0:0,0:0:0:0:
408,346,149409,1,0,0:0:0:0:
408,346,149567,6,0,L|335:335,1,70,4|8,1:3|0:0,0:0:0:0:
292,232,150041,1,8,0:0:0:0:
159,346,150199,2,0,L|148:276,1,70,4|0,1:3|0:0,1:0:0:0:
214,161,150673,1,0,1:0:0:0:
62,246,150830,2,0,L|72:315,1,70,4|0,1:3|0:0,0:0:0:0:
390,194,151462,6,0,P|407:170|411:160,1,35,8|0,0:0|0:0,0:0:0:0:
366,81,151778,2,0,P|337:79|327:80,1,35,0|0,0:0|0:0,0:0:0:0:
281,159,152094,2,0,P|294:186|300:195,1,35,4|0,1:3|0:0,0:0:0:0:
390,194,152409,2,0,P|407:170|411:160,1,35
394,290,152725,1,8,0:3:0:0:
394,290,152883,2,0,L|338:299,1,35,0|0,0:0|0:0,0:0:0:0:
218,301,153199,5,0,1:0:0:0:
390,194,153357,1,12,0:3:0:0:
362,372,153673,5,0,1:0:0:0:
281,159,153830,1,12,0:3:0:0:
459,301,154146,5,0,1:0:0:0:
177,195,154304,1,12,0:3:0:0:
229,358,154620,5,0,1:0:0:0:
416,72,154778,1,12,0:3:0:0:
459,301,155094,5,0,1:0:0:0:
315,153,155251,2,0,L|256:162,1,35,12|0,0:3|0:0,0:0:0:0:
197,74,155567,2,0,L|256:83,1,35,12|0,0:3|0:0,0:0:0:0:
123,238,155883,6,0,B|143:199|137:165|113:136|113:136|122:108|122:108|105:93|101:74|101:74|118:56|122:36,1,224,4|0,1:3|1:0,1:0:0:0:
395,328,158025,6,0,B|373:310|362:271|362:271|334:294|293:307,1,140,4|0,1:3|1:0,1:0:0:0:
176,281,158454,2,0,L|161:370,1,70,0|0,1:0|0:0,0:0:0:0:
254,227,158740,1,8,0:0:0:0:
149,294,158883,2,0,L|134:383,1,70
76,201,159168,6,0,L|102:45,1,140,0|0,0:0|0:0,0:0:0:0:
154,0,159597,1,0,1:0:0:0:
193,131,159740,1,0,1:0:0:0:
304,42,159883,1,8,0:0:0:0:
185,148,160025,1,0,1:0:0:0:
254,227,160168,1,0,1:0:0:0:
76,201,160310,6,0,L|91:352,1,140,4|0,1:3|1:0,1:0:0:0:
241,304,160739,2,0,P|260:256|260:229,1,70,0|0,1:0|0:0,0:0:0:0:
179,384,161024,1,8,0:0:0:0:
257,308,161167,2,0,P|276:260|276:233,1,70,0|0,0:0|0:0,0:0:0:0:
337,163,161453,5,0,0:0:0:0:
396,256,161596,2,0,P|429:245|434:243,4,35
353,348,162024,1,0,0:0:0:0:
512,244,162167,1,8,0:0:0:0:
337,163,162310,1,0,1:0:0:0:
462,121,162453,1,0,1:0:0:0:
256,239,162596,6,0,B|234:221|223:182|223:182|195:205|154:218,1,140,4|0,1:3|1:0,1:0:0:0:
175,355,163025,2,0,L|198:270,1,70,0|0,1:0|0:0,0:0:0:0:
58,360,163310,1,8,0:0:0:0:
187,352,163453,2,0,L|210:267,1,70,0|0,0:0|0:0,0:0:0:0:
54,147,163739,6,0,P|121:151|172:85,1,140,0|0,0:0|0:0,0:0:0:0:
218,16,164167,1,0,1:0:0:0:
276,144,164310,1,0,1:0:0:0:
89,70,164453,1,8,0:0:0:0:
213,32,164596,1,0,1:0:0:0:
141,204,164739,1,0,1:0:0:0:
325,43,164882,6,0,L|406:27,1,70,4|0,1:3|0:0,0:0:0:0:
495,145,165167,1,0,1:0:0:0:
495,145,165310,2,0,L|414:129,1,70,0|0,1:0|0:0,0:0:0:0:
354,255,165596,2,0,P|342:204|322:178,2,70,8|0|0,0:0|0:0|0:0,0:0:0:0:
435,354,166024,6,0,P|467:275|539:250,1,140
495,145,166453,2,0,L|414:129,1,70,0|0,0:0|0:0,0:0:0:0:
333,190,166739,1,8,0:0:0:0:
264,84,166882,1,0,1:0:0:0:
288,269,167024,1,0,1:0:0:0:
279,64,167167,6,0,L|140:40,1,140,4|0,1:3|1:0,1:0:0:0:
54,120,167596,2,0,P|35:168|35:195,1,70,0|0,1:0|0:0,0:0:0:0:
116,40,167882,1,8,0:0:0:0:
38,116,168025,2,0,P|19:164|19:191,1,70
77,287,168310,6,0,L|233:261,1,140
284,336,168739,1,0,1:0:0:0:
321,190,168882,1,0,1:0:0:0:
438,298,169024,1,8,0:0:0:0:
313,173,169167,1,0,1:0:0:0:
391,97,169310,1,0,1:0:0:0:
239,89,169453,6,0,L|88:104,1,140,4|0,1:3|1:0,1:0:0:0:
123,225,169882,2,0,P|115:276|101:299,1,70,0|0,1:0|0:0,0:0:0:0:
13,186,170167,1,8,0:0:0:0:
138,229,170310,2,0,P|130:280|116:303,1,70,0|0,0:0|0:0,0:0:0:0:
13,352,170596,5,0,0:0:0:0:
201,338,170739,2,0,P|217:343|234:349,4,35
138,229,171167,1,0,0:0:0:0:
109,384,171310,1,8,0:0:0:0:
138,243,171453,1,0,1:0:0:0:
28,296,171596,1,0,1:0:0:0:
86,176,171739,6,0,B|110:162|128:125|128:125|151:153|190:173,1,140,4|0,1:3|1:0,1:0:0:0:
140,307,172167,2,0,L|124:220,1,70,0|0,1:0|0:0,0:0:0:0:
18,382,172453,1,8,0:0:0:0:
150,298,172596,2,0,L|134:211,1,70
2,152,172882,6,0,P|69:156|120:90,1,140,0|0,0:0|0:0,0:0:0:0:
145,8,173310,1,0,1:0:0:0:
202,134,173453,1,0,1:0:0:0:
37,75,173596,1,8,0:0:0:0:
140,24,173739,1,0,1:0:0:0:
89,209,173882,1,0,1:0:0:0:
191,237,174025,6,0,L|259:223,1,70,4|0,1:3|0:0,0:0:0:0:
139,319,174310,1,0,1:0:0:0:
139,319,174453,2,0,L|58:303,1,70,0|0,1:0|0:0,0:0:0:0:
15,183,174739,2,0,P|13:217|0:250,2,70,8|0|0,0:0|0:0|0:0,0:0:0:0:
0,78,175167,6,0,P|84:89|142:39,1,140
241,8,175596,2,0,L|257:89,1,70,0|0,0:0|0:0,0:0:0:0:
199,185,175882,1,8,0:0:0:0:
127,61,176024,1,0,1:0:0:0:
195,203,176167,1,0,1:0:0:0:
333,84,176310,6,0,B|353:-6|479:-4|500:92|477:146|400:169|400:169|402:192|420:209|420:209|370:199|302:238|341:382|467:336|465:254,1,630,2|0,1:2|1:0,0:0:0:0:
284,301,177692,6,0,P|261:299|239:293,1,46.6666666666667,2|0,1:2|0:0,0:0:0:0:
212,223,177883,2,0,P|189:225|167:232,1,46.6666666666667,2|0,1:2|0:0,0:0:0:0:
140,301,178073,2,0,P|117:299|95:293,1,46.6666666666667,2|8,1:2|0:0,0:0:0:0:
48,232,178263,6,0,L|23:162,1,46.6666666666667,2|0,1:2|1:0,1:0:0:0:
118,101,178453,2,0,L|102:144,1,46.6666666666667,2|0,1:2|1:0,1:0:0:0:
219,125,178644,1,2,1:2:0:0:
219,125,178740,6,0,L|205:89,3,35,0|0|0|0,1:0|0:0|1:0|0:0,0:0:0:0:
290,170,179025,2,0,L|304:134,3,35,0|0|0|0,1:0|0:0|0:0|0:0,0:0:0:0:
389,114,179311,2,0,L|375:78,3,35,8|0|0|0,0:0|0:0|0:0|0:0,0:0:0:0:
465,158,179597,2,0,L|479:122,3,35,0|0|0|0,0:0|0:0|0:0|0:0,0:0:0:0:
416,234,179883,5,0,1:0:0:0:
409,245,179954,1,0,0:0:0:0:
404,257,180025,1,0,0:0:0:0:
402,270,180097,1,0,0:0:0:0:
402,283,180168,1,0,1:0:0:0:
404,296,180240,1,0,0:0:0:0:
408,309,180311,1,0,0:0:0:0:
414,320,180383,1,0,0:0:0:0:
422,331,180454,5,8,0:0:0:0:
403,319,180525,1,0,0:0:0:0:
382,313,180597,1,0,1:0:0:0:
360,310,180668,1,0,0:0:0:0:
339,313,180740,1,0,1:0:0:0:
318,321,180811,1,0,0:0:0:0:
300,332,180883,1,0,1:0:0:0:
284,348,180954,1,0,0:0:0:0:
273,366,181025,6,0,L|179:348,1,70,0|0,1:0|1:0,1:0:0:0:
86,192,181311,1,0,1:0:0:0:
74,321,181454,1,0,0:0:0:0:
221,220,181597,2,0,L|289:233,1,70,8|0,0:0|0:0,0:0:0:0:
383,135,181883,2,0,L|314:148,1,70,0|0,1:0|0:0,0:0:0:0:
153,277,182168,6,0,B|133:367|7:365|-14:269|9:215|86:192|86:192|59:162|59:162|90:138|90:138|32:125|25:52,1,490,0|0,1:0|0:0,0:0:0:0:
161,25,183311,5,0,1:0:0:0:
182,39,183383,1,0,0:0:0:0:
208,45,183454,1,0,1:0:0:0:
234,41,183525,1,0,0:0:0:0:
257,29,183597,2,0,P|287:24|307:26,3,35,0|0|0|0,1:0|0:0|0:0|0:0,0:0:0:0:
306,101,183883,1,8,0:0:0:0:
292,122,183954,1,0,0:0:0:0:
286,148,184025,1,0,0:0:0:0:
290,174,184097,1,0,0:0:0:0:
302,197,184168,6,0,P|307:227|305:247,3,35,0|0|0|0,1:0|0:0|0:0|0:0,0:0:0:0:
249,282,184454,2,0,P|244:312|246:332,3,35,0|0|0|0,1:0|0:0|0:0|0:0,0:0:0:0:
177,361,184740,1,0,1:0:0:0:
134,359,184811,1,0,0:0:0:0:
101,331,184883,1,0,1:0:0:0:
93,289,184954,1,0,0:0:0:0:
113,251,185025,5,8,0:0:0:0:
205,191,185168,1,0,1:0:0:0:
73,147,185311,1,0,1:0:0:0:
178,68,185454,2,0,P|210:57|237:33,1,70,0|0,1:0|0:0,0:0:0:0:
350,137,185740,1,0,1:0:0:0:
350,137,185883,2,0,P|318:122|283:120,1,70,0|0,1:0|1:0,0:0:0:0:
73,147,186168,2,0,P|11:157|74:92,1,210,8|0,0:0|0:0,0:0:0:0:
125,220,186740,6,0,P|113:319|114:331,1,70
296,189,187025,2,0,P|292:154|283:120,1,70,0|0,1:0|1:0,1:0:0:0:
73,147,187311,1,8,0:0:0:0:
243,32,187454,1,0,1:0:0:0:
114,29,187597,1,0,1:0:0:0:
283,120,187740,6,0,L|351:134,2,70,0|0|0,1:0|0:0|1:0,0:0:0:0:
180,184,188168,1,0,1:0:0:0:
188,98,188311,1,0,0:0:0:0:
282,224,188454,2,0,P|294:323|293:335,1,70,8|0,0:0|0:0,0:0:0:0:
180,184,188740,1,0,0:0:0:0:
352,134,188883,6,0,P|448:84|344:56,1,280
282,224,189597,1,8,0:0:0:0:
237,81,189740,1,0,1:0:0:0:
118,169,189883,2,0,L|109:223,1,35,0|0,1:0|0:0,0:0:0:0:
154,304,190025,5,0,1:0:0:0:
182,306,190097,1,0,0:0:0:0:
211,300,190168,1,0,0:0:0:0:
236,285,190240,1,0,0:0:0:0:
264,278,190311,1,0,1:0:0:0:
277,252,190383,1,0,0:0:0:0:
282,224,190454,5,0,1:0:0:0:
308,234,190525,1,0,0:0:0:0:
337,235,190597,1,0,0:0:0:0:
365,227,190668,1,0,0:0:0:0:
389,214,190740,2,0,P|440:210|448:211,3,35,8|0|0|0,0:0|0:0|0:0|0:0,0:0:0:0:
324,134,191025,5,0,0:0:0:0:
321,116,191097,1,0,0:0:0:0:
318,99,191168,1,0,0:0:0:0:
315,82,191240,1,0,0:0:0:0:
312,64,191311,5,0,0:0:0:0:
299,89,191383,1,0,0:0:0:0:
280,108,191454,1,0,0:0:0:0:
255,120,191525,1,0,0:0:0:0:
233,112,191597,1,0,1:0:0:0:
206,106,191668,1,0,0:0:0:0:
195,86,191740,1,0,1:0:0:0:
178,64,191811,1,0,0:0:0:0:
154,55,191883,5,8,0:0:0:0:
133,36,191954,1,0,0:0:0:0:
107,26,192025,1,0,1:0:0:0:
79,25,192097,1,0,0:0:0:0:
52,33,192168,1,0,1:0:0:0:
30,50,192240,1,0,0:0:0:0:
14,73,192311,1,4,1:3:0:0:
8,99,192383,1,0,0:0:0:0:
10,127,192454,6,0,P|19:174|18:182,3,35,0|0|0|0,0:0|0:0|1:0|0:0,0:0:0:0:
92,220,192740,2,0,P|94:202|101:186,3,35,8|0|0|0,0:0|0:0|1:0|0:0,0:0:0:0:
173,143,193025,2,0,P|170:125|163:109,3,35,8|0|0|0,0:0|0:0|1:0|0:0,0:0:0:0:
245,212,193310,5,8,0:0:0:0:
348,95,193453,1,8,0:0:0:0:
346,245,193597,5,8,0:0:0:0:
260,76,193739,1,8,0:0:0:0:
273,295,193882,5,8,0:0:0:0:
422,147,194025,1,8,0:0:0:0:
245,212,194168,6,0,L|210:218,1,35,8|0,0:0|0:0,0:0:0:0:
260,76,194310,2,0,L|328:89,1,70,0|0,1:0|0:0,0:0:0:0:
83,93,194596,6,0,P|116:23|141:73,1,140,0|0,1:0|1:0,1:0:0:0:
21,193,195025,2,0,P|30:226|34:261,1,70,8|0,0:0|0:0,0:0:0:0:
18,360,195311,1,0,1:0:0:0:
117,230,195454,1,0,1:0:0:0:
223,334,195597,5,8,0:0:0:0:
223,334,195668,1,0,0:0:0:0:
223,334,195740,1,0,1:0:0:0:
221,217,195883,1,0,1:0:0:0:
221,217,195954,1,0,0:0:0:0:
221,217,196025,1,0,1:0:0:0:
339,248,196168,1,8,0:0:0:0:
339,248,196240,1,0,0:0:0:0:
339,248,196311,1,0,1:0:0:0:
430,107,196454,6,0,P|455:103|470:103,3,35,0|0|0|0,1:0|0:0|1:0|0:0,0:0:0:0:
354,43,196740,2,0,P|329:47|314:47,3,35,8|0|0|0,0:0|0:0|1:0|0:0,0:0:0:0:
242,94,197025,5,0,0:0:0:0:
222,120,197097,1,0,0:0:0:0:
191,133,197168,1,0,1:0:0:0:
158,130,197240,1,0,0:0:0:0:
132,110,197311,1,8,0:0:0:0:
119,79,197383,1,0,0:0:0:0:
124,46,197454,5,0,0:0:0:0:
157,48,197525,1,0,0:0:0:0:
183,68,197597,1,0,1:0:0:0:
198,105,197668,1,0,0:0:0:0:
192,132,197740,1,0,1:0:0:0:
172,158,197811,1,0,0:0:0:0:
141,171,197883,5,8,0:0:0:0:
138,191,197954,1,0,0:0:0:0:
136,213,198025,1,0,1:0:0:0:
134,235,198097,1,0,0:0:0:0:
130,257,198168,1,0,0:0:0:0:
128,279,198240,1,0,0:0:0:0:
125,301,198311,5,0,1:0:0:0:
144,328,198383,1,0,0:0:0:0:
174,341,198454,1,8,0:0:0:0:
207,338,198525,1,0,0:0:0:0:
234,318,198597,1,0,1:0:0:0:
246,287,198668,1,0,0:0:0:0:
243,254,198740,6,0,P|256:214|260:204,1,35,0|0,1:0|0:0,0:0:0:0:
370,191,198883,2,0,P|358:155|354:146,1,35,0|0,1:0|0:0,0:0:0:0:
191,133,199025,2,0,P|203:97|207:88,1,35,8|0,0:0|0:0,0:0:0:0:
310,70,199168,2,0,P|298:34|294:25,1,35,4|0,1:3|0:0,0:0:0:0:
52,9,199311,5,0,0:0:0:0:
46,36,199383,1,0,0:0:0:0:
41,65,199454,1,0,1:0:0:0:
35,93,199525,1,0,0:0:0:0:
50,122,199597,5,8,0:0:0:0:
45,149,199668,1,0,0:0:0:0:
39,178,199740,1,0,0:0:0:0:
34,207,199811,1,0,0:0:0:0:
28,235,199883,1,0,1:0:0:0:
35,271,199954,1,0,0:0:0:0:
61,299,200025,5,0,1:0:0:0:
99,310,200097,1,0,0:0:0:0:
135,300,200168,1,8,0:0:0:0:
144,264,200240,1,0,0:0:0:0:
171,237,200311,1,0,1:0:0:0:
209,229,200383,1,0,0:0:0:0:
245,241,200454,6,0,P|287:246|295:246,3,35,0|0|0|0,1:0|0:0|1:0|0:0,0:0:0:0:
362,281,200740,2,0,P|338:312|334:318,3,35,8|0|0|0,0:0|0:0|1:0|0:0,0:0:0:0:
442,240,201025,6,0,L|459:190,1,35,0|0,1:0|0:0,0:0:0:0:
361,168,201168,2,0,L|344:118,1,35,0|0,1:0|0:0,0:0:0:0:
498,140,201311,2,0,L|515:90,1,35,8|0,0:0|0:0,0:0:0:0:
417,68,201454,2,0,L|400:18,1,35,0|0,1:0|0:0,0:0:0:0:
246,100,201597,5,0,1:0:0:0:
221,131,201668,1,0,0:0:0:0:
185,148,201740,1,0,1:0:0:0:
145,143,201811,1,0,0:0:0:0:
114,119,201883,1,8,0:0:0:0:
99,82,201954,1,0,0:0:0:0:
104,42,202025,5,0,1:0:0:0:
143,44,202097,1,0,0:0:0:0:
175,69,202168,1,0,1:0:0:0:
192,113,202240,1,0,0:0:0:0:
185,148,202311,1,0,0:0:0:0:
162,176,202383,1,0,0:0:0:0:
128,197,202454,5,8,0:0:0:0:
112,235,202525,1,0,0:0:0:0:
120,281,202597,1,0,1:0:0:0:
142,306,202668,1,0,0:0:0:0:
178,322,202740,5,0,0:0:0:0:
197,323,202811,1,0,0:0:0:0:
214,324,202883,1,0,1:0:0:0:
232,325,202954,1,0,0:0:0:0:
253,313,203025,5,8,0:0:0:0:
270,313,203097,1,0,0:0:0:0:
287,314,203168,1,0,0:0:0:0:
304,315,203240,1,0,0:0:0:0:
332,304,203311,5,8,0:0:0:0:
383,307,203383,1,0,0:0:0:0:
430,285,203454,1,12,0:3:0:0:
461,243,203525,1,0,0:0:0:0:
467,191,203596,1,12,0:3:0:0:
447,143,203667,1,0,0:0:0:0:
407,111,203739,6,0,L|349:120,1,35,12|0,0:0|0:0,0:0:0:0:
317,50,203883,2,0,L|217:37,1,70,0|0,1:0|1:0,0:0:0:0:
101,49,204168,5,8,0:0:0:0:
116,69,204240,1,0,0:0:0:0:
122,95,204311,1,0,0:0:0:0:
116,120,204383,1,0,0:0:0:0:
100,141,204454,2,0,P|87:178|85:189,3,35,0|0|0|0,1:0|0:0|1:0|0:0,0:0:0:0:
138,232,204740,2,0,P|151:269|153:280,3,35,8|0|0|0,0:0|0:0|1:0|0:0,0:0:0:0:
112,349,205025,5,0,1:0:0:0:
133,349,205097,1,0,0:0:0:0:
155,350,205168,1,0,1:0:0:0:
177,351,205240,1,0,0:0:0:0:
198,338,205311,1,8,0:0:0:0:
220,339,205383,1,0,0:0:0:0:
242,340,205454,1,0,1:0:0:0:
263,341,205525,1,0,0:0:0:0:
286,343,205597,6,0,P|306:316|318:294,1,35,0|0,1:0|0:0,0:0:0:0:
402,209,205740,1,0,1:0:0:0:
267,213,205883,1,8,0:0:0:0:
486,346,206025,6,0,L|503:200,1,140,4|0,1:3|0:0,1:0:0:0:
330,95,206454,1,8,0:0:0:0:
267,213,206597,1,0,0:0:0:0:
319,80,206740,1,0,1:0:0:0:
402,209,206883,1,0,1:0:0:0:
228,121,207025,6,0,P|193:129|188:131,2,35,8|0|0,0:0|0:0|1:0,0:0:0:0:
425,85,207310,1,0,1:0:0:0:
425,85,207383,1,0,0:0:0:0:
425,85,207454,1,0,1:0:0:0:
402,209,207597,1,8,0:0:0:0:
402,209,207668,1,0,0:0:0:0:
402,209,207740,1,0,1:0:0:0:
498,156,207883,1,0,1:0:0:0:
319,80,208025,1,0,1:0:0:0:
512,150,208168,1,8,0:0:0:0:
267,213,208311,6,0,B|202:243|202:243|133:197,1,140,4|0,1:3|1:0,1:0:0:0:
223,37,208740,2,0,L|218:107,1,70,8|0,0:0|0:0,0:0:0:0:
76,114,209025,1,0,1:0:0:0:
293,139,209168,1,0,1:0:0:0:
83,310,209311,6,0,P|91:345|93:350,2,35,8|0|0,0:0|0:0|1:0,0:0:0:0:
76,114,209597,1,0,1:0:0:0:
76,114,209668,1,0,0:0:0:0:
76,114,209740,1,0,1:0:0:0:
213,229,209883,1,8,0:0:0:0:
213,229,209954,1,0,0:0:0:0:
213,229,210025,1,0,1:0:0:0:
33,195,210168,5,0,1:0:0:0:
83,310,210311,1,0,1:0:0:0:
171,130,210454,1,8,0:0:0:0:
182,322,210597,1,0,1:0:0:0:
33,195,210740,6,0,P|21:175|13:147,5,35,4|0|0|0|0|0,1:3|0:0|0:0|0:0|0:0|0:0,0:0:0:0:
76,114,211168,2,0,P|88:94|96:66,5,35,4|0|0|0|0|0,1:3|0:0|0:0|0:0|0:0|0:0,0:0:0:0:
173,26,211597,6,0,P|193:38|221:46,5,35,4|0|0|0|0|0,1:3|0:0|0:0|0:0|0:0|0:0,0:0:0:0:
264,88,212025,2,0,P|284:76|312:68,5,35,4|0|0|0|0|0,1:3|0:0|0:0|0:0|0:0|0:0,0:0:0:0:
395,155,212454,6,0,P|439:138|448:130,1,35,4|0,1:3|0:0,0:0:0:0:
355,267,212597,2,0,P|399:284|408:292,1,35,4|0,1:3|0:0,0:0:0:0:
248,174,212740,2,0,P|292:157|301:149,1,35,4|0,1:3|0:0,0:0:0:0:
198,312,212883,2,0,P|216:316|232:323,1,35,4|0,1:3|0:0,0:0:0:0:
126,215,213025,5,0,3:0:0:0:
77,219,213097,1,0,3:0:0:0:
32,202,213168,1,0,3:0:0:0:
4,166,213240,1,0,3:0:0:0:
0,118,213311,1,8,3:0:0:0:
21,75,213383,1,0,3:0:0:0:
63,51,213454,1,0,3:0:0:0:
108,52,213525,1,0,3:0:0:0:
149,77,213597,1,0,3:0:0:0:
184,108,213668,1,0,3:0:0:0:
231,113,213740,1,0,3:0:0:0:
275,97,213811,1,0,3:0:0:0:
299,65,213883,5,8,3:0:0:0:
316,110,213954,1,0,3:0:0:0:
295,155,214025,1,0,3:0:0:0:
285,199,214097,1,0,3:0:0:0:
271,243,214168,1,0,3:0:0:0:
274,287,214240,1,0,3:0:0:0:
265,331,214311,1,0,3:0:0:0:
303,359,214383,1,0,3:0:0:0:
348,364,214454,1,8,3:0:0:0:
387,342,214525,1,0,3:0:0:0:
410,304,214597,1,0,3:0:0:0:
410,260,214668,1,0,3:0:0:0:
387,222,214739,6,0,B|383:175,1,35,0|0,1:1|0:0,0:0:0:0:
487,59,214883,2,0,B|489:93,1,35,0|0,1:0|0:0,0:0:0:0:
368,210,215025,2,0,B|364:163,1,35,8|0,0:0|0:0,0:0:0:0:
273,39,215168,6,0,L|235:27,3,35,4|0|0|0,1:3|0:0|0:0|0:0,0:0:0:0:
163,110,215454,5,0,1:0:0:0:
174,157,215525,1,0,0:0:0:0:
154,204,215597,1,8,0:0:0:0:
108,227,215668,1,0,0:0:0:0:
59,216,215740,1,0,0:0:0:0:
26,177,215811,1,0,0:0:0:0:
26,127,215883,5,0,1:0:0:0:
14,79,215954,1,0,0:0:0:0:
35,31,216025,1,0,1:0:0:0:
81,9,216097,1,0,0:0:0:0:
130,19,216168,1,8,0:0:0:0:
179,3,216240,1,0,0:0:0:0:
230,11,216311,1,0,0:0:0:0:
273,39,216383,1,0,0:0:0:0:
314,42,216454,6,0,P|361:29|380:30,1,35,0|0,1:0|0:0,0:0:0:0:
416,127,216597,2,0,P|374:116|357:117,1,35,0|0,1:0|0:0,0:0:0:0:
322,184,216740,2,0,P|304:187|288:193,3,35,8|0|0|0,0:0|0:0|0:0|0:0,0:0:0:0:
408,223,217025,6,0,L|401:265,1,35,0|0,1:0|0:0,0:0:0:0:
349,367,217168,2,0,L|343:332,1,35,0|0,1:0|0:0,0:0:0:0:
253,263,217311,2,0,L|246:305,1,35,8|0,0:0|0:0,0:0:0:0:
146,330,217454,1,0,1:0:0:0:
146,330,217525,1,0,0:0:0:0:
146,330,217597,6,0,P|108:299|103:297,2,46.6666666666667,4|0|0,1:3|0:1|0:1,0:1:0:0:
131,193,217883,6,0,P|176:175|181:172,2,46.6666666666667,8|0|0,0:0|0:1|0:1,0:1:0:0:
255,251,218168,6,0,P|247:299|247:304,2,46.6666666666667,0|0|0,1:1|0:1|0:1,0:1:0:0:
317,159,218453,6,0,P|279:128|274:126,2,46.6666666666667,8|0|0,1:3|0:1|0:1,0:1:0:0:
300,286,218739,5,0,1:0:0:0:
280,266,218834,1,0,0:0:0:0:
255,251,218929,1,0,0:0:0:0:
227,247,219024,1,8,0:0:0:0:
200,254,219119,1,0,0:0:0:0:
176,269,219215,1,0,0:0:0:0:
163,294,219311,5,0,1:0:0:0:
119,309,219406,1,0,0:0:0:0:
72,304,219502,1,0,0:0:0:0:
33,279,219597,1,8,0:0:0:0:
8,240,219692,1,0,0:0:0:0:
2,194,219787,1,0,0:0:0:0:
17,150,219883,5,0,1:0:0:0:
63,188,219978,1,0,0:0:0:0:
123,186,220073,1,0,0:0:0:0:
166,145,220168,1,8,0:0:0:0:
173,86,220263,1,0,0:0:0:0:
139,38,220359,1,0,0:0:0:0:
81,23,220454,5,0,1:0:0:0:
78,79,220549,1,0,0:0:0:0:
75,135,220644,1,0,0:0:0:0:
123,186,220740,5,8,0:0:0:0:
119,241,220835,1,0,0:0:0:0:
116,297,220930,1,0,0:0:0:0:
164,348,221025,6,0,B|180:411|258:384|255:336|228:305|228:305|247:311|264:303|264:303|249:241|280:202|352:179|407:269|333:319,1,420,0|8,1:0|0:0,0:0:0:0:
316,372,222025,1,0,1:0:0:0:
475,247,222168,6,0,P|497:164|497:148,1,70,0|0,0:0|1:0,0:0:0:0:
357,49,222454,2,0,P|364:83|377:115,1,70,8|0,0:0|0:0,0:0:0:0:
335,362,222740,2,0,P|357:279|357:263,1,70,0|0,1:0|1:0,1:0:0:0:
229,130,223025,2,0,P|236:164|249:196,1,70,8|0,0:0|0:0,0:0:0:0:
496,181,223311,6,0,L|383:202,1,70,0|0,1:0|1:0,1:0:0:0:
288,36,223597,1,8,0:0:0:0:
288,36,223740,2,0,L|356:48,1,70,0|0,0:0|1:0,0:0:0:0:
250,197,224025,1,0,1:0:0:0:
250,197,224168,2,0,L|181:209,1,70,8|0,0:0|1:0,0:0:0:0:
139,9,224454,5,0,0:0:0:0:
139,9,224597,2,0,L|207:21,1,70,0|8,1:0|0:0,0:0:0:0:
250,197,224883,1,0,0:0:0:0:
288,36,225025,1,0,1:0:0:0:
260,210,225168,1,0,1:0:0:0:
412,34,225311,1,8,0:0:0:0:
165,111,225454,6,0,L|18:82,1,140,0|0,0:0|1:0,0:0:0:0:
260,210,225883,2,0,P|292:126|289:92,1,70,8|0,0:0|0:0,0:0:0:0:
197,25,226168,1,0,1:0:0:0:
403,25,226311,1,0,1:0:0:0:
165,111,226454,1,8,0:0:0:0:
412,34,226597,6,0,L|390:169,1,70,0|0,1:0|0:0,0:0:0:0:
357,252,226883,1,0,1:0:0:0:
357,252,227025,2,0,L|345:182,1,70,8|0,0:0|0:0,0:0:0:0:
279,58,227311,2,0,L|257:193,1,70,0|0,1:0|1:0,0:0:0:0:
222,271,227597,1,8,0:0:0:0:
222,271,227740,6,0,L|210:201,1,70,0|0,0:0|1:0,0:0:0:0:
74,79,228025,1,0,1:0:0:0:
74,79,228168,2,0,P|107:50|128:3,1,70,8|0,0:0|0:0,0:0:0:0:
246,61,228454,1,0,1:0:0:0:
246,61,228597,2,0,P|254:104|284:145,1,70,0|8,1:0|0:0,0:0:0:0:
175,218,228883,6,0,P|133:203|82:209,1,70,0|0,1:0|0:0,0:0:0:0:
260,298,229168,1,0,1:0:0:0:
260,298,229311,2,0,P|294:296|327:283,1,70,8|0,0:0|0:0,0:0:0:0:
444,163,229597,1,0,1:0:0:0:
329,199,229740,1,0,1:0:0:0:
413,9,229883,1,8,0:0:0:0:
263,131,230025,5,0,1:0:0:0:
263,131,230097,1,0,0:0:0:0:
263,131,230168,1,8,1:3:0:0:
247,139,230240,1,0,0:0:0:0:
230,142,230311,1,0,1:0:0:0:
213,143,230383,1,0,0:0:0:0:
198,140,230454,1,0,1:0:0:0:
182,134,230525,1,0,0:0:0:0:
168,124,230597,1,0,1:0:0:0:
157,112,230668,1,0,0:0:0:0:
150,101,230740,5,8,0:0:0:0:
92,80,230811,1,8,0:0:0:0:
33,99,230883,1,8,0:0:0:0:
0,152,230954,1,8,0:0:0:0:
0,214,231025,1,8,0:0:0:0:
38,262,231097,1,8,0:0:0:0:
99,273,231168,6,0,L|240:257,1,140,4|0,1:3|1:0,0:0:0:0:
293,287,231525,1,0,0:0:0:0:
293,287,231597,2,0,L|395:275,1,70,8|0,0:0|0:0,0:0:0:0:
459,179,231883,5,0,0:0:0:0:
459,179,232025,1,0,0:0:0:0:
459,179,232168,2,0,L|389:171,1,70,8|0,0:0|0:0,0:0:0:0:
269,75,232454,5,0,0:0:0:0:
269,75,232597,1,0,0:0:0:0:
269,75,232740,2,0,L|338:67,1,70,8|0,0:0|0:0,0:0:0:0:
248,198,233025,5,0,0:0:0:0:
146,41,233168,1,0,1:0:0:0:
161,258,233311,1,8,0:0:0:0:
146,41,233454,6,0,L|76:48,1,70,4|0,1:3|0:0,0:0:0:0:
269,75,233740,1,0,1:0:0:0:
269,75,233811,1,0,0:0:0:0:
269,75,233883,2,0,L|338:67,1,70,8|0,0:0|0:0,0:0:0:0:
459,179,234168,5,0,0:0:0:0:
459,179,234311,1,0,0:0:0:0:
459,179,234454,2,0,L|389:171,1,70,8|0,0:0|0:0,0:0:0:0:
293,287,234740,5,0,0:0:0:0:
293,287,234883,1,0,0:0:0:0:
293,287,235025,2,0,L|362:279,1,70,8|0,0:0|0:0,0:0:0:0:
291,163,235311,5,0,0:0:0:0:
455,264,235454,1,0,1:0:0:0:
440,89,235597,1,8,0:0:0:0:
211,234,235740,6,0,L|141:241,1,70,4|0,1:3|0:0,0:0:0:0:
71,343,236025,1,0,1:0:0:0:
8,234,236168,1,8,0:0:0:0:
5,207,236240,1,0,0:0:0:0:
3,181,236311,1,0,0:0:0:0:
1,155,236383,1,0,0:0:0:0:
0,129,236454,5,0,0:0:0:0:
55,40,236597,1,0,0:0:0:0:
131,105,236740,2,0,L|200:112,1,70,8|0,0:0|0:0,0:0:0:0:
299,286,237025,5,0,0:0:0:0:
244,197,237168,1,0,0:0:0:0:
168,262,237311,2,0,L|98:269,1,70,8|0,0:0|0:0,0:0:0:0:
39,352,237597,5,0,0:0:0:0:
104,179,237740,1,0,1:0:0:0:
158,372,237883,1,8,0:0:0:0:
244,197,238025,6,0,L|313:189,1,70,4|0,1:3|0:0,0:0:0:0:
299,286,238310,1,0,0:0:0:0:
410,227,238454,1,8,0:0:0:0:
416,201,238525,1,0,0:0:0:0:
416,175,238597,1,0,0:0:0:0:
409,150,238668,1,0,0:0:0:0:
395,127,238740,1,0,0:0:0:0:
293,68,238883,1,0,0:0:0:0:
244,197,239025,1,8,0:0:0:0:
212,27,239168,6,0,L|142:19,1,70,4|0,1:3|0:0,0:0:0:0:
45,30,239454,1,0,0:0:0:0:
140,120,239597,1,8,0:0:0:0:
147,145,239668,1,0,0:0:0:0:
147,171,239740,1,0,1:0:0:0:
140,196,239811,1,0,1:0:0:0:
126,219,239883,5,8,0:0:0:0:
3,350,240025,1,8,0:0:0:0:
44,157,240168,1,8,0:0:0:0:
158,365,240311,6,0,L|259:346,1,70,4|0,1:3|0:0,0:0:0:0:
244,197,240597,1,0,1:0:0:0:
339,339,240740,1,8,0:0:0:0:
366,342,240811,1,0,0:0:0:0:
392,344,240883,1,0,1:0:0:0:
418,346,240954,1,0,0:0:0:0:
444,347,241025,5,0,0:0:0:0:
509,264,241168,1,0,1:0:0:0:
244,197,241311,2,0,L|174:204,1,70,8|0,0:0|1:0,0:0:0:0:
158,365,241597,5,0,0:0:0:0:
89,159,241740,1,0,1:0:0:0:
322,264,241883,2,0,L|391:256,1,70,8|0,0:0|1:0,0:0:0:0:
458,159,242168,5,0,0:0:0:0:
339,339,242311,1,0,1:0:0:0:
360,95,242454,1,8,0:0:0:0:
175,204,242596,6,0,L|105:212,1,70,4|0,1:3|0:0,0:0:0:0:
158,365,242883,1,0,1:0:0:0:
266,242,243025,1,8,0:0:0:0:
272,216,243097,1,0,0:0:0:0:
272,190,243168,1,0,1:0:0:0:
265,165,243240,1,0,0:0:0:0:
251,142,243311,1,0,0:0:0:0:
105,211,243454,1,0,1:0:0:0:
375,228,243597,6,0,L|444:220,1,70,8|0,0:0|1:0,0:0:0:0:
397,75,243883,1,0,0:0:0:0:
317,343,244025,1,0,1:0:0:0:
251,142,244168,6,0,L|181:134,1,70,8|0,0:0|1:0,0:0:0:0:
4,139,244454,1,0,0:0:0:0:
113,285,244597,1,0,1:0:0:0:
89,49,244740,1,8,0:0:0:0:
247,350,244883,6,0,L|316:342,1,70,4|0,1:3|0:0,0:0:0:0:
397,180,245168,1,0,1:0:0:0:
240,236,245311,1,8,0:0:0:0:
214,242,245383,1,0,0:0:0:0:
188,242,245454,1,0,1:0:0:0:
163,235,245525,1,0,0:0:0:0:
140,221,245597,1,0,0:0:0:0:
227,53,245740,1,0,1:0:0:0:
327,187,245883,6,0,L|396:179,1,70,8|0,0:0|1:0,0:0:0:0:
219,40,246168,1,0,0:0:0:0:
188,242,246311,1,0,1:0:0:0:
359,73,246454,6,0,L|428:65,1,70,8|0,0:0|1:0,0:0:0:0:
485,204,246739,1,0,0:0:0:0:
302,0,246883,1,0,1:0:0:0:
284,279,247025,1,8,0:0:0:0:
132,34,247168,6,0,L|62:41,1,70,4|0,1:3|0:0,0:0:0:0:
24,221,247454,1,0,1:0:0:0:
189,148,247597,1,8,0:0:0:0:
215,142,247668,1,0,0:0:0:0:
241,142,247740,1,0,1:0:0:0:
266,149,247811,1,0,0:0:0:0:
289,163,247883,1,0,0:0:0:0:
362,375,248025,5,0,1:0:0:0:
368,102,248168,1,8,0:0:0:0:
228,309,248311,1,0,1:0:0:0:
368,102,248454,6,0,B|378:80|382:67,3,35,8|0|0|0,0:0|0:0|0:0|0:0,0:0:0:0:
289,163,248740,2,0,B|292:173|302:195,3,35,8|0|0|0,0:0|0:0|0:0|0:0,0:0:0:0:
250,64,249025,6,0,L|216:73,1,35,8|0,0:0|0:0,0:0:0:0:
165,167,249168,2,0,L|104:150,1,35,8|0,0:0|0:0,0:0:0:0:
63,86,249311,2,0,L|29:95,1,35,8|0,0:0|0:0,0:0:0:0:
38,308,249454,6,0,B|35:332|33:342,3,35,6|0|2|0,1:2|0:0|0:2|0:0,0:0:0:0:
0,242,249740,1,2,0:2:0:0:
2,221,249811,1,0,0:0:0:0:
0,199,249883,1,2,0:2:0:0:
31,222,249954,1,0,0:0:0:0:
70,230,250025,1,2,0:2:0:0:
109,221,250097,1,0,0:0:0:0:
141,195,250168,1,10,0:2:0:0:
161,160,250240,1,0,0:0:0:0:
193,138,250311,1,2,0:2:0:0:
233,132,250383,1,0,0:0:0:0:
272,144,250454,1,2,0:2:0:0:
302,170,250525,1,0,0:0:0:0:
318,207,250597,1,2,0:2:0:0:
318,247,250668,1,0,0:0:0:0:
300,283,250740,1,2,0:2:0:0:
302,323,250811,1,0,0:0:0:0:
324,356,250883,1,2,0:2:0:0:
359,375,250954,1,0,0:0:0:0:
399,375,251025,1,2,0:2:0:0:
434,354,251097,1,0,0:0:0:0:
454,320,251168,1,2,0:2:0:0:
455,280,251239,1,0,0:0:0:0:
438,244,251311,5,10,0:2:0:0:
439,225,251382,1,0,0:0:0:0:
440,209,251453,2,0,P|480:210|507:217,3,35,2|0|2|0,1:2|0:0|0:2|0:0,0:0:0:0:
478,127,251739,2,0,L|512:120,1,35,6|0,1:2|0:3,0:0:0:0:
407,82,251883,5,2,0:2:0:0:
387,47,251954,1,0,0:0:0:0:
356,22,252025,1,2,0:2:0:0:
319,11,252097,1,0,0:0:0:0:
279,14,252167,1,2,0:2:0:0:
243,32,252240,1,0,0:0:0:0:
217,62,252311,1,2,0:2:0:0:
205,99,252383,1,0,0:0:0:0:
205,139,252454,1,10,0:2:0:0:
191,176,252525,1,0,0:0:0:0:
164,206,252597,1,2,0:2:0:0:
129,223,252668,1,0,0:0:0:0:
90,226,252739,1,2,0:2:0:0:
52,215,252811,1,0,0:0:0:0:
21,190,252883,1,2,0:2:0:0:
5,150,252954,1,0,0:0:0:0:
30,128,253025,1,2,0:2:0:0:
65,109,253097,1,0,0:0:0:0:
104,102,253168,1,2,0:2:0:0:
144,105,253240,1,0,0:0:0:0:
180,121,253311,1,2,1:2:0:0:
211,146,253383,1,0,0:0:0:0:
234,179,253454,1,2,0:2:0:0:
246,216,253525,1,0,0:0:0:0:
246,256,253597,5,10,0:2:0:0:
254,276,253667,1,0,0:0:0:0:
266,295,253740,2,0,P|257:320|254:329,3,35,2|0|2|0,1:2|0:0|0:2|0:0,0:0:0:0:
370,186,254025,2,0,L|386:230,1,35,6|0,1:2|0:0,0:0:0:0:
465,359,254168,5,2,0:2:0:0:
496,330,254240,1,0,0:0:0:0:
509,289,254310,1,2,0:2:0:0:
507,248,254383,1,0,0:0:0:0:
488,210,254453,1,2,0:2:0:0:
454,185,254525,1,0,0:0:0:0:
413,175,254596,1,2,0:2:0:0:
370,186,254668,1,0,0:0:0:0:
338,213,254739,1,10,0:2:0:0:
318,250,254811,1,0,0:0:0:0:
281,274,254883,1,2,0:2:0:0:
240,279,254954,1,0,0:0:0:0:
199,269,255025,1,2,0:2:0:0:
168,239,255097,1,0,0:0:0:0:
151,200,255168,1,2,0:2:0:0:
151,158,255240,1,0,0:0:0:0:
170,120,255311,1,2,0:2:0:0:
168,79,255383,1,0,0:0:0:0:
144,43,255454,1,2,0:2:0:0:
108,24,255525,1,0,0:0:0:0:
65,24,255597,1,2,0:2:0:0:
29,44,255668,1,0,0:0:0:0:
6,81,255739,1,2,0:2:0:0:
5,123,255811,1,0,0:0:0:0:
24,161,255883,5,10,0:2:0:0:
36,181,255954,1,0,0:0:0:0:
36,211,256025,2,0,L|-5:207,1,35,2|0,1:2|0:0,0:0:0:0:
119,284,256167,2,0,L|164:279,1,35,2|0,1:2|0:0,0:0:0:0:
34,357,256310,2,0,L|-5:353,1,35,6|0,1:2|0:0,0:0:0:0:
123,188,256454,5,2,0:2:0:0:
161,152,256525,1,0,0:0:0:0:
213,139,256597,1,2,0:2:0:0:
265,151,256668,1,0,0:0:0:0:
307,186,256740,1,2,0:2:0:0:
346,223,256811,1,0,0:0:0:0:
398,236,256883,1,2,0:2:0:0:
450,224,256954,1,0,0:0:0:0:
471,188,257025,5,10,0:2:0:0:
469,164,257096,1,0,0:0:0:0:
467,141,257168,1,2,0:2:0:0:
466,118,257240,1,0,0:0:0:0:
464,94,257311,1,2,0:2:0:0:
462,71,257383,1,0,0:0:0:0:
461,48,257454,6,0,L|317:33,1,140,4|0,1:3|1:0,1:0:0:0:
321,33,257811,1,0,0:0:0:0:
321,33,257883,1,8,0:0:0:0:
267,155,258025,1,0,1:0:0:0:
267,155,258097,1,0,0:0:0:0:
267,155,258168,1,8,0:0:0:0:
193,45,258311,1,8,0:0:0:0:
378,132,258454,1,8,0:0:0:0:
194,262,258597,5,4,0:3:0:0:
191,271,258668,1,0,0:0:0:0:
189,280,258740,1,0,0:0:0:0:
191,317,258811,1,0,0:0:0:0:
177,352,258883,1,0,0:0:0:0:
147,376,258954,1,0,0:0:0:0:
110,384,259025,1,8,0:0:0:0:
74,374,259097,1,0,0:0:0:0:
45,349,259168,1,0,1:0:0:0:
32,314,259240,1,0,0:0:0:0:
36,275,259311,5,0,1:0:0:0:
42,262,259383,1,0,0:0:0:0:
45,248,259454,1,0,1:0:0:0:
46,234,259525,1,0,0:0:0:0:
47,219,259597,1,8,0:0:0:0:
46,205,259668,1,0,0:0:0:0:
43,191,259740,1,0,1:0:0:0:
39,178,259811,1,0,0:0:0:0:
29,161,259883,5,0,1:0:0:0:
10,135,259954,1,0,0:0:0:0:
7,105,260025,1,0,1:0:0:0:
17,78,260097,1,0,0:0:0:0:
40,57,260168,1,8,0:0:0:0:
68,49,260240,1,0,0:0:0:0:
99,56,260311,1,0,1:0:0:0:
122,74,260383,1,0,0:0:0:0:
138,101,260454,1,0,1:0:0:0:
161,120,260525,1,0,0:0:0:0:
191,126,260597,1,0,1:0:0:0:
221,117,260668,1,0,0:0:0:0:
244,98,260740,1,8,0:0:0:0:
254,69,260811,1,0,0:0:0:0:
274,37,260883,1,4,1:3:0:0:
310,24,260954,1,0,0:0:0:0:
346,34,261025,5,0,1:0:0:0:
351,72,261097,1,0,0:0:0:0:
356,111,261168,1,0,1:0:0:0:
360,148,261240,1,0,0:0:0:0:
364,187,261311,1,8,0:0:0:0:
370,225,261383,1,0,0:0:0:0:
374,263,261454,1,0,1:0:0:0:
379,301,261525,1,0,0:0:0:0:
384,339,261596,6,0,P|408:360|416:378,3,35,0|0|0|0,1:0|0:0|1:0|0:0,0:0:0:0:
306,289,261882,2,0,P|295:258|297:239,3,35,8|0|0|0,0:0|0:0|1:0|0:0,0:0:0:0:
240,348,262168,5,0,1:0:0:0:
209,361,262240,1,0,0:0:0:0:
175,355,262311,1,0,1:0:0:0:
148,335,262383,1,0,0:0:0:0:
135,303,262454,1,8,0:0:0:0:
141,270,262525,1,0,0:0:0:0:
163,244,262597,1,0,1:0:0:0:
195,232,262668,1,0,0:0:0:0:
228,238,262740,1,0,1:0:0:0:
259,250,262811,1,0,0:0:0:0:
293,246,262883,1,0,1:0:0:0:
319,225,262954,1,0,0:0:0:0:
331,193,263025,1,8,0:0:0:0:
327,160,263097,1,0,0:0:0:0:
305,133,263168,1,2,1:2:0:0:
272,122,263240,1,0,0:0:0:0:
244,125,263311,5,0,1:0:0:0:
214,147,263383,1,0,0:0:0:0:
176,151,263454,1,0,1:0:0:0:
142,137,263525,1,0,0:0:0:0:
120,106,263597,1,8,0:0:0:0:
115,69,263668,1,0,0:0:0:0:
131,34,263740,1,0,1:0:0:0:
163,13,263811,1,0,0:0:0:0:
195,15,263883,5,0,1:0:0:0:
214,15,263954,1,0,0:0:0:0:
233,15,264025,1,0,1:0:0:0:
253,15,264097,1,0,0:0:0:0:
271,17,264168,1,8,0:0:0:0:
291,17,264240,1,0,0:0:0:0:
310,17,264311,1,0,1:0:0:0:
329,18,264383,1,0,0:0:0:0:
353,18,264454,5,0,1:0:0:0:
393,18,264525,1,0,0:0:0:0:
431,35,264597,1,0,1:0:0:0:
456,67,264668,1,0,0:0:0:0:
466,107,264740,1,8,0:0:0:0:
458,147,264811,1,0,0:0:0:0:
433,181,264883,1,0,1:0:0:0:
397,201,264954,1,0,0:0:0:0:
356,201,265025,1,0,1:0:0:0:
320,219,265097,1,0,0:0:0:0:
294,252,265168,1,0,1:0:0:0:
283,291,265240,1,0,0:0:0:0:
290,333,265311,1,8,0:0:0:0:
316,365,265383,1,0,0:3:0:0:
355,381,265454,1,4,1:3:0:0:
396,375,265525,1,0,0:0:0:0:
431,351,265597,6,0,P|472:341|487:338,3,35,0|0|0|0,1:0|0:0|1:0|0:0,0:0:0:0:
511,247,265883,2,0,P|479:240|468:238,3,35,8|0|0|0,0:0|0:0|1:0|0:0,0:0:0:0:
349,187,266168,2,0,P|381:180|392:178,3,35,0|0|0|0,1:0|0:0|1:0|0:0,0:0:0:0:
455,89,266454,2,0,P|423:82|412:80,3,35,8|0|4|0,0:0|0:0|1:3|0:0,0:0:0:0:
281,56,266740,5,0,1:0:0:0:
278,104,266811,1,0,0:0:0:0:
251,144,266883,1,0,1:0:0:0:
208,166,266954,1,0,0:0:0:0:
160,164,267025,1,8,0:0:0:0:
119,138,267097,1,0,0:0:0:0:
97,95,267168,1,0,1:0:0:0:
99,47,267240,1,0,0:0:0:0:
127,9,267311,6,0,L|175:-3,1,35,8|0,0:0|0:0,0:0:0:0:
33,152,267454,2,0,L|-1:143,1,35,8|0,0:0|0:0,0:0:0:0:
188,73,267596,5,8,0:0:0:0:
183,125,267667,1,0,0:0:0:0:
179,177,267739,1,0,1:0:0:0:
175,230,267810,1,0,0:0:0:0:
171,282,267882,6,0,B|218:333|295:303|309:258|309:258|332:335|424:367|576:338|534:105|378:160|379:235,1,587.999982055665,4|0,1:3|1:0,1:0:0:0:
409,67,269025,5,0,1:0:0:0:
339,114,269168,2,0,P|326:145|319:189,1,70,0|0,1:0|0:0,0:0:0:0:
409,67,269454,1,0,1:0:0:0:
301,38,269597,2,0,P|267:42|226:58,1,70,0|0,1:0|0:0,0:0:0:0:
137,171,269883,1,8,0:0:0:0:
137,171,270168,5,0,1:0:0:0:
213,208,270311,2,0,P|246:203|287:187,1,70,0|0,1:0|0:0,0:0:0:0:
137,171,270597,1,0,1:0:0:0:
165,278,270740,2,0,P|185:304|219:332,1,70,0|0,1:0|0:0,0:0:0:0:
352,317,271025,1,8,0:0:0:0:
352,317,271311,5,0,1:0:0:0:
389,241,271454,2,0,P|384:207|368:166,1,70,0|0,1:0|0:0,0:0:0:0:
352,317,271740,1,0,1:0:0:0:
459,289,271883,2,0,P|485:268|513:234,1,70,0|0,1:0|0:0,0:0:0:0:
498,102,272168,1,8,0:0:0:0:
288,182,272454,5,0,1:0:0:0:
288,182,272597,2,0,L|196:165,1,70,0|0,1:0|0:0,0:0:0:0:
137,86,272883,1,0,1:0:0:0:
137,86,273025,2,0,L|229:69,1,70,0|0,1:0|0:0,0:0:0:0:
95,184,273311,2,0,L|3:167,1,70,8|0,0:0|0:0,0:0:0:0:
205,290,273597,5,0,1:0:0:0:
205,290,273740,2,0,L|297:273,1,70,0|0,1:0|0:0,0:0:0:0:
356,194,274025,1,0,1:0:0:0:
356,194,274168,2,0,L|264:177,1,70,0|0,1:0|0:0,0:0:0:0:
398,292,274454,2,0,L|490:275,1,70,8|0,0:0|0:0,0:0:0:0:
376,128,274740,5,0,1:0:0:0:
376,128,274883,2,0,P|356:178|360:223,1,70,0|0,1:0|0:0,0:0:0:0:
320,328,275168,1,0,1:0:0:0:
320,328,275311,2,0,P|286:285|245:266,1,70,0|0,1:0|0:0,0:0:0:0:
174,179,275597,2,0,P|227:171|264:145,1,70,8|0,0:0|0:0,0:0:0:0:
40,143,275883,5,0,1:0:0:0:
40,143,276025,2,0,P|60:193|56:238,1,70,0|0,1:0|0:0,0:0:0:0:
96,343,276311,1,0,1:0:0:0:
96,343,276454,2,0,P|129:300|170:281,1,70,0|0,1:0|0:0,0:0:0:0:
241,164,276740,2,0,L|250:75,1,70,8|0,0:0|0:0,0:0:0:0:
356,27,277025,5,0,1:0:0:0:
356,27,277168,2,0,L|368:95,1,70,0|0,1:0|0:0,0:0:0:0:
449,164,277454,1,0,1:0:0:0:
449,164,277597,2,0,L|461:95,1,70,0|0,1:0|0:0,0:0:0:0:
342,235,277883,2,0,L|354:303,1,70,8|0,0:0|0:0,0:0:0:0:
239,366,278168,5,0,1:0:0:0:
239,366,278311,2,0,L|251:297,1,70,0|0,1:0|0:0,0:0:0:0:
342,235,278597,1,0,1:0:0:0:
342,235,278740,2,0,L|354:303,1,70,0|0,1:0|0:0,0:0:0:0:
194,211,279025,2,0,L|206:142,1,70,8|0,0:0|0:0,0:0:0:0:
356,40,279311,5,0,1:0:0:0:
356,40,279454,2,0,P|306:60|261:56,1,70,0|0,1:0|0:0,0:0:0:0:
156,96,279740,1,0,1:0:0:0:
156,96,279883,2,0,P|198:129|217:170,1,70,0|0,1:0|0:0,0:0:0:0:
305,242,280168,2,0,P|312:188|338:151,1,70,8|0,0:0|0:0,0:0:0:0:
356,40,280454,5,0,1:0:0:0:
356,40,280597,2,0,P|311:29|272:-10,1,70,8|0,0:0|0:0,0:0:0:0:
442,231,280883,1,0,1:0:0:0:
442,231,281025,2,0,P|474:197|527:183,1,70,8|0,0:0|0:0,0:0:0:0:
206,142,281311,1,8,0:0:0:0:
206,142,281454,6,0,P|162:130|69:165,1,140,4|0,1:3|1:0,1:0:0:0:
267,212,281883,2,0,P|289:185|298:152,1,70,8|0,0:0|1:0,0:0:0:0:
292,15,282168,1,8,0:0:0:0:
379,76,282311,2,0,L|447:60,1,70,0|8,1:0|0:0,0:0:0:0:
267,212,282597,6,0,B|235:241|235:241|331:239,1,140,0|0,1:0|1:0,1:0:0:0:
407,154,283025,1,8,0:0:0:0:
423,302,283168,1,0,1:0:0:0:
267,212,283311,2,0,P|259:175|259:132,1,70,8|0,0:0|1:0,0:0:0:0:
345,46,283597,1,8,0:0:0:0:
202,269,283740,6,0,L|49:244,1,140,4|0,1:3|1:0,1:0:0:0:
1,141,284168,2,0,P|2:106|17:74,1,70,8|0,0:0|1:0,0:0:0:0:
127,60,284454,1,8,0:0:0:0:
64,246,284597,2,0,L|85:336,1,70,0|8,1:0|0:0,0:0:0:0:
210,172,284883,1,0,1:0:0:0:
179,267,285025,5,8,0:0:0:0:
213,275,285097,1,0,0:0:0:0:
247,269,285168,1,0,1:0:0:0:
276,249,285240,1,0,0:0:0:0:
293,219,285311,1,8,0:0:0:0:
249,64,285454,1,0,1:0:0:0:
386,59,285597,2,0,P|420:61|455:57,1,70,8|0,0:0|1:0,0:0:0:0:
235,50,285883,1,8,0:0:0:0:
293,219,286025,1,0,1:0:0:0:
293,219,286097,1,0,0:0:0:0:
293,218,286168,6,0,P|296:252|293:287,1,70,12|0,0:3|1:0,0:0:0:0:
388,318,286454,2,0,P|416:297|447:282,1,70,8|0,0:0|1:0,0:0:0:0:
512,354,286740,1,8,0:0:0:0:
314,369,286883,2,0,L|245:353,1,70,0|8,1:0|0:0,0:0:0:0:
128,146,287168,6,0,B|94:175|94:175|96:271,1,140,0|0,1:0|1:0,1:0:0:0:
223,223,287597,1,8,0:0:0:0:
144,367,287740,1,0,1:0:0:0:
300,280,287883,2,0,P|337:272|380:272,1,70,8|0,0:0|1:0,0:0:0:0:
447,335,288168,1,8,0:0:0:0:
223,223,288311,6,0,L|200:84,1,140,4|0,1:3|1:0,1:0:0:0:
311,9,288740,2,0,L|297:91,1,70,8|0,0:0|1:0,0:0:0:0:
140,229,289025,2,0,L|128:159,1,70,8|0,0:0|1:0,0:0:0:0:
227,7,289311,1,8,0:0:0:0:
301,170,289454,1,0,1:0:0:0:
385,45,289597,1,8,0:0:0:0:
193,111,289740,1,0,1:0:0:0:
410,146,289883,5,8,1:0:0:0:
410,157,289954,1,0,1:0:0:0:
409,169,290025,1,0,1:0:0:0:
409,180,290097,1,0,1:0:0:0:
408,192,290168,2,0,L|414:252,1,35,8|0,0:0|0:0,0:0:0:0:
319,326,290311,2,0,L|323:291,1,35,8|0,0:0|0:0,0:0:0:0:
216,199,290454,2,0,L|222:259,1,35,8|0,0:0|0:0,0:0:0:0:
468,347,290597,6,0,B|498:317|498:317|401:307,1,140,4|0,1:3|1:0,1:0:0:0:
226,303,291025,2,0,L|219:233,1,70,8|0,0:0|1:0,0:0:0:0:
291,139,291311,1,8,0:0:0:0:
109,128,291454,2,0,P|75:146|15:137,1,70,0|8,1:0|0:0,0:0:0:0:
154,40,291740,6,0,P|196:82|201:159,1,140,0|0,1:0|1:0,1:0:0:0:
32,289,292168,1,8,0:0:0:0:
24,147,292311,1,0,1:0:0:0:
167,291,292454,2,0,L|257:270,1,70,8|0,0:0|1:0,0:0:0:0:
264,176,292740,1,8,0:0:0:0:
342,365,292883,6,0,L|364:226,1,140,4|0,1:3|1:0,1:0:0:0:
355,121,293311,2,0,P|390:120|422:105,1,70,8|0,0:0|1:0,0:0:0:0:
428,12,293597,1,8,0:0:0:0:
248,107,293740,2,0,L|269:197,1,70,0|8,1:0|0:0,0:0:0:0:
363,226,294025,1,0,1:0:0:0:
281,316,294168,5,8,0:0:0:0:
247,324,294240,1,0,0:0:0:0:
213,318,294311,1,0,1:0:0:0:
184,298,294383,1,0,0:0:0:0:
167,268,294454,1,8,0:0:0:0:
263,175,294597,1,0,1:0:0:0:
86,150,294740,2,0,L|3:137,1,70,8|0,0:0|1:0,0:0:0:0:
189,55,295025,1,8,0:0:0:0:
263,175,295168,1,0,1:0:0:0:
263,175,295240,1,0,0:0:0:0:
263,175,295311,6,0,L|346:162,1,70,12|0,0:3|1:0,0:0:0:0:
182,311,295597,2,0,L|113:301,1,70,8|0,0:0|1:0,0:0:0:0:
333,282,295883,1,8,0:0:0:0:
143,189,296025,2,0,L|60:176,1,70,0|8,1:0|0:0,0:0:0:0:
300,84,296311,6,0,B|334:64|334:64|331:171,1,140,0|0,1:0|1:0,1:0:0:0:
182,311,296740,1,8,0:0:0:0:
201,123,296883,1,0,1:0:0:0:
333,282,297025,2,0,P|370:274|413:274,1,70,8|0,0:0|1:0,0:0:0:0:
481,367,297311,1,8,0:0:0:0:
469,187,297454,6,0,L|330:164,1,140,4|0,1:3|1:0,1:0:0:0:
229,53,297883,2,0,P|258:94|263:132,1,70,8|0,0:0|1:0,0:0:0:0:
126,191,298168,2,0,P|137:157|159:131,1,70,8|0,0:0|1:0,0:0:0:0:
281,227,298454,1,8,0:0:0:0:
141,46,298597,6,0,L|2:23,1,140,0|0,1:0|1:0,1:0:0:0:
65,256,299025,1,8,0:0:0:0:
262,112,299168,1,0,1:0:0:0:
262,112,299240,1,0,0:0:0:0:
262,112,299311,1,8,0:0:0:0:
244,291,299453,1,8,0:0:0:0:
141,46,299597,1,8,0:0:0:0:
327,215,299736,6,0,P|389:228|458:177,1,140,4|0,1:3|0:0,0:0:0:0:
265,77,300186,6,0,L|261:113,1,35,0|0,1:0|1:0,1:0:0:0:
183,137,300511,6,0,L|205:164,1,35,0|0,1:0|1:0,1:0:0:0:
167,236,300825,6,0,L|203:241,1,35,0|0,1:0|1:0,1:0:0:0:
226,318,301137,6,0,L|254:295,1,35,0|0,1:0|1:0,1:0:0:0:
323,333,301494,6,0,L|327:297,1,35,0|0,1:0|1:0,1:0:0:0:
401,274,301852,6,0,L|379:246,1,35,8|8,0:0|0:0,0:0:0:0:
414,177,302274,6,0,L|378:173,1,35,8|8,0:0|0:0,0:0:0:0:
387,44,305235,5,0,1:0:0:0:
365,75,305392,1,0,1:0:0:0:
377,114,305550,1,0,1:0:0:0:
313,150,305708,1,0,1:0:0:0:
414,247,305866,2,0,L|281:229,1,105,12|0,0:0|0:0,0:0:0:0:
178,150,306498,1,0,1:0:0:0:
178,150,309024,6,0,P|183:182|153:264,1,122.5,4|0,1:3|0:0,0:0:0:0:
41,300,309656,2,0,P|66:279|152:264,1,122.5,4|0,1:3|0:0,0:0:0:0:
207,306,310287,2,0,P|185:297|146:250,1,70,4|0,1:3|0:0,0:0:0:0:
315,169,310919,6,0,P|344:171|354:170,1,35,8|0,0:0|0:0,0:0:0:0:
400,92,311235,2,0,P|387:65|381:57,1,35,0|0,0:0|0:0,0:0:0:0:
290,58,311550,2,0,P|273:82|268:92,1,35,4|0,1:3|0:0,0:0:0:0:
315,169,311866,2,0,P|344:171|354:170,1,35,0|0,0:0|0:0,0:0:0:0:
233,221,312182,1,8,0:0:0:0:
233,221,312340,2,0,L|197:177,1,35,0|0,0:0|0:0,0:0:0:0:
184,105,312656,5,0,1:0:0:0:
184,105,312735,1,0,0:0:0:0:
184,105,312813,1,12,0:3:0:0:
132,267,313129,5,0,1:0:0:0:
315,169,313287,1,12,0:3:0:0:
275,301,313603,5,0,1:0:0:0:
184,105,313761,1,12,0:3:0:0:
195,333,314077,5,0,1:0:0:0:
270,87,314235,1,12,0:3:0:0:
94,168,314550,5,0,1:0:0:0:
354,256,314708,2,0,L|413:247,1,35,12|0,0:3|0:0,0:0:0:0:
459,165,315024,2,0,L|400:156,1,35,12|0,0:3|0:0,0:0:0:0:
270,87,315340,5,0,1:0:0:0:
215,143,315498,1,0,1:0:0:0:
164,64,315656,1,4,1:3:0:0:
126,177,315813,1,0,1:0:0:0:
47,38,315971,2,0,L|27:159,1,105,12|0,0:0|0:0,0:0:0:0:
63,257,316603,6,0,P|96:267|110:269,2,35,4|0|0,1:3|1:0|1:0,1:0:0:0:
175,241,317077,1,0,1:0:0:0:
175,241,317235,2,0,P|216:226|235:225,1,35,8|0,0:0|0:0,0:0:0:0:
276,334,317550,1,0,0:0:0:0:
276,334,317708,6,0,L|287:262,1,70
352,209,318182,2,0,P|369:203|385:195,2,35,0|0|8,0:0|0:0|0:0,0:0:0:0:
430,130,318656,2,0,P|432:113|434:96,1,35,0|0,0:0|0:0,0:0:0:0:
378,31,318971,1,0,0:0:0:0:
377,30,319129,6,0,L|304:19,1,70,4|8,1:3|0:0,0:0:0:0:
289,128,319603,1,8,0:0:0:0:
179,80,319761,2,0,L|168:10,1,70,4|0,1:3|1:0,1:0:0:0:
84,61,320235,1,0,1:0:0:0:
289,128,320392,2,0,L|279:197,1,70,4|0,1:3|0:0,0:0:0:0:
76,240,321024,6,0,P|59:216|55:206,1,35,8|0,0:0|0:0,0:0:0:0:
100,127,321340,2,0,P|129:125|139:126,1,35,0|0,0:0|0:0,0:0:0:0:
185,205,321656,2,0,P|172:232|166:241,1,35,4|0,1:3|0:0,0:0:0:0:
76,240,321971,2,0,P|59:216|55:206,1,35,0|0,0:0|0:0,0:0:0:0:
72,336,322287,1,8,0:0:0:0:
72,336,322445,2,0,L|128:345,1,35,0|0,0:0|0:0,0:0:0:0:
248,347,322761,5,0,1:0:0:0:
248,347,322840,1,0,0:0:0:0:
248,347,322919,1,12,0:3:0:0:
76,240,323235,5,0,1:0:0:0:
279,198,323392,1,12,0:3:0:0:
127,357,323708,5,0,1:0:0:0:
164,108,323866,1,12,0:3:0:0:
248,347,324182,5,0,1:0:0:0:
44,114,324340,1,12,0:3:0:0:
39,324,324656,5,0,1:0:0:0:
285,91,324813,2,0,L|319:85,1,35,12|0,0:3|0:0,0:0:0:0:
419,180,325129,2,0,L|384:174,1,35,12|0,0:3|0:0,0:0:0:0:
164,108,325445,5,0,1:0:0:0:
182,291,325603,1,0,1:0:0:0:
210,41,325761,1,0,1:0:0:0:
320,269,325919,1,0,1:0:0:0:
87,85,326077,2,0,L|69:188,1,105,8|0,0:0|0:1,0:0:0:0:
5,286,326708,6,0,P|8:303|14:319,1,35,4|0,1:3|1:0,1:0:0:0:
130,384,327024,1,0,1:0:0:0:
69,189,327182,1,0,1:0:0:0:
257,361,327340,2,0,L|302:367,1,35,8|0,0:0|1:0,0:0:0:0:
366,171,327656,1,0,1:0:0:0:
366,171,327813,6,0,L|280:182,1,70,0|0,1:0|1:0,1:0:0:0:
444,297,328287,2,0,P|465:248|466:241,1,35,0|0,1:0|1:0,1:0:0:0:
280,149,328603,2,0,P|286:165|296:179,1,35,8|0,0:0|1:0,0:0:0:0:
472,79,328919,1,0,1:0:0:0:
230,56,329077,1,0,1:0:0:0:
230,56,329235,6,0,L|128:45,1,70,4|0,1:3|0:0,0:0:0:0:
0,133,329708,1,0,1:0:0:0:
0,133,329866,2,0,L|99:122,1,70,12|0,0:3|1:0,0:0:0:0:
144,300,330340,1,0,1:0:0:0:
144,300,330498,6,0,P|126:255|145:191,1,105,4|0,1:3|1:0,1:0:0:0:
315,169,331129,2,0,P|344:171|354:170,1,35,8|0,0:0|1:0,0:0:0:0:
400,92,331445,2,0,P|387:65|381:57,1,35,0|0,1:0|1:0,1:0:0:0:
290,58,331761,2,0,P|273:82|268:92,1,35,4|0,1:3|1:0,1:0:0:0:
315,169,332077,2,0,P|344:171|354:170,1,35,0|0,1:0|1:0,1:0:0:0:
233,221,332392,1,8,0:0:0:0:
233,221,332550,2,0,L|197:177,1,35,0|0,1:0|1:0,1:0:0:0:
184,105,332866,1,0,1:0:0:0:
144,300,333024,5,12,0:3:0:0:
95,184,333182,1,0,1:0:0:0:
233,221,333340,1,0,1:0:0:0:
90,83,333498,5,12,0:3:0:0:
290,58,333656,1,0,1:0:0:0:
233,221,333813,1,0,1:0:0:0:
184,4,333971,5,12,0:3:0:0:
59,265,334129,1,0,1:0:0:0:
349,170,334287,1,0,1:0:0:0:
90,83,334445,6,0,L|45:73,2,35,12|0|0,0:3|1:0|1:0,0:0:0:0:
359,327,334919,2,0,L|350:389,1,35,12|0,0:3|1:0,0:0:0:0:
487,177,335235,2,0,L|496:239,1,35,12|0,0:3|1:0,0:0:0:0:
204,110,335550,5,0,1:0:0:0:
458,66,335708,1,0,1:0:0:0:
196,126,335866,1,0,1:0:0:0:
429,271,336024,1,0,1:0:0:0:
276,18,336182,2,0,L|153:6,1,105.000004005432,12|0,0:3|1:0,0:0:0:0:
124,81,336656,1,0,1:0:0:0:
194,256,336813,6,0,P|205:257|217:259,2,23.3333333333333,4|0|0,1:3|1:0|1:0,1:0:0:0:
164,151,337129,5,0,1:0:0:0:
182,142,337235,5,0,1:0:0:0:
195,127,337340,5,0,1:0:0:0:
204,110,337445,6,0,L|214:65,1,35,12|0,0:3|1:0,0:0:0:0:
34,105,337761,1,0,1:0:0:0:
144,0,337919,1,0,1:0:0:0:
302,153,338077,6,0,L|347:143,1,35,4|0,1:3|1:0,0:0:0:0:
442,246,338392,2,0,L|397:236,1,35,0|0,1:0|1:0,1:0:0:0:
410,65,338708,1,12,0:3:0:0:
229,249,338866,2,0,L|184:239,1,35,0|0,1:0|1:0,1:0:0:0:
106,107,339182,1,0,1:0:0:0:
32,254,339340,1,4,1:3:0:0:
229,121,339498,1,0,1:0:0:0:
126,334,339656,5,8,0:0:0:0:
34,105,339813,1,8,0:0:0:0:
229,249,339971,2,0,L|274:239,1,35,4|0,1:3|1:0,1:0:0:0:
410,65,340287,5,0,1:0:0:0:
407,238,340445,1,0,1:0:0:0:
215,18,340603,2,0,L|123:-2,1,70,4|0,1:3|1:0,1:0:0:0:
322,315,341235,6,0,P|351:317|361:316,1,35,12|0,0:0|1:0,0:0:0:0:
407,238,341550,2,0,P|394:211|388:203,1,35,0|0,1:0|1:0,1:0:0:0:
297,204,341866,2,0,P|280:228|275:238,1,35,4|0,1:3|1:0,1:0:0:0:
322,315,342182,2,0,P|351:317|361:316,1,35,0|0,1:0|1:0,1:0:0:0:
221,371,342498,1,12,0:3:0:0:
221,371,342656,2,0,L|185:327,1,35,0|0,1:0|1:0,1:0:0:0:
278,233,342971,1,0,1:0:0:0:
141,288,343129,5,12,1:3:0:0:
108,296,343208,1,0,1:0:0:0:
75,294,343287,1,0,1:0:0:0:
44,280,343366,1,0,1:0:0:0:
19,258,343445,1,0,1:0:0:0:
4,228,343524,1,0,1:0:0:0:
0,195,343603,5,12,1:3:0:0:
26,174,343682,1,0,1:0:0:0:
44,146,343761,1,0,1:0:0:0:
52,113,343840,1,0,1:0:0:0:
46,82,343919,1,0,1:0:0:0:
33,51,343998,1,0,1:0:0:0:
9,28,344077,5,12,1:3:0:0:
41,26,344156,1,0,1:0:0:0:
76,24,344235,1,0,1:0:0:0:
108,23,344313,1,0,1:0:0:0:
142,21,344392,1,0,1:0:0:0:
175,19,344471,1,0,1:0:0:0:
213,42,344550,5,12,1:3:0:0:
246,39,344629,1,0,1:0:0:0:
279,38,344708,1,0,1:0:0:0:
312,36,344787,1,0,1:0:0:0:
346,34,344866,1,0,1:0:0:0:
379,31,344945,1,0,1:0:0:0:
417,51,345024,6,0,P|426:77|426:102,1,35,12|0,0:3|0:0,0:0:0:0:
329,212,345340,2,0,P|335:195|344:181,1,35,4|0,1:3|0:0,0:0:0:0:
473,318,345656,6,0,B|419:281|359:326|359:326|335:306|335:306|272:356|208:307,1,280,4|0,1:3|1:0,1:0:0:0:
256,192,347077,12,0,349129,0:0:0:0:
