osu file format v14

[General]
AudioFilename: audio.ogg
AudioLeadIn: 0
PreviewTime: 236644
Countdown: 0
SampleSet: Soft
StackLeniency: 0.4
Mode: 0
LetterboxInBreaks: 0
WidescreenStoryboard: 0

[Editor]
Bookmarks: 21533,31505,53712,75499,75583,75667,75751,75835,75918,76002,76086,76170,76254,76337,76421,76505,76589,76673,76756,76840,76924,77008,77092,77175,77259,77343,77427,77511,77594,77678,77762,77846,77930,78013,78097,78181,78265,78349,78432,78516,78600,78684,78768,78851,78935,79019,79103,79187,79270,79354,79438,79522,79606,79689,79773,79857,79941,80025,80108,80192,80276,80360,80444,80527,80611,80695,80779,80863,80946,81030,81114,81198,81282,81365,81449,81533,81617,81701,81784,81868,81952,82036,82120,82203,82287,82371,82455,82539,82622,82706,82790,82874,82958,83041,83125,83209,83293,83377,83460,83544,83628,83712,83796,83879,83963,84047,84131,84215,84298,84382,84466,84550,84634,84717,84801,84885,84969,85053,85136,85220,85304,85388,85472,85555,85639,85723,85807,85891,85974,86058,86142,86226,86310,86393,86477,86561,86645,86729,86812,86896,86980,87064,87148,87231,87315,87399,87483,87567,87650,87734,87818,87902,87986,88069,88153,88237,88321,88405,88488,88572,88656,88740,88824,88907,88991,89075,89159,89243,89326,89410,89494,89578,89662,89745,89829,89913,89997,90081,90164,90248,90332,90416,90499,90583,90667,90751,90835,90918,91002,91086,91170,91254,91337,91421,91505,91589,91673,91756,91840,91924,92008,92092,92175,92259,92343,92427,92511,92594,92678,92762,92846,92930,93013,93097,93181,93265,93349,93432,93516,93600,93684,93768,93851,93935,94019,94103,94187,94270,94354,94438,94522,94606,94689,94773,94857,94941,95025,95108,95192,95276,118069,142874,164326,185779,207231,228684,228767,228851,228935,229019,229103,229186,229270,229354,229438,229522,229605,229689,229773,229857,229941,230024,230108,230192,230276,230360,230443,230527,230611,230695,230779,230862,230946,231030,231114,231198,231281,231365,231449,231533,231617,231700,231784,231868,231952,232036,232119,232203,232287,232371,232455,232538,232622,232706,232790,232874,232957,233041,233125,233209,233292,233376,233460,233544,233628,233711,233795,233879,233963,234047,239410,260862,282315,303767,314494,324885,326728,332594,333265
DistanceSpacing: 0.2
BeatDivisor: 4
GridSize: 16
TimelineZoom: 2.999998

[Metadata]
Title:The Black Heart
TitleUnicode:The Black Heart
Artist:Orden Ogan
ArtistUnicode:Orden Ogan
Creator:TritoBandito
Version:Shattered Dreams of Easton Hope
Source:
Tags:AFM Records Sebastian Seeb Levermann Tobias Tobi Kersting Niels Spoony Löffler Dirk Dirki Meyer-Berhorn Steven Wussow Easton Hope English Power Heavy Metal Rock Folk Pirate Stream Streams Jump Jumps
BeatmapID:4445617
BeatmapSetID:2116905

[Difficulty]
HPDrainRate:4.5
CircleSize:4
OverallDifficulty:9.2
ApproachRate:9.5
SliderMultiplier:1.8
SliderTickRate:1

[Events]
//Background and Video events
0,0,"background.jpg",0,0
//Break Periods
2,75333,95276
2,228853,232727
2,282484,283602
//Storyboard Layer 0 (Background)
//Storyboard Layer 1 (Fail)
//Storyboard Layer 2 (Pass)
//Storyboard Layer 3 (Foreground)
//Storyboard Layer 4 (Overlay)
//Storyboard Sound Samples

[TimingPoints]
50,335.195530726257,4,2,1,49,1,0
50,-83.3333333333333,4,2,1,50,0,0
2061,-66.6666666666667,4,2,1,50,0,0
2312,-66.6666666666667,4,2,1,5,0,0
2396,-100,4,2,1,50,0,0
2647,-66.6666666666667,4,2,1,5,0,0
2731,-83.3333333333333,4,2,1,50,0,0
7424,-66.6666666666667,4,2,1,50,0,0
7675,-66.6666666666667,4,2,1,5,0,0
7759,-100,4,2,1,50,0,0
8010,-66.6666666666667,4,2,1,5,0,0
8094,-83.3333333333333,4,2,1,50,0,0
10441,-100,4,2,1,50,0,0
10776,-83.3333333333333,4,2,1,50,0,0
12787,-66.6666666666667,4,2,1,50,0,0
13038,-66.6666666666667,4,2,1,5,0,0
13122,-100,4,2,1,50,0,0
13374,-66.6666666666667,4,2,1,5,0,0
13457,-83.3333333333333,4,2,1,50,0,0
18150,-66.6666666666667,4,2,1,50,0,0
18401,-66.6666666666667,4,2,1,5,0,0
18485,-100,4,2,1,50,0,0
18737,-66.6666666666667,4,2,1,5,0,0
18820,-83.3333333333333,4,2,1,50,0,0
21502,-100,4,2,1,65,0,0
32228,-83.3333333333333,4,2,1,75,0,1
34239,-66.6666666666667,4,2,1,75,0,1
34491,-66.6666666666667,4,2,1,5,0,1
34575,-100,4,2,1,75,0,1
34826,-66.6666666666667,4,2,1,5,0,1
34910,-83.3333333333333,4,2,1,75,0,1
39603,-66.6666666666667,4,2,1,75,0,1
39855,-66.6666666666667,4,2,1,5,0,1
39938,-100,4,2,1,75,0,1
40190,-66.6666666666667,4,2,1,5,0,1
40273,-83.3333333333333,4,2,1,75,0,1
44966,-66.6666666666667,4,2,1,75,0,1
45218,-66.6666666666667,4,2,1,5,0,1
45301,-100,4,2,1,75,0,1
45553,-66.6666666666667,4,2,1,5,0,1
45636,-83.3333333333333,4,2,1,75,0,1
50329,-66.6666666666667,4,2,1,75,0,1
50581,-66.6666666666667,4,2,1,5,0,1
50664,-100,4,2,1,75,0,1
50916,-66.6666666666667,4,2,1,5,0,1
50999,-83.3333333333333,4,2,1,75,0,1
53681,-100,4,2,1,55,0,0
55943,-100,4,2,1,5,0,0
56027,-100,4,2,1,55,0,0
56279,-100,4,2,1,5,0,0
56363,-100,4,2,1,55,0,0
61306,-100,4,2,1,5,0,0
61390,-100,4,2,1,55,0,0
61642,-100,4,2,1,5,0,0
61726,-100,4,2,1,55,0,0
66670,-100,4,2,1,5,0,0
66754,-100,4,2,1,55,0,0
67005,-100,4,2,1,5,0,0
67089,-100,4,2,1,55,0,0
72033,-100,4,2,1,5,0,0
72117,-100,4,2,1,55,0,0
72368,-100,4,2,1,5,0,0
72452,-100,4,2,1,55,0,0
95915,-250,4,2,2,45,0,0
96586,-166.666666666667,4,2,2,45,0,0
97424,-166.666666666667,4,2,2,5,0,0
97508,-166.666666666667,4,2,2,45,0,0
97759,-166.666666666667,4,2,2,5,0,0
97843,-166.666666666667,4,2,2,45,0,0
97927,-200,4,2,2,45,0,0
98513,-200,4,2,2,5,0,0
98597,-200,4,2,2,45,0,0
99267,-250.000000000001,4,2,2,45,0,0
100105,-250.000000000001,4,2,2,5,0,0
100189,-250.000000000001,4,2,2,45,0,0
100441,-250.000000000001,4,2,2,5,0,0
100525,-250.000000000001,4,2,2,45,0,0
101195,-250.000000000001,4,2,2,5,0,0
101279,-250.000000000001,4,2,2,45,0,0
101949,-250.000000000001,4,2,2,45,0,0
102787,-250.000000000001,4,2,2,5,0,0
102871,-250.000000000001,4,2,2,45,0,0
103122,-250.000000000001,4,2,2,5,0,0
103206,-250.000000000001,4,2,2,45,0,0
105468,-250.000000000001,4,2,2,5,0,0
105552,-250.000000000001,4,2,2,45,0,0
105804,-250.000000000001,4,2,2,5,0,0
105888,-250.000000000001,4,2,2,45,0,0
106558,-250.000000000001,4,2,2,5,0,0
106642,-250.000000000001,4,2,2,45,0,0
107312,-125,4,2,2,45,0,0
108150,-250.000000000001,4,2,2,5,0,0
108234,-250.000000000001,4,2,2,45,0,0
108318,-142.857142857143,4,2,2,45,0,0
108485,-250.000000000001,4,2,2,5,0,0
108569,-250.000000000001,4,2,2,45,0,0
108653,-166.666666666667,4,2,2,45,0,0
109239,-166.666666666667,4,2,2,5,0,0
109323,-166.666666666667,4,2,2,45,0,0
109994,-125,4,2,2,45,0,0
110496,-166.666666666667,4,2,2,5,0,0
110580,-166.666666666667,4,2,2,45,0,0
110664,-166.666666666667,4,2,2,45,0,0
110832,-166.666666666667,4,2,2,5,0,0
110915,-166.666666666667,4,2,2,45,0,0
111921,-166.666666666667,4,2,2,5,0,0
112004,-166.666666666667,4,2,2,45,0,0
113513,-166.666666666667,4,2,2,5,0,0
113596,-166.666666666667,4,2,2,45,0,0
113848,-166.666666666667,4,2,2,5,0,0
113931,-166.666666666667,4,2,2,45,0,0
116195,-166.666666666667,4,2,2,5,0,0
116278,-166.666666666667,4,2,2,45,0,0
116530,-166.666666666667,4,2,2,5,0,0
116613,-166.666666666667,4,2,2,45,0,0
117368,-125,4,2,2,45,0,0
118038,-100,4,2,1,60,0,0
118876,-166.666666666667,4,2,2,5,0,0
119044,-250,4,2,1,60,0,0
119212,-166.666666666667,4,2,2,5,0,0
119379,-125,4,2,1,60,0,0
120217,-166.666666666667,4,2,2,5,0,0
120385,-250,4,2,1,60,0,0
120552,-166.666666666667,4,2,2,5,0,0
120720,-166.666666666667,4,2,1,60,0,0
123401,-125,4,2,1,60,0,0
124658,-166.666666666667,4,2,2,5,0,0
124742,-100,4,2,1,60,0,0
125999,-166.666666666667,4,2,2,5,0,0
126083,-166.666666666667,4,2,1,60,0,0
126670,-166.666666666667,4,2,1,5,0,0
126753,-166.666666666667,4,2,1,60,0,0
127340,-166.666666666667,4,2,1,5,0,0
127423,-166.666666666667,4,2,1,60,0,0
128681,-166.666666666667,4,2,1,5,0,0
128764,-100,4,2,1,60,0,0
130105,-142.857142857143,4,2,1,60,0,0
130943,-142.857142857143,4,2,1,5,0,0
131111,-250,4,2,1,60,0,0
131279,-142.857142857143,4,2,1,5,0,0
131446,-100,4,2,1,60,0,0
132033,-142.857142857143,4,2,1,5,0,0
132117,-125,4,2,1,60,0,0
132703,-142.857142857143,4,2,1,5,0,0
132787,-166.666666666667,4,2,1,60,0,0
133793,-142.857142857143,4,2,1,5,0,0
134128,-166.666666666667,4,2,1,60,0,0
134966,-166.666666666667,4,2,1,5,0,0
135050,-166.666666666667,4,2,1,60,0,0
135301,-166.666666666667,4,2,1,5,0,0
135385,-166.666666666667,4,2,1,60,0,0
139407,-166.666666666667,4,2,1,5,0,0
139491,-166.666666666667,4,2,1,60,0,0
140832,-83.3333333333333,4,2,1,50,0,0
141083,-83.3333333333333,4,2,1,5,0,0
141167,-83.3333333333333,4,2,1,60,0,0
142172,-500,4,2,1,60,0,0
142759,-500,4,2,1,5,0,0
142843,335.195530726257,4,2,1,49,1,0
142843,-125,4,2,1,55,0,0
164295,-90.9090909090909,4,2,5,70,0,1
164379,-90.9090909090909,4,2,1,70,0,1
175021,-90.9090909090909,4,2,5,70,0,1
175105,-90.9090909090909,4,2,1,70,0,1
185245,-90.9090909090909,4,2,1,70,0,0
185748,-90.9090909090909,4,2,5,70,0,1
185831,-90.9090909090909,4,2,1,70,0,1
196474,-90.9090909090909,4,2,5,70,0,1
196557,-90.9090909090909,4,2,1,70,0,1
207200,-100,4,2,3,65,0,0
207284,-100,4,2,1,65,0,0
207703,-100,4,2,3,65,0,0
207787,-100,4,2,1,65,0,0
208206,-100,4,2,3,65,0,0
208290,-100,4,2,1,65,0,0
209463,-100,4,2,1,5,0,0
209546,-100,4,2,1,65,0,0
209798,-100,4,2,1,5,0,0
209882,-100,4,2,3,65,0,0
209966,-100,4,2,1,65,0,0
210384,-100,4,2,3,65,0,0
210468,-100,4,2,1,65,0,0
210887,-100,4,2,3,65,0,0
210971,-100,4,2,1,65,0,0
212563,-100,4,2,3,65,0,0
212647,-100,4,2,1,65,0,0
213066,-100,4,2,3,65,0,0
213150,-100,4,2,1,65,0,0
213569,-100,4,2,3,65,0,0
213653,-100,4,2,1,65,0,0
214072,-100,4,2,3,65,0,0
214156,-100,4,2,1,65,0,0
214826,-100,4,2,1,5,0,0
214909,-100,4,2,1,65,0,0
215161,-100,4,2,1,5,0,0
215245,-100,4,2,3,65,0,0
215329,-100,4,2,1,65,0,0
215748,-100,4,2,3,65,0,0
215832,-100,4,2,1,65,0,0
216250,-100,4,2,3,65,0,0
216334,-100,4,2,1,65,0,0
217926,-100,4,2,3,65,0,0
218010,-100,4,2,1,65,0,0
218429,-100,4,2,3,65,0,0
218513,-100,4,2,1,65,0,0
218932,-100,4,2,3,65,0,0
219016,-100,4,2,1,65,0,0
219435,-100,4,2,3,65,0,0
219519,-100,4,2,1,65,0,0
220189,-100,4,2,1,5,0,0
220272,-100,4,2,1,65,0,0
220524,-100,4,2,1,5,0,0
220608,-100,4,2,3,65,0,0
220692,-100,4,2,1,65,0,0
221111,-100,4,2,3,65,0,0
221195,-100,4,2,1,65,0,0
221613,-100,4,2,3,65,0,0
221697,-100,4,2,1,65,0,0
223289,-100,4,2,3,65,0,0
223373,-100,4,2,1,65,0,0
223792,-100,4,2,3,65,0,0
223876,-100,4,2,1,65,0,0
224295,-100,4,2,3,65,0,0
224379,-100,4,2,1,65,0,0
224798,-100,4,2,3,65,0,0
224882,-100,4,2,1,65,0,0
225552,-100,4,2,1,5,0,0
225635,-100,4,2,1,65,0,0
225887,-100,4,2,1,5,0,0
225971,-100,4,2,3,65,0,0
226055,-100,4,2,1,65,0,0
226977,-100,4,2,3,65,0,0
227061,-100,4,2,1,65,0,0
228234,-100,4,2,1,5,0,0
228318,-100,4,2,1,65,0,0
228401,-100,4,2,1,5,0,0
228485,-100,4,2,1,65,0,0
234016,-100,4,2,1,30,0,0
234183,-100,4,2,1,33,0,0
234351,-100,4,2,1,36,0,0
234518,-100,4,2,1,39,0,0
234686,-100,4,2,1,42,0,0
234854,-100,4,2,1,45,0,0
235021,-100,4,2,1,48,0,0
235189,-100,4,2,1,51,0,0
235356,-100,4,2,1,54,0,0
235524,-100,4,2,1,57,0,0
235692,-100,4,2,1,60,0,0
235859,-100,4,2,1,63,0,0
236027,-100,4,2,1,66,0,0
236194,-100,4,2,1,69,0,0
236362,-100,4,2,1,72,0,0
236530,-100,4,2,1,75,0,0
236697,-100,4,2,1,50,0,0
237032,-100,4,2,1,60,0,0
237368,-100,4,2,1,70,0,0
237703,-100,4,2,1,80,0,0
238038,-100,4,2,1,90,0,0
238373,-100,4,2,1,80,0,0
238708,-100,4,2,1,70,0,0
239044,-100,4,2,1,60,0,0
239379,-100,4,2,6,80,0,1
239463,-100,4,2,1,80,0,1
250105,-100,4,2,7,80,0,1
250189,-100,4,2,1,80,0,1
260831,-125,4,2,1,60,0,0
261837,-125,4,2,1,5,0,0
261921,-125,4,2,1,60,0,0
263010,-125,4,2,1,5,0,0
263094,-125,4,2,1,60,0,0
263345,-125,4,2,1,5,0,0
263429,-125,4,2,1,60,0,0
263848,-125,4,2,1,5,0,0
263932,-125,4,2,1,60,0,0
265356,-125,4,2,1,5,0,0
265440,-125,4,2,1,60,0,0
266697,-125,4,2,1,5,0,0
266781,-125,4,2,1,60,0,0
267870,-125,4,2,1,5,0,0
267954,-125,4,2,1,60,0,0
269379,-125,4,2,1,5,0,0
269463,-125,4,2,1,60,0,0
270217,-125,4,2,1,40,0,0
270384,-125,4,2,1,46,0,0
270552,-125,4,2,1,49,0,0
270720,-125,4,2,1,52,0,0
270887,-125,4,2,1,55,0,0
271055,-125,4,2,1,58,0,0
271222,-125,4,2,1,61,0,0
271390,-125,4,2,1,64,0,0
271558,-111.111111111111,4,2,1,70,0,0
284127,-111.111111111111,4,2,1,50,0,0
284965,-90.9090909090909,4,2,5,80,0,1
285049,-90.9090909090909,4,2,1,80,0,1
293010,-90.9090909090909,4,2,5,80,0,1
293094,-90.9090909090909,4,2,1,80,0,1
303736,-100,4,2,5,80,0,0
303820,-100,4,2,1,80,0,0
308764,-142.857142857143,4,2,1,80,0,0
309099,-100,4,2,5,80,0,0
309183,-100,4,2,1,80,0,0
314127,-83.3333333333333,4,2,1,80,0,0
314463,-100,4,2,5,90,0,1
314546,-100,4,2,1,90,0,1
315133,-100,4,2,3,90,0,1
315217,-100,4,2,1,90,0,1
315803,-100,4,2,3,90,0,1
315887,-100,4,2,1,90,0,1
316474,-100,4,2,3,90,0,1
316558,-100,4,2,1,90,0,1
317144,-100,4,2,3,90,0,1
317228,-100,4,2,1,90,0,1
318150,-100,4,2,3,90,0,1
318234,-100,4,2,1,90,0,1
318485,-100,4,2,3,90,0,1
318569,-100,4,2,1,90,0,1
319826,-100,4,2,5,90,0,1
319909,-100,4,2,1,90,0,1
320831,-100,4,2,3,90,0,1
320915,-100,4,2,1,90,0,1
321167,-100,4,2,3,90,0,1
321251,-100,4,2,1,90,0,1
321837,-100,4,2,3,90,0,1
321921,-100,4,2,1,90,0,1
322507,-100,4,2,3,90,0,1
322591,-100,4,2,1,90,0,1
325189,-100,4,2,1,70,0,0
327870,-100,4,2,1,80,0,1
329882,-100,4,2,1,70,0,0
330552,-100,4,2,1,100,0,1
333234,-83.3333333333333,4,2,1,70,0,0
335245,-66.6666666666667,4,2,1,70,0,0
335496,-66.6666666666667,4,2,1,5,0,0
335580,-100,4,2,1,70,0,0
335831,-66.6666666666667,4,2,1,5,0,0
335915,-83.3333333333333,4,2,1,70,0,0
340608,-66.6666666666667,4,2,1,70,0,0
340859,-66.6666666666667,4,2,1,5,0,0
340943,-100,4,2,1,70,0,0
341194,-66.6666666666667,4,2,1,5,0,0
341278,-83.3333333333333,4,2,1,70,0,0
343625,-100,4,2,1,70,0,0
343960,-83.3333333333333,4,2,1,70,0,0
345971,-66.6666666666667,4,2,1,70,0,0
346222,-66.6666666666667,4,2,1,5,0,0
346306,-100,4,2,1,70,0,0
346558,-66.6666666666667,4,2,1,5,0,0
346641,-83.3333333333333,4,2,1,70,0,0
351334,-66.6666666666667,4,2,1,70,0,0
351585,-66.6666666666667,4,2,1,5,0,0
351669,-100,4,2,1,70,0,0
351921,-66.6666666666667,4,2,1,5,0,0
352004,-83.3333333333333,4,2,1,70,0,0
354686,-100,4,2,1,70,0,0
355775,-100,4,2,1,5,0,0
355859,-71.4285714285714,4,2,1,70,0,0
356697,-50,4,2,1,5,0,0

[Colours]
Combo1 : 251,103,53
Combo2 : 255,128,128
Combo3 : 241,167,54
Combo4 : 147,81,15

[HitObjects]
131,133,50,5,6,3:2:0:0:
285,89,217,1,8,0:0:0:0:
285,89,301,1,8,0:0:0:0:
285,89,385,2,0,L|216:80,1,53.9999983520508,8|8,0:0|0:0,0:0:0:0:
46,62,552,5,6,3:2:0:0:
138,142,720,1,8,0:0:0:0:
144,150,804,1,8,0:0:0:0:
148,159,887,1,8,0:0:0:0:
151,169,971,1,8,0:0:0:0:
153,179,1055,5,6,3:2:0:0:
39,222,1223,2,0,P|43:197|48:163,1,53.9999983520508,8|8,0:0|0:0,0:0:0:0:
231,82,1390,2,0,P|235:107|240:141,1,53.9999983520508,8|8,0:0|0:0,0:0:0:0:
275,354,1558,5,6,0:0:0:0:
182,265,1725,1,8,0:0:0:0:
198,266,1809,1,8,0:0:0:0:
214,267,1893,1,8,0:0:0:0:
230,268,1977,1,8,0:0:0:0:
246,269,2061,6,0,B|316:275|316:275|316:273|316:273|388:278|388:278|440:238,1,202.500007724762,6|0,3:2|0:0,0:0:0:0:
361,114,2396,2,0,P|314:112|305:194,1,135,6|0,3:2|0:0,0:0:0:0:
434,242,2731,5,6,3:2:0:0:
512,152,2899,1,8,0:0:0:0:
512,152,2982,1,8,0:0:0:0:
512,152,3066,2,0,L|444:148,1,53.9999983520508,8|8,0:0|0:0,0:0:0:0:
266,110,3234,5,6,3:2:0:0:
433,28,3401,1,8,0:0:0:0:
432,37,3485,1,8,0:0:0:0:
431,46,3569,1,8,0:0:0:0:
430,55,3653,1,8,0:0:0:0:
429,64,3737,1,6,3:2:0:0:
213,172,3904,5,8,0:0:0:0:
193,144,3987,1,8,0:0:0:0:
186,111,4071,1,8,0:0:0:0:
193,79,4155,1,8,0:0:0:0:
212,51,4239,1,8,3:0:0:0:
350,116,4407,6,0,L|290:110,1,53.9999983520508,8|8,0:0|0:0,0:0:0:0:
115,270,4575,2,0,L|175:264,1,53.9999983520508,8|8,0:0|0:0,0:0:0:0:
307,254,4742,5,8,3:0:0:0:
311,242,4910,1,4,3:0:0:0:
242,312,5077,5,8,3:0:0:0:
246,324,5161,1,8,3:0:0:0:
250,336,5245,1,4,3:0:0:0:
254,348,5329,1,4,3:0:0:0:
258,360,5413,5,6,3:2:0:0:
399,266,5580,1,8,0:0:0:0:
399,266,5664,1,8,0:0:0:0:
399,266,5748,2,0,L|413:213,1,53.9999983520508,8|8,0:0|0:0,0:0:0:0:
150,351,5915,5,6,3:2:0:0:
224,226,6083,1,8,0:0:0:0:
214,225,6167,1,8,0:0:0:0:
204,224,6251,1,8,0:0:0:0:
195,223,6334,1,8,0:0:0:0:
185,222,6418,5,6,3:2:0:0:
53,238,6586,2,0,P|40:262|39:289,1,53.9999983520508,8|8,0:0|0:0,0:0:0:0:
184,98,6753,2,0,P|183:71|170:47,1,53.9999983520508,8|8,0:0|0:0,0:0:0:0:
87,137,6921,5,6,3:2:0:0:
278,45,7089,1,8,0:0:0:0:
295,47,7172,1,8,0:0:0:0:
311,53,7256,1,8,0:0:0:0:
325,63,7340,1,8,0:0:0:0:
338,75,7424,6,0,B|333:140|333:140|334:138|334:138|328:220|328:220|300:160,1,202.500007724762,6|0,3:2|0:0,0:0:0:0:
418,102,7759,2,0,P|445:94|503:174,1,135,6|0,3:2|0:0,0:0:0:0:
483,315,8094,5,6,3:2:0:0:
424,192,8262,1,8,0:0:0:0:
424,192,8346,1,8,0:0:0:0:
424,192,8430,2,0,L|420:248,1,53.9999983520508,8|8,0:0|0:0,0:0:0:0:
417,380,8597,5,6,3:2:0:0:
321,290,8765,1,8,0:0:0:0:
304,282,8848,1,8,0:0:0:0:
286,277,8932,1,8,0:0:0:0:
267,277,9016,1,8,0:0:0:0:
249,282,9100,5,6,3:2:0:0:
146,354,9267,2,0,P|120:358|71:342,1,53.9999983520508,0|0,3:0|3:0,0:0:0:0:
33,274,9435,5,8,3:0:0:0:
39,252,9519,1,8,3:0:0:0:
45,230,9603,1,8,3:0:0:0:
51,208,9686,1,8,3:0:0:0:
90,183,9770,5,4,3:0:0:0:
86,171,9854,1,4,3:0:0:0:
83,159,9938,1,4,3:0:0:0:
80,147,10021,1,4,3:0:0:0:
49,115,10105,6,0,L|63:62,1,53.9999983520508,8|8,3:0|3:0,0:0:0:0:
42,110,10273,2,0,L|56:57,1,53.9999983520508,8|8,3:0|3:0,0:0:0:0:
190,2,10441,6,0,L|204:55,1,45,4|4,3:0|3:0,0:0:0:0:
183,7,10609,2,0,L|197:60,1,45,4|4,3:0|3:0,0:0:0:0:
251,250,10776,5,6,3:2:0:0:
187,161,10943,1,8,0:0:0:0:
187,161,11026,1,8,0:0:0:0:
187,161,11111,2,0,L|240:147,1,53.9999983520508,8|8,2:2|2:2,0:0:0:0:
468,164,11279,5,6,3:2:0:0:
386,55,11446,1,8,0:0:0:0:
367,67,11530,1,8,0:0:0:0:
355,86,11614,1,8,0:0:0:0:
347,107,11698,1,8,0:0:0:0:
345,129,11781,5,6,3:2:0:0:
456,283,11949,2,0,P|429:276|397:270,1,53.9999983520508,8|8,0:0|0:0,0:0:0:0:
290,229,12117,2,0,P|262:237|232:243,1,53.9999983520508,8|8,0:0|0:0,0:0:0:0:
125,270,12284,5,6,3:2:0:0:
288,340,12452,1,8,0:0:0:0:
266,334,12536,1,8,0:0:0:0:
244,329,12619,1,8,0:0:0:0:
222,322,12703,1,8,0:0:0:0:
202,317,12787,6,0,B|216:224|216:224|218:221|218:221|239:82,1,202.500007724762,6|0,3:2|0:0,0:0:0:0:
130,164,13122,2,0,P|90:175|48:100,1,135,6|0,3:2|0:0,0:0:0:0:
0,7,13457,5,6,3:2:0:0:
157,13,13625,1,8,0:0:0:0:
157,13,13709,1,8,0:0:0:0:
157,13,13793,2,0,L|147:89,1,53.9999983520508,8|8,0:0|0:0,0:0:0:0:
124,263,13960,5,6,3:2:0:0:
256,199,14128,1,8,0:0:0:0:
277,192,14212,1,8,0:0:0:0:
299,191,14295,1,8,0:0:0:0:
320,196,14379,1,8,0:0:0:0:
340,205,14463,1,6,3:2:0:0:
485,366,14631,5,8,0:0:0:0:
451,352,14714,1,8,0:0:0:0:
429,323,14798,1,8,0:0:0:0:
426,287,14882,1,8,0:0:0:0:
444,255,14966,1,8,3:0:0:0:
412,108,15133,6,0,L|422:162,1,53.9999983520508,8|8,0:0|0:0,0:0:0:0:
284,338,15301,2,0,L|294:284,1,53.9999983520508,8|8,0:0|0:0,0:0:0:0:
205,127,15468,5,8,3:0:0:0:
195,122,15636,1,4,3:0:0:0:
267,197,15804,5,8,3:0:0:0:
277,192,15887,1,8,3:0:0:0:
287,187,15971,1,4,3:0:0:0:
297,182,16055,1,4,3:0:0:0:
307,177,16139,5,6,3:2:0:0:
158,275,16306,1,8,0:0:0:0:
158,275,16390,1,8,0:0:0:0:
158,275,16474,2,0,L|168:221,1,53.9999983520508,8|8,0:0|0:0,0:0:0:0:
195,34,16642,5,6,3:2:0:0:
315,174,16809,2,0,L|305:120,1,53.9999983520508,8|8,0:0|0:0,0:0:0:0:
151,117,16977,2,0,L|205:127,1,53.9999983520508,8|8,0:0|0:0,0:0:0:0:
436,163,17144,5,6,3:2:0:0:
325,277,17312,1,8,0:0:0:0:
311,293,17396,1,8,0:0:0:0:
302,312,17480,1,8,0:0:0:0:
300,333,17563,1,8,0:0:0:0:
304,354,17647,5,6,3:2:0:0:
479,269,17815,1,8,0:0:0:0:
479,269,17899,1,8,0:0:0:0:
479,269,17982,2,0,L|421:259,1,53.9999983520508,8|8,0:0|0:0,0:0:0:0:
199,379,18150,6,0,B|205:369|205:369|288:355|288:355|287:357|287:357|380:342|380:342|389:348,1,202.500007724762,6|0,3:2|0:0,0:0:0:0:
218,278,18485,2,0,P|187:243|199:148,1,135,6|0,3:2|0:0,0:0:0:0:
396,100,18820,5,6,3:2:0:0:
330,196,18988,1,8,0:0:0:0:
330,196,19072,1,8,0:0:0:0:
330,196,19156,2,0,L|264:204,1,53.9999983520508,8|8,0:0|0:0,0:0:0:0:
85,231,19323,5,6,3:2:0:0:
267,119,19491,2,0,P|280:87|279:65,1,53.9999983520508,8|8,0:0|0:0,0:0:0:0:
80,91,19658,2,0,P|88:117|106:138,1,53.9999983520508,8|8,0:0|0:0,0:0:0:0:
182,71,19826,5,6,3:2:0:0:
182,71,19994,2,0,L|174:4,1,53.9999983520508,0|0,3:0|3:0,0:0:0:0:
21,289,20161,5,8,3:0:0:0:
66,317,20245,1,8,3:0:0:0:
114,313,20329,1,8,3:0:0:0:
148,287,20413,1,8,3:0:0:0:
165,253,20496,1,4,3:0:0:0:
188,231,20580,1,4,3:0:0:0:
212,219,20664,1,4,3:0:0:0:
233,217,20748,1,4,3:0:0:0:
248,220,20832,6,0,P|271:246|272:278,1,53.9999983520508,8|8,3:0|3:0,0:0:0:0:
347,300,20999,2,0,P|344:334|322:357,1,53.9999983520508,8|8,3:0|3:0,0:0:0:0:
228,371,21167,5,4,3:0:0:0:
229,365,21251,1,4,3:0:0:0:
230,360,21334,1,4,3:0:0:0:
232,355,21418,1,4,3:0:0:0:
233,350,21502,5,14,3:2:0:0:
181,367,21586,1,0,3:2:0:0:
129,350,21670,1,0,3:2:0:0:
103,303,21753,1,0,3:2:0:0:
107,249,21837,1,8,3:2:0:0:
142,208,21921,1,0,3:2:0:0:
194,195,22005,6,0,P|223:199|245:220,1,45,2|0,3:2|3:2,3:2:0:0:
346,299,22172,2,0,P|368:298|388:287,1,45,8|0,3:2|3:2,3:2:0:0:
430,99,22340,5,2,3:2:0:0:
399,72,22424,1,0,3:2:0:0:
358,72,22508,1,8,3:2:0:0:
325,94,22591,1,0,3:2:0:0:
311,132,22675,1,0,3:2:0:0:
321,171,22759,1,0,3:2:0:0:
350,198,22843,5,10,3:2:0:0:
388,159,22927,1,0,3:2:0:0:
388,105,23010,1,0,3:2:0:0:
359,58,23094,1,0,3:2:0:0:
306,46,23178,1,8,3:2:0:0:
255,66,23262,1,0,3:2:0:0:
230,114,23346,1,0,3:2:0:0:
236,167,23429,1,0,3:2:0:0:
212,215,23513,1,8,3:2:0:0:
162,237,23597,1,0,3:2:0:0:
109,221,23681,1,0,3:2:0:0:
80,175,23765,1,0,3:2:0:0:
84,121,23848,1,8,3:2:0:0:
123,84,23932,1,0,3:2:0:0:
129,34,24016,1,0,3:2:0:0:
90,2,24100,1,0,3:2:0:0:
40,9,24184,6,0,P|13:31|13:54,1,45,10|0,3:2|3:0,0:0:0:0:
80,175,24351,1,0,3:0:0:0:
93,173,24435,1,0,3:0:0:0:
106,171,24519,2,0,L|164:163,1,45,10|0,3:2|3:0,0:0:0:0:
337,104,24686,6,0,L|345:46,3,45,2|0|8|0,3:2|3:0|3:2|3:0,0:0:0:0:
254,193,25022,2,0,L|246:135,3,45,2|0|8|0,3:2|3:0|3:2|3:0,0:0:0:0:
365,208,25357,5,2,3:2:0:0:
365,208,25441,1,0,3:2:0:0:
365,208,25524,2,0,L|435:217,1,45,8|0,3:2|3:0,0:0:0:0:
181,276,25692,5,2,3:2:0:0:
181,276,25776,1,0,3:2:0:0:
181,276,25859,2,0,L|111:285,1,45,8|0,3:2|3:0,0:0:0:0:
303,350,26027,5,2,3:2:0:0:
303,350,26111,1,0,3:2:0:0:
303,350,26194,2,0,L|294:280,1,45,8|0,3:2|3:0,0:0:0:0:
314,342,26362,2,0,L|307:297,1,45,0|0,3:2|3:2,0:0:0:0:
113,202,26530,5,8,3:2:0:0:
103,203,26614,1,0,3:2:0:0:
94,207,26698,1,0,3:2:0:0:
88,213,26781,1,0,3:2:0:0:
82,220,26865,5,6,3:2:0:0:
133,236,26949,1,0,3:2:0:0:
183,215,27033,1,0,3:2:0:0:
210,168,27117,1,0,3:2:0:0:
203,114,27200,1,8,3:2:0:0:
161,79,27284,1,0,3:2:0:0:
107,73,27368,2,0,P|83:84|70:104,1,45,2|0,3:2|3:0,0:0:0:0:
252,42,27536,5,8,3:2:0:0:
252,42,27619,1,0,3:2:0:0:
252,42,27703,2,0,P|254:15|243:-5,1,45,0|0,3:2|3:0,0:0:0:0:
217,176,27871,5,10,3:2:0:0:
217,176,27954,1,0,3:2:0:0:
217,176,28038,2,0,P|238:191|262:192,1,45,0|0,3:2|3:0,0:0:0:0:
409,82,28206,5,10,3:2:0:0:
453,86,28290,1,0,3:2:0:0:
488,117,28374,1,0,3:2:0:0:
496,161,28457,1,0,3:2:0:0:
476,201,28541,1,8,3:2:0:0:
435,218,28625,1,0,3:2:0:0:
390,212,28709,1,2,3:2:0:0:
349,229,28793,1,0,3:2:0:0:
322,267,28876,1,8,3:2:0:0:
322,314,28960,1,0,3:2:0:0:
344,355,29044,1,0,3:2:0:0:
382,379,29128,1,0,3:2:0:0:
428,380,29212,1,8,3:2:0:0:
466,357,29295,1,0,3:2:0:0:
488,318,29379,2,0,P|491:294|485:265,1,45,0|0,3:0|3:0,0:0:0:0:
368,122,29547,5,14,3:2:0:0:
321,94,29631,1,0,3:0:0:0:
267,100,29714,1,0,3:0:0:0:
227,136,29798,1,0,3:0:0:0:
217,189,29882,1,8,3:2:0:0:
177,225,29966,1,0,3:0:0:0:
122,223,30050,2,0,P|96:212|77:185,1,45,2|0,3:2|3:0,0:0:0:0:
134,72,30217,5,8,3:2:0:0:
140,77,30301,1,0,3:2:0:0:
146,82,30385,2,0,L|137:150,1,45,0|0,3:0|3:0,0:0:0:0:
0,229,30552,2,0,L|9:297,3,45,10|0|0|0,3:2|3:0|3:0|3:0,0:0:0:0:
67,357,30887,5,10,3:2:0:0:
75,355,30971,1,0,3:2:0:0:
83,353,31055,1,0,3:2:0:0:
91,351,31139,1,0,3:2:0:0:
99,349,31223,1,8,3:2:0:0:
107,347,31306,1,0,3:2:0:0:
124,369,31390,5,2,3:2:0:0:
134,371,31474,1,0,3:2:0:0:
145,374,31558,1,8,3:2:0:0:
155,376,31642,1,0,3:2:0:0:
166,379,31726,1,0,3:2:0:0:
176,382,31809,1,0,3:2:0:0:
208,351,31893,6,0,L|265:339,3,45,10|0|0|0,3:2|3:0|3:0|3:0,0:0:0:0:
378,260,32228,6,0,L|250:231,1,107.999996704102,14|8,3:2|0:0,0:0:0:0:
193,271,32480,1,8,0:0:0:0:
193,271,32563,2,0,L|180:219,1,53.9999983520508,8|8,0:0|0:0,0:0:0:0:
69,31,32731,6,0,P|22:73|23:125,1,107.999996704102,6|8,3:2|0:0,0:0:0:0:
11,213,32982,1,8,0:0:0:0:
11,213,33066,2,0,P|43:195|73:187,1,53.9999983520508,8|8,0:0|0:0,0:0:0:0:
316,159,33234,6,0,P|265:140|219:112,1,107.999996704102,14|0,3:2|0:0,0:0:0:0:
128,150,33485,1,8,0:0:0:0:
128,150,33569,2,0,L|143:88,1,53.9999983520508,8|8,0:0|0:0,0:0:0:0:
382,67,33737,6,0,P|424:107|431:165,1,107.999996704102,6|8,3:2|0:0,0:0:0:0:
398,236,33988,1,8,0:0:0:0:
398,236,34072,2,0,P|346:252|328:264,1,53.9999983520508,8|8,0:0|0:0,0:0:0:0:
253,269,34239,6,0,B|348:287|348:287|346:288|346:288|476:310,1,202.500007724762,6|0,3:2|0:0,0:0:0:0:
263,183,34575,2,0,P|204:198|166:279,1,135,6|0,3:2|0:0,0:0:0:0:
92,348,34910,6,0,L|71:242,1,107.999996704102,6|8,3:2|0:0,0:0:0:0:
179,179,35161,1,8,0:0:0:0:
179,179,35245,2,0,L|190:121,1,53.9999983520508,8|8,0:0|0:0,0:0:0:0:
75,10,35413,6,0,P|24:21|1:69,1,107.999996704102,6|8,3:2|0:0,0:0:0:0:
37,148,35664,1,8,0:0:0:0:
37,148,35748,2,0,L|98:137,1,53.9999983520508,8|8,0:0|0:0,0:0:0:0:
257,74,35915,6,0,L|379:96,1,107.999996704102,14|8,3:2|0:0,0:0:0:0:
447,150,36167,1,8,0:0:0:0:
447,150,36251,2,0,L|514:138,2,53.9999983520508,10|8|8,0:0|0:0|0:0,0:0:0:0:
350,243,36586,6,0,L|358:189,1,53.9999983520508,8|8,0:0|0:0,0:0:0:0:
440,4,36753,2,0,L|448:57,1,53.9999983520508,8|8,0:0|0:0,0:0:0:0:
419,322,36921,5,10,3:3:0:0:
248,219,37089,1,4,3:3:0:0:
459,235,37256,6,0,L|515:244,1,53.9999983520508,8|8,3:0|3:0,0:0:0:0:
299,325,37424,2,0,L|243:334,1,53.9999983520508,4|4,3:0|3:0,0:0:0:0:
121,374,37591,6,0,P|129:320|137:267,1,107.999996704102,6|8,3:2|0:0,0:0:0:0:
44,244,37843,1,8,0:0:0:0:
44,244,37927,2,0,P|39:217|35:190,1,53.9999983520508,8|0,0:0|0:0,0:0:0:0:
177,26,38094,6,0,P|227:44|245:94,1,107.999996704102,6|8,3:2|0:0,0:0:0:0:
179,163,38346,1,8,0:0:0:0:
179,163,38430,2,0,P|152:167|125:171,1,53.9999983520508,8|0,0:0|0:0,0:0:0:0:
343,84,38597,6,0,P|396:92|450:102,1,107.999996704102,6|8,3:2|0:0,0:0:0:0:
448,195,38848,1,8,0:0:0:0:
448,195,38932,2,0,P|421:190|394:186,1,53.9999983520508,10|8,2:2|0:0,0:0:0:0:
290,177,39100,6,0,P|252:227|256:270,1,107.999996704102,6|8,3:2|0:0,0:0:0:0:
385,313,39351,1,8,0:0:0:0:
385,313,39435,2,0,P|364:272|353:265,1,53.9999983520508,8|8,0:0|0:0,0:0:0:0:
116,361,39603,6,0,B|195:367|195:367|196:370|196:370|262:375|262:375|302:338,1,202.500007724762,6|0,3:2|0:0,0:0:0:0:
133,274,39938,2,0,P|67:285|28:350,1,135,6|0,3:2|0:0,0:0:0:0:
190,323,40273,6,0,L|180:215,1,107.999996704102,6|8,3:2|0:0,0:0:0:0:
82,174,40524,1,8,0:0:0:0:
82,174,40608,2,0,L|89:94,1,53.9999983520508,8|8,0:0|0:0,0:0:0:0:
262,0,40776,6,0,P|308:23|320:74,1,107.999996704102,6|8,3:2|0:0,0:0:0:0:
230,102,41027,1,8,0:0:0:0:
230,102,41111,2,0,L|150:94,1,53.9999983520508,8|8,0:0|0:0,0:0:0:0:
35,26,41279,5,6,3:2:0:0:
35,26,41446,2,0,L|106:19,1,53.9999983520508,0|0,3:0|3:0,0:0:0:0:
295,157,41614,6,0,L|302:228,3,53.9999983520508,10|8|8|8,3:0|3:0|3:0|3:0,0:0:0:0:
410,76,41949,2,0,L|417:5,3,53.9999983520508,4|4|4|4,3:0|3:0|3:0|3:0,0:0:0:0:
411,163,42284,6,0,L|465:169,1,53.9999983520508,10|8,3:0|3:0,0:0:0:0:
451,251,42452,2,0,L|398:246,1,53.9999983520508,8|8,3:0|3:0,0:0:0:0:
318,312,42619,5,4,3:0:0:0:
304,313,42702,1,4,3:0:0:0:
291,314,42786,1,4,3:0:0:0:
277,316,42870,1,4,3:0:0:0:
263,316,42955,6,0,P|213:330|189:377,1,107.999996704102,6|8,3:2|0:0,0:0:0:0:
107,311,43206,1,8,0:0:0:0:
107,311,43290,2,0,P|72:315|45:321,1,53.9999983520508,8|8,0:0|0:0,0:0:0:0:
193,107,43457,6,0,P|252:161|228:200,1,107.999996704102,6|8,3:2|0:0,0:0:0:0:
170,250,43709,1,8,0:0:0:0:
170,250,43793,2,0,P|163:222|152:184,1,53.9999983520508,8|8,0:0|0:0,0:0:0:0:
116,15,43960,6,0,P|102:71|80:147,1,107.999996704102,6|8,3:2|0:0,0:0:0:0:
6,220,44212,1,8,0:0:0:0:
6,220,44296,2,0,P|32:214|59:212,1,53.9999983520508,8|8,0:0|0:0,0:0:0:0:
299,122,44463,6,0,P|245:116|192:106,1,107.999996704102,6|8,3:2|0:0,0:0:0:0:
238,34,44714,1,8,0:0:0:0:
238,34,44798,2,0,P|264:39|291:41,1,53.9999983520508,8|8,0:0|0:0,0:0:0:0:
503,8,44966,6,0,B|468:29|468:29|451:107|451:107|453:108|453:108|435:206,1,202.500007724762,6|0,3:2|0:0,0:0:0:0:
315,301,45301,2,0,P|300:243|359:214,1,135,6|0,3:2|0:0,0:0:0:0:
494,230,45636,6,0,P|440:230|386:232,1,107.999996704102,6|8,3:2|0:0,0:0:0:0:
381,359,45887,1,8,0:0:0:0:
381,359,45971,2,0,P|404:321|400:297,1,53.9999983520508,8|8,0:0|0:0,0:0:0:0:
214,245,46139,6,0,P|164:220|171:146,1,107.999996704102,6|8,3:2|0:0,0:0:0:0:
226,108,46390,1,8,0:0:0:0:
226,108,46474,2,0,P|249:146|245:170,1,53.9999983520508,8|8,0:0|0:0,0:0:0:0:
119,309,46642,6,0,L|6:299,1,107.999996704102,6|8,3:2|0:0,0:0:0:0:
33,380,46893,1,8,0:0:0:0:
33,380,46977,2,0,L|101:386,2,53.9999983520508,10|8|8,0:0|0:0|0:0,0:0:0:0:
179,376,47312,6,0,P|201:345|201:309,1,53.9999983520508,8|8,0:0|0:0,0:0:0:0:
287,328,47480,2,0,P|280:290|255:265,1,53.9999983520508,8|8,0:0|0:0,0:0:0:0:
109,76,47647,5,8,3:0:0:0:
188,244,47815,1,4,3:0:0:0:
64,146,47982,6,0,L|5:157,1,53.9999983520508,8|8,3:0|3:0,0:0:0:0:
258,189,48150,2,0,L|317:178,1,53.9999983520508,4|4,3:0|3:0,0:0:0:0:
475,39,48318,6,0,L|447:183,1,107.999996704102,6|8,3:2|2:0,0:0:0:0:
408,265,48569,1,8,0:0:0:0:
408,265,48653,2,0,L|398:212,1,53.9999983520508,8|8,0:0|0:0,0:0:0:0:
306,0,48820,6,0,P|248:42|251:102,1,107.999996704102,6|8,3:2|0:0,0:0:0:0:
322,141,49072,1,8,0:0:0:0:
322,141,49156,2,0,L|383:129,1,53.9999983520508,8|8,0:0|0:0,0:0:0:0:
146,65,49323,6,0,L|22:41,1,107.999996704102,6|8,3:2|0:0,0:0:0:0:
14,160,49575,1,8,0:0:0:0:
14,160,49659,2,0,L|75:148,1,53.9999983520508,8|8,0:0|0:0,0:0:0:0:
200,148,49826,6,0,P|224:210|207:261,1,107.999996704102,6|8,3:2|0:0,0:0:0:0:
113,281,50077,1,8,0:0:0:0:
113,281,50161,2,0,L|125:220,1,53.9999983520508,8|8,0:0|0:0,0:0:0:0:
310,321,50329,6,0,B|385:314|385:314|384:312|384:312|457:307|457:307|395:288,1,202.500007724762,6|0,3:2|0:0,0:0:0:0:
304,241,50664,2,0,P|244:271|231:335,1,135,6|0,3:2|0:0,0:0:0:0:
407,291,50999,6,0,P|413:237|424:184,1,107.999996704102,6|8,3:2|0:0,0:0:0:0:
339,156,51251,1,8,0:0:0:0:
339,156,51334,2,0,P|332:129|326:103,1,53.9999983520508,8|8,0:0|0:0,0:0:0:0:
488,14,51502,6,0,P|468:66|418:68,1,107.999996704102,6|8,3:2|0:0,0:0:0:0:
350,17,51753,1,8,0:0:0:0:
350,17,51837,2,0,P|308:13|284:25,1,53.9999983520508,8|8,0:0|0:0,0:0:0:0:
239,99,52005,5,6,3:2:0:0:
239,99,52172,2,0,P|212:94|181:88,1,53.9999983520508,0|0,3:0|3:0,0:0:0:0:
35,26,52340,5,10,3:0:0:0:
14,75,52424,1,8,3:0:0:0:
25,128,52508,1,8,3:0:0:0:
66,162,52591,1,8,3:0:0:0:
120,168,52675,1,4,3:0:0:0:
166,139,52759,1,4,3:0:0:0:
185,88,52843,1,4,3:0:0:0:
174,35,52927,1,4,3:0:0:0:
130,4,53010,5,10,3:0:0:0:
103,37,53094,1,8,3:0:0:0:
103,80,53178,1,8,3:0:0:0:
126,117,53262,1,8,3:0:0:0:
165,135,53346,1,4,3:0:0:0:
198,162,53429,1,4,3:0:0:0:
211,203,53513,1,4,3:0:0:0:
209,246,53597,1,4,3:0:0:0:
185,281,53681,5,6,3:2:0:0:
76,358,53848,2,0,B|71:315|71:315|70:314|70:314|62:247,1,90,0|0,3:0|3:0,0:0:0:0:
132,216,54184,5,2,3:0:0:0:
241,346,54351,2,0,B|284:341|284:341|285:340|285:340|352:332,1,90,8|0,2:2|3:0,0:0:0:0:
488,306,54686,5,2,3:2:0:0:
419,174,54854,2,0,P|389:225|401:264,1,90,0|0,3:2|3:0,0:0:0:0:
497,311,55189,5,2,3:2:0:0:
416,87,55357,2,0,P|358:101|339:137,1,90,0|0,3:2|3:0,0:0:0:0:
277,223,55692,6,0,B|225:218|225:218|208:232|208:232|147:226,1,135,14|0,3:2|0:0,0:0:0:0:
80,86,56027,2,0,P|115:74|157:153,1,135,4|0,3:2|0:0,0:0:0:0:
161,143,56362,5,6,3:2:0:0:
69,266,56530,2,0,P|60:212|75:181,1,90,0|0,3:0|3:0,0:0:0:0:
262,136,56865,5,2,3:2:0:0:
236,318,57033,2,0,B|196:314|196:314|193:315|193:315|138:310,1,90,8|0,0:0|3:0,0:0:0:0:
3,384,57368,2,0,B|43:380|43:380|46:381|46:381|101:376,1,90,2|0,3:2|3:0,0:0:0:0:
167,235,57703,5,0,3:0:0:0:
166,230,57787,1,0,3:0:0:0:
165,225,57871,1,0,3:0:0:0:
149,137,58038,1,0,3:0:0:0:
149,137,58206,1,0,3:0:0:0:
262,136,58374,5,8,0:0:0:0:
263,131,58458,1,0,3:0:0:0:
264,126,58542,1,0,3:0:0:0:
280,38,58709,1,0,3:0:0:0:
149,137,58877,1,8,0:0:0:0:
367,125,59044,5,2,3:2:0:0:
172,46,59212,2,0,B|130:37|130:37|128:38|128:38|77:26,1,90,0|0,3:0|3:0,0:0:0:0:
277,231,59547,5,2,3:2:0:0:
367,125,59714,2,0,B|409:116|409:116|411:117|411:117|462:105,1,90,8|0,2:2|3:0,0:0:0:0:
255,125,60050,5,2,3:2:0:0:
277,231,60217,2,0,B|266:274|266:274|267:276|267:276|258:318,1,90,0|0,3:2|3:0,0:0:0:0:
377,229,60552,5,2,3:2:0:0:
179,174,60720,2,0,P|163:128|174:89,1,90,0|0,3:0|3:0,0:0:0:0:
316,369,61055,6,0,P|251:353|177:351,1,135,14|0,3:2|0:0,0:0:0:0:
16,357,61390,2,0,P|6:337|80:293,1,135,6|0,3:2|0:0,0:0:0:0:
101,379,61725,5,6,3:2:0:0:
251,276,61893,2,0,P|282:279|339:296,1,90,0|0,3:0|3:0,0:0:0:0:
239,91,62228,5,2,3:2:0:0:
163,260,62396,2,0,B|158:219|158:219|156:217|156:217|145:139,1,90,8|0,0:0|3:0,0:0:0:0:
128,38,62731,5,2,3:2:0:0:
250,181,62899,2,0,P|304:156|323:116,1,90,0|0,3:0|3:0,0:0:0:0:
304,0,63234,5,2,3:2:0:0:
386,188,63401,2,0,P|406:132|391:90,1,90,0|0,3:0|3:0,0:0:0:0:
239,91,63737,5,14,0:0:0:0:
496,186,63904,1,0,3:0:0:0:
316,272,64072,1,0,3:0:0:0:
420,10,64239,1,12,0:0:0:0:
459,324,64407,5,6,3:2:0:0:
259,337,64575,2,0,P|233:300|232:254,1,90,0|0,3:0|3:0,0:0:0:0:
278,165,64910,5,2,3:2:0:0:
137,257,65077,2,0,P|145:214|175:181,1,90,8|0,2:0|3:0,0:0:0:0:
316,272,65413,5,2,3:2:0:0:
165,351,65580,2,0,B|125:348|125:348|122:349|122:349|64:344,1,90,0|0,3:0|3:0,0:0:0:0:
175,181,65915,5,2,3:2:0:0:
310,267,66083,2,0,B|350:264|350:264|352:265|352:265|411:260,1,90,0|0,3:0|3:0,0:0:0:0:
179,97,66418,6,0,P|137:104|93:193,1,135,14|0,3:2|0:0,0:0:0:0:
0,257,66753,2,0,B|52:252|52:252|69:266|69:266|130:260,1,135,6|0,3:2|0:0,0:0:0:0:
217,272,67089,5,6,3:2:0:0:
292,155,67256,2,0,B|289:115|289:115|290:112|290:112|285:54,1,90,0|0,3:0|3:0,0:0:0:0:
175,181,67591,5,2,3:2:0:0:
398,242,67759,2,0,B|401:202|401:202|399:199|399:199|405:141,1,90,8|0,2:0|3:0,0:0:0:0:
311,334,68094,2,0,B|308:294|308:294|309:291|309:291|304:233,1,90,2|0,3:0|3:0,0:0:0:0:
407,330,68429,5,0,3:0:0:0:
415,332,68513,1,0,3:0:0:0:
423,334,68597,1,0,3:0:0:0:
512,353,68765,1,0,3:0:0:0:
512,353,68932,1,0,3:0:0:0:
305,244,69100,5,8,3:2:0:0:
297,246,69184,1,0,3:0:0:0:
289,248,69268,1,0,3:0:0:0:
200,267,69436,1,0,3:0:0:0:
382,131,69603,1,8,3:0:0:0:
314,360,69770,5,6,3:2:0:0:
149,190,69938,2,0,B|152:150|152:150|150:149|150:149|156:95,1,90,0|0,3:0|3:0,0:0:0:0:
77,37,70273,5,2,3:2:0:0:
60,254,70441,2,0,B|63:214|63:214|61:213|61:213|67:159,1,90,8|0,2:2|3:2,3:2:0:0:
181,4,70776,5,2,3:2:0:0:
240,165,70943,2,0,P|300:177|329:161,1,90,0|0,3:0|3:0,0:0:0:0:
359,81,71279,5,2,3:2:0:0:
348,252,71446,2,0,P|398:218|408:186,1,90,0|0,3:0|3:0,0:0:0:0:
264,267,71781,6,0,P|327:287|352:355,1,135,14|0,3:2|0:0,0:0:0:0:
265,352,72117,2,0,B|196:346|196:346|199:344|199:344|126:338,1,135,6|0,3:2|0:0,0:0:0:0:
63,378,72452,5,6,3:2:0:0:
176,261,72619,2,0,B|179:218|179:218|180:220|180:220|184:175,1,90,0|0,3:2|3:0,0:0:0:0:
43,106,72955,5,2,3:2:0:0:
64,291,73122,2,0,B|60:248|60:248|59:250|59:250|55:205,1,90,8|0,2:2|3:0,0:0:0:0:
115,28,73457,5,2,3:2:0:0:
199,92,73625,2,0,B|195:137|195:137|194:135|194:135|191:178,1,90,0|0,3:2|3:0,0:0:0:0:
388,130,73960,5,2,3:2:0:0:
302,194,74128,2,0,B|306:239|306:239|307:237|307:237|310:280,1,90,0|0,3:2|3:0,0:0:0:0:
185,320,74463,5,14,2:0:0:0:
449,283,74631,1,8,0:0:0:0:
264,380,74798,5,0,3:0:0:0:
382,362,74966,1,0,3:0:0:0:
309,279,75133,5,6,3:2:0:0:
26,37,95915,6,0,L|22:17,5,12,2|0|0|0|0|0,3:0|3:0|3:0|3:0|3:0|3:0,0:0:0:0:
104,103,96251,2,0,L|108:83,5,12,2|0|0|0|0|0,3:0|3:0|3:0|3:0|3:0|3:0,0:0:0:0:
102,112,96586,6,0,B|74:146|13:109|12:29|82:-6|159:11|189:67,1,269.999991760254,2|0,3:0|0:0,0:0:0:0:
100,200,97591,2,0,P|73:204|46:198,1,53.9999983520508,2|0,3:0|0:0,0:0:0:0:
202,156,97927,6,0,B|241:144|282:175|257:190|287:233|348:204,1,157.5,2|0,3:0|0:0,0:0:0:0:
342,205,98597,2,0,L|340:183,11,15,0|0|0|0|0|0|2|0|0|0|0|0,3:0|3:0|3:0|3:0|3:0|3:0|3:0|3:0|3:0|3:0|3:0|3:0,0:0:0:0:
322,317,99267,6,0,P|385:337|427:239,1,180,2|0,3:0|0:0,0:0:0:0:
341,212,100273,2,0,P|326:216|304:215,1,36,0|0,3:0|0:0,0:0:0:0:
174,164,100608,6,0,P|199:215|226:289,1,126,0|0,3:0|0:0,0:0:0:0:
227,288,101279,2,0,L|225:307,5,12,2|0|0|0|0|0,3:0|3:0|3:0|3:0|3:0|3:0,0:0:0:0:
285,354,101614,2,0,L|283:373,5,12,2|0|0|0|0|0,3:0|3:0|3:0|3:0|3:0|3:0,0:0:0:0:
197,380,101949,6,0,P|162:374|110:369,1,72,2|2,3:0|0:0,0:0:0:0:
305,277,102619,2,0,P|323:273|351:271,1,36,2|0,0:0|0:0,0:0:0:0:
331,194,102955,2,0,P|312:197|284:199,1,36,2|0,3:0|0:0,0:0:0:0:
187,277,103290,6,0,P|165:275|131:226,1,72,2|2,3:0|0:0,0:0:0:0:
148,124,103960,6,0,L|146:136,5,12,2|0|0|0|0|0,3:0|3:0|3:0|3:0|3:0|3:0,0:0:0:0:
210,181,104295,2,0,L|208:193,5,12,2|0|0|0|0|0,3:0|3:0|3:0|3:0|3:0|3:0,0:0:0:0:
126,244,104631,6,0,P|214:222|304:218,1,180,2|0,3:0|0:0,0:0:0:0:
403,152,105636,2,0,P|377:150|352:144,1,36,0|0,3:0|0:0,0:0:0:0:
186,49,105971,6,0,P|247:78|274:131,1,126,0|0,3:0|0:0,0:0:0:0:
266,135,106642,2,0,L|245:133,5,12,0|0|0|0|0|0,3:0|3:0|3:0|3:0|3:0|3:0,0:0:0:0:
339,68,106977,2,0,L|360:66,5,12,2|0|0|0|0|0,3:0|3:0|3:0|3:0|3:0|3:0,0:0:0:0:
375,227,107312,6,0,B|437:190|442:118|391:45|268:65|254:170|304:234|373:231,1,360,2|0,3:0|0:0,0:0:0:0:
445,279,108318,2,0,P|476:249|485:224,1,62.9999980773926,2|0,3:0|0:0,0:0:0:0:
299,322,108653,2,0,P|375:314|495:359,1,188.999994232178,2|0,3:0|0:0,0:0:0:0:
485,358,109323,6,0,L|482:381,5,17.9999994506836,0|0|0|0|0|0,3:0|3:0|3:0|3:0|3:0|3:0,0:0:0:0:
408,276,109658,2,0,L|405:253,5,17.9999994506836,2|0|0|0|0|0,3:0|3:0|3:0|3:0|3:0|3:0,0:0:0:0:
230,361,109994,6,0,B|177:390|118:331|166:315|115:249|50:280,1,216,2|0,3:0|0:0,0:0:0:0:
15,371,110664,2,0,P|36:364|67:358,1,53.9999983520508,2|0,0:0|0:0,0:0:0:0:
212,283,110999,1,0,3:0:0:0:
212,283,111334,6,0,P|142:265|143:161,1,188.999994232178,2|0,3:0|0:0,0:0:0:0:
151,160,112005,2,0,L|172:162,11,17.9999994506836,0|0|0|0|0|0|0|0|0|0|0|0,3:0|3:0|3:0|3:0|3:0|3:0|3:0|3:0|3:0|3:0|3:0|3:0,0:0:0:0:
269,95,112675,6,0,P|258:151|250:207,1,107.999996704102,2|2,3:0|0:0,0:0:0:0:
417,265,113346,2,0,P|412:238|408:211,1,53.9999983520508,2|0,0:0|0:0,0:0:0:0:
341,277,113681,2,0,P|336:250|332:223,1,53.9999983520508,2|0,3:0|0:0,0:0:0:0:
274,321,114016,6,0,P|325:322|369:372,1,107.999996704102,2|2,3:0|0:0,0:0:0:0:
493,366,114686,6,0,L|496:347,5,17.9999994506836,2|0|0|0|0|0,3:0|3:0|3:0|3:0|3:0|3:0,0:0:0:0:
430,295,115022,2,0,L|427:276,5,17.9999994506836,2|0|0|0|0|0,3:0|3:0|3:0|3:0|3:0|3:0,0:0:0:0:
512,241,115357,6,0,P|377:225|230:203,1,269.999991760254,2|0,3:0|0:0,0:0:0:0:
365,148,116362,2,0,P|390:151|426:156,1,53.9999983520508,0|0,3:0|0:0,0:0:0:0:
296,225,116698,6,0,P|270:221|235:217,2,53.9999983520508,0|0|0,3:0|0:0|0:0,0:0:0:0:
162,260,117200,1,2,0:0:0:0:
162,260,117368,2,0,B|140:209|170:166|170:166|164:148|164:148|190:109|168:54,1,216,2|2,0:0|0:0,0:0:0:0:
304,62,118038,6,0,B|351:93|351:93|195:77|195:77|196:75|196:75|34:55|34:55|94:94,1,450,6|0,3:2|0:0,0:0:0:0:
165,158,119044,2,0,P|181:181|186:203,1,36,2|0,0:0|0:0,0:0:0:0:
91,268,119379,6,0,B|57:241|57:241|193:225|193:225|192:227|192:227|326:208|326:208|300:242,1,360,6|0,3:2|0:0,0:0:0:0:
224,305,120385,2,0,L|185:310,1,36,2|0,0:0|0:0,0:0:0:0:
423,245,120720,6,0,B|461:236|494:269|491:330|446:354|446:354|444:352|444:352|409:370|341:341|358:271|358:271|355:273|355:273|374:239|368:205|368:205|370:202|370:202|358:164|311:153|311:153|337:200|300:242|300:242|427:207|427:207|428:205|428:205|504:184,1,755.999976928712,6|2,3:2|0:0,0:0:0:0:
163,336,123401,6,0,B|108:129|108:129|135:110|135:110|137:109|137:109|172:85|172:85|206:212|206:212|207:211|207:211|235:322,1,540,6|0,3:2|0:0,0:0:0:0:
242,333,124742,6,0,B|379:298|379:298|377:296|377:296|536:254|536:254|506:211|506:211|505:208|505:208|482:174|482:174|385:202|305:224|305:224|296:228|290:243|292:252|292:252|305:304,1,675,6|0,3:2|0:0,0:0:0:0:
136,273,126083,6,0,B|177:187|177:187|251:243,1,188.999994232178,6|0,3:2|0:0,0:0:0:0:
142,283,126753,2,0,B|101:369|101:369|26:312,1,188.999994232178,6|0,3:2|0:0,0:0:0:0:
21,306,127424,6,0,L|415:206,1,404.999987640381,6|0,3:2|0:0,0:0:0:0:
378,44,128765,6,0,B|317:60|317:60|305:80|305:80|375:359|375:359|437:278|437:278|422:216,1,540,6|2,3:2|0:0,0:0:0:0:
458,142,130105,6,0,B|297:130|297:130|296:131|296:131|142:119,1,314.999990386963,6|0,3:2|0:0,0:0:0:0:
64,150,131111,2,0,P|78:171|82:197,1,36,2|0,0:0|0:0,0:0:0:0:
6,289,131446,6,0,B|-25:262|-25:262|61:255|61:255|90:265|118:250|118:250|204:242|204:242|178:273,1,315,6|0,3:2|0:0,0:0:0:0:
96,340,132117,2,0,B|57:378|57:378|154:370|154:370|155:368|155:368|281:356,1,252,6|0,3:2|0:0,0:0:0:0:
369,217,132787,6,0,B|328:249|328:249|227:237|227:237|224:239|224:239|110:226|110:226|77:186,1,323.999990112305,6|0,3:2|0:0,0:0:0:0:
385,136,134128,6,0,P|442:172|451:215,1,107.999996704102,6|2,3:2|0:0,0:0:0:0:
289,210,134798,2,0,L|296:146,1,53.9999983520508,2|0,0:0|0:0,0:0:0:0:
364,271,135133,2,0,L|371:207,1,53.9999983520508,2|0,0:0|0:0,0:0:0:0:
211,260,135468,6,0,P|164:260|112:298,1,107.999996704102,2|2,0:0|0:0,0:0:0:0:
90,381,136139,1,2,0:0:0:0:
188,347,136474,1,2,0:0:0:0:
15,24,136809,5,6,3:2:0:0:
256,192,136893,12,0,139407,0:0:0:0:
256,192,139491,5,6,3:2:0:0:
464,221,140832,6,0,B|401:214|401:214|375:234|375:234|309:225,1,161.999995056153,8|0,0:0|0:0,0:0:0:0:
423,359,141167,1,8,0:0:0:0:
423,359,141334,2,0,L|433:273,1,53.9999983520508,0|0,3:0|3:0,0:0:0:0:
342,146,141502,5,8,3:0:0:0:
338,119,141585,1,8,3:0:0:0:
335,92,141669,1,8,3:0:0:0:
233,272,141837,1,4,3:0:0:0:
440,131,142005,1,4,3:0:0:0:
342,146,142172,6,0,P|307:145|274:140,1,63,6|0,0:3|0:0,0:0:0:0:
196,87,142843,5,14,3:2:0:0:
193,73,142926,1,0,3:0:0:0:
190,59,143010,1,0,3:0:0:0:
165,189,143178,1,0,3:0:0:0:
279,141,143345,1,0,3:0:0:0:
85,231,143513,6,0,P|156:235|227:248,1,144,10|0,0:0|3:0,0:0:0:0:
360,217,144016,1,0,3:0:0:0:
311,305,144183,6,0,P|305:323|304:346,2,36,6|0|0,3:2|3:0|3:0,0:0:0:0:
455,230,144518,1,0,3:0:0:0:
279,141,144686,1,0,3:0:0:0:
418,313,144854,2,0,P|466:321|495:311,1,72,10|0,0:0|3:0,0:0:0:0:
360,217,145189,2,0,P|342:218|324:223,2,36,2|0|0,3:2|3:0|3:0,0:0:0:0:
496,92,145524,6,0,P|471:154|453:247,1,144,6|0,3:2|3:0,0:0:0:0:
386,54,146027,1,0,3:0:0:0:
279,141,146194,1,8,0:0:0:0:
269,139,146278,1,0,3:0:0:0:
259,137,146362,1,0,3:0:0:0:
399,64,146530,2,0,P|387:90|370:142,1,72,2|0,3:0|3:0,0:0:0:0:
235,38,146865,6,0,B|182:22|125:71|178:107|126:163|56:139,1,216,6|0,3:2|3:0,0:0:0:0:
249,135,147535,1,8,2:0:0:0:
259,137,147619,1,0,3:0:0:0:
269,139,147703,1,0,3:0:0:0:
71,54,147870,2,0,L|63:8,2,36,0|0|0,3:0|3:0|3:0,0:0:0:0:
111,244,148206,5,4,3:2:0:0:
113,254,148289,1,0,3:0:0:0:
116,264,148373,1,0,3:0:0:0:
158,115,148541,1,0,3:0:0:0:
8,206,148708,1,0,3:0:0:0:
206,337,148876,6,0,P|266:320|363:313,1,144,10|0,0:0|3:0,0:0:0:0:
494,360,149379,1,0,3:0:0:0:
453,222,149546,6,0,L|465:177,2,36,2|0|0,3:2|3:0|3:0,0:0:0:0:
285,362,149882,1,0,3:0:0:0:
431,300,150049,1,0,3:0:0:0:
283,207,150217,1,10,0:0:0:0:
272,208,150301,1,0,3:0:0:0:
261,210,150384,1,0,3:0:0:0:
367,146,150552,2,0,L|355:101,2,36,2|0|0,3:2|3:0|3:0,0:0:0:0:
239,291,150887,6,0,P|197:265|193:167,1,144,6|0,3:2|3:0,0:0:0:0:
256,69,151390,1,0,3:0:0:0:
113,123,151558,1,8,2:0:0:0:
102,121,151641,1,0,3:0:0:0:
91,120,151725,1,0,3:0:0:0:
261,210,151893,1,2,3:2:0:0:
165,21,152060,1,2,3:2:0:0:
47,237,152228,6,0,P|135:221|277:210,1,216,6|0,3:2|3:0,0:0:0:0:
423,142,152898,1,8,0:0:0:0:
420,131,152982,1,0,3:0:0:0:
417,120,153066,1,0,3:0:0:0:
368,229,153234,2,0,P|364:246|362:264,2,36,0|0|0,3:0|3:0|3:0,0:0:0:0:
472,59,153569,6,0,P|418:79|314:73,1,144,6|0,3:2|3:0,0:0:0:0:
194,33,154072,1,0,3:0:0:0:
241,248,154239,6,0,B|249:192|249:192|237:173|237:173|248:101,1,144,14|0,0:0|3:0,0:0:0:0:
368,229,154742,1,0,3:0:0:0:
134,225,154910,1,2,3:2:0:0:
123,223,154993,1,0,3:0:0:0:
112,222,155077,1,0,3:0:0:0:
172,329,155245,1,0,3:0:0:0:
246,108,155412,1,0,3:0:0:0:
39,178,155580,6,0,P|30:194|25:211,2,36,10|0|0,0:0|3:0|3:0,0:0:0:0:
133,83,155915,1,0,3:0:0:0:
135,97,155999,1,0,3:0:0:0:
137,111,156083,1,0,3:0:0:0:
79,384,156250,6,0,P|154:357|303:343,1,216,6|0,3:2|3:0,0:0:0:0:
417,255,156921,1,8,0:0:0:0:
415,244,157005,1,0,3:0:0:0:
413,233,157088,1,0,3:0:0:0:
284,235,157256,1,2,3:2:0:0:
403,369,157424,1,2,3:2:0:0:
480,162,157591,6,0,P|411:132|341:162,1,144,6|0,3:2|0:0,0:0:0:0:
288,342,158094,1,0,3:0:0:0:
199,181,158261,1,8,0:0:0:0:
188,180,158345,1,0,3:0:0:0:
177,180,158429,1,0,3:0:0:0:
283,234,158597,1,2,3:2:0:0:
283,234,158932,6,0,P|245:173|265:95,1,144,6|0,3:2|3:0,0:0:0:0:
416,47,159435,1,0,3:0:0:0:
359,162,159602,1,8,0:0:0:0:
348,161,159686,1,0,3:0:0:0:
337,160,159770,1,0,3:0:0:0:
206,35,159937,2,0,P|252:19|285:25,1,72,2|0,3:2|3:0,0:0:0:0:
377,295,160273,6,0,P|305:278|152:263,1,216,6|0,3:2|3:0,0:0:0:0:
35,303,160943,1,10,0:0:0:0:
30,312,161027,1,0,3:0:0:0:
27,322,161111,1,0,3:0:0:0:
147,151,161278,2,0,P|142:133|133:118,2,36,0|0|0,3:0|3:0|3:0,0:0:0:0:
124,339,161613,6,0,P|165:349|233:216,1,216,6|0,3:2|3:0,0:0:0:0:
42,215,162284,1,8,0:0:0:0:
52,218,162368,1,0,3:0:0:0:
61,221,162451,1,0,3:0:0:0:
245,134,162619,1,0,3:0:0:0:
163,263,162787,1,0,3:0:0:0:
93,37,162954,6,0,P|87:59|82:84,1,36,0|0,3:0|3:0,0:0:0:0:
147,160,163122,1,0,3:0:0:0:
17,130,163289,1,0,3:0:0:0:
190,43,163457,1,0,3:0:0:0:
61,221,163625,1,8,0:0:0:0:
51,218,163709,1,0,3:0:0:0:
42,215,163792,1,0,3:0:0:0:
245,134,163960,1,0,3:2:0:0:
255,131,164044,1,0,3:0:0:0:
264,128,164127,1,0,3:0:0:0:
469,346,164295,5,6,3:2:0:0:
251,235,164463,1,0,3:0:0:0:
458,176,164630,1,0,3:0:0:0:
307,373,164798,1,0,3:0:0:0:
351,76,164965,6,0,B|363:150|363:150|346:183|346:183|359:267,1,198.000006042481,10|0,0:0|3:0,0:0:0:0:
442,32,165468,1,0,3:0:0:0:
264,128,165636,6,0,P|205:150|166:136,1,99.0000030212403,2|0,3:2|3:0,0:0:0:0:
39,2,165971,1,0,3:0:0:0:
207,58,166139,1,0,3:0:0:0:
25,249,166306,1,14,0:0:0:0:
72,167,166641,1,4,3:2:0:0:
260,316,166977,5,6,3:2:0:0:
83,344,167144,1,0,3:0:0:0:
336,303,167312,1,0,3:0:0:0:
142,245,167479,1,0,3:0:0:0:
310,377,167647,1,8,0:0:0:0:
347,122,167815,1,0,3:0:0:0:
145,238,167982,2,0,P|194:231|255:224,1,99.0000030212403,2|0,3:2|3:0,0:0:0:0:
382,39,168317,6,0,P|315:36|264:158,1,198.000006042481,2|0,3:2|3:0,0:0:0:0:
326,285,168820,1,0,3:0:0:0:
162,141,168988,5,8,0:0:0:0:
436,109,169155,1,0,3:0:0:0:
319,296,169323,1,0,3:0:0:0:
287,15,169491,1,8,0:0:0:0:
456,201,169658,6,0,B|403:209|365:173|365:173|326:136|274:145,1,198.000006042481,6|0,3:2|3:0,0:0:0:0:
78,220,170161,1,0,3:0:0:0:
148,55,170329,2,0,B|186:82|186:82|200:242,1,198.000006042481,10|0,0:0|3:0,0:0:0:0:
62,354,170831,1,0,3:0:0:0:
18,157,170999,6,0,P|60:133|113:142,1,99.0000030212403,2|0,3:2|3:0,0:0:0:0:
223,353,171334,1,0,3:0:0:0:
78,220,171502,1,0,3:0:0:0:
336,107,171669,1,14,0:0:0:0:
234,190,172005,1,4,3:2:0:0:
441,322,172340,5,6,3:2:0:0:
396,163,172507,1,0,3:0:0:0:
445,338,172675,1,2,3:2:0:0:
498,113,172843,1,0,3:0:0:0:
314,310,173010,1,8,0:0:0:0:
512,240,173178,1,0,3:0:0:0:
324,110,173345,2,0,P|305:161|327:217,1,99.0000030212403,2|0,3:2|3:0,0:0:0:0:
413,58,173680,6,0,P|355:15|242:48,1,198.000006042481,2|0,3:2|3:0,0:0:0:0:
185,237,174183,1,0,3:0:0:0:
396,163,174351,5,8,0:0:0:0:
152,95,174518,1,0,3:0:0:0:
277,298,174686,1,0,3:0:0:0:
337,11,174854,1,8,0:0:0:0:
80,32,175021,6,0,B|50:66|50:66|64:226,1,198.000006042481,6|0,3:2|3:0,0:0:0:0:
88,384,175524,1,0,3:0:0:0:
250,210,175692,2,0,B|302:199|341:234|341:234|381:269|433:259,1,198.000006042481,10|0,0:0|3:0,0:0:0:0:
350,22,176194,1,0,3:0:0:0:
178,164,176362,6,0,P|163:215|182:263,1,99.0000030212403,6|0,3:2|3:0,0:0:0:0:
384,348,176697,1,0,3:0:0:0:
275,93,176865,1,0,3:0:0:0:
150,384,177032,1,14,0:0:0:0:
264,331,177368,1,12,0:0:0:0:
70,86,177703,5,6,3:2:0:0:
103,240,177870,1,0,3:0:0:0:
52,0,178038,1,0,3:0:0:0:
10,287,178206,1,0,3:0:0:0:
189,26,178373,1,8,0:0:0:0:
6,147,178541,1,0,3:0:0:0:
175,305,178708,2,0,P|220:300|280:295,1,99.0000030212403,2|0,3:2|3:0,0:0:0:0:
409,175,179044,6,0,P|310:166|211:156,1,198.000006042481,2|0,3:2|3:0,0:0:0:0:
372,283,179546,1,0,3:0:0:0:
445,41,179714,1,8,0:0:0:0:
377,267,179881,1,0,3:0:0:0:
325,83,180049,1,2,3:2:0:0:
476,307,180217,1,8,0:0:0:0:
211,350,180384,6,0,B|138:342|138:342|106:302|106:302|33:294,1,198.000006042481,6|0,3:2|3:0,0:0:0:0:
45,77,180887,1,0,3:0:0:0:
193,169,181055,2,0,P|201:247|180:276,1,99.0000030212403,8|0,0:0|3:0,0:0:0:0:
45,384,181390,1,2,3:2:0:0:
282,299,181558,1,0,3:0:0:0:
19,153,181725,6,0,B|-27:122|-27:122|131:136,1,198.000006042481,2|0,3:2|3:0,0:0:0:0:
304,162,182228,1,0,3:0:0:0:
88,234,182396,1,14,0:0:0:0:
114,134,182731,1,12,0:0:0:0:
282,299,183066,5,6,3:2:0:0:
202,184,183234,1,0,3:0:0:0:
292,312,183401,1,0,3:0:0:0:
361,103,183569,1,0,3:0:0:0:
185,313,183736,1,8,0:0:0:0:
370,241,183904,1,0,3:0:0:0:
162,49,184072,5,0,3:0:0:0:
303,327,184239,1,0,3:0:0:0:
371,116,184407,1,0,3:0:0:0:
174,323,184574,5,0,3:0:0:0:
384,235,184742,1,0,3:0:0:0:
227,195,184910,1,0,3:0:0:0:
481,300,185077,5,8,2:2:0:0:
420,52,185245,2,0,P|374:34|327:47,1,99.0000030212403,0|0,3:0|3:0,0:0:0:0:
227,195,185580,1,8,0:0:0:0:
134,8,185748,5,4,3:2:0:0:
134,8,186083,5,0,3:0:0:0:
220,81,186250,1,0,3:0:0:0:
100,175,186418,6,0,B|193:169|193:169|193:170|193:170|321:163,1,198.000006042481,10|0,2:2|3:0,0:0:0:0:
461,242,186921,1,0,3:0:0:0:
398,66,187088,2,0,B|392:117|392:117|394:119|394:119|386:193,1,99.0000030212403,2|0,3:2|3:0,0:0:0:0:
321,348,187424,1,0,3:0:0:0:
296,164,187591,1,0,3:0:0:0:
496,325,187759,1,14,0:0:0:0:
391,297,188094,1,4,3:2:0:0:
144,353,188429,5,6,3:2:0:0:
203,207,188597,1,0,3:0:0:0:
138,368,188764,1,0,3:0:0:0:
105,178,188932,1,0,3:0:0:0:
240,334,189099,1,8,0:0:0:0:
53,288,189266,1,0,3:0:0:0:
191,125,189435,2,0,P|237:128|279:173,1,99.0000030212403,2|0,3:2|3:0,0:0:0:0:
105,178,189770,6,0,P|92:117|187:24,1,198.000006042481,2|0,3:2|3:0,0:0:0:0:
288,0,190273,1,0,3:0:0:0:
203,207,190440,5,8,0:0:0:0:
363,87,190608,1,0,3:0:0:0:
177,25,190775,1,0,3:0:0:0:
315,263,190943,1,8,0:0:0:0:
470,47,191111,6,0,B|440:12|440:12|249:-4,1,198.000006042481,6|0,3:2|3:0,0:0:0:0:
251,113,191613,1,0,3:0:0:0:
402,300,191781,6,0,B|408:227|408:227|375:187|375:187|381:115,1,198.000006042481,10|0,0:0|3:0,0:0:0:0:
473,149,192284,1,0,3:0:0:0:
315,263,192451,2,0,P|266:270|221:251,1,99.0000030212403,2|0,3:2|3:0,0:0:0:0:
105,90,192787,1,0,3:0:0:0:
279,171,192954,1,0,3:0:0:0:
78,332,193122,1,14,0:0:0:0:
115,240,193457,1,4,3:2:0:0:
403,329,193792,5,6,3:2:0:0:
234,277,193960,1,0,3:0:0:0:
421,334,194127,1,0,3:0:0:0:
186,372,194295,1,0,3:0:0:0:
381,196,194463,1,8,2:0:0:0:
308,384,194630,1,0,3:0:0:0:
183,203,194798,2,0,P|241:189|295:217,1,99.0000030212403,2|0,3:2|3:0,0:0:0:0:
435,343,195133,6,0,B|469:313|469:313|486:122,1,198.000006042481,2|0,3:2|3:0,0:0:0:0:
492,68,195636,1,0,3:0:0:0:
365,283,195803,5,8,0:0:0:0:
327,56,195971,1,0,3:0:0:0:
240,309,196139,1,0,3:0:0:0:
485,262,196306,1,8,0:0:0:0:
307,54,196474,6,0,B|254:46|216:83|216:83|179:120|126:112,1,198.000006042481,6|0,3:2|3:0,0:0:0:0:
5,0,196977,1,0,3:0:0:0:
157,189,197144,2,0,P|204:139|151:33,1,198.000006042481,10|0,0:0|3:0,0:0:0:0:
3,10,197647,1,0,3:0:0:0:
112,262,197815,6,0,P|181:271|211:253,1,99.0000030212403,6|0,3:2|3:0,0:0:0:0:
372,66,198150,1,0,3:0:0:0:
157,189,198317,1,0,3:0:0:0:
414,311,198485,1,14,0:0:0:0:
320,255,198820,1,4,3:2:0:0:
269,362,199156,5,6,3:2:0:0:
399,196,199323,1,0,3:0:0:0:
260,372,199491,1,0,3:0:0:0:
213,121,199658,1,0,3:0:0:0:
382,336,199826,1,8,0:0:0:0:
180,270,199993,1,0,3:0:0:0:
360,121,200161,2,0,P|414:113|460:138,1,99.0000030212403,2|0,3:2|3:0,0:0:0:0:
174,280,200496,6,0,B|166:207|166:207|126:175|126:175|118:102,1,198.000006042481,2|0,3:2|3:0,0:0:0:0:
80,266,200999,1,0,3:0:0:0:
215,123,201167,1,8,0:0:0:0:
30,99,201334,1,0,3:0:0:0:
253,34,201502,1,2,3:2:0:0:
1,199,201669,1,8,0:0:0:0:
260,288,201837,6,0,P|330:270|464:265,1,198.000006042481,6|0,3:2|3:0,0:0:0:0:
255,383,202340,1,0,3:0:0:0:
322,168,202507,1,8,0:0:0:0:
415,375,202675,1,0,3:0:0:0:
186,327,202843,2,0,P|176:273|196:233,1,99.0000030212403,2|0,3:2|3:0,0:0:0:0:
365,98,203178,6,0,B|409:127|409:127|250:114,1,198.000006042481,2|0,3:2|3:0,0:0:0:0:
473,0,203680,1,0,3:0:0:0:
463,220,203848,1,14,0:0:0:0:
408,126,204183,1,4,3:2:0:0:
229,281,204518,5,6,3:2:0:0:
371,204,204686,1,0,3:0:0:0:
215,290,204854,1,0,3:0:0:0:
428,307,205021,1,0,3:0:0:0:
185,384,205189,5,8,0:0:0:0:
260,150,205356,1,0,3:0:0:0:
475,373,205524,2,0,P|405:385|361:354,1,99.0000030212403,0|0,3:2|3:0,0:0:0:0:
478,52,205859,5,8,0:0:0:0:
483,38,205943,1,8,0:0:0:0:
487,23,206027,2,0,L|434:34,1,49.5000015106202,0|0,3:0|3:0,0:0:0:0:
260,150,206194,5,8,0:0:0:0:
255,136,206278,1,8,0:0:0:0:
251,121,206362,2,0,L|304:132,1,49.5000015106202,0|0,3:0|3:0,0:0:0:0:
437,187,206530,5,8,0:0:0:0:
423,192,206614,1,8,0:0:0:0:
408,196,206698,2,0,L|419:143,1,49.5000015106202,0|0,3:0|3:0,0:0:0:0:
330,0,206865,6,0,L|340:48,1,49.5000015106202,8|0,2:0|3:0,0:0:0:0:
394,300,207032,1,8,0:0:0:0:
397,314,207116,1,8,0:0:0:0:
400,328,207200,5,6,3:1:0:0:
288,254,207368,2,0,B|244:263|244:263|243:263|243:263|183:276,1,90,0|10,3:0|2:1,0:0:0:0:
165,368,207703,5,2,3:2:0:0:
95,213,207870,2,0,B|86:256|86:256|86:257|86:257|77:301,1,90,2|0,3:1|3:2,0:0:0:0:
40,128,208206,5,10,0:1:0:0:
188,184,208373,2,0,B|232:175|232:175|233:175|233:175|293:162,1,90,0|2,3:0|3:1,0:0:0:0:
237,76,208708,5,2,3:2:0:0:
118,17,208876,2,0,B|127:60|127:60|127:61|127:61|136:105,1,90,10|0,2:1|3:2,0:0:0:0:
304,263,209211,6,0,B|352:273|352:273|382:254|382:254|430:264,1,135,6|0,3:2|0:0,0:0:0:0:
288,353,209546,2,0,P|223:344|224:277,1,135,14|0,0:0|0:0,0:0:0:0:
304,263,209882,5,6,3:1:0:0:
425,167,210049,2,0,P|452:133|452:89,1,90,0|10,3:0|0:1,0:0:0:0:
265,158,210384,5,2,3:2:0:0:
344,19,210552,2,0,B|349:62|349:62|351:61|351:61|357:106,1,90,2|0,3:1|3:2,0:0:0:0:
304,263,210887,5,10,0:1:0:0:
175,111,211055,1,2,3:1:0:0:
75,268,211222,5,0,3:2:0:0:
87,264,211306,1,0,3:2:0:0:
100,260,211390,1,0,3:2:0:0:
198,238,211558,1,8,0:0:0:0:
198,238,211725,1,0,3:0:0:0:
46,358,211893,5,0,3:0:0:0:
34,354,211977,1,0,3:0:0:0:
21,350,212061,1,0,3:0:0:0:
141,381,212228,1,8,0:0:0:0:
52,180,212395,1,8,3:0:0:0:
293,177,212563,5,6,3:1:0:0:
128,384,212731,2,0,B|134:340|134:340|132:337|132:337|138:287,1,90,0|10,3:0|0:1,0:0:0:0:
159,111,213066,5,2,3:2:0:0:
312,272,213234,2,0,B|306:228|306:228|308:225|308:225|302:175,1,90,2|0,3:1|3:2,0:0:0:0:
288,32,213569,5,10,0:1:0:0:
193,192,213736,2,0,P|145:200|106:181,1,90,0|2,3:0|3:1,0:0:0:0:
75,72,214072,5,2,3:1:0:0:
218,281,214239,1,8,0:0:0:0:
2,183,214407,1,2,3:1:0:0:
228,85,214574,6,0,B|296:80|296:80|295:78|295:78|378:72,1,135,6|0,3:2|0:0,0:0:0:0:
488,93,214910,2,0,P|429:127|426:207,1,135,6|0,3:2|0:0,0:0:0:0:
476,262,215245,5,2,3:1:0:0:
367,268,215412,2,0,P|330:232|324:185,1,90,0|10,3:0|0:1,0:0:0:0:
500,173,215748,5,2,3:2:0:0:
400,343,215915,2,0,P|335:344|303:321,1,90,2|0,3:1|3:0,0:0:0:0:
219,152,216250,1,10,0:1:0:0:
418,188,216418,1,2,3:1:0:0:
216,316,216586,5,2,3:2:0:0:
219,303,216669,1,0,3:0:0:0:
222,289,216753,1,2,3:0:0:0:
112,377,216921,1,8,0:0:0:0:
325,327,217088,1,8,0:0:0:0:
61,178,217256,6,0,L|111:188,1,45,2|0,3:0|3:0,0:0:0:0:
304,220,217424,1,10,0:0:0:0:
112,377,217591,1,10,0:0:0:0:
67,84,217759,1,10,0:0:0:0:
185,266,217926,5,6,3:1:0:0:
275,132,218094,2,0,P|333:131|366:151,1,90,0|10,3:0|2:1,0:0:0:0:
276,318,218429,5,2,3:2:0:0:
192,171,218597,2,0,B|187:127|187:127|186:126|186:126|181:83,1,90,2|0,3:1|3:0,0:0:0:0:
283,326,218932,5,10,0:1:0:0:
359,145,219099,2,0,B|354:188|354:188|353:189|353:189|348:234,1,90,0|2,3:2|3:1,0:0:0:0:
289,333,219435,5,2,3:1:0:0:
447,325,219602,2,0,B|465:283|465:283|465:282|465:282|484:243,1,90,10|0,2:1|3:0,0:0:0:0:
415,84,219937,6,0,P|355:63|291:104,1,135,6|0,3:2|0:0,0:0:0:0:
163,85,220273,2,0,B|198:99|198:99|215:139|215:139|217:140|217:140|242:198,1,135,6|0,3:2|0:0,0:0:0:0:
220,272,220608,5,6,3:1:0:0:
129,164,220775,2,0,B|86:160|86:160|86:161|86:161|34:155,1,90,0|10,3:0|0:1,0:0:0:0:
115,367,221111,5,2,3:2:0:0:
224,282,221278,2,0,B|267:278|267:278|267:279|267:279|319:273,1,90,2|0,3:1|3:0,0:0:0:0:
381,196,221613,5,10,0:1:0:0:
279,380,221781,1,2,3:1:0:0:
454,304,221949,5,0,3:0:0:0:
440,302,222032,1,0,3:0:0:0:
426,300,222116,1,0,3:0:0:0:
320,293,222284,1,8,0:0:0:0:
320,293,222451,1,0,3:0:0:0:
217,187,222619,5,0,3:0:0:0:
231,185,222702,1,0,3:0:0:0:
245,183,222786,1,0,3:0:0:0:
108,113,222954,1,8,0:0:0:0:
201,296,223122,1,0,3:0:0:0:
350,38,223289,5,6,3:1:0:0:
255,184,223457,2,0,B|249:140|249:140|251:137|251:137|245:87,1,90,0|10,3:0|0:1,0:0:0:0:
201,296,223792,5,2,3:1:0:0:
340,278,223960,2,0,B|384:272|384:272|387:274|387:274|437:268,1,90,2|2,3:1|3:0,2:0:0:0:
246,95,224295,5,10,0:1:0:0:
466,163,224463,2,0,B|422:157|422:157|419:159|419:159|369:153,1,90,0|2,3:2|3:1,2:0:0:0:
171,44,224798,1,2,3:1:0:0:
228,203,224965,5,8,0:2:0:0:
325,12,225133,1,2,3:1:0:0:
97,0,225301,6,0,B|79:30|79:30|82:72|82:72|84:73|84:73|92:149,1,135,6|0,3:2|0:0,0:0:0:0:
0,214,225636,2,0,P|57:209|113:273,1,135,14|0,0:0|0:0,0:0:0:0:
88,353,225971,5,6,3:1:0:0:
204,240,226139,2,0,B|248:244|248:244|248:245|248:245|302:250,1,90,0|10,3:0|0:1,0:0:0:0:
389,206,226474,5,2,3:2:0:0:
277,338,226641,2,0,B|233:334|233:334|233:333|233:333|189:329,1,90,2|0,3:1|3:1,0:0:0:0:
317,119,226977,5,10,0:1:0:0:
465,165,227144,2,0,P|478:204|465:254,1,90,0|2,3:0|3:1,0:0:0:0:
467,250,227396,1,0,3:0:0:0:
467,250,227479,1,2,3:0:0:0:
293,211,227647,1,10,0:2:0:0:
426,75,227815,1,0,3:1:0:0:
196,49,227982,6,0,L|204:103,1,45,6|0,3:2|3:0,0:0:0:0:
125,220,228150,2,0,P|94:206|73:207,1,45,0|0,3:0|0:0,0:0:0:0:
310,193,228317,2,0,P|335:170|356:166,1,45,0|0,3:0|0:0,0:0:0:0:
228,287,228485,5,2,3:2:0:0:
216,187,228653,5,8,3:0:0:0:
168,306,234016,5,8,3:0:0:0:
242,332,234183,1,8,3:0:0:0:
307,284,234351,1,8,3:0:0:0:
302,203,234518,1,8,3:0:0:0:
227,161,234686,1,4,3:0:0:0:
143,201,234854,1,4,3:0:0:0:
49,185,235021,1,4,3:0:0:0:
13,92,235189,1,4,3:0:0:0:
115,0,235356,5,8,0:0:0:0:
17,101,235524,1,8,0:0:0:0:
227,161,235692,1,8,0:0:0:0:
121,92,235859,1,8,0:0:0:0:
87,266,236027,1,8,0:0:0:0:
213,72,236194,1,8,0:0:0:0:
9,202,236362,1,8,0:0:0:0:
201,295,236530,1,8,0:0:0:0:
115,0,236697,5,8,2:2:0:0:
156,213,236865,1,8,2:0:0:0:
310,45,237032,1,8,0:0:0:0:
201,295,237200,1,8,2:0:0:0:
414,194,237368,1,8,2:0:0:0:
183,374,237535,1,8,2:0:0:0:
418,367,237703,5,8,0:0:0:0:
248,143,237870,1,8,2:0:0:0:
183,374,238038,5,8,0:0:0:0:
232,374,238122,1,8,0:0:0:0:
271,344,238206,1,8,0:0:0:0:
285,297,238289,1,8,0:0:0:0:
271,249,238373,6,0,P|248:235|238:220,1,45,8|8,3:0|3:0,0:0:0:0:
158,225,238541,2,0,P|151:198|155:181,1,45,8|8,3:0|3:0,0:0:0:0:
382,124,238709,5,8,0:0:0:0:
337,127,238793,1,8,0:0:0:0:
295,129,238877,1,8,0:0:0:0:
263,132,238961,1,8,0:0:0:0:
241,132,239044,6,0,P|224:99|224:81,1,45,4|4,3:0|3:0,0:0:0:0:
203,92,239211,2,0,P|214:56|227:43,1,45,4|4,3:0|3:0,0:0:0:0:
397,41,239379,5,14,3:2:0:0:
439,56,239463,1,0,3:2:0:0:
462,93,239546,1,0,3:2:0:0:
470,137,239630,1,0,3:2:0:0:
450,177,239714,1,8,3:2:0:0:
412,202,239798,1,0,3:2:0:0:
366,202,239882,1,0,3:2:0:0:
327,224,239965,1,0,3:2:0:0:
310,265,240049,6,0,P|308:297|315:316,1,45,10|0,3:2|3:0,0:0:0:0:
391,362,240217,2,0,L|442:352,3,45,2|0|8|0,3:2|3:0|3:2|3:0,0:0:0:0:
246,380,240552,5,2,3:2:0:0:
237,380,240636,1,0,3:0:0:0:
228,380,240720,2,0,L|212:326,1,45,8|0,3:2|3:0,0:0:0:0:
81,231,240887,5,2,3:2:0:0:
90,231,240971,1,0,3:0:0:0:
99,231,241055,2,0,L|115:177,1,45,8|0,3:2|3:0,0:0:0:0:
251,201,241222,5,2,3:2:0:0:
251,210,241306,1,0,3:0:0:0:
251,219,241390,2,0,L|197:235,1,45,8|0,3:2|3:0,0:0:0:0:
54,364,241558,5,2,3:2:0:0:
51,355,241641,1,0,3:0:0:0:
48,346,241725,2,0,L|102:362,1,45,8|0,3:2|3:0,0:0:0:0:
304,294,241893,5,2,3:2:0:0:
318,282,241977,1,0,3:2:0:0:
329,268,242060,1,8,3:2:0:0:
336,251,242144,1,0,3:2:0:0:
339,233,242228,5,2,3:2:0:0:
296,219,242312,1,0,3:2:0:0:
257,242,242396,1,8,3:2:0:0:
248,285,242479,1,0,3:2:0:0:
270,324,242563,1,0,3:2:0:0:
314,331,242647,1,0,3:2:0:0:
351,306,242731,1,8,3:2:0:0:
364,263,242815,1,0,3:2:0:0:
346,222,242898,1,0,3:2:0:0:
308,197,242982,1,0,3:2:0:0:
281,160,243066,1,8,3:2:0:0:
277,115,243150,1,0,3:2:0:0:
294,73,243234,1,0,3:2:0:0:
332,49,243317,1,0,3:2:0:0:
377,49,243401,6,0,P|387:65|383:99,1,45,10|0,3:2|3:0,0:0:0:0:
272,166,243569,1,2,3:2:0:0:
264,171,243653,1,0,3:0:0:0:
256,176,243736,2,0,L|195:168,1,45,10|0,3:2|3:0,0:0:0:0:
29,67,243904,5,2,3:2:0:0:
62,52,243988,1,0,3:2:0:0:
97,56,244072,1,8,3:2:0:0:
124,78,244155,1,0,3:2:0:0:
131,113,244239,2,0,L|120:169,1,45,2|0,3:2|3:0,0:0:0:0:
61,226,244407,2,0,L|72:282,3,45,14|0|2|0,3:2|3:0|3:2|3:0,0:0:0:0:
46,366,244742,5,12,3:2:0:0:
80,377,244826,1,0,3:0:0:0:
114,366,244910,1,0,3:0:0:0:
142,343,244993,1,0,3:0:0:0:
150,307,245077,1,8,3:2:0:0:
167,275,245161,1,0,3:0:0:0:
200,260,245245,1,0,3:0:0:0:
236,261,245329,1,0,3:0:0:0:
266,278,245412,6,0,P|282:308|280:329,1,45,10|0,3:2|3:0,0:0:0:0:
365,337,245580,2,0,P|355:369|338:382,3,45,2|0|8|0,3:2|3:0|3:2|3:0,0:0:0:0:
435,228,245915,5,2,3:2:0:0:
426,238,245999,1,0,3:0:0:0:
418,248,246083,2,0,L|361:237,1,45,8|0,3:2|3:0,0:0:0:0:
214,131,246250,5,2,3:2:0:0:
223,141,246334,1,0,3:0:0:0:
231,151,246418,2,0,L|288:140,1,45,8|0,3:2|3:0,0:0:0:0:
404,61,246586,5,2,3:2:0:0:
394,70,246670,1,0,3:0:0:0:
384,78,246754,2,0,L|395:135,1,45,8|0,3:2|3:0,0:0:0:0:
253,315,246921,5,2,3:2:0:0:
263,306,247005,1,0,3:0:0:0:
273,298,247089,2,0,L|262:241,1,45,8|0,3:2|3:0,0:0:0:0:
119,116,247256,2,0,L|105:177,1,45,2|0,3:2|3:0,0:0:0:0:
27,326,247424,5,6,3:2:0:0:
51,362,247507,1,0,3:2:0:0:
93,378,247591,1,0,3:2:0:0:
136,365,247675,1,0,3:2:0:0:
160,326,247759,1,8,3:2:0:0:
162,281,247843,1,0,3:2:0:0:
136,245,247926,1,0,3:2:0:0:
91,234,248010,1,0,3:2:0:0:
51,212,248094,1,8,3:2:0:0:
31,170,248178,1,0,3:2:0:0:
36,126,248261,1,0,3:2:0:0:
64,89,248345,1,0,3:2:0:0:
108,79,248429,1,8,3:2:0:0:
150,94,248513,1,0,3:2:0:0:
178,129,248597,1,0,3:2:0:0:
218,148,248680,1,0,3:2:0:0:
261,141,248764,6,0,P|281:130|297:107,1,45,10|0,3:2|3:0,0:0:0:0:
413,17,248932,1,2,3:2:0:0:
402,25,249016,1,0,3:0:0:0:
394,36,249099,2,0,L|402:102,1,45,10|0,3:2|3:0,0:0:0:0:
464,276,249267,5,2,3:2:0:0:
495,257,249351,1,0,3:0:0:0:
508,223,249435,1,8,3:2:0:0:
499,188,249518,1,0,3:0:0:0:
473,162,249602,2,0,P|445:159|428:165,1,45,2|0,3:2|3:0,3:0:0:0:
274,341,249770,6,0,L|279:296,1,45,10|0,3:2|3:0,0:0:0:0:
361,221,249937,2,0,L|366:265,1,45,2|0,3:2|3:0,0:0:0:0:
184,356,250105,5,6,3:2:0:0:
140,379,250189,1,0,3:2:0:0:
91,369,250273,1,8,3:2:0:0:
64,327,250356,1,0,3:2:0:0:
72,278,250440,1,0,3:2:0:0:
111,247,250524,1,0,3:2:0:0:
160,249,250608,1,8,3:2:0:0:
204,226,250692,1,0,3:2:0:0:
223,181,250775,2,0,P|226:152|215:131,1,45,2|0,3:2|3:0,0:0:0:0:
91,104,250943,5,10,2:2:0:0:
79,111,251027,1,0,3:2:0:0:
72,124,251111,1,0,3:2:0:0:
72,137,251194,1,0,3:2:0:0:
78,149,251278,5,10,3:2:0:0:
125,134,251362,1,0,3:2:0:0:
148,90,251446,1,2,3:2:0:0:
138,41,251530,1,0,3:2:0:0:
98,11,251613,1,8,3:2:0:0:
48,17,251697,1,0,3:2:0:0:
15,54,251781,2,0,P|4:78|4:101,1,45,2|0,3:2|3:0,0:0:0:0:
160,249,251949,5,10,3:2:0:0:
172,246,252032,1,0,3:2:0:0:
185,243,252116,1,0,3:2:0:0:
198,240,252200,1,0,3:2:0:0:
224,217,252284,5,10,3:2:0:0:
236,220,252367,1,0,3:2:0:0:
249,223,252451,1,0,3:2:0:0:
262,226,252535,1,0,3:2:0:0:
274,230,252619,5,14,3:2:0:0:
245,187,252703,1,0,3:2:0:0:
252,137,252787,1,0,3:2:0:0:
291,108,252870,1,0,3:2:0:0:
340,108,252954,1,10,3:2:0:0:
373,144,253038,1,0,3:2:0:0:
373,193,253122,1,0,3:2:0:0:
347,235,253206,1,0,3:2:0:0:
344,283,253289,1,8,3:2:0:0:
375,321,253373,1,0,3:2:0:0:
423,331,253457,1,0,3:2:0:0:
467,309,253541,1,0,3:2:0:0:
485,263,253625,1,8,3:2:0:0:
471,216,253708,1,0,3:2:0:0:
430,187,253792,6,0,L|373:179,1,45,2|0,3:2|3:0,0:0:0:0:
468,72,253960,2,0,L|525:64,1,45,10|0,3:2|3:0,0:0:0:0:
334,22,254127,5,2,3:2:0:0:
305,18,254211,1,0,3:2:0:0:
276,15,254295,2,0,P|262:32|258:54,1,45,10|0,3:2|3:0,0:0:0:0:
156,55,254463,2,0,P|157:78|171:96,1,45,2|0,3:2|3:0,0:0:0:0:
129,231,254630,5,8,3:2:0:0:
161,266,254714,1,0,3:2:0:0:
211,276,254798,1,0,3:2:0:0:
252,248,254882,1,0,3:2:0:0:
265,200,254965,6,0,P|260:175|249:156,1,45,10|0,3:2|3:0,0:0:0:0:
339,259,255133,2,0,P|353:238|358:216,1,45,2|0,3:2|3:0,0:0:0:0:
348,348,255301,2,0,P|372:343|391:332,1,45,10|0,3:2|3:0,0:0:0:0:
130,375,255468,5,4,3:2:0:0:
86,350,255552,1,0,3:2:0:0:
70,302,255636,1,8,3:2:0:0:
87,255,255720,1,0,3:2:0:0:
129,231,255803,1,0,3:2:0:0:
168,200,255887,1,0,3:2:0:0:
179,151,255971,1,8,3:2:0:0:
158,105,256055,1,0,3:2:0:0:
112,85,256139,2,0,P|84:92|69:107,1,45,2|0,3:2|3:0,0:0:0:0:
256,227,256306,5,10,3:2:0:0:
268,233,256390,1,0,3:2:0:0:
277,243,256474,1,0,3:2:0:0:
283,255,256558,1,0,3:2:0:0:
286,268,256641,5,10,3:2:0:0:
237,281,256725,1,0,3:2:0:0:
194,256,256809,1,0,3:2:0:0:
182,208,256893,1,0,3:2:0:0:
206,166,256977,1,8,3:2:0:0:
252,151,257060,1,0,3:2:0:0:
297,172,257144,2,0,P|326:186|352:185,1,45,2|0,3:2|3:0,0:0:0:0:
427,42,257312,5,10,3:2:0:0:
423,54,257396,1,0,3:2:0:0:
419,66,257479,1,0,3:2:0:0:
415,78,257563,1,0,3:2:0:0:
436,104,257647,5,10,3:2:0:0:
440,116,257731,1,0,3:2:0:0:
444,128,257814,1,0,3:2:0:0:
448,140,257898,1,0,3:2:0:0:
452,152,257982,5,6,3:2:0:0:
497,132,258066,1,0,3:2:0:0:
510,84,258150,1,0,3:2:0:0:
486,40,258234,1,0,3:2:0:0:
438,26,258317,1,8,3:2:0:0:
394,49,258401,1,0,3:2:0:0:
380,96,258485,1,0,3:2:0:0:
400,141,258569,1,0,3:2:0:0:
442,166,258653,1,8,3:2:0:0:
469,206,258736,1,0,3:2:0:0:
472,255,258820,1,0,3:2:0:0:
448,298,258904,1,0,3:2:0:0:
401,316,258988,1,8,3:2:0:0:
352,304,259072,1,0,3:2:0:0:
320,266,259155,1,0,3:2:0:0:
318,216,259239,1,0,3:2:0:0:
297,170,259323,1,8,3:2:0:0:
250,151,259407,1,0,3:2:0:0:
203,169,259491,1,0,3:2:0:0:
179,211,259574,1,0,3:2:0:0:
191,259,259658,1,8,3:2:0:0:
226,294,259742,1,0,3:2:0:0:
227,343,259826,1,0,3:2:0:0:
196,382,259910,1,0,3:2:0:0:
146,381,259993,1,8,3:2:0:0:
109,347,260077,1,0,3:2:0:0:
110,297,260161,1,0,3:2:0:0:
139,257,260245,1,0,3:2:0:0:
185,239,260329,1,8,3:2:0:0:
219,203,260412,1,0,3:2:0:0:
232,155,260496,1,0,3:2:0:0:
219,106,260580,1,0,3:2:0:0:
182,72,260664,1,8,3:2:0:0:
133,63,260748,1,0,3:2:0:0:
86,79,260831,6,0,P|66:98|55:129,2,36,4|0|0,3:2|3:0|3:0,0:0:0:0:
142,158,261167,1,0,3:0:0:0:
142,158,261334,1,0,3:0:0:0:
286,57,261502,6,0,P|360:37|432:73,1,144,6|0,3:3|0:0,0:0:0:0:
358,170,262005,1,0,3:0:0:0:
358,170,262172,2,0,P|355:146|352:130,2,36,2|0|0,3:0|3:0|3:0,0:0:0:0:
314,262,262507,1,0,3:0:0:0:
314,262,262675,1,0,3:0:0:0:
439,213,262843,2,0,P|475:202|523:193,1,72,10|0,3:3|0:0,0:0:0:0:
318,266,263178,2,0,P|281:255|234:246,1,72,0|0,3:0|0:0,0:0:0:0:
117,205,263513,6,0,B|152:214|192:186|170:170|212:144|243:159,1,144,2|0,3:2|0:0,0:0:0:0:
106,80,264016,1,0,3:0:0:0:
106,80,264183,2,0,L|115:122,2,36,4|0|0,3:0|3:0|3:0,0:0:0:0:
44,251,264518,2,0,P|30:212|37:170,1,72,2|2,3:2|0:0,0:0:0:0:
205,281,264854,6,0,P|166:271|0:322,1,216,2|0,3:2|0:0,0:0:0:0:
117,384,265524,2,0,P|121:363|127:338,2,36,4|0|0,3:0|3:0|3:0,0:0:0:0:
148,225,265859,1,0,3:0:0:0:
148,225,266027,1,0,3:0:0:0:
280,361,266194,6,0,B|370:349|370:349|388:322|388:322|491:307,1,216,4|0,3:2|0:0,0:0:0:0:
309,272,266865,2,0,L|303:229,2,36,6|0|0,3:0|3:0|3:0,0:0:0:0:
413,360,267200,1,0,3:0:0:0:
413,360,267368,1,0,3:0:0:0:
360,171,267535,6,0,P|295:151|228:193,1,144,6|0,3:0|0:0,0:0:0:0:
185,282,268038,1,0,3:0:0:0:
185,282,268206,2,0,P|218:274|228:272,2,36,6|0|0,3:0|3:0|3:0,0:0:0:0:
108,349,268541,2,0,P|75:341|65:339,2,36,0|0|0,3:0|3:0|3:0,0:0:0:0:
101,256,268876,6,0,P|82:168|51:31,1,216,6|0,3:0|0:0,0:0:0:0:
161,130,269546,2,0,P|182:132|204:134,2,36,4|0|0,3:0|3:0|3:0,0:0:0:0:
44,182,269882,1,2,3:0:0:0:
44,182,270049,1,2,3:0:0:0:
285,192,270217,5,10,3:0:0:0:
193,224,270384,1,8,3:0:0:0:
303,98,270552,1,8,3:0:0:0:
353,262,270720,1,8,3:0:0:0:
200,121,270887,1,4,3:0:0:0:
388,161,271055,1,4,3:0:0:0:
256,296,271222,1,4,3:0:0:0:
322,20,271390,1,4,3:0:0:0:
481,311,271558,6,0,B|441:327|403:300|423:276|384:238|335:257,1,161.999995056153,6|0,3:2|3:0,0:0:0:0:
190,240,272060,1,0,3:0:0:0:
275,346,272228,1,14,0:0:0:0:
273,329,272312,1,0,3:0:0:0:
271,312,272396,1,0,3:0:0:0:
152,315,272563,1,0,3:0:0:0:
272,210,272731,1,0,3:0:0:0:
118,89,272898,6,0,B|92:120|92:120|103:247,1,161.999995056153,6|0,3:2|3:0,0:0:0:0:
263,314,273401,1,0,3:0:0:0:
221,143,273569,1,14,0:0:0:0:
204,145,273653,1,0,3:0:0:0:
187,148,273736,1,0,3:0:0:0:
362,260,273904,5,6,3:2:0:0:
362,260,274239,6,0,P|318:212|349:111,1,161.999995056153,4|0,3:2|3:0,0:0:0:0:
452,57,274742,1,0,3:0:0:0:
435,183,274910,1,12,0:0:0:0:
419,181,274993,1,0,3:0:0:0:
402,179,275077,1,0,3:0:0:0:
202,89,275245,1,2,3:2:0:0:
353,8,275412,1,2,3:2:0:0:
258,150,275580,6,0,P|196:172|119:108,1,161.999995056153,6|0,3:2|0:0,0:0:0:0:
64,0,276083,1,0,3:0:0:0:
213,31,276250,1,12,0:0:0:0:
210,47,276334,1,0,3:0:0:0:
208,63,276418,1,0,3:0:0:0:
176,255,276586,1,2,3:2:0:0:
307,80,276753,1,2,3:2:0:0:
36,110,276921,6,0,B|41:169|41:169|73:196|73:196|78:255,1,161.999995056153,6|0,3:2|3:0,0:0:0:0:
39,363,277424,1,0,3:0:0:0:
176,255,277591,1,12,0:0:0:0:
192,256,277675,1,0,3:0:0:0:
208,257,277759,1,0,3:0:0:0:
349,366,277926,5,6,3:2:0:0:
349,366,278261,6,0,L|166:357,1,161.999995056153,6|0,3:2|3:0,0:0:0:0:
125,159,278764,1,0,3:0:0:0:
308,240,278932,1,14,0:0:0:0:
306,256,279016,1,0,3:0:0:0:
304,271,279099,1,0,3:0:0:0:
93,80,279267,2,0,P|149:76|185:98,1,80.9999975280763,0|0,3:0|0:0,0:0:0:0:
267,138,279602,6,0,P|286:131|305:124,2,40.4999987640381,6|0|0,3:2|3:0|3:0,0:0:0:0:
207,220,279937,1,0,3:0:0:0:
272,28,280105,1,0,3:0:0:0:
399,182,280273,1,12,0:0:0:0:
413,174,280356,1,0,3:0:0:0:
427,167,280440,1,0,3:0:0:0:
267,138,280608,1,0,3:0:0:0:
362,325,280775,1,0,3:0:0:0:
496,59,280943,6,0,L|490:99,1,40.4999987640381,4|0,3:2|3:0,0:0:0:0:
467,243,281111,1,0,3:0:0:0:
371,83,281278,1,0,3:0:0:0:
371,83,281446,1,0,3:0:0:0:
238,232,281613,5,12,0:0:0:0:
278,225,281697,1,0,3:0:0:0:
318,218,281781,1,0,3:0:0:0:
149,118,281949,2,0,L|104:114,2,40.4999987640381,0|0|0,3:0|3:0|3:0,0:0:0:0:
260,131,282284,5,6,3:2:0:0:
453,55,284127,5,0,3:0:0:0:
453,55,284211,1,0,3:0:0:0:
453,55,284295,1,8,3:0:0:0:
362,49,284463,1,8,3:0:0:0:
275,40,284630,1,4,3:0:0:0:
275,40,284965,5,6,3:2:0:0:
194,173,285133,1,0,3:0:0:0:
358,161,285301,1,0,3:0:0:0:
183,62,285468,1,0,3:0:0:0:
284,232,285636,1,8,0:0:0:0:
362,49,285803,1,0,3:0:0:0:
183,180,285971,2,0,B|136:177|136:177|134:179|134:179|72:175,1,99.0000030212403,2|0,3:2|3:0,0:0:0:0:
256,321,286306,6,0,B|328:314|328:314|361:275|361:275|434:268,1,198.000006042481,2|0,3:2|3:0,0:0:0:0:
275,132,286809,1,0,3:0:0:0:
164,294,286977,5,8,0:0:0:0:
347,195,287144,1,0,3:0:0:0:
184,103,287312,1,0,3:0:0:0:
293,332,287479,1,8,0:0:0:0:
500,149,287647,6,0,B|449:164|406:132|406:132|364:100|313:116,1,198.000006042481,6|0,3:2|3:0,0:0:0:0:
170,281,288150,1,0,3:0:0:0:
222,18,288317,6,0,B|230:115|230:115|232:115|232:115|241:213,1,198.000006042481,10|0,0:0|3:0,0:0:0:0:
293,332,288820,1,0,3:0:0:0:
147,186,288988,2,0,B|142:137|142:137|141:137|141:137|137:88,1,99.0000030212403,2|0,3:2|3:0,0:0:0:0:
74,245,289323,1,0,3:0:0:0:
233,116,289491,1,0,3:0:0:0:
0,0,289658,1,14,0:0:0:0:
41,91,289993,1,4,3:2:0:0:
323,57,290329,5,6,3:2:0:0:
274,207,290496,1,0,3:0:0:0:
334,22,290664,1,0,3:0:0:0:
380,246,290831,1,0,3:0:0:0:
226,54,290999,1,8,0:0:0:0:
463,30,291167,1,0,3:0:0:0:
380,246,291334,2,0,P|358:177|376:143,1,99.0000030212403,2|0,3:2|3:0,0:0:0:0:
460,289,291669,6,0,P|392:334|289:272,1,198.000006042481,2|0,3:2|3:0,0:0:0:0:
366,155,292172,1,0,3:0:0:0:
197,300,292340,5,8,0:0:0:0:
380,246,292507,1,0,3:0:0:0:
252,120,292675,1,0,3:0:0:0:
318,378,292843,1,8,0:0:0:0:
70,214,293010,6,0,B|31:187|31:187|191:201,1,198.000006042481,6|0,3:2|3:0,3:0:0:0:
380,246,293513,1,0,3:0:0:0:
312,58,293680,2,0,P|217:40|167:136,1,198.000006042481,10|0,0:0|3:0,0:0:0:0:
197,300,294183,1,0,3:0:0:0:
332,181,294351,6,0,P|405:167|435:187,1,99.0000030212403,6|0,3:2|3:2,3:2:0:0:
296,374,294686,1,0,3:0:0:0:
252,120,294854,1,0,3:0:0:0:
501,213,295021,1,14,0:0:0:0:
363,255,295356,1,4,3:2:0:0:
114,88,295692,5,6,3:2:0:0:
315,30,295859,1,0,3:0:0:0:
98,92,296027,1,0,3:0:0:0:
344,151,296194,1,0,3:0:0:0:
107,240,296362,1,8,0:0:0:0:
203,19,296530,1,0,3:0:0:0:
392,218,296697,2,0,P|313:228|280:202,1,99.0000030212403,2|0,3:2|3:0,0:0:0:0:
67,82,297032,6,0,B|73:154|73:154|112:187|112:187|119:260,1,198.000006042481,6|0,3:2|3:0,0:0:0:0:
225,276,297535,1,0,3:0:0:0:
10,239,297703,1,8,0:0:0:0:
170,99,297870,1,0,3:0:0:0:
74,344,298038,1,2,3:2:0:0:
48,82,298206,1,8,0:0:0:0:
218,284,298373,6,0,B|269:294|309:259|309:259|349:224|401:234,1,198.000006042481,6|0,3:2|3:0,0:0:0:0:
371,336,298876,1,0,3:0:0:0:
230,156,299044,1,8,0:0:0:0:
364,343,299211,1,0,3:0:0:0:
467,166,299379,2,0,P|493:206|495:255,1,99.0000030212403,2|0,3:2|3:0,0:0:0:0:
130,102,299714,6,0,B|220:62|220:62|316:85,1,198.000006042481,6|0,3:2|3:0,0:0:0:0:
401,235,300217,1,0,3:0:0:0:
236,153,300384,1,14,2:0:0:0:
316,85,300720,1,4,3:2:0:0:
281,259,301055,5,6,3:2:0:0:
129,206,301222,1,0,3:2:0:0:
297,265,301390,1,0,3:2:0:0:
89,317,301558,1,0,3:2:0:0:
317,166,301725,1,8,0:0:0:0:
233,375,301893,1,0,3:0:0:0:
88,109,302060,5,0,3:0:0:0:
197,288,302228,1,0,3:0:0:0:
207,148,302396,1,0,3:0:0:0:
85,339,302563,5,0,3:0:0:0:
256,229,302731,1,0,3:0:0:0:
124,220,302899,1,0,3:0:0:0:
312,321,303066,5,8,0:0:0:0:
251,72,303234,1,0,3:0:0:0:
410,249,303401,1,0,3:0:0:0:
195,313,303569,1,8,0:0:0:0:
432,58,303736,6,0,L|421:2,7,45,4|0|0|0|0|0|0|0,3:2|3:2|3:2|3:2|3:2|3:2|3:2|3:2,3:2:0:0:
448,135,304407,5,14,3:2:0:0:
456,132,304491,1,0,3:2:0:0:
464,129,304575,1,0,3:2:0:0:
472,126,304658,1,0,3:2:0:0:
480,123,304742,1,0,3:2:0:0:
488,120,304826,1,0,3:2:0:0:
496,117,304910,1,0,3:2:0:0:
504,114,304994,1,0,3:2:0:0:
512,111,305077,5,10,3:2:0:0:
501,145,305161,1,0,3:2:0:0:
492,179,305245,1,0,3:2:0:0:
483,214,305329,1,0,3:2:0:0:
474,248,305413,1,0,3:2:0:0:
465,282,305496,1,0,3:2:0:0:
455,317,305581,1,0,3:2:0:0:
446,351,305664,1,0,3:2:0:0:
449,361,305748,5,10,3:2:0:0:
431,354,305832,1,0,3:2:0:0:
414,348,305915,1,0,3:2:0:0:
396,342,305999,1,0,3:2:0:0:
360,313,306083,5,8,3:2:0:0:
345,318,306167,1,0,3:2:0:0:
331,323,306250,1,0,3:2:0:0:
317,328,306334,1,0,3:2:0:0:
291,354,306418,5,14,3:2:0:0:
286,353,306502,1,0,3:2:0:0:
281,352,306586,1,0,3:2:0:0:
276,351,306670,1,0,3:2:0:0:
271,350,306753,1,0,3:2:0:0:
266,349,306837,1,0,3:2:0:0:
261,348,306921,1,0,3:2:0:0:
256,347,307005,1,0,3:2:0:0:
237,353,307089,5,8,3:2:0:0:
232,352,307173,1,0,3:2:0:0:
227,351,307257,1,0,3:2:0:0:
222,350,307341,1,0,3:2:0:0:
217,349,307424,5,2,3:2:0:0:
226,333,307508,1,0,3:2:0:0:
235,317,307591,1,0,3:2:0:0:
244,301,307675,1,0,3:2:0:0:
253,285,307759,5,14,3:2:0:0:
226,288,307843,1,0,3:2:0:0:
199,291,307927,1,0,3:2:0:0:
172,294,308010,1,0,3:2:0:0:
145,298,308094,1,0,3:2:0:0:
118,302,308178,1,0,3:2:0:0:
91,306,308262,1,0,3:2:0:0:
64,310,308346,1,0,3:2:0:0:
37,312,308429,6,0,L|51:255,1,45,12|0,3:2|3:0,0:0:0:0:
14,315,308597,2,0,L|28:258,1,45,0|0,3:2|3:0,0:0:0:0:
129,201,308764,6,0,L|115:144,1,31.4999990386963,12|0,3:2|3:0,0:0:0:0:
140,205,308932,2,0,L|126:148,1,31.4999990386963,0|0,3:0|3:0,0:0:0:0:
12,127,309099,6,0,L|26:70,7,45,14|0|0|0|0|0|0|0,3:2|3:0|3:0|3:0|3:0|3:0|3:0|3:0,0:0:0:0:
177,77,309770,5,14,3:2:0:0:
199,80,309854,1,0,3:2:0:0:
220,83,309938,1,0,3:2:0:0:
241,87,310022,1,0,3:2:0:0:
262,90,310105,1,0,3:2:0:0:
283,94,310189,1,0,3:2:0:0:
304,97,310273,1,0,3:2:0:0:
325,101,310357,1,0,3:2:0:0:
325,88,310441,5,14,3:2:0:0:
283,94,310525,1,0,3:2:0:0:
242,99,310609,1,0,3:2:0:0:
202,109,310693,1,0,3:2:0:0:
163,113,310776,1,0,3:2:0:0:
121,121,310860,1,0,3:2:0:0:
81,128,310944,1,0,3:2:0:0:
41,135,311028,1,0,3:2:0:0:
0,143,311111,5,14,3:2:0:0:
7,159,311195,1,0,3:2:0:0:
14,175,311279,1,0,3:2:0:0:
21,191,311362,1,0,3:2:0:0:
54,227,311446,5,8,3:2:0:0:
48,238,311530,1,0,3:2:0:0:
43,250,311614,1,0,3:2:0:0:
38,262,311697,1,0,3:2:0:0:
14,287,311781,5,14,3:2:0:0:
54,280,311865,1,0,3:2:0:0:
94,273,311949,1,0,3:2:0:0:
134,266,312033,1,0,3:2:0:0:
174,259,312117,1,0,3:2:0:0:
213,252,312200,1,0,3:2:0:0:
253,245,312284,1,0,3:2:0:0:
293,238,312368,1,0,3:2:0:0:
326,269,312452,5,8,3:2:0:0:
354,274,312535,1,0,3:2:0:0:
383,279,312619,1,0,3:2:0:0:
413,284,312703,1,0,3:2:0:0:
443,289,312787,5,2,3:2:0:0:
437,267,312871,1,0,3:2:0:0:
431,245,312955,1,0,3:2:0:0:
425,223,313038,1,0,3:2:0:0:
457,199,313122,5,14,3:2:0:0:
458,193,313206,1,0,3:2:0:0:
459,188,313290,1,0,3:2:0:0:
461,182,313373,1,0,3:2:0:0:
462,176,313457,1,0,3:2:0:0:
463,171,313541,1,0,3:2:0:0:
465,165,313624,1,0,3:2:0:0:
466,160,313708,1,0,3:2:0:0:
496,150,313793,6,0,L|511:83,1,45,8|0,3:2|3:2,3:2:0:0:
346,4,313960,2,0,L|361:71,1,45,8|0,3:2|3:2,3:2:0:0:
277,356,314128,6,0,L|292:289,1,53.9999983520508,8|0,3:2|3:2,3:2:0:0:
137,141,314295,2,0,L|152:208,1,53.9999983520508,8|0,3:2|3:2,3:2:0:0:
20,366,314463,5,4,3:2:0:0:
60,384,314547,1,0,3:2:0:0:
105,380,314631,1,0,3:2:0:0:
144,356,314714,1,0,3:2:0:0:
160,313,314798,1,10,3:1:0:0:
175,270,314883,1,0,3:2:0:0:
214,246,314966,1,0,3:2:0:0:
259,242,315050,1,0,3:2:0:0:
300,261,315133,5,2,3:1:0:0:
287,313,315217,1,0,3:2:0:0:
241,341,315301,1,0,3:2:0:0:
187,331,315385,1,0,3:2:0:0:
153,288,315468,1,10,3:1:0:0:
146,234,315552,1,0,3:2:0:0:
175,188,315636,1,0,3:2:0:0:
226,170,315720,1,0,3:2:0:0:
278,181,315803,5,2,3:1:0:0:
338,220,315887,1,0,3:2:0:0:
409,213,315971,1,0,3:2:0:0:
459,161,316055,1,0,3:2:0:0:
464,89,316139,1,10,3:1:0:0:
422,31,316222,1,0,3:2:0:0:
352,12,316306,1,0,3:2:0:0:
287,44,316390,1,0,3:2:0:0:
261,111,316474,5,2,3:1:0:0:
237,154,316558,1,0,3:2:0:0:
190,172,316642,1,0,3:2:0:0:
141,163,316725,1,0,3:2:0:0:
113,121,316809,5,10,3:1:0:0:
119,109,316893,1,0,3:2:0:0:
130,101,316977,1,0,3:2:0:0:
143,98,317061,1,0,3:2:0:0:
156,98,317144,5,6,3:1:0:0:
151,156,317228,1,0,3:2:0:0:
115,202,317312,1,0,3:2:0:0:
56,207,317396,1,0,3:2:0:0:
9,243,317480,1,10,3:1:0:0:
3,300,317563,1,0,3:2:0:0:
35,349,317647,1,0,3:2:0:0:
91,363,317731,1,0,3:2:0:0:
142,335,317815,1,2,3:1:0:0:
168,282,317899,1,0,3:2:0:0:
210,242,317982,1,0,3:2:0:0:
268,240,318066,1,0,3:0:0:0:
315,275,318150,5,10,3:1:0:0:
293,314,318234,1,0,3:2:0:0:
248,323,318318,1,0,3:2:0:0:
205,310,318401,1,0,3:2:0:0:
183,270,318485,5,2,3:1:0:0:
192,198,318569,1,0,3:2:0:0:
258,169,318653,1,0,3:0:0:0:
325,190,318736,1,0,3:0:0:0:
388,226,318820,1,10,3:1:0:0:
459,213,318904,1,0,3:0:0:0:
505,158,318988,1,0,3:0:0:0:
505,86,319071,1,0,3:0:0:0:
459,31,319155,1,12,3:2:0:0:
388,18,319239,1,0,3:0:0:0:
325,54,319323,1,0,3:0:0:0:
301,122,319407,1,0,3:0:0:0:
325,190,319491,5,14,3:2:0:0:
351,190,319574,1,0,3:0:0:0:
375,178,319658,1,0,3:0:0:0:
395,160,319742,1,0,3:0:0:0:
406,135,319826,5,6,3:2:0:0:
373,91,319910,1,0,3:0:0:0:
319,84,319993,1,0,3:0:0:0:
268,102,320077,1,0,3:0:0:0:
234,144,320161,1,10,3:1:0:0:
190,175,320245,1,0,3:0:0:0:
136,170,320329,1,0,3:0:0:0:
94,136,320412,1,0,3:0:0:0:
77,84,320496,1,2,3:1:0:0:
91,31,320580,1,0,3:0:0:0:
136,2,320664,1,0,3:0:0:0:
190,4,320748,1,0,3:2:0:0:
236,32,320832,5,10,3:1:0:0:
230,71,320915,1,0,3:2:0:0:
202,101,320999,1,0,3:2:0:0:
162,108,321083,1,0,3:2:0:0:
123,94,321167,5,2,3:1:0:0:
92,85,321251,1,0,3:2:0:0:
61,89,321334,1,0,3:2:0:0:
32,103,321418,1,0,3:2:0:0:
15,129,321502,1,10,3:1:0:0:
5,159,321586,1,0,3:2:0:0:
8,190,321670,1,0,3:2:0:0:
20,218,321753,1,0,3:2:0:0:
44,237,321837,5,2,3:1:0:0:
51,242,321921,1,0,3:2:0:0:
57,248,322005,1,0,3:2:0:0:
63,255,322089,1,0,3:2:0:0:
68,263,322172,1,10,3:1:0:0:
72,271,322256,1,0,3:2:0:0:
75,280,322340,1,0,3:2:0:0:
76,289,322424,1,0,3:2:0:0:
76,298,322508,5,6,3:1:0:0:
22,292,322591,1,0,3:2:0:0:
0,242,322675,1,0,3:2:0:0:
21,192,322759,1,0,3:2:0:0:
70,171,322843,1,10,3:1:0:0:
121,188,322927,1,0,3:2:0:0:
151,231,323010,1,0,3:2:0:0:
185,272,323094,1,0,3:2:0:0:
237,283,323178,1,2,3:1:0:0:
286,261,323262,1,0,3:2:0:0:
311,213,323346,1,0,3:2:0:0:
357,186,323429,1,0,3:2:0:0:
410,182,323513,1,10,3:1:0:0:
456,209,323597,1,0,3:2:0:0:
478,258,323681,1,0,3:2:0:0:
468,311,323765,1,0,3:2:0:0:
431,349,323848,1,2,3:1:0:0:
377,357,323932,1,0,3:2:0:0:
326,338,324016,1,0,3:2:0:0:
298,291,324100,1,0,3:2:0:0:
294,236,324184,1,10,3:1:0:0:
325,192,324267,1,0,3:2:0:0:
372,166,324351,1,0,3:2:0:0:
404,123,324435,1,0,3:2:0:0:
405,68,324519,1,2,3:1:0:0:
376,22,324603,1,0,3:2:0:0:
325,3,324686,1,0,3:2:0:0:
272,15,324770,1,0,3:2:0:0:
238,57,324854,6,0,P|217:84|201:90,1,45,10|0,3:1|3:2,3:2:0:0:
221,172,325021,2,0,P|187:176|171:169,1,45,8|0,3:2|3:2,3:2:0:0:
34,122,325189,5,6,3:2:0:0:
11,99,325273,1,0,3:2:0:0:
3,68,325356,1,0,3:2:0:0:
12,37,325440,1,0,3:2:0:0:
32,12,325524,1,0,3:2:0:0:
61,0,325608,1,0,3:2:0:0:
92,1,325692,1,0,3:2:0:0:
119,15,325775,1,0,3:2:0:0:
134,42,325859,1,8,2:2:0:0:
138,73,325943,1,0,3:2:0:0:
130,103,326027,1,0,3:2:0:0:
110,127,326111,1,0,3:2:0:0:
80,136,326194,2,0,P|51:155|42:170,1,45,2|0,3:2|3:0,0:0:0:0:
16,269,326362,5,0,3:0:0:0:
16,269,326446,1,0,3:0:0:0:
16,269,326530,2,0,L|27:323,1,45,10|0,0:0|3:0,0:0:0:0:
219,162,326697,2,0,L|228:118,1,45,8|0,0:0|3:0,0:0:0:0:
222,330,326865,6,0,L|177:320,3,45,0|0|0|0,3:0|3:0|3:0|3:0,0:0:0:0:
124,251,327200,5,14,3:2:0:0:
130,244,327284,1,0,3:2:0:0:
137,239,327368,1,0,3:2:0:0:
145,235,327451,1,0,3:2:0:0:
153,232,327535,1,0,3:2:0:0:
161,230,327619,1,0,3:2:0:0:
170,229,327703,1,0,3:2:0:0:
178,230,327787,1,0,3:2:0:0:
186,232,327870,5,14,3:2:0:0:
186,281,327954,1,0,3:2:0:0:
149,314,328038,1,0,3:2:0:0:
99,316,328122,1,0,3:2:0:0:
62,281,328206,1,0,3:2:0:0:
58,232,328289,1,0,3:2:0:0:
88,192,328373,1,0,3:2:0:0:
135,177,328457,1,0,3:2:0:0:
184,178,328541,1,8,3:2:0:0:
232,167,328625,1,0,3:2:0:0:
267,132,328708,1,0,3:2:0:0:
285,86,328792,1,0,3:2:0:0:
270,38,328876,1,0,3:2:0:0:
232,5,328960,1,0,3:2:0:0:
182,1,329044,1,0,3:2:0:0:
137,22,329127,1,0,3:2:0:0:
113,65,329211,1,12,3:2:0:0:
116,114,329295,1,0,3:2:0:0:
149,150,329379,1,0,3:2:0:0:
195,167,329463,1,0,3:2:0:0:
243,162,329546,1,0,3:2:0:0:
280,129,329630,1,0,3:2:0:0:
328,119,329714,1,0,3:2:0:0:
376,131,329798,1,0,3:2:0:0:
414,161,329882,6,0,P|425:186|428:216,1,45,10|0,3:2|3:2,3:2:0:0:
321,330,330049,5,8,3:2:0:0:
326,331,330133,1,0,3:2:0:0:
331,332,330217,1,0,3:2:0:0:
336,333,330301,1,0,3:2:0:0:
341,334,330384,1,0,3:2:0:0:
346,335,330468,1,0,3:2:0:0:
350,336,330552,5,14,3:2:0:0:
292,377,330636,1,0,3:2:0:0:
223,358,330720,1,0,3:2:0:0:
187,296,330803,1,0,3:2:0:0:
216,229,330887,1,0,3:2:0:0:
285,204,330971,1,0,3:2:0:0:
356,220,331055,1,0,3:2:0:0:
427,203,331139,1,0,3:2:0:0:
473,147,331222,1,8,3:2:0:0:
473,74,331306,1,0,3:2:0:0:
428,17,331390,1,0,3:2:0:0:
358,1,331474,1,0,3:2:0:0:
292,28,331558,1,0,3:2:0:0:
260,91,331641,1,0,3:2:0:0:
272,162,331725,1,0,3:2:0:0:
324,213,331809,1,0,3:2:0:0:
396,214,331893,1,8,3:2:0:0:
463,238,331977,1,0,3:2:0:0:
483,306,332060,1,0,3:2:0:0:
438,362,332144,1,0,3:2:0:0:
366,356,332228,1,0,3:2:0:0:
329,293,332312,1,0,3:2:0:0:
284,236,332396,1,0,3:2:0:0:
212,229,332479,1,0,3:2:0:0:
157,276,332563,6,0,P|149:299|149:324,1,45,8|0,3:2|3:0,0:0:0:0:
69,142,332731,1,8,3:2:0:0:
77,140,332815,1,0,3:0:0:0:
85,138,332898,1,0,3:0:0:0:
93,136,332982,1,0,3:0:0:0:
101,134,333066,2,0,L|180:120,1,45,0|0,3:0|3:0,0:0:0:0:
396,214,333234,5,6,3:2:0:0:
284,142,333401,1,8,0:0:0:0:
284,142,333485,1,8,0:0:0:0:
284,142,333569,2,0,L|215:151,1,53.9999983520508,8|8,0:0|0:0,0:0:0:0:
46,321,333736,5,6,3:2:0:0:
138,241,333904,1,8,0:0:0:0:
144,233,333988,1,8,0:0:0:0:
148,224,334071,1,8,0:0:0:0:
151,214,334155,1,8,0:0:0:0:
153,204,334239,5,6,3:2:0:0:
39,161,334407,2,0,P|43:186|48:220,1,53.9999983520508,8|8,0:0|0:0,0:0:0:0:
231,301,334574,2,0,P|235:276|240:242,1,53.9999983520508,8|8,0:0|0:0,0:0:0:0:
275,29,334742,5,6,0:0:0:0:
182,118,334909,1,8,0:0:0:0:
198,117,334993,1,8,0:0:0:0:
214,116,335077,1,8,0:0:0:0:
230,115,335161,1,8,0:0:0:0:
246,114,335245,6,0,B|316:108|316:108|316:110|316:110|388:105|388:105|440:145,1,202.500007724762,6|0,3:2|0:0,0:0:0:0:
361,269,335580,2,0,P|314:271|305:189,1,135,6|0,3:2|0:0,0:0:0:0:
434,141,335915,5,6,3:2:0:0:
512,231,336083,1,8,0:0:0:0:
512,231,336166,1,8,0:0:0:0:
512,231,336250,2,0,L|444:235,1,53.9999983520508,8|8,0:0|0:0,0:0:0:0:
266,273,336418,5,6,3:2:0:0:
433,355,336585,1,8,0:0:0:0:
432,346,336669,1,8,0:0:0:0:
431,337,336753,1,8,0:0:0:0:
430,328,336837,1,8,0:0:0:0:
429,319,336921,1,6,3:2:0:0:
213,211,337088,5,8,0:0:0:0:
193,239,337171,1,8,0:0:0:0:
186,272,337255,1,8,0:0:0:0:
193,304,337339,1,8,0:0:0:0:
212,332,337423,1,8,3:0:0:0:
350,267,337591,6,0,L|290:273,1,53.9999983520508,8|8,0:0|0:0,0:0:0:0:
115,113,337759,2,0,L|175:119,1,53.9999983520508,8|8,0:0|0:0,0:0:0:0:
307,129,337926,5,8,3:0:0:0:
311,141,338094,1,4,3:0:0:0:
242,71,338261,5,8,3:0:0:0:
246,59,338345,1,8,3:0:0:0:
250,47,338429,1,4,3:0:0:0:
254,35,338513,1,4,3:0:0:0:
258,23,338597,5,6,3:2:0:0:
399,117,338764,1,8,0:0:0:0:
399,117,338848,1,8,0:0:0:0:
399,117,338932,2,0,L|413:170,1,53.9999983520508,8|8,0:0|0:0,0:0:0:0:
150,32,339099,5,6,3:2:0:0:
224,157,339267,1,8,0:0:0:0:
214,158,339351,1,8,0:0:0:0:
204,159,339435,1,8,0:0:0:0:
195,160,339518,1,8,0:0:0:0:
185,161,339602,5,6,3:2:0:0:
53,145,339770,2,0,P|40:121|39:94,1,53.9999983520508,8|8,0:0|0:0,0:0:0:0:
184,285,339937,2,0,P|183:312|170:336,1,53.9999983520508,8|8,0:0|0:0,0:0:0:0:
87,246,340105,5,6,3:2:0:0:
278,338,340273,1,8,0:0:0:0:
295,336,340356,1,8,0:0:0:0:
311,330,340440,1,8,0:0:0:0:
325,320,340524,1,8,0:0:0:0:
338,308,340608,6,0,B|333:243|333:243|334:245|334:245|328:163|328:163|300:223,1,202.500007724762,6|0,3:2|0:0,0:0:0:0:
418,281,340943,2,0,P|445:289|503:209,1,135,6|0,3:2|0:0,0:0:0:0:
483,68,341278,5,6,3:2:0:0:
424,191,341446,1,8,0:0:0:0:
424,191,341530,1,8,0:0:0:0:
424,191,341614,2,0,L|420:135,1,53.9999983520508,8|8,0:0|0:0,0:0:0:0:
417,3,341781,5,6,3:2:0:0:
321,93,341949,1,8,0:0:0:0:
304,101,342032,1,8,0:0:0:0:
286,106,342116,1,8,0:0:0:0:
267,106,342200,1,8,0:0:0:0:
249,101,342284,5,6,3:2:0:0:
146,29,342451,2,0,P|120:25|71:41,1,53.9999983520508,0|0,3:0|3:0,0:0:0:0:
33,109,342619,5,8,3:0:0:0:
39,131,342703,1,8,3:0:0:0:
45,153,342787,1,8,3:0:0:0:
51,175,342870,1,8,3:0:0:0:
90,200,342954,5,4,3:0:0:0:
86,212,343038,1,4,3:0:0:0:
83,224,343122,1,4,3:0:0:0:
80,236,343205,1,4,3:0:0:0:
49,268,343289,6,0,L|63:321,1,53.9999983520508,8|8,3:0|3:0,0:0:0:0:
42,273,343457,2,0,L|56:326,1,53.9999983520508,8|8,3:0|3:0,0:0:0:0:
190,381,343625,6,0,L|204:328,1,45,4|4,3:0|3:0,0:0:0:0:
183,376,343793,2,0,L|197:323,1,45,4|4,3:0|3:0,0:0:0:0:
251,133,343960,5,6,3:2:0:0:
187,222,344127,1,8,0:0:0:0:
187,222,344210,1,8,0:0:0:0:
187,222,344295,2,0,L|240:236,1,53.9999983520508,8|8,2:2|2:2,0:0:0:0:
468,219,344463,5,6,3:2:0:0:
386,328,344630,1,8,0:0:0:0:
367,316,344714,1,8,0:0:0:0:
355,297,344798,1,8,0:0:0:0:
347,276,344882,1,8,0:0:0:0:
345,254,344965,5,6,3:2:0:0:
456,100,345133,2,0,P|429:107|397:113,1,53.9999983520508,8|8,0:0|0:0,0:0:0:0:
290,154,345301,2,0,P|262:146|232:140,1,53.9999983520508,8|8,0:0|0:0,0:0:0:0:
125,113,345468,5,6,3:2:0:0:
288,43,345636,1,8,0:0:0:0:
266,49,345720,1,8,0:0:0:0:
244,54,345803,1,8,0:0:0:0:
222,61,345887,1,8,0:0:0:0:
202,66,345971,6,0,B|216:159|216:159|218:162|218:162|239:301,1,202.500007724762,6|0,3:2|0:0,0:0:0:0:
130,219,346306,2,0,P|90:208|48:283,1,135,6|0,3:2|0:0,0:0:0:0:
0,376,346641,5,6,3:2:0:0:
157,370,346809,1,8,0:0:0:0:
157,370,346893,1,8,0:0:0:0:
157,370,346977,2,0,L|147:294,1,53.9999983520508,8|8,0:0|0:0,0:0:0:0:
124,120,347144,5,6,3:2:0:0:
256,184,347312,1,8,0:0:0:0:
277,191,347396,1,8,0:0:0:0:
299,192,347479,1,8,0:0:0:0:
320,187,347563,1,8,0:0:0:0:
340,178,347647,1,6,3:2:0:0:
485,17,347815,5,8,0:0:0:0:
451,31,347898,1,8,0:0:0:0:
429,60,347982,1,8,0:0:0:0:
426,96,348066,1,8,0:0:0:0:
444,128,348150,1,8,3:0:0:0:
412,275,348317,6,0,L|422:221,1,53.9999983520508,8|8,0:0|0:0,0:0:0:0:
284,45,348485,2,0,L|294:99,1,53.9999983520508,8|8,0:0|0:0,0:0:0:0:
205,256,348652,5,8,3:0:0:0:
195,261,348820,1,4,3:0:0:0:
267,186,348988,5,8,3:0:0:0:
277,191,349071,1,8,3:0:0:0:
287,196,349155,1,4,3:0:0:0:
297,201,349239,1,4,3:0:0:0:
307,206,349323,5,6,3:2:0:0:
158,108,349490,1,8,0:0:0:0:
158,108,349574,1,8,0:0:0:0:
158,108,349658,2,0,L|168:162,1,53.9999983520508,8|8,0:0|0:0,0:0:0:0:
195,349,349826,5,6,3:2:0:0:
315,209,349993,2,0,L|305:263,1,53.9999983520508,8|8,0:0|0:0,0:0:0:0:
151,266,350161,2,0,L|205:256,1,53.9999983520508,8|8,0:0|0:0,0:0:0:0:
436,220,350328,5,6,3:2:0:0:
325,106,350496,1,8,0:0:0:0:
311,90,350580,1,8,0:0:0:0:
302,71,350664,1,8,0:0:0:0:
300,50,350747,1,8,0:0:0:0:
304,29,350831,5,6,3:2:0:0:
479,114,350999,1,8,0:0:0:0:
479,114,351083,1,8,0:0:0:0:
479,114,351166,2,0,L|421:124,1,53.9999983520508,8|8,0:0|0:0,0:0:0:0:
199,4,351334,6,0,B|205:14|205:14|288:28|288:28|287:26|287:26|380:41|380:41|389:35,1,202.500007724762,6|0,3:2|0:0,0:0:0:0:
218,105,351669,2,0,P|187:140|199:235,1,135,6|0,3:2|0:0,0:0:0:0:
396,283,352004,5,6,3:2:0:0:
330,187,352172,1,8,0:0:0:0:
330,187,352256,1,8,0:0:0:0:
330,187,352340,2,0,L|264:179,1,53.9999983520508,8|8,0:0|0:0,0:0:0:0:
85,152,352507,5,6,3:2:0:0:
267,264,352675,2,0,P|280:296|279:318,1,53.9999983520508,8|8,0:0|0:0,0:0:0:0:
80,292,352842,2,0,P|88:266|106:245,1,53.9999983520508,8|8,0:0|0:0,0:0:0:0:
182,312,353010,5,6,3:2:0:0:
182,312,353178,2,0,L|174:379,1,53.9999983520508,0|0,3:0|3:0,0:0:0:0:
21,94,353345,5,8,3:0:0:0:
66,66,353429,1,8,3:0:0:0:
114,70,353513,1,8,3:0:0:0:
148,96,353597,1,8,3:0:0:0:
165,130,353680,1,4,3:0:0:0:
188,152,353764,1,4,3:0:0:0:
212,164,353848,1,4,3:0:0:0:
233,166,353932,1,4,3:0:0:0:
248,163,354016,6,0,P|271:137|272:105,1,53.9999983520508,8|8,3:0|3:0,0:0:0:0:
347,83,354183,2,0,P|344:49|322:26,1,53.9999983520508,8|8,3:0|3:0,0:0:0:0:
228,12,354351,5,4,3:0:0:0:
229,18,354435,1,4,3:0:0:0:
230,23,354518,1,4,3:0:0:0:
232,28,354602,1,4,3:0:0:0:
233,33,354686,5,14,3:2:0:0:
279,351,354854,1,2,3:2:0:0:
22,244,355692,6,0,L|66:235,1,45,12|0,0:0|0:0,0:0:0:0:
485,158,355859,2,0,B|541:144|541:144|409:125|409:125|411:127|411:127|279:112|279:112|257:125|257:125|297:155|316:181|301:241|301:241|317:194|357:164|423:174,1,629.999980773926,14|0,0:0|0:0,0:0:0:0:
