osu file format v14

[General]
AudioFilename: Orbiter - Want You.mp3
AudioLeadIn: 0
PreviewTime: 49270
Countdown: 0
SampleSet: Soft
StackLeniency: 0.7
Mode: 2
LetterboxInBreaks: 0
WidescreenStoryboard: 1

[Editor]
DistanceSpacing: 1
BeatDivisor: 4
GridSize: 8
TimelineZoom: 1

[Metadata]
Title:Want You
TitleUnicode:Want You
Artist:Orbiter
ArtistUnicode:Orbiter
Creator:WildOne94
Version:Platter
Source:
Tags:Sorcerer monstercat
BeatmapID:1389344
BeatmapSetID:650784

[Difficulty]
HPDrainRate:5
CircleSize:3.5
OverallDifficulty:8
ApproachRate:8
SliderMultiplier:2.6
SliderTickRate:1

[Events]
//Background and Video events
0,0,"maxresdefault.jpg",0,0
//Break Periods
//Storyboard Layer 0 (Background)
//Storyboard Layer 1 (Fail)
//Storyboard Layer 2 (Pass)
//Storyboard Layer 3 (Foreground)
//Storyboard Sound Samples

[TimingPoints]
1270,600,4,2,0,20,1,0
10870,-100,4,2,0,35,0,0
30070,-100,4,2,1,50,0,0
48370,-100,4,2,1,25,0,0
49270,-100,4,2,1,80,0,1
67270,-100,4,2,0,50,0,0
68470,-100,4,2,0,60,0,0
69070,-100,4,2,1,80,0,1
70870,-100,4,2,1,60,0,1
71470,-100,4,2,1,80,0,1
73270,-100,4,2,1,60,0,1
73870,-100,4,2,1,80,0,1
75670,-100,4,2,1,60,0,1
76270,-100,4,2,1,80,0,1
77920,-100,4,2,0,60,0,0
78670,-100,4,2,1,80,0,1
80470,-100,4,2,1,60,0,1
81070,-100,4,2,1,80,0,1
82870,-100,4,2,1,60,0,1
83470,-100,4,2,1,80,0,1
85270,-100,4,2,1,60,0,1
85870,-100,4,2,1,80,0,1
87520,-100,4,2,1,60,0,0
88270,-100,4,2,1,50,0,0
106870,-100,4,2,1,60,0,0
125170,-100,4,2,1,25,0,0
126070,-100,4,2,1,80,0,1
141670,-100,4,2,0,50,0,0
144070,-100,4,2,1,60,0,0
145870,-100,4,2,1,80,0,1
147670,-100,4,2,1,60,0,1
148270,-100,4,2,1,80,0,1
150070,-100,4,2,1,60,0,1
150670,-100,4,2,1,80,0,1
152470,-100,4,2,1,60,0,1
153070,-100,4,2,1,80,0,1
154720,-100,4,2,0,60,0,0
155470,-100,4,2,1,80,0,1
157270,-100,4,2,1,60,0,1
157870,-100,4,2,1,80,0,1
159670,-100,4,2,1,60,0,1
160270,-100,4,2,1,80,0,1
162070,-100,4,2,1,60,0,1
162670,-100,4,2,1,80,0,1
164320,-100,4,2,0,60,0,0
165070,-100,4,2,0,40,0,0
166570,-100,4,2,0,30,0,0
174070,-100,4,2,0,25,0,0
183670,-100,4,2,0,20,0,0
187270,-100,4,2,0,15,0,0
189670,-100,4,2,0,10,0,0
191920,-100,4,2,0,5,0,0

[Colours]
Combo1 : 221,2,2
Combo2 : 236,118,0
Combo3 : 170,21,21
Combo4 : 248,159,80

[HitObjects]
256,192,1270,12,0,7270,0:0:0:0:
192,192,7870,5,0,0:0:0:0:
320,192,8170,6,0,P|416:192|296:96,1,390,2|0,0:0|0:0,0:0:0:0:
200,192,9670,2,0,P|128:240|256:312,1,260,2|2,0:0|0:0,0:0:0:0:
352,336,10570,1,2,0:0:0:0:
104,336,10870,6,0,P|56:264|120:184,1,173.333333333333,6|0,0:0|0:0,0:0:0:0:
376,248,12070,2,0,P|456:152|336:128,1,260,2|0,0:0|0:0,0:0:0:0:
256,104,12970,1,2,0:0:0:0:
256,104,13570,6,0,P|120:168|280:264,1,390,2|2,0:0|0:0,0:0:0:0:
72,256,15070,1,2,0:0:0:0:
336,200,15370,6,0,P|408:224|304:264,1,260,2|2,0:0|0:0,0:0:0:0:
176,264,16270,2,0,P|104:256|56:176,2,130,2|2|2,0:0|0:0|0:0,0:0:0:0:
312,264,17170,1,2,0:0:0:0:
456,264,17470,1,2,0:0:0:0:
216,184,17770,6,0,P|152:288|264:320,1,260,2|0,0:0|0:0,0:0:0:0:
432,168,19120,2,0,L|288:168,1,130,2|2,0:0|0:0,0:0:0:0:
104,160,19870,1,2,0:0:0:0:
328,136,20170,6,0,P|368:144|320:232,1,130,2|0,0:0|0:0,0:0:0:0:
256,192,20770,1,2,0:0:0:0:
160,264,21670,2,0,P|80:168|192:120,1,260,2|2,0:0|0:0,0:0:0:0:
408,112,22570,1,2,0:0:0:0:
256,112,23170,6,0,P|112:128|248:256,1,390,2|2,0:0|0:0,0:0:0:0:
32,264,24670,2,0,L|176:264,1,130,2|0,0:0|0:0,0:0:0:0:
400,256,25270,6,0,P|456:240|472:168,1,130,2|0,0:0|0:0,0:0:0:0:
344,168,25870,2,0,L|208:168,2,130,2|0|2,0:0|0:0|0:0,0:0:0:0:
256,168,26770,1,0,0:0:0:0:
384,168,27070,1,2,0:0:0:0:
136,136,27370,6,0,P|32:232|216:264,1,390,2|0,0:0|0:0,0:0:0:0:
288,288,28720,2,0,L|158:288,1,130,2|2,0:0|0:0,0:0:0:0:
344,288,29470,1,2,0:0:0:0:
472,288,29770,1,2,0:0:0:0:
104,296,30070,6,0,P|48:272|104:168,1,173.333333333333,2|0,0:0|0:0,0:0:0:0:
256,176,30670,2,0,L|400:176,1,130,8|0,0:0|0:0,0:0:0:0:
144,240,31270,2,0,P|104:184|240:80,1,260,2|8,0:0|0:0,0:0:0:0:
88,80,32170,1,0,0:0:0:0:
336,80,32470,6,0,P|384:112|312:192,1,173.333333333333,2|0,0:0|0:0,0:0:0:0:
256,192,33070,1,8,0:0:0:0:
256,192,33670,1,2,0:0:0:0:
336,192,33820,1,2,0:0:0:0:
256,192,33970,1,2,0:0:0:0:
128,200,34120,2,0,P|80:168|144:56,1,195,8|2,0:0|0:0,0:0:0:0:
368,80,34870,6,0,P|376:144|312:144,1,130,2|0,0:0|0:0,0:0:0:0:
208,88,35470,2,0,L|64:88,2,130,8|0|2,0:0|0:0|0:0,0:0:0:0:
336,88,36370,1,0,0:0:0:0:
208,88,36670,1,8,0:0:0:0:
336,88,36970,1,0,0:0:0:0:
120,176,37270,6,0,P|24:104|112:32,1,260,2|8,0:0|0:0,0:0:0:0:
408,96,38470,1,2,0:0:0:0:
472,96,38620,1,2,0:0:0:0:
408,96,38770,1,2,0:0:0:0:
296,96,38920,2,0,P|248:120|312:160,1,130,8|0,0:0|0:0,0:0:0:0:
344,168,39370,1,0,0:0:0:0:
281,171,39520,1,0,0:0:0:0:
112,176,39670,6,0,P|72:200|120:248,1,130,2|0,0:0|0:0,0:0:0:0:
256,248,40270,1,8,0:0:0:0:
256,248,40870,1,2,0:0:0:0:
320,248,41020,1,0,0:0:0:0:
256,248,41170,1,0,0:0:0:0:
128,248,41470,2,0,L|272:248,1,130,8|0,0:0|0:0,0:0:0:0:
40,248,42070,6,0,P|24:184|72:144,1,130,2|0,0:0|0:0,0:0:0:0:
200,144,42670,2,0,L|376:144,1,130,8|0,0:0|0:0,0:0:0:0:
72,152,43270,2,0,P|40:184|96:240,1,130,2|0,0:0|0:0,0:0:0:0:
224,240,43720,2,0,L|296:240,1,65,8|8,0:0|0:0,0:0:0:0:
416,240,44170,1,0,0:0:0:0:
144,248,44470,6,0,P|136:168|184:136,1,130,2|0,0:0|0:0,0:0:0:0:
296,136,45070,2,0,L|152:136,1,130,8|0,0:0|0:0,0:0:0:0:
352,128,45670,2,0,P|440:104|448:64,2,130,2|0|8,0:0|0:0|0:0,0:0:0:0:
224,128,46570,1,0,0:0:0:0:
96,128,46870,5,2,0:0:0:0:
16,128,47020,1,0,0:0:0:0:
16,216,47170,1,0,0:0:0:0:
96,216,47320,1,0,0:0:0:0:
256,256,47470,2,0,P|328:224|240:96,1,260,8|2,0:0|0:0,0:0:0:0:
400,104,48370,1,0,0:0:0:0:
112,184,48770,1,0,0:0:0:0:
8,184,49007,1,0,0:0:0:0:
336,192,49270,5,6,0:0:0:0:
488,192,49570,2,0,L|423:192,1,65,0|0,0:0|0:0,0:0:0:0:
272,192,49870,2,0,P|232:152|280:112,1,130,8|0,0:0|0:0,0:0:0:0:
464,112,50470,1,2,0:0:0:0:
96,192,50770,2,0,L|8:192,1,65,0|0,0:0|0:0,0:0:0:0:
168,192,51070,2,0,L|248:192,1,65,8|0,0:0|0:0,0:0:0:0:
160,192,51370,1,0,0:0:0:0:
296,192,51520,6,0,L|400:192,2,65,0|2|0,0:0|0:0|0:0,0:0:0:0:
233,192,51970,1,0,0:0:0:0:
104,184,52270,2,0,P|32:192|128:248,1,260,8|2,0:0|0:0,0:0:0:0:
232,272,53020,2,0,L|344:272,2,65,0|0|0,0:0|0:0|0:0,0:0:0:0:
160,272,53470,2,0,P|91:273|48:208,1,130,8|0,0:0|0:0,0:0:0:0:
432,272,54070,5,2,0:0:0:0:
256,272,54370,2,0,L|352:272,1,65,0|0,0:0|0:0,0:0:0:0:
464,272,54670,2,0,P|440:200|368:176,1,130,8|0,0:0|0:0,0:0:0:0:
223,168,55270,1,2,0:0:0:0:
367,168,55570,2,0,L|432:168,1,65,0|0,0:0|0:0,0:0:0:0:
295,168,55870,2,0,L|207:168,1,65,8|0,0:0|0:0,0:0:0:0:
295,168,56170,1,0,0:0:0:0:
432,168,56320,6,0,L|497:168,2,65,0|2|0,0:0|0:0|0:0,0:0:0:0:
368,168,56770,1,0,0:0:0:0:
176,144,57070,1,8,0:0:0:0:
32,144,57370,1,0,0:0:0:0:
416,152,57670,2,0,P|448:200|368:224,1,130,2|0,0:0|0:0,0:0:0:0:
328,248,58120,1,0,0:0:0:0:
256,248,58270,1,8,0:0:0:0:
184,248,58420,1,0,0:0:0:0:
448,248,58720,1,0,0:0:0:0:
200,192,58870,5,6,0:0:0:0:
24,192,59170,2,0,L|89:192,1,65,0|0,0:0|0:0,0:0:0:0:
240,192,59470,2,0,P|280:152|232:112,1,130,8|0,0:0|0:0,0:0:0:0:
48,112,60070,1,2,0:0:0:0:
416,192,60370,2,0,L|504:192,1,65,0|0,0:0|0:0,0:0:0:0:
344,192,60670,2,0,L|264:192,1,65,8|0,0:0|0:0,0:0:0:0:
352,192,60970,1,0,0:0:0:0:
200,192,61120,6,0,L|96:192,2,65,0|2|0,0:0|0:0|0:0,0:0:0:0:
264,192,61570,1,0,0:0:0:0:
392,184,61870,2,0,P|464:192|368:248,1,260,8|2,0:0|0:0,0:0:0:0:
280,272,62620,2,0,L|168:272,2,65
352,272,63070,2,0,P|421:273|456:208,1,130,8|0,0:0|0:0,0:0:0:0:
80,272,63670,5,2,0:0:0:0:
240,272,63970,2,0,L|144:272,1,65,0|0,0:0|0:0,0:0:0:0:
48,272,64270,2,0,P|56:200|136:168,1,130,8|0,0:0|0:0,0:0:0:0:
256,176,64870,1,2,0:0:0:0:
400,176,65170,2,0,L|335:176,1,65,0|0,0:0|0:0,0:0:0:0:
256,176,65470,2,0,L|344:176,1,65,8|0,0:0|0:0,0:0:0:0:
248,176,65770,1,0,0:0:0:0:
104,176,65920,6,0,L|39:176,2,65,0|2|0,0:0|0:0|0:0,0:0:0:0:
168,176,66370,1,0,0:0:0:0:
336,168,66670,1,8,0:0:0:0:
480,168,66970,1,0,0:0:0:0:
64,152,67270,2,0,P|32:200|112:224,1,130,2|0,0:0|0:0,0:0:0:0:
152,240,67720,1,2,0:0:0:0:
296,240,68020,1,2,0:0:0:0:
96,240,68320,1,2,0:0:0:0:
168,240,68470,2,0,L|38:240,1,130,2|0,0:0|0:0,0:0:0:0:
400,248,69070,6,0,P|440:224|368:192,1,130,12|0,0:0|0:0,0:0:0:0:
256,192,69520,2,0,L|160:192,1,65,0|2,0:0|0:0,0:0:0:0:
120,192,69820,2,0,L|208:192,1,65,0|0,0:0|0:0,0:0:0:0:
256,192,70120,1,0,0:0:0:0:
432,192,70270,1,8,0:0:0:0:
160,192,70720,1,2,0:0:0:0:
256,192,70870,6,0,L|424:192,1,130,2|0,0:0|0:0,0:0:0:0:
312,192,71320,1,0,0:0:0:0:
72,192,71470,2,0,P|24:160|80:144,1,130,8|0,0:0|0:0,0:0:0:0:
200,136,71920,2,0,L|264:136,1,65,0|2,0:0|0:0,0:0:0:0:
408,136,72370,1,0,0:0:0:0:
336,136,72520,1,0,0:0:0:0:
265,136,72670,1,8,0:0:0:0:
120,136,72970,1,0,0:0:0:0:
344,240,73270,6,0,L|474:240,1,130,2|0,0:0|0:0,0:0:0:0:
112,248,73870,2,0,P|72:224|144:192,1,130,8|0,0:0|0:0,0:0:0:0:
256,168,74320,2,0,L|344:168,1,65,0|2,0:0|0:0,0:0:0:0:
392,168,74620,2,0,L|288:168,1,65,0|0,0:0|0:0,0:0:0:0:
256,168,74920,1,0,0:0:0:0:
80,168,75070,1,8,0:0:0:0:
224,168,75370,1,0,0:0:0:0:
296,168,75520,1,2,0:0:0:0:
224,168,75670,6,0,L|80:168,1,130,2|0,0:0|0:0,0:0:0:0:
168,168,76120,1,0,0:0:0:0:
416,176,76270,2,0,P|448:160|392:120,1,130,8|0,0:0|0:0,0:0:0:0:
272,112,76720,2,0,L|168:112,1,65,0|2,0:0|0:0,0:0:0:0:
64,112,77170,1,0,0:0:0:0:
136,112,77320,2,0,L|48:112,2,65,0|8|2,0:0|0:0|0:0,0:0:0:0:
424,112,77920,2,0,P|480:144|424:240,1,195,2|0,0:0|0:0,0:0:0:0:
64,248,78670,6,0,P|24:224|96:192,1,130,12|0,0:0|0:0,0:0:0:0:
224,192,79120,2,0,L|320:192,1,65,0|2,0:0|0:0,0:0:0:0:
360,192,79420,2,0,L|272:192,1,65,0|0,0:0|0:0,0:0:0:0:
224,192,79720,1,0,0:0:0:0:
48,192,79870,1,8,0:0:0:0:
296,192,80320,1,2,0:0:0:0:
192,192,80470,5,2,0:0:0:0:
120,192,80620,1,2,0:0:0:0:
120,120,80770,1,0,0:0:0:0:
192,120,80920,1,0,0:0:0:0:
440,192,81070,2,0,P|488:160|432:144,1,130,8|0,0:0|0:0,0:0:0:0:
312,136,81520,2,0,L|248:136,1,65,0|2,0:0|0:0,0:0:0:0:
104,136,81970,1,0,0:0:0:0:
176,136,82120,1,0,0:0:0:0:
247,136,82270,1,8,0:0:0:0:
392,136,82570,1,0,0:0:0:0:
184,200,82870,5,2,0:0:0:0:
112,200,83020,1,2,0:0:0:0:
40,200,83170,1,0,0:0:0:0:
408,248,83470,2,0,P|448:224|376:192,1,130,8|0,0:0|0:0,0:0:0:0:
256,168,83920,2,0,L|168:168,1,65,0|2,0:0|0:0,0:0:0:0:
120,168,84220,2,0,L|224:168,1,65,0|0,0:0|0:0,0:0:0:0:
256,168,84520,1,0,0:0:0:0:
400,169,84670,1,8,0:0:0:0:
336,168,84820,1,0,0:0:0:0:
272,168,84970,1,0,0:0:0:0:
208,168,85120,1,2,0:0:0:0:
272,168,85270,6,0,P|336:152|320:96,1,130,2|0,0:0|0:0,0:0:0:0:
104,176,85870,2,0,P|72:160|128:120,1,130,8|0,0:0|0:0,0:0:0:0:
256,112,86320,2,0,L|360:112,1,65,0|2,0:0|0:0,0:0:0:0:
480,112,86770,1,0,0:0:0:0:
408,112,86920,2,0,L|496:112,2,65,0|8|2,0:0|0:0|0:0,0:0:0:0:
40,112,87520,6,0,P|32:208|256:216,1,325,6|8,0:0|0:0,0:0:0:0:
288,264,88420,1,0,0:0:0:0:
360,264,88570,1,0,0:0:0:0:
288,264,88720,2,0,L|152:264,1,130,0|0,0:0|0:0,0:0:0:0:
376,264,89470,1,8,0:0:0:0:
144,272,89770,6,0,P|72:248|184:208,1,260,2|0,0:0|0:0,0:0:0:0:
312,168,90670,1,8,0:0:0:0:
237,170,90820,1,0,0:0:0:0:
165,170,90970,1,0,0:0:0:0:
237,170,91120,2,0,L|373:170,1,130,0|0,0:0|0:0,0:0:0:0:
152,176,91870,1,8,0:0:0:0:
408,176,92170,6,0,P|456:208|400:240,1,130,0|2,0:0|0:0,0:0:0:0:
288,240,92770,2,0,L|144:240,1,130,0|8,0:0|0:0,0:0:0:0:
288,240,93370,1,0,0:0:0:0:
416,232,93670,2,0,L|286:232,1,130
168,184,94270,1,8,0:0:0:0:
472,184,94570,6,0,P|472:56|256:96,1,390,2|8,0:0|0:0,0:0:0:0:
192,72,95620,1,0,0:0:0:0:
120,72,95770,1,0,0:0:0:0:
192,72,95920,2,0,L|368:72,1,130,2|2,0:0|0:0,0:0:0:0:
48,64,96670,1,8,0:0:0:0:
192,64,96970,1,0,0:0:0:0:
464,64,97270,6,0,P|472:152|408:184,1,130,2|0,0:0|0:0,0:0:0:0:
304,192,97870,1,8,0:0:0:0:
232,192,98020,1,0,0:0:0:0:
160,192,98170,1,0,0:0:0:0:
88,184,98320,2,0,P|24:224|96:256,1,130,0|0,0:0|0:0,0:0:0:0:
320,272,99070,1,8,0:0:0:0:
40,272,99370,6,0,P|32:192|192:144,1,260,2|0,0:0|0:0,0:0:0:0:
320,136,100270,1,8,0:0:0:0:
392,136,100420,1,0,0:0:0:0:
464,136,100570,1,0,0:0:0:0:
392,136,100720,2,0,L|208:136,1,130,0|0,0:0|0:0,0:0:0:0:
48,136,101470,2,0,L|184:136,1,130,8|0,0:0|0:0,0:0:0:0:
408,136,102070,6,0,P|440:200|408:248,1,130,2|0,0:0|0:0,0:0:0:0:
296,192,102670,2,0,L|112:192,2,130,8|0|0,0:0|0:0|0:0,0:0:0:0:
424,192,103570,1,0,0:0:0:0:
296,192,103870,1,8,0:0:0:0:
32,192,104170,6,0,P|40:280|200:304,1,260,2|0,0:0|0:0,0:0:0:0:
328,312,105070,1,8,0:0:0:0:
256,312,105220,1,0,0:0:0:0:
184,312,105370,1,0,0:0:0:0:
256,312,105520,2,0,L|432:312,1,130,2|2,0:0|0:0,0:0:0:0:
128,288,106270,2,0,P|72:256|112:200,1,130,8|0,0:0|0:0,0:0:0:0:
456,312,106870,6,0,P|488:256|424:152,1,173.333333333333,2|0,0:0|0:0,0:0:0:0:
352,160,107470,1,8,0:0:0:0:
208,160,107770,1,0,0:0:0:0:
352,160,108070,2,0,L|216:160,1,130,2|0,0:0|0:0,0:0:0:0:
80,160,108670,2,0,L|224:160,1,130,8|0,0:0|0:0,0:0:0:0:
448,160,109270,6,0,P|456:224|344:240,1,173.333333333333,2|0,0:0|0:0,0:0:0:0:
272,256,109870,2,0,P|192:200|312:112,1,260,8|2,0:0|0:0,0:0:0:0:
344,96,110620,1,0,0:0:0:0:
275,98,110770,1,2,0:0:0:0:
128,104,110920,2,0,L|40:104,1,65,8|10,0:0|0:0,0:0:0:0:
208,104,111370,1,0,0:0:0:0:
432,104,111670,6,0,P|464:168|424:192,1,130,2|0,0:0|0:0,0:0:0:0:
280,200,112270,2,0,L|144:200,2,130,8|0|2,0:0|0:0|0:0,0:0:0:0:
176,192,113170,1,0,0:0:0:0:
304,192,113470,1,8,0:0:0:0:
432,192,113770,1,0,0:0:0:0:
208,200,114070,6,0,P|176:168|240:104,1,130,2|0,0:0|0:0,0:0:0:0:
120,104,114670,1,8,0:0:0:0:
256,104,114970,1,0,0:0:0:0:
320,104,115120,2,0,L|385:104,1,65,0|2,0:0|0:0,0:0:0:0:
448,104,115420,2,0,L|383:104,1,65,2|2,0:0|0:0,0:0:0:0:
224,104,115720,2,0,L|159:104,1,65,8|0,0:0|0:0,0:0:0:0:
32,104,116170,1,0,0:0:0:0:
416,112,116470,6,0,P|432:200|392:208,1,130,2|0,0:0|0:0,0:0:0:0:
256,200,117070,2,0,P|184:160|280:48,1,260,8|2,0:0|0:0,0:0:0:0:
408,48,117970,1,0,0:0:0:0:
336,48,118120,1,0,0:0:0:0:
262,43,118270,2,0,L|128:48,1,130,8|0,0:0|0:0,0:0:0:0:
360,56,118870,5,2,0:0:0:0:
216,56,119170,2,0,P|176:112|224:200,1,130,0|8,0:0|0:0,0:0:0:0:
472,168,120070,1,2,0:0:0:0:
328,168,120370,1,2,0:0:0:0:
186,168,120520,2,0,L|120:168,1,65,8|8,0:0|0:0,0:0:0:0:
256,168,120970,1,0,0:0:0:0:
112,168,121270,6,0,P|48:224|112:264,1,130,2|0,0:0|0:0,0:0:0:0:
200,240,121870,2,0,L|368:240,1,130,8|0,0:0|0:0,0:0:0:0:
184,240,122470,2,0,P|122:225|88:172,2,130,2|0|8,0:0|0:0|0:0,0:0:0:0:
40,240,123370,1,0,0:0:0:0:
256,192,123670,5,2,0:0:0:0:
304,248,123820,1,0,0:0:0:0:
264,304,123970,1,0,0:0:0:0:
200,280,124120,1,0,0:0:0:0:
272,280,124270,2,0,P|352:280|432:280,2,130,8|0|2,0:0|0:0|0:0,0:0:0:0:
128,272,125170,1,0,0:0:0:0:
392,208,125570,1,0,0:0:0:0:
504,208,125807,1,0,0:0:0:0:
176,192,126070,5,6,0:0:0:0:
24,192,126370,2,0,L|89:192,1,65,0|0,0:0|0:0,0:0:0:0:
240,192,126670,2,0,P|280:152|232:112,1,130,8|0,0:0|0:0,0:0:0:0:
48,112,127270,1,2,0:0:0:0:
416,192,127570,2,0,L|504:192,1,65,0|0,0:0|0:0,0:0:0:0:
344,192,127870,2,0,L|264:192,1,65,8|0,0:0|0:0,0:0:0:0:
352,192,128170,1,0,0:0:0:0:
216,192,128320,6,0,L|112:192,2,65,0|2|0,0:0|0:0|0:0,0:0:0:0:
279,192,128770,1,0,0:0:0:0:
416,184,129070,2,0,P|488:192|392:248,1,260,8|2,0:0|0:0,0:0:0:0:
280,272,129820,2,0,L|168:272,2,65,0|0|0,0:0|0:0|0:0,0:0:0:0:
352,272,130270,2,0,P|421:273|464:208,1,130,8|0,0:0|0:0,0:0:0:0:
80,272,130870,5,2,0:0:0:0:
256,272,131170,2,0,L|160:272,1,65,0|0,0:0|0:0,0:0:0:0:
48,272,131470,2,0,P|72:200|144:176,1,130,8|0,0:0|0:0,0:0:0:0:
289,168,132070,1,2,0:0:0:0:
145,168,132370,2,0,L|80:168,1,65,0|0,0:0|0:0,0:0:0:0:
217,168,132670,2,0,L|305:168,1,65,8|0,0:0|0:0,0:0:0:0:
217,168,132970,1,0,0:0:0:0:
80,168,133120,6,0,L|15:168,2,65,0|2|0,0:0|0:0|0:0,0:0:0:0:
144,168,133570,1,0,0:0:0:0:
336,144,133870,1,8,0:0:0:0:
480,144,134170,1,0,0:0:0:0:
96,152,134470,2,0,P|64:200|144:224,1,130,2|0,0:0|0:0,0:0:0:0:
184,248,134920,1,0,0:0:0:0:
256,248,135070,1,8,0:0:0:0:
328,248,135220,1,0,0:0:0:0:
64,248,135520,1,0,0:0:0:0:
312,192,135670,5,6,0:0:0:0:
488,192,135970,2,0,L|423:192,1,65,0|0,0:0|0:0,0:0:0:0:
272,192,136270,2,0,P|232:152|280:112,1,130,8|0,0:0|0:0,0:0:0:0:
464,112,136870,1,2,0:0:0:0:
96,192,137170,2,0,L|8:192,1,65,0|0,0:0|0:0,0:0:0:0:
168,192,137470,2,0,L|248:192,1,65,8|0,0:0|0:0,0:0:0:0:
160,192,137770,1,0,0:0:0:0:
312,192,137920,6,0,L|416:192,2,65,0|2|0,0:0|0:0|0:0,0:0:0:0:
248,192,138370,1,0,0:0:0:0:
96,184,138670,2,0,P|24:192|120:248,1,260,8|2,0:0|0:0,0:0:0:0:
232,272,139420,2,0,L|344:272,2,65,0|0|0,0:0|0:0|0:0,0:0:0:0:
160,272,139870,2,0,P|91:273|56:208,1,130,8|0,0:0|0:0,0:0:0:0:
432,272,140470,5,2,0:0:0:0:
272,272,140770,2,0,L|368:272,1,65,0|0,0:0|0:0,0:0:0:0:
464,272,141070,2,0,P|456:200|376:168,1,130,8|0,0:0|0:0,0:0:0:0:
256,176,141670,1,2,0:0:0:0:
112,176,141970,1,0,0:0:0:0:
256,176,142270,2,0,L|360:176,1,65,2|2,0:0|0:0,0:0:0:0:
464,176,142720,6,0,L|328:176,1,130,2|2,0:0|0:0,0:0:0:0:
192,184,143320,2,0,L|257:184,2,65,2|2|2,0:0|0:0|0:0,0:0:0:0:
120,184,143770,1,2,0:0:0:0:
304,184,144070,5,2,0:0:0:0:
376,184,144220,1,2,0:0:0:0:
376,256,144370,1,2,0:0:0:0:
304,256,144520,1,2,0:0:0:0:
184,184,144670,1,2,0:0:0:0:
112,184,144820,1,2,0:0:0:0:
112,256,144970,1,2,0:0:0:0:
184,256,145120,1,2,0:0:0:0:
368,200,145270,2,0,L|504:200,1,130,2|0,0:0|0:0,0:0:0:0:
112,248,145870,6,0,P|72:224|144:192,1,130,12|0,0:0|0:0,0:0:0:0:
256,192,146320,2,0,L|352:192,1,65,0|2,0:0|0:0,0:0:0:0:
392,192,146620,2,0,L|304:192,1,65,0|0,0:0|0:0,0:0:0:0:
256,192,146920,1,0,0:0:0:0:
80,192,147070,1,8,0:0:0:0:
352,192,147520,1,2,0:0:0:0:
256,192,147670,6,0,L|88:192,1,130,2|0,0:0|0:0,0:0:0:0:
200,192,148120,1,0,0:0:0:0:
440,192,148270,2,0,P|480:176|424:136,1,130,8|0,0:0|0:0,0:0:0:0:
312,136,148720,2,0,L|248:136,1,65,0|2,0:0|0:0,0:0:0:0:
104,136,149170,1,0,0:0:0:0:
176,136,149320,1,0,0:0:0:0:
247,136,149470,1,8,0:0:0:0:
392,136,149770,1,0,0:0:0:0:
168,240,150070,6,0,L|38:240,1,130,2|0,0:0|0:0,0:0:0:0:
400,248,150670,2,0,P|440:224|368:192,1,130,8|0,0:0|0:0,0:0:0:0:
256,168,151120,2,0,L|168:168,1,65,0|2,0:0|0:0,0:0:0:0:
120,168,151420,2,0,L|224:168,1,65,0|0,0:0|0:0,0:0:0:0:
256,168,151720,1,0,0:0:0:0:
432,168,151870,1,8,0:0:0:0:
288,168,152170,1,0,0:0:0:0:
216,168,152320,1,2,0:0:0:0:
288,168,152470,6,0,L|432:168,1,130,2|0,0:0|0:0,0:0:0:0:
344,168,152920,1,0,0:0:0:0:
96,176,153070,2,0,P|64:160|120:120,1,130,8|0,0:0|0:0,0:0:0:0:
240,112,153520,2,0,L|344:112,1,65,0|2,0:0|0:0,0:0:0:0:
448,112,153970,1,0,0:0:0:0:
376,112,154120,2,0,L|464:112,2,65,0|8|2,0:0|0:0|0:0,0:0:0:0:
88,112,154720,2,0,P|32:144|88:240,1,195,2|0,0:0|0:0,0:0:0:0:
448,248,155470,6,0,P|488:224|416:192,1,130,12|0,0:0|0:0,0:0:0:0:
288,192,155920,2,0,L|192:192,1,65,0|2,0:0|0:0,0:0:0:0:
152,192,156220,2,0,L|240:192,1,65,0|0,0:0|0:0,0:0:0:0:
288,192,156520,1,0,0:0:0:0:
464,192,156670,1,8,0:0:0:0:
216,192,157120,1,2,0:0:0:0:
320,192,157270,5,2,0:0:0:0:
392,192,157420,1,2,0:0:0:0:
392,120,157570,1,0,0:0:0:0:
320,120,157720,1,0,0:0:0:0:
72,192,157870,2,0,P|24:160|80:144,1,130,8|0,0:0|0:0,0:0:0:0:
200,136,158320,2,0,L|264:136,1,65,0|2,0:0|0:0,0:0:0:0:
136,136,158770,1,0,0:0:0:0:
72,160,158920,1,0,0:0:0:0:
56,224,159070,1,8,0:0:0:0:
88,280,159220,1,0,0:0:0:0:
152,288,159370,1,0,0:0:0:0:
344,280,159670,5,2,0:0:0:0:
408,280,159820,1,2,0:0:0:0:
472,280,159970,1,0,0:0:0:0:
104,248,160270,2,0,P|64:224|136:192,1,130,8|0,0:0|0:0,0:0:0:0:
256,168,160720,2,0,L|344:168,1,65,0|2,0:0|0:0,0:0:0:0:
392,168,161020,2,0,L|288:168,1,65,0|0,0:0|0:0,0:0:0:0:
256,168,161320,1,0,0:0:0:0:
112,169,161470,1,8,0:0:0:0:
224,168,161770,1,0,0:0:0:0:
296,168,161920,1,2,0:0:0:0:
224,168,162070,6,0,P|160:152|176:96,1,130,2|0,0:0|0:0,0:0:0:0:
408,176,162670,2,0,P|440:160|384:120,1,130,8|0,0:0|0:0,0:0:0:0:
256,112,163120,2,0,L|152:112,1,65,0|2,0:0|0:0,0:0:0:0:
32,112,163570,1,0,0:0:0:0:
104,112,163720,2,0,L|16:112,2,65,0|8|2,0:0|0:0|0:0,0:0:0:0:
472,112,164320,6,0,P|480:208|256:216,1,325,6|2,0:0|0:0,0:0:0:0:
224,264,165220,1,0,0:0:0:0:
160,264,165370,1,0,0:0:0:0:
224,264,165520,2,0,L|400:264,1,130,2|2,0:0|0:0,0:0:0:0:
160,272,166270,1,2,0:0:0:0:
288,272,166570,6,0,P|368:256|280:144,1,260,2|0,0:0|0:0,0:0:0:0:
192,144,167470,1,2,0:0:0:0:
256,144,167620,1,0,0:0:0:0:
320,144,167770,1,0,0:0:0:0:
256,144,167920,1,0,0:0:0:0:
192,152,168070,2,0,P|128:120|232:32,1,260,2|2,0:0|0:0,0:0:0:0:
352,24,168970,6,0,P|432:32|304:176,1,390,2|0,0:0|0:0,0:0:0:0:
256,96,170170,1,0,0:0:0:0:
424,96,170770,1,0,0:0:0:0:
256,256,171370,6,0,P|192:224|256:80,1,260,2|0,0:0|0:0,0:0:0:0:
376,88,172270,1,0,0:0:0:0:
312,88,172420,1,0,0:0:0:0:
248,88,172570,1,0,0:0:0:0:
312,88,172720,1,0,0:0:0:0:
376,88,172870,2,0,P|440:120|328:208,1,260,2|0,0:0|0:0,0:0:0:0:
104,136,174070,6,0,P|216:184|128:248,1,260,2|0,0:0|0:0,0:0:0:0:
400,192,175270,1,2,0:0:0:0:
144,192,175870,1,2,0:0:0:0:
256,192,176170,6,0,P|344:168|192:96,1,390,2|0,0:0|0:0,0:0:0:0:
448,152,177670,2,0,P|432:240|256:264,1,260,2|2,0:0|0:0,0:0:0:0:
200,184,178570,6,0,P|232:360|408:280,1,390,2|0,0:0|0:0,0:0:0:0:
136,272,180070,1,2,0:0:0:0:
368,224,180670,1,2,0:0:0:0:
240,232,180970,6,0,P|144:224|272:96,1,390,2|0,0:0|0:0,0:0:0:0:
16,192,182470,2,0,L|160:192,1,130,2|0,0:0|0:0,0:0:0:0:
272,192,183070,2,0,L|128:192,1,130,2|0,0:0|0:0,0:0:0:0:
400,192,183670,6,0,P|408:280|240:328,1,260,2|0,0:0|0:0,0:0:0:0:
144,344,184570,1,0,0:0:0:0:
270,345,184870,1,2,0:0:0:0:
176,272,185320,1,2,0:0:0:0:
232,272,185470,2,0,L|400:272,1,130,2|0,0:0|0:0,0:0:0:0:
256,264,186070,6,0,P|184:248|280:168,1,260,2|2,0:0|0:0,0:0:0:0:
328,160,186820,1,2,0:0:0:0:
272,160,186970,1,0,0:0:0:0:
392,152,187270,1,2,0:0:0:0:
448,168,187420,2,0,P|488:216|376:256,1,195,2|2,0:0|0:0,0:0:0:0:
344,280,188020,1,2,0:0:0:0:
256,232,188170,6,0,P|160:216|192:128,1,195,2|2,0:0|0:0,0:0:0:0:
232,136,188770,1,2,0:0:0:0:
400,184,189670,1,2,0:0:0:0:
344,208,189820,1,2,0:0:0:0:
312,256,189970,1,2,0:0:0:0:
344,304,190120,1,2,0:0:0:0:
400,320,190270,1,2,0:0:0:0:
280,320,190570,1,2,0:0:0:0:
224,320,190720,6,0,P|160:296|248:232,1,195,2|2,0:0|0:0,0:0:0:0:
328,208,191470,1,2,0:0:0:0:
384,208,191620,1,2,0:0:0:0:
256,200,191920,1,2,0:0:0:0:
168,200,192220,1,2,0:0:0:0:
344,200,192670,1,2,0:0:0:0:
256,200,192970,1,2,0:0:0:0:
256,192,193420,12,0,195670,0:0:0:0:
