osu file format v14

[General]
AudioFilename: audio.mp3
AudioLeadIn: 0
PreviewTime: 20009
Countdown: 0
SampleSet: Normal
StackLeniency: 0.7
Mode: 1
LetterboxInBreaks: 0
WidescreenStoryboard: 0

[Editor]
DistanceSpacing: 1
BeatDivisor: 1
GridSize: 32
TimelineZoom: 2.4

[Metadata]
Title:Anti-Matter
TitleUnicode:Anti-Matter
Artist:Orbit1 & Milo
ArtistUnicode:Orbit1 & Milo
Creator:kei821
Version:Futsuu
Source:DanceDanceRevolution X2
Tags:BEMANI DJSilver Replicant-D-action UKHardcore Drum&Bass Breakbeat Industrial Electro
BeatmapID:1249669
BeatmapSetID:586508

[Difficulty]
HPDrainRate:7
CircleSize:5
OverallDifficulty:3.5
ApproachRate:5
SliderMultiplier:1.4
SliderTickRate:1

[Events]
//Background and Video events
0,0,"Anti matter.jpg",0,0
//Break Periods
//Storyboard Layer 0 (Background)
//Storyboard Layer 1 (Fail)
//Storyboard Layer 2 (Pass)
//Storyboard Layer 3 (Foreground)
//Storyboard Sound Samples

[TimingPoints]
809,300,4,1,0,70,1,0
18809,600,4,1,0,70,1,0
18809,-50,4,1,0,70,0,0
20009,150,4,1,0,100,1,0
20009,-200,4,1,0,100,0,0
39209,300,4,1,0,70,1,0
39209,-100,4,1,0,70,0,0
48809,150,4,1,0,90,1,0
48809,-200,4,1,0,90,0,0
57209,600,4,1,0,70,1,0
57209,-50,4,1,0,70,0,0
58409,150,4,1,0,90,1,0
58409,-200,4,1,0,90,0,1
76409,-200,4,1,0,90,0,0
77609,300,4,1,0,70,1,0
77609,-100,4,1,0,70,0,0
87209,150,4,1,0,90,1,1
87209,-200,4,1,0,90,0,1
96809,-200,4,1,0,90,0,0

[HitObjects]
256,192,809,5,6,0:0:0:0:
256,192,1409,1,0,0:0:0:0:
256,192,2009,1,0,0:0:0:0:
256,192,3209,1,2,0:0:0:0:
256,192,3809,1,2,0:0:0:0:
256,192,4409,1,2,0:0:0:0:
256,192,5609,1,2,0:0:0:0:
256,192,6209,1,0,0:0:0:0:
256,192,6809,1,0,0:0:0:0:
256,192,8009,1,0,0:0:0:0:
256,192,8609,1,0,0:0:0:0:
256,192,9209,1,2,0:0:0:0:
256,192,9509,1,2,0:0:0:0:
256,192,9659,1,2,0:0:0:0:
256,192,9809,1,2,0:0:0:0:
256,192,10409,1,4,0:0:0:0:
256,192,11009,1,0,0:0:0:0:
256,192,11609,1,2,0:0:0:0:
256,192,12209,1,2,0:0:0:0:
256,192,12509,1,2,0:0:0:0:
256,192,12809,1,0,0:0:0:0:
256,192,13409,1,0,0:0:0:0:
256,192,14009,1,2,0:0:0:0:
256,192,14609,1,2,0:0:0:0:
256,192,15209,1,4,0:0:0:0:
256,192,15509,1,4,0:0:0:0:
256,192,15809,1,2,0:0:0:0:
256,192,16109,1,2,0:0:0:0:
256,192,16409,1,0,0:0:0:0:
256,192,17009,1,2,0:0:0:0:
256,192,17609,1,0,0:0:0:0:
256,192,18209,1,0,0:0:0:0:
256,192,18509,1,0,0:0:0:0:
256,192,18809,2,0,L|544:128,1,280
256,192,20009,1,4,0:0:0:0:
256,192,20309,1,0,0:0:0:0:
256,192,20609,1,2,0:0:0:0:
256,192,21209,1,0,0:0:0:0:
256,192,21809,1,2,0:0:0:0:
256,192,22409,1,0,0:0:0:0:
256,192,22709,1,0,0:0:0:0:
256,192,23009,1,2,0:0:0:0:
256,192,23609,1,0,0:0:0:0:
256,192,23759,1,0,0:0:0:0:
256,192,23909,1,0,0:0:0:0:
256,192,24209,1,0,0:0:0:0:
256,192,24509,1,6,0:0:0:0:
256,192,24809,1,0,0:0:0:0:
256,192,25109,1,0,0:0:0:0:
256,192,25409,1,2,0:0:0:0:
256,192,26009,1,0,0:0:0:0:
256,192,26609,1,2,0:0:0:0:
256,192,27209,1,0,0:0:0:0:
256,192,27509,1,0,0:0:0:0:
256,192,27809,1,2,0:0:0:0:
256,192,28409,1,0,0:0:0:0:
256,192,28709,1,0,0:0:0:0:
256,192,29009,1,0,0:0:0:0:
256,192,29309,1,2,0:0:0:0:
256,192,29459,1,2,0:0:0:0:
256,192,29609,1,4,0:0:0:0:
256,192,29909,1,0,0:0:0:0:
256,192,30209,1,2,0:0:0:0:
256,192,30809,1,0,0:0:0:0:
256,192,31409,1,2,0:0:0:0:
256,192,32009,1,0,0:0:0:0:
256,192,32309,1,0,0:0:0:0:
256,192,32609,1,2,0:0:0:0:
256,192,33209,1,0,0:0:0:0:
256,192,33809,1,0,0:0:0:0:
256,192,33959,1,0,0:0:0:0:
256,192,34109,1,0,0:0:0:0:
256,192,34709,1,4,0:0:0:0:
256,192,35009,1,2,0:0:0:0:
256,192,35609,1,0,0:0:0:0:
256,192,36209,1,2,0:0:0:0:
256,192,36809,1,0,0:0:0:0:
256,192,37109,1,0,0:0:0:0:
256,192,37409,1,2,0:0:0:0:
256,192,38009,1,2,0:0:0:0:
256,192,38309,1,2,0:0:0:0:
256,192,38459,1,2,0:0:0:0:
256,192,38609,1,2,0:0:0:0:
256,192,39209,1,2,0:0:0:0:
256,192,39509,1,2,0:0:0:0:
256,192,39809,1,0,0:0:0:0:
256,192,40409,1,0,0:0:0:0:
256,192,41009,1,0,0:0:0:0:
256,192,41609,1,2,0:0:0:0:
256,192,41909,1,2,0:0:0:0:
256,192,42209,1,0,0:0:0:0:
256,192,42809,1,0,0:0:0:0:
256,192,43409,1,2,0:0:0:0:
256,192,44009,1,2,0:0:0:0:
256,192,44309,1,2,0:0:0:0:
256,192,44609,1,0,0:0:0:0:
256,192,45209,1,0,0:0:0:0:
256,192,45809,1,0,0:0:0:0:
160,192,46409,6,0,L|320:192,2,280
256,192,48209,1,0,0:0:0:0:
256,192,48359,1,0,0:0:0:0:
256,192,48509,1,2,0:0:0:0:
256,192,48809,1,2,0:0:0:0:
256,192,49109,1,2,0:0:0:0:
256,192,49409,1,2,0:0:0:0:
256,192,50009,1,2,0:0:0:0:
256,192,50609,1,2,0:0:0:0:
256,192,51209,1,2,0:0:0:0:
256,192,51509,1,2,0:0:0:0:
256,192,51809,1,2,0:0:0:0:
256,192,52409,1,2,0:0:0:0:
256,192,53009,1,2,0:0:0:0:
256,192,53309,1,2,0:0:0:0:
256,192,53609,5,0,0:0:0:0:
256,192,53909,1,0,0:0:0:0:
256,192,54209,1,0,0:0:0:0:
256,192,54809,5,0,0:0:0:0:
256,192,55109,1,0,0:0:0:0:
256,192,55409,1,0,0:0:0:0:
256,192,56009,1,0,0:0:0:0:
256,192,56159,1,0,0:0:0:0:
256,192,56309,1,0,0:0:0:0:
256,192,56609,1,0,0:0:0:0:
256,192,56759,1,0,0:0:0:0:
256,192,56909,1,0,0:0:0:0:
256,192,57209,2,0,L|544:192,1,280
256,192,58409,1,4,0:0:0:0:
256,192,58709,1,0,0:0:0:0:
256,192,59009,1,2,0:0:0:0:
256,192,59609,1,0,0:0:0:0:
256,192,60209,1,2,0:0:0:0:
256,192,60809,1,0,0:0:0:0:
256,192,61109,1,0,0:0:0:0:
256,192,61409,1,2,0:0:0:0:
256,192,62009,1,0,0:0:0:0:
256,192,62159,1,0,0:0:0:0:
256,192,62309,1,0,0:0:0:0:
256,192,62609,1,0,0:0:0:0:
256,192,62909,1,6,0:0:0:0:
256,192,63209,1,0,0:0:0:0:
256,192,63509,1,0,0:0:0:0:
256,192,63809,1,2,0:0:0:0:
256,192,64409,1,0,0:0:0:0:
256,192,65009,1,2,0:0:0:0:
256,192,65609,1,0,0:0:0:0:
256,192,65909,1,0,0:0:0:0:
256,192,66209,1,2,0:0:0:0:
256,192,66809,1,0,0:0:0:0:
256,192,67109,1,0,0:0:0:0:
256,192,67409,1,0,0:0:0:0:
256,192,67709,1,2,0:0:0:0:
256,192,67859,1,2,0:0:0:0:
256,192,68009,1,4,0:0:0:0:
256,192,68309,1,0,0:0:0:0:
256,192,68609,1,2,0:0:0:0:
256,192,69209,1,0,0:0:0:0:
256,192,69809,1,2,0:0:0:0:
256,192,70409,1,0,0:0:0:0:
256,192,70559,1,0,0:0:0:0:
256,192,70709,1,0,0:0:0:0:
256,192,71009,1,2,0:0:0:0:
256,192,71609,1,0,0:0:0:0:
256,192,72209,1,0,0:0:0:0:
256,192,72359,1,0,0:0:0:0:
256,192,72509,1,0,0:0:0:0:
256,192,72809,1,0,0:0:0:0:
256,192,73109,1,0,0:0:0:0:
256,192,73409,1,2,0:0:0:0:
256,192,74009,1,0,0:0:0:0:
256,192,74609,1,2,0:0:0:0:
256,192,75209,1,0,0:0:0:0:
256,192,75509,5,0,0:0:0:0:
256,192,75809,1,2,0:0:0:0:
256,192,76409,1,2,0:0:0:0:
256,192,76709,5,2,0:0:0:0:
256,192,77009,1,2,0:0:0:0:
256,192,77159,1,2,0:0:0:0:
256,192,77309,1,2,0:0:0:0:
256,192,77609,1,4,0:0:0:0:
256,192,77909,1,0,0:0:0:0:
256,192,78209,1,0,0:0:0:0:
256,192,78509,1,2,0:0:0:0:
256,192,78659,1,2,0:0:0:0:
256,192,78809,1,0,0:0:0:0:
256,192,79109,1,0,0:0:0:0:
256,192,79409,2,0,L|416:192,1,140
256,192,80009,1,2,0:0:0:0:
256,192,80309,1,2,0:0:0:0:
256,192,80609,1,2,0:0:0:0:
256,192,80909,1,0,0:0:0:0:
256,192,81059,1,0,0:0:0:0:
256,192,81209,1,2,0:0:0:0:
256,192,81509,1,2,0:0:0:0:
192,192,81809,2,2,L|352:192,1,140
256,192,82409,1,0,0:0:0:0:
256,192,82709,1,0,0:0:0:0:
256,192,83009,1,0,0:0:0:0:
256,192,83309,1,2,0:0:0:0:
256,192,83459,1,2,0:0:0:0:
256,192,83609,1,0,0:0:0:0:
256,192,83909,1,0,0:0:0:0:
256,192,84209,2,0,L|416:192,1,140
256,192,84809,1,2,0:0:0:0:
256,192,85109,1,2,0:0:0:0:
256,192,85409,1,2,0:0:0:0:
256,192,85709,1,0,0:0:0:0:
256,192,85859,1,0,0:0:0:0:
256,192,86009,1,2,0:0:0:0:
256,192,86309,1,2,0:0:0:0:
256,192,86459,1,2,0:0:0:0:
256,192,86609,1,2,0:0:0:0:
256,192,87209,1,0,0:0:0:0:
256,192,87359,1,0,0:0:0:0:
256,192,87509,1,0,0:0:0:0:
256,192,87809,1,0,0:0:0:0:
256,192,88109,1,0,0:0:0:0:
256,192,88409,1,0,0:0:0:0:
256,192,88559,1,0,0:0:0:0:
256,192,88709,1,0,0:0:0:0:
256,192,89009,1,0,0:0:0:0:
256,192,89609,1,2,0:0:0:0:
256,192,89759,1,2,0:0:0:0:
256,192,89909,1,2,0:0:0:0:
256,192,90209,1,2,0:0:0:0:
256,192,90509,1,2,0:0:0:0:
256,192,90809,1,0,0:0:0:0:
256,192,90959,1,0,0:0:0:0:
256,192,91109,1,0,0:0:0:0:
256,192,91409,1,0,0:0:0:0:
256,192,92009,1,0,0:0:0:0:
256,192,92309,1,0,0:0:0:0:
256,192,92459,1,0,0:0:0:0:
256,192,92609,1,2,0:0:0:0:
256,192,92909,1,0,0:0:0:0:
256,192,93059,1,0,0:0:0:0:
256,192,93209,1,0,0:0:0:0:
256,192,93509,1,0,0:0:0:0:
256,192,93809,1,2,0:0:0:0:
256,192,94409,1,0,0:0:0:0:
256,192,94709,1,0,0:0:0:0:
256,192,94859,1,0,0:0:0:0:
256,192,95009,1,2,0:0:0:0:
256,192,95309,1,2,0:0:0:0:
256,192,95459,1,2,0:0:0:0:
256,192,95609,1,0,0:0:0:0:
256,192,95909,1,0,0:0:0:0:
256,192,96209,1,2,0:0:0:0:
256,192,96809,12,0,98009,0:0:0:0:
