osu file format v14

[General]
AudioFilename: audio.mp3
AudioLeadIn: 2007
PreviewTime: 83832
Countdown: 0
SampleSet: Soft
StackLeniency: 0.2
Mode: 0
LetterboxInBreaks: 0
WidescreenStoryboard: 1

[Editor]
Bookmarks: 1658,61244,129714,209293,289641,368605,438085,478570,574945,682570,743320,764438
DistanceSpacing: 0.7
BeatDivisor: 4
GridSize: 4
TimelineZoom: 3.799998

[Metadata]
Title:God only knows -Secrets of the Goddess-
TitleUnicode:God only knows -Secrets of the Goddess-
Artist:Oratorio The World God Only Knows
ArtistUnicode:Oratorio The World God Only Knows
Creator:LeCandy
Version:Marathon
Source:神のみぞ知るセカイ 女神篇
Tags:season 3 opening Saori Hayami TWGOK OP Kami nomi zo anime english
BeatmapID:3239998
BeatmapSetID:1586298

[Difficulty]
HPDrainRate:6
CircleSize:4.4
OverallDifficulty:8.6
ApproachRate:9.2
SliderMultiplier:1.7
SliderTickRate:1

[Events]
//Background and Video events
0,0,"819298.png",0,0
//Break Periods
2,208971,220723
2,277841,288508
2,431295,435913
2,727395,738250
//Storyboard Layer 0 (Background)
//Storyboard Layer 1 (Fail)
//Storyboard Layer 2 (Pass)
//Storyboard Layer 3 (Foreground)
//Storyboard Layer 4 (Overlay)
//Storyboard Sound Samples

[TimingPoints]
1658,413.793103448276,6,2,1,30,1,0
21520,-100,6,2,1,40,0,0
40347,-100,6,2,1,30,0,0
40968,-100,6,2,1,40,0,0
41382,-100,6,2,1,50,0,0
61244,352.941176470588,4,2,1,60,1,0
65567,-100,4,2,1,40,0,0
66891,-100,4,2,1,60,0,0
69626,-100,4,2,1,70,0,0
72538,-100,4,2,1,80,0,0
82596,-100,4,2,1,90,0,0
83832,-100,4,2,1,100,0,0
83920,-100,4,2,1,80,0,0
106420,-100,4,2,1,90,0,0
117714,-100,4,2,1,60,0,0
123714,352.941176470588,5,2,1,40,1,0
127861,-100,5,2,1,20,0,0
128302,-100,5,2,1,40,0,0
128919,-100,5,2,1,20,0,0
129184,-100,5,2,1,40,0,0
129714,352.941176470588,4,2,1,60,1,0
139243,-100,4,2,1,35,0,0
149566,-100,4,2,1,40,0,0
159361,-100,4,2,1,30,0,0
160066,-100,4,2,1,60,0,0
160419,-100,4,2,1,50,0,0
174890,-100,4,2,1,55,0,0
176302,-100,4,2,1,60,0,0
177096,-100,4,2,1,50,0,0
180802,-100,4,2,1,30,0,0
181155,-100,4,2,1,40,0,0
181508,-100,4,2,1,50,0,0
181861,-100,4,2,1,60,0,0
187596,-100,4,2,1,70,0,0
198890,352.941176470588,7,2,1,70,1,0
200390,-100,7,2,1,5,0,0
200478,-100,7,2,1,70,0,0
201890,-100,7,2,1,55,0,0
202419,-100,7,2,1,70,0,0
202860,-100,7,2,1,5,0,0
202948,-100,7,2,1,70,0,0
203478,-100,7,2,1,55,0,0
203831,-100,7,2,1,70,0,0
205948,-100,7,2,1,55,0,0
206301,-100,7,2,1,70,0,0
206831,-125,7,2,1,50,0,0
207360,-131.116216458444,7,2,1,70,0,0
208772,521.739130434783,3,2,1,30,1,0
209032,-100,3,2,1,20,0,0
218293,-100,3,2,1,5,0,0
221293,-100,3,2,1,20,0,0
222728,-100,3,2,1,25,0,0
232250,-121.430287554333,3,2,1,25,0,0
233815,-109.098159731071,3,2,1,25,0,0
235380,521.739130434783,3,2,1,25,1,0
277641,375,4,2,1,25,1,0
289641,-100,4,2,1,40,0,0
313641,-100,4,2,1,60,0,0
326016,-100,4,2,1,40,0,0
336047,-100,4,2,1,50,0,0
337641,-100,4,2,1,60,0,0
349734,-100,4,2,1,5,0,0
349828,-100,4,2,1,60,0,0
350297,-100,4,2,1,5,0,0
350391,-100,4,2,1,60,0,0
350859,-100,4,2,1,5,0,0
350953,-100,4,2,1,60,0,0
351422,-100,4,2,1,5,0,0
351516,-100,4,2,1,60,0,0
352547,-100,4,2,1,5,0,0
352641,-100,4,2,1,60,0,0
355547,-100,4,2,1,5,0,0
355641,-100,4,2,1,60,0,0
356109,-100,4,2,1,5,0,0
356203,-100,4,2,1,60,0,0
356672,-100,4,2,1,5,0,0
356766,-100,4,2,1,60,0,0
357234,-100,4,2,1,5,0,0
357328,-100,4,2,1,60,0,0
357797,-100,4,2,1,5,0,0
357891,-100,4,2,1,60,0,0
358547,-100,4,2,1,5,0,0
358641,-100,4,2,1,60,0,0
359109,-100,4,2,1,5,0,0
359203,-100,4,2,1,60,0,0
360891,428.571428571429,4,2,1,70,1,0
367855,-100,4,2,1,40,0,0
379855,-100,4,2,1,45,0,0
381355,-100,4,2,1,50,0,0
388319,-100,4,2,1,60,0,0
391855,-100,4,2,1,40,0,0
393462,-100,4,2,1,50,0,0
395176,-100,4,2,1,60,0,0
396891,-100,4,2,1,70,0,0
397533,-100,4,2,1,75,0,0
397962,-100,4,2,1,80,0,0
398391,-100,4,2,1,85,0,0
398605,375,4,2,1,60,1,0
398790,375,4,2,1,60,1,8
398791,834.206876628153,4,2,1,60,1,8
399167,-100,4,2,1,30,0,8
399917,375,4,2,1,40,1,0
411917,-100,4,2,1,50,0,0
416417,-100,4,2,1,60,0,0
425863,875.912408759124,4,2,1,60,1,0
427614,863.309352517986,4,2,1,60,1,0
429340,888.888888888889,4,2,1,60,1,0
431095,582.52427184466,3,2,1,30,1,0
438085,291.26213592233,3,2,1,60,1,0
444784,291.26213592233,3,2,1,60,1,0
451483,291.26213592233,3,2,1,60,1,0
458182,291.26213592233,3,2,1,60,1,0
464881,291.26213592233,3,2,1,60,1,0
471580,291.26213592233,3,2,1,60,1,0
478570,375,4,2,1,70,1,0
490663,-100,4,2,1,60,0,0
501632,-100,4,2,1,70,0,0
502101,-100,4,2,1,80,0,0
502288,-100,4,2,1,70,0,0
514663,-100,4,2,1,60,0,0
523570,-100,4,2,1,70,0,0
527976,-100,4,2,1,60,0,0
528351,-100,4,2,1,65,0,0
528726,-100,4,2,1,70,0,0
529195,-100,4,2,1,75,0,0
529570,-100,4,2,1,80,0,0
547663,-100,4,2,1,70,0,0
553570,-100,4,2,1,70,0,0
556570,375,3,2,1,30,1,0
574570,-100,3,2,1,40,0,0
575695,-200,3,2,1,40,0,0
626132,-100,3,2,1,30,0,0
628570,-166.666666666667,3,2,1,50,0,0
644413,-166.666666666667,3,2,1,40,0,0
645445,-166.666666666667,3,2,1,30,0,0
646476,-166.666666666667,3,2,1,5,0,0
646570,-142.857142857143,3,2,1,60,0,0
664570,-125,3,2,1,55,0,0
673476,-125,3,2,1,60,0,0
673570,-111.111111111111,3,2,1,60,0,0
680976,-111.111111111111,3,2,1,40,0,0
682570,-100,3,2,1,70,0,0
718616,-100,3,2,1,40,0,0
726351,-100,3,2,1,5,0,0
726445,-800.131081058819,3,2,1,40,0,0
727195,-100,3,2,1,5,0,0
743320,352.941176470588,4,2,1,50,1,0
743672,-100,4,2,1,20,0,0
744114,-100,4,2,1,25,0,0
744290,-100,4,2,1,30,0,0
744467,-100,4,2,1,35,0,0
745790,-100,4,2,1,40,0,0
746672,-100,4,2,1,30,0,0
746937,-100,4,2,1,25,0,0
747114,-100,4,2,1,30,0,0
747290,-100,4,2,1,35,0,0
748261,-100,4,2,1,30,0,0
748878,-100,4,2,1,45,0,0
763084,387.096774193548,4,2,1,28,1,0

[Colours]
Combo1 : 225,225,225
Combo2 : 255,155,155

[HitObjects]
473,33,1658,6,0,B|432:18|410:79|414:80|418:83|400:137|351:128,1,170,2|0,0:0|0:0,0:0:0:0:
246,50,2692,1,0,0:0:0:0:
246,50,2899,2,0,P|266:120|285:220,1,170,2|0,0:0|0:0,0:0:0:0:
512,366,4140,6,0,P|481:310|383:332,1,170,2|0,0:0|0:0,0:0:0:0:
339,378,4968,1,2,0:0:0:0:
263,374,5382,2,0,P|194:358|88:356,1,170,2|0,0:0|0:0,0:0:0:0:
12,92,6623,6,0,P|59:76|93:175,1,170,2|0,0:0|0:0,0:0:0:0:
14,283,7658,1,0,0:0:0:0:
14,283,7864,2,0,P|96:258|199:240,1,170,2|0,0:0|0:0,0:0:0:0:
485,96,8692,5,0,0:0:0:0:
485,96,8899,1,0,0:0:0:0:
485,96,9106,2,0,B|489:148|438:161|435:156|434:146|374:165|387:218,2,170,2|0|0,0:0|0:0|0:0,0:0:0:0:
394,0,10347,2,0,P|408:41|416:113,1,85,2|0,0:0|0:0,0:0:0:0:
342,97,10761,2,0,P|328:56|320:-16,1,85
321,15,11175,1,0,0:0:0:0:
398,291,11589,6,0,P|385:211|307:190,1,170,2|0,0:0|0:0,0:0:0:0:
161,140,12623,1,0,0:0:0:0:
161,140,12830,2,0,P|79:111|-18:92,1,170,2|0,0:0|0:0,0:0:0:0:
250,126,13658,5,0,0:0:0:0:
250,126,13864,1,0,0:0:0:0:
250,126,14071,2,0,P|234:171|222:229,1,85,2|0,0:0|0:0,0:0:0:0:
157,267,14485,2,0,P|112:238|123:193,1,85
63,149,14899,2,0,P|68:108|105:90,1,85
161,146,15313,5,2,0:0:0:0:
172,139,15520,1,0,0:0:0:0:
246,171,15726,1,2,0:0:0:0:
245,157,15933,1,0,0:0:0:0:
228,83,16140,1,2,0:0:0:0:
416,19,16554,6,0,P|325:39|324:121,1,170,2|0,0:0|0:0,0:0:0:0:
187,268,17588,1,0,0:0:0:0:
187,268,17795,2,0,P|267:245|351:227,1,170,2|0,0:0|0:0,0:0:0:0:
188,67,18623,5,0,0:0:0:0:
188,67,18830,1,0,0:0:0:0:
188,67,19037,2,0,B|95:79|122:125|36:135,2,170,2|0|0,0:0|0:0|0:0,0:0:0:0:
485,126,20278,1,2,0:0:0:0:
232,0,20692,6,0,P|259:23|260:92,1,85
433,66,21106,2,0,P|382:71|331:143,1,127.5
360,336,21520,5,6,0:0:0:0:
310,384,21933,1,2,0:0:0:0:
243,375,22347,1,0,0:0:0:0:
438,353,22623,5,0,3:0:0:0:
438,353,22692,1,0,3:0:0:0:
438,353,22761,2,0,P|443:303|456:254,1,85,0|0,3:0|0:0,0:0:0:0:
285,307,23175,2,0,P|294:265|298:223,1,85,2|0,0:0|0:0,0:0:0:0:
354,120,23589,5,0,0:0:0:0:
354,120,23795,1,0,0:0:0:0:
354,120,24002,2,0,P|361:171|468:178,2,170,2|0|0,0:0|3:0|0:0,0:0:0:0:
124,64,25106,5,0,3:0:0:0:
124,64,25175,1,0,3:0:0:0:
124,64,25244,2,0,P|159:69|219:88,1,85,0|0,3:0|0:0,0:0:0:0:
388,48,25658,2,0,P|396:26|411:0,2,42.5,0|0|0,3:1|3:1|3:1,0:0:0:0:
285,19,26071,5,0,3:1:0:0:
303,88,26278,1,0,3:1:0:0:
338,256,26485,6,0,P|321:300|318:370,1,85,2|0,0:0|0:0,0:0:0:0:
412,211,26899,2,0,P|420:158|386:126,1,85,0|0,3:1|0:0,0:0:0:0:
323,167,27313,1,0,0:0:0:0:
154,384,27589,5,0,3:1:0:0:
154,384,27658,1,0,3:1:0:0:
153,384,27726,2,0,P|132:347|143:307,1,85,0|0,3:1|0:0,0:0:0:0:
216,266,28140,1,2,0:0:0:0:
5,18,28899,5,0,3:1:0:0:
5,18,28968,2,0,B|10:111|51:84|57:197,2,170,0|2|0,3:1|0:0|0:0,0:0:0:0:
83,253,30071,5,0,3:1:0:0:
83,253,30140,1,0,3:1:0:0:
83,253,30209,2,0,P|123:228|130:186,1,85,0|0,3:1|0:0,0:0:0:0:
46,119,30623,2,0,P|34:100|17:88,2,42.5,0|0|0,3:0|3:0|3:0,0:0:0:0:
93,41,31037,5,0,3:1:0:0:
170,19,31244,1,0,3:1:0:0:
294,148,31451,6,0,P|366:124|469:109,1,170,2|0,3:2|3:1,0:0:0:0:
306,16,32278,2,0,P|251:39|260:107,1,113.333333333333
308,224,32623,5,0,3:1:0:0:
308,224,32692,2,0,P|320:264|326:306,1,85,0|0,3:1|0:0,0:0:0:0:
458,197,33106,2,0,P|445:156|439:114,1,85,2|0,0:0|0:0,0:0:0:0:
404,261,33520,2,0,P|411:302|413:345,1,85
127,384,33933,6,0,P|154:318|258:327,2,170,0|2|0,3:0|0:0|0:0,0:0:0:0:
16,251,35037,1,0,3:1:0:0:
16,251,35106,1,0,3:1:0:0:
16,251,35175,2,0,P|10:204|-1:159,1,85,0|0,3:1|0:0,0:0:0:0:
95,267,35589,1,0,3:1:0:0:
95,267,35692,1,0,3:1:0:0:
95,267,35795,1,0,3:1:0:0:
167,195,36002,5,0,3:1:0:0:
284,250,36209,1,0,3:1:0:0:
423,160,36416,6,0,P|437:68|461:-15,1,170,2|0,0:0|3:1,0:0:0:0:
351,183,37244,2,0,P|369:221|426:236,1,85
476,214,37520,1,0,3:1:0:0:
476,214,37589,1,0,3:1:0:0:
476,214,37658,1,2,0:0:0:0:
359,53,38071,5,2,0:0:0:0:
465,290,38485,2,0,P|481:330|495:376,1,85
420,162,38899,6,0,B|456:74|484:110|518:14,2,170,2|0|2,0:0|3:1|0:0,0:0:0:0:
319,384,40002,1,0,3:1:0:0:
319,384,40071,1,0,3:1:0:0:
319,384,40140,2,0,P|282:357|281:317,1,85,0|0,3:1|0:0,0:0:0:0:
476,214,40554,2,0,P|495:200|513:192,2,42.5,0|0|0,3:1|0:0|0:0,0:0:0:0:
383,263,40968,5,0,3:1:0:0:
383,263,41175,1,0,3:1:0:0:
10,156,41382,6,0,P|93:170|173:198,1,170,6|0,3:2|3:1,0:0:0:0:
371,15,42416,1,0,0:0:0:0:
303,23,42623,2,0,P|274:42|264:104,1,85,0|0,3:0|0:0,0:0:0:0:
322,376,43037,5,0,1:0:0:0:
130,89,43244,1,0,1:0:0:0:
211,320,43451,5,2,1:2:0:0:
264,171,43658,1,2,1:2:0:0:
238,243,43864,5,2,1:2:0:0:
238,243,44278,2,0,B|291:228|317:278|315:278|311:280|328:333|395:314,2,170,0|2|0,3:1|0:0|3:1,0:0:0:0:
133,302,45520,1,2,0:0:0:0:
26,234,45933,2,0,P|21:187|10:147,1,85,0|0,3:1|3:1,0:0:0:0:
212,0,46347,5,2,0:0:0:0:
212,0,46761,2,0,P|179:94|154:233,1,212.5,0|0,3:1|0:0,0:0:0:0:
160,219,47382,1,0,0:0:0:0:
41,15,47589,2,0,P|51:89|129:94,1,127.5,0|0,3:1|0:0,0:0:0:0:
96,120,48002,2,0,P|135:103|177:99,1,85,2|2,0:0|0:0,0:0:0:0:
342,0,48416,5,0,0:0:0:0:
273,35,48623,1,0,0:0:0:0:
447,149,48830,5,0,3:1:0:0:
447,149,49244,2,0,P|458:223|380:253,1,170,0|2,3:1|0:0,0:0:0:0:
398,88,49933,1,0,3:1:0:0:
398,88,50002,1,0,3:1:0:0:
398,88,50071,2,0,P|406:46|427:-14,1,85,0|0,3:1|0:0,0:0:0:0:
293,137,50485,5,0,3:0:0:0:
301,155,50589,1,0,3:0:0:0:
317,166,50692,1,0,3:0:0:0:
490,66,50899,1,0,3:0:0:0:
490,66,51106,1,0,3:0:0:0:
147,221,51313,5,6,0:0:0:0:
219,186,51726,1,0,3:0:0:0:
22,118,52347,6,0,P|57:141|86:172,1,85,2|0,0:0|0:0,0:0:0:0:
324,23,52968,5,0,1:2:0:0:
122,84,53175,1,0,1:2:0:0:
3,284,53382,5,2,1:2:0:0:
271,202,53589,1,2,1:2:0:0:
201,160,53795,6,0,B|160:197|188:244|199:236|193:241|222:284|185:328,1,170,2|0,3:2|3:0,0:0:0:0:
94,384,54623,1,0,0:0:0:0:
385,339,55037,2,0,P|300:349|212:367,1,170,0|0,3:0|3:1,0:0:0:0:
205,375,55554,1,0,3:0:0:0:
205,375,55658,1,0,3:0:0:0:
348,274,55864,5,0,3:1:0:0:
426,220,56071,1,0,3:1:0:0:
350,27,56278,5,2,0:0:0:0:
350,27,56692,2,0,P|339:101|436:127,1,170,0|0,3:1|0:0,0:0:0:0:
512,67,57313,5,0,0:0:0:0:
265,25,57520,2,0,P|174:14|88:-1,1,170,0|2,3:1|0:0,0:0:0:0:
13,163,58347,6,0,P|63:139|76:96,1,85
237,210,58761,2,0,P|164:176|176:85,2,170,0|0|0,3:1|3:1|0:0,0:0:0:0:
436,56,59795,1,0,3:0:0:0:
436,56,59864,1,0,3:0:0:0:
436,56,59933,1,0,3:0:0:0:
436,56,60002,5,0,3:0:0:0:
338,164,60416,1,0,0:0:0:0:
393,220,60623,1,0,0:0:0:0:
471,197,60830,2,0,P|459:263|454:330,1,127.5
369,384,61244,5,6,1:2:0:0:
20,337,62479,5,0,3:0:0:0:
20,337,62655,2,0,P|31:287|153:297,1,170,6|0,3:2|0:3,0:0:0:0:
297,324,63185,1,0,0:0:0:0:
306,329,63361,1,2,0:3:0:0:
225,0,64067,6,0,P|250:116|267:259,1,255,6|0,1:2|0:0,0:0:0:0:
266,251,64773,1,0,0:0:0:0:
266,251,65126,1,0,0:0:0:0:
351,240,65302,1,0,3:0:0:0:
438,11,65479,6,0,P|396:21|354:26,2,85,6|0|2,1:2|0:0|0:3,0:0:0:0:
449,95,66008,1,0,0:0:0:0:
449,96,66185,2,0,P|406:98|365:108,1,85,2|0,0:3|0:0,0:0:0:0:
214,70,66538,5,2,0:3:0:0:
214,70,66626,1,0,0:0:0:0:
214,70,66714,1,0,0:0:0:0:
214,70,66802,1,0,0:0:0:0:
214,70,66891,6,0,B|162:49|137:103|145:105|149:109|136:158|79:148,1,170,6|8,1:2|0:0,0:0:0:0:
16,92,67420,1,0,0:0:0:0:
35,4,67596,1,0,1:0:0:0:
35,4,67685,1,0,0:0:0:0:
35,4,67773,1,0,0:0:0:0:
79,147,67949,5,8,0:0:0:0:
96,65,68126,1,8,0:0:0:0:
49,314,68302,6,0,P|82:233|159:241,1,170,6|8,1:2|0:0,0:0:0:0:
193,297,68832,1,0,0:0:0:0:
328,267,69008,1,0,1:2:0:0:
320,274,69097,1,0,0:0:0:0:
314,282,69185,1,0,0:0:0:0:
231,160,69361,2,0,P|244:201|249:253,1,85,8|0,0:0|0:0,0:0:0:0:
357,354,69714,6,0,P|436:352|461:276,1,170,2|8,1:2|0:0,0:0:0:0:
404,114,70244,1,0,0:0:0:0:
404,114,70332,1,8,0:0:0:0:
404,114,70420,2,0,P|409:71|421:31,1,85,4|0,1:2|0:0,0:0:0:0:
346,188,70773,2,0,P|385:189|435:207,1,85,8|0,0:0|0:0,0:0:0:0:
501,123,71126,5,2,1:3:0:0:
507,113,71214,1,0,0:0:0:0:
512,102,71302,1,0,0:0:0:0:
304,93,71479,5,10,1:3:0:0:
302,81,71567,1,0,0:0:0:0:
302,69,71655,1,0,0:0:0:0:
391,191,71832,5,2,1:2:0:0:
381,196,71920,1,0,1:0:0:0:
370,213,72008,1,0,1:0:0:0:
371,241,72096,1,0,1:2:0:0:
403,263,72185,5,10,1:2:0:0:
419,279,72273,1,0,1:0:0:0:
413,322,72361,1,0,1:0:0:0:
364,343,72449,1,0,1:0:0:0:
307,328,72538,6,0,P|256:333|195:367,1,85,6|0,1:2|0:0,0:0:0:0:
25,293,72891,2,0,P|103:268|148:354,1,170,10|0,0:0|3:0,0:0:0:0:
95,384,73420,1,0,0:0:0:0:
0,210,73596,5,10,0:0:0:0:
0,210,73773,1,8,0:0:0:0:
49,147,73949,6,0,P|40:105|28:64,1,85,2|0,1:2|0:0,0:0:0:0:
171,0,74302,2,0,P|168:36|124:61,1,85,10|0,0:0|0:0,0:0:0:0:
78,14,74567,1,0,0:0:0:0:
70,9,74655,1,0,3:2:0:0:
244,41,74832,1,0,0:0:0:0:
456,89,75008,2,0,P|415:80|351:74,1,85,10|0,0:0|0:0,0:0:0:0:
309,106,75273,5,0,0:0:0:0:
300,105,75361,2,0,B|245:90|227:147|236:149|240:152|234:202|176:200,1,170,2|8,1:2|0:0,0:0:0:0:
45,276,75891,1,0,0:0:0:0:
45,276,75979,1,0,0:0:0:0:
45,276,76067,2,0,P|54:326|60:395,1,85,0|0,3:2|0:0,0:0:0:0:
97,212,76420,1,10,0:0:0:0:
26,173,76596,1,8,0:0:0:0:
161,287,76773,6,0,P|217:301|231:371,1,127.5,2|0,1:2|0:0,0:0:0:0:
230,369,77126,2,0,P|270:359|324:364,1,85,10|2,0:0|0:0,0:0:0:0:
372,232,77479,1,0,1:2:0:0:
298,284,77655,1,8,0:0:0:0:
437,384,77832,1,2,1:2:0:0:
376,319,78008,1,8,0:0:0:0:
498,143,78185,6,0,P|476:193|452:307,1,170,6|10,1:2|0:0,0:0:0:0:
416,106,78714,1,0,0:0:0:0:
416,106,78802,1,8,0:0:0:0:
416,106,78891,2,0,P|428:68|492:67,1,85,0|0,3:2|0:0,0:0:0:0:
398,189,79243,1,10,0:0:0:0:
322,124,79420,1,8,0:0:0:0:
202,198,79596,6,0,P|137:143|44:175,1,170,2|10,1:2|0:0,0:0:0:0:
158,69,80126,1,0,0:0:0:0:
158,69,80214,1,0,0:0:0:0:
157,69,80302,2,0,P|166:27|179:-13,1,85,2|2,3:2|0:0,0:0:0:0:
138,148,80655,2,0,P|129:178|118:252,1,85,10|0,0:0|0:0,0:0:0:0:
363,380,81008,6,0,P|312:309|228:342,1,170,6|8,1:2|0:0,0:0:0:0:
97,384,81538,1,0,0:0:0:0:
97,384,81626,1,0,0:0:0:0:
97,384,81714,1,2,3:2:0:0:
158,326,81891,1,2,3:2:0:0:
4,287,82067,2,0,P|46:293|86:307,1,85,10|0,0:0|0:0,0:0:0:0:
420,148,82420,6,0,P|363:176|311:214,1,127.5,6|0,1:2|0:0,0:0:0:0:
304,219,82773,1,10,0:0:0:0:
164,327,82949,1,0,0:0:0:0:
241,332,83126,5,2,1:2:0:0:
253,329,83214,1,8,0:0:0:0:
269,311,83302,1,0,0:0:0:0:
267,280,83391,1,0,3:0:0:0:
244,257,83479,1,10,1:2:0:0:
200,257,83567,1,0,0:0:0:0:
151,246,83655,1,8,1:2:0:0:
122,199,83743,1,8,1:2:0:0:
134,145,83832,6,0,P|170:124|209:138,1,85,6|0,1:2|0:0,0:0:0:0:
385,50,84185,2,0,P|345:58|329:95,1,85,10|0,0:0|0:0,0:0:0:0:
109,17,84538,2,0,P|170:33|233:44,1,127.5,2|0,3:2|0:0,0:0:0:0:
240,42,84891,1,10,0:0:0:0:
481,149,85067,6,0,P|440:138|399:131,1,85,6|0,1:2|3:2,0:0:0:0:
349,240,85420,2,0,P|317:214|320:173,1,85,2|8,0:0|0:0,0:0:0:0:
461,43,85773,2,0,P|435:124|422:207,1,170,2|0,0:0|0:0,0:0:0:0:
356,105,86302,1,10,0:0:0:0:
371,315,86479,5,0,0:0:0:0:
371,315,86567,1,0,0:0:0:0:
371,315,86655,2,0,P|320:321|230:360,1,127.5,2|0,1:2|0:0,0:0:0:0:
237,339,87008,1,10,0:0:0:0:
146,372,87185,1,0,0:0:0:0:
73,312,87361,2,0,P|40:285|3:263,1,85,2|0,3:2|0:0,0:0:0:0:
143,384,87714,1,10,0:0:0:0:
166,271,87891,2,0,P|171:228|185:188,1,85,2|0,0:0|1:2,0:0:0:0:
131,51,88243,5,2,0:2:0:0:
203,107,88419,1,8,0:0:0:0:
71,195,88596,1,2,0:0:0:0:
71,195,88773,2,0,P|81:158|137:143,1,85,0|0,3:2|0:0,0:0:0:0:
270,188,89126,5,10,0:0:0:0:
355,112,89302,1,4,0:3:0:0:
469,162,89479,1,2,1:2:0:0:
262,25,89832,6,0,P|273:65|277:108,1,85,10|0,0:0|0:0,0:0:0:0:
417,0,90185,2,0,P|422:43|434:96,1,85,2|0,3:2|0:0,0:0:0:0:
357,120,90538,1,8,0:0:0:0:
473,294,90714,6,0,P|456:242|382:245,1,127.5,2|0,0:0|0:0,0:0:0:0:
385,248,91067,1,2,0:0:0:0:
302,352,91243,2,0,P|260:344|217:344,1,85,8|0,0:0|0:0,0:0:0:0:
395,358,91596,1,2,3:2:0:0:
303,272,91773,1,0,0:0:0:0:
419,154,91949,2,0,P|404:193|395:235,1,85,10|0,0:2|0:3,0:0:0:0:
269,82,92302,6,0,B|225:50|185:94|191:95|194:103|164:144|116:119,1,170,6|8,1:2|0:2,0:0:0:0:
11,12,92832,1,0,0:0:0:0:
11,12,92920,1,0,0:0:0:0:
11,12,93008,2,0,P|22:52|27:95,1,85,2|0,3:2|0:0,0:0:0:0:
105,40,93361,1,8,0:0:0:0:
0,223,93538,6,0,P|80:194|136:286,1,170,6|0,1:2|0:0,0:0:0:0:
274,375,94067,2,0,P|313:358|355:356,1,85,10|0,0:0|0:0,0:0:0:0:
190,351,94420,5,2,1:2:0:0:
184,341,94508,1,8,3:2:0:0:
181,320,94596,1,2,0:0:0:0:
194,288,94685,1,0,0:0:0:0:
231,271,94773,1,8,1:2:0:0:
280,281,94861,1,0,0:0:0:0:
335,262,94949,1,8,1:2:0:0:
357,209,95038,1,0,0:2:0:0:
333,154,95126,6,0,P|323:112|299:53,1,85,6|0,1:2|0:0,0:0:0:0:
455,4,95479,2,0,P|439:41|399:49,1,85,10|0,0:0|0:0,0:0:0:0:
236,138,95832,2,0,P|180:122|157:55,1,127.5,2|0,3:2|0:0,0:0:0:0:
162,53,96185,1,10,0:0:0:0:
342,0,96361,6,0,P|319:81|307:165,1,170,6|0,1:2|0:0,0:0:0:0:
209,293,96891,1,10,0:0:0:0:
125,180,97067,1,0,0:0:0:0:
125,180,97155,1,0,0:0:0:0:
125,180,97243,2,0,P|134:221|137:263,1,85,2|0,3:2|0:0,0:0:0:0:
231,374,97596,2,0,P|275:349|278:302,1,85,10|0,0:0|0:0,0:0:0:0:
322,255,97861,5,0,0:0:0:0:
327,244,97949,2,0,B|373:214|408:265|400:270|395:277|420:320|464:308,1,170,2|10,1:2|0:0,0:0:0:0:
512,249,98479,1,0,0:0:0:0:
360,346,98655,2,0,P|323:330|265:325,1,85,2|0,3:2|0:0,0:0:0:0:
436,298,99008,1,10,0:0:0:0:
273,125,99185,6,0,P|241:147|256:202,1,85,2|0,0:2|3:0,0:0:0:0:
403,134,99538,2,0,P|399:94|344:80,1,85,2|8,0:0|0:0,0:0:0:0:
313,254,99891,2,0,P|368:222|431:217,1,127.5,2|0,0:0|0:0,0:0:0:0:
441,221,100243,1,10,0:0:0:0:
274,117,100420,1,10,0:0:0:0:
337,158,100596,1,8,0:0:0:0:
512,28,100773,6,0,P|484:61|472:128,1,85,6|0,1:2|0:0,0:0:0:0:
374,226,101126,2,0,P|338:204|331:159,1,85,10|0,0:0|0:0,0:0:0:0:
267,120,101479,2,0,P|279:80|320:61,1,85,2|0,3:2|0:0,0:0:0:0:
404,128,101832,1,10,0:0:0:0:
195,158,102008,6,0,P|110:173|27:197,1,170,2|0,1:2|0:0,0:0:0:0:
183,72,102538,2,0,P|142:84|100:92,1,85,10|0,0:0|0:0,0:0:0:0:
24,117,102802,1,0,0:0:0:0:
2,106,102891,2,0,P|-8:66|12:30,1,85,2|0,3:2|0:0,0:0:0:0:
119,172,103243,2,0,P|130:212|134:255,1,85,10|0,0:0|0:0,0:0:0:0:
260,384,103596,6,0,P|331:330|306:230,1,170,6|10,1:2|0:0,0:0:0:0:
474,184,104126,1,0,0:0:0:0:
474,184,104214,1,0,0:0:0:0:
474,183,104302,2,0,P|432:190|393:206,1,85,2|0,3:2|0:0,0:0:0:0:
252,288,104655,1,10,0:0:0:0:
237,76,104832,6,0,P|254:137|260:200,1,127.5,6|0,1:2|0:0,0:0:0:0:
269,209,105185,1,2,0:0:0:0:
391,76,105361,2,0,P|360:89|341:145,1,85,10|0,0:0|0:0,0:0:0:0:
174,291,105714,5,0,1:2:0:0:
163,302,105802,1,0,0:0:0:0:
142,305,105891,1,2,0:3:0:0:
116,289,105979,1,0,0:0:0:0:
100,240,106067,1,10,1:2:0:0:
114,189,106155,1,0,0:0:0:0:
72,143,106243,1,8,1:2:0:0:
14,156,106332,1,0,0:0:0:0:
8,170,106420,5,6,1:2:0:0:
63,349,106596,1,0,1:0:0:0:
189,208,106773,1,0,1:0:0:0:
198,194,107126,5,2,0:3:0:0:
400,304,107479,5,2,1:2:0:0:
249,280,107655,1,0,1:0:0:0:
471,243,107832,1,0,1:0:0:0:
464,227,108185,5,2,0:3:0:0:
291,31,108538,5,2,1:2:0:0:
333,236,108714,1,0,1:0:0:0:
438,55,108891,1,0,1:0:0:0:
54,164,109243,5,2,1:2:0:0:
148,138,109420,1,0,1:0:0:0:
273,103,109596,1,0,1:0:0:0:
264,115,109949,5,2,0:3:0:0:
512,271,110302,5,2,1:2:0:0:
418,297,110479,1,0,1:0:0:0:
293,332,110655,2,0,B|249:300|209:344|215:345|218:353|188:394|140:369,1,170,0|8,1:2|0:2,0:0:0:0:
413,211,111361,5,2,1:2:0:0:
413,211,111538,1,8,0:2:0:0:
368,384,111714,2,0,P|373:341|382:300,1,85,0|8,1:2|0:2,0:0:0:0:
506,58,112067,5,2,1:2:0:0:
381,7,112243,1,0,1:2:0:0:
291,108,112420,1,0,1:2:0:0:
308,109,112773,5,2,0:3:0:0:
450,302,113126,5,2,1:2:0:0:
427,205,113302,1,0,1:2:0:0:
398,83,113479,1,0,1:2:0:0:
411,72,113832,5,2,0:3:0:0:
274,225,114185,5,2,1:2:0:0:
149,174,114361,1,0,1:2:0:0:
59,275,114538,1,0,1:2:0:0:
118,39,114891,5,2,1:2:0:0:
146,155,115067,1,0,1:2:0:0:
180,300,115244,1,0,1:2:0:0:
167,311,115596,6,0,P|211:325|266:369,1,85,2|0,0:3|0:0,0:0:0:0:
467,215,115949,5,2,1:2:0:0:
437,292,116126,1,0,1:0:0:0:
425,63,116302,2,0,P|399:143|384:227,1,170,0|8,1:2|0:0,0:0:0:0:
39,143,117008,5,0,1:0:0:0:
285,172,117185,1,8,0:2:0:0:
139,210,117361,5,0,1:0:0:0:
155,100,117538,1,8,0:2:0:0:
127,300,117714,6,0,P|120:342|117:388,1,85,6|0,1:2|0:0,0:0:0:0:
138,217,118067,1,8,0:0:0:0:
207,360,118243,2,0,B|255:383|287:333|281:333|277:326|299:280|351:296,1,170,2|0,1:2|1:2,0:0:0:0:
409,348,118773,1,8,0:0:0:0:
466,190,118949,6,0,P|452:227|444:286,1,85,2|0,1:2|0:0,0:0:0:0:
360,146,119302,2,0,P|349:186|369:222,1,85,2|0,0:0|0:0,0:0:0:0:
497,108,119655,1,10,1:2:0:0:
234,130,120008,5,2,3:2:0:0:
387,0,120185,5,2,1:2:0:0:
407,3,120273,1,0,1:2:0:0:
424,16,120361,1,0,1:2:0:0:
433,34,120449,1,0,1:2:0:0:
434,55,120538,6,0,P|387:60|345:76,1,85,6|0,1:2|0:0,0:0:0:0:
179,179,120891,1,8,0:0:0:0:
307,14,121067,2,0,P|246:32|246:133,1,170,2|8,1:2|0:0,0:0:0:0:
395,275,121596,1,0,0:0:0:0:
254,205,121773,6,0,P|305:211|348:228,1,85,2|0,1:2|0:0,0:0:0:0:
139,246,122126,2,0,P|100:215|125:156,1,85,2|0,1:2|0:0,0:0:0:0:
412,196,122479,6,0,P|435:138|409:82,1,127.5,6|0,1:2|0:0,0:0:0:0:
398,77,122832,1,0,1:2:0:0:
266,289,123008,5,10,1:2:0:0:
256,305,123096,1,0,1:2:0:0:
249,322,123184,1,8,1:2:0:0:
245,341,123273,2,0,P|240:362|239:393,1,42.5,8|0,1:2|0:0,0:0:0:0:
238,382,123714,5,0,0:0:0:0:
176,345,124243,1,0,0:0:0:0:
32,269,124772,5,0,0:0:0:0:
160,161,125125,1,0,0:0:0:0:
133,253,125478,6,0,B|213:285|249:210|236:204|228:188|276:121|345:153,1,255
334,148,126537,1,0,0:0:0:0:
387,101,126890,1,0,0:0:0:0:
366,34,127243,5,0,0:0:0:0:
512,138,128125,1,2,0:3:0:0:
512,138,128214,1,2,0:3:0:0:
512,138,128302,1,2,0:3:0:0:
119,34,129714,5,2,1:2:0:0:
195,1,129890,1,0,1:0:0:0:
262,68,130066,1,0,1:0:0:0:
442,227,131831,5,8,0:0:0:0:
512,86,132008,2,0,P|489:177|474:306,1,212.5,6|0,1:2|0:0,0:0:0:0:
431,350,132537,5,2,1:2:0:0:
363,309,132714,1,0,1:0:0:0:
301,384,132890,1,0,1:0:0:0:
17,306,135361,5,2,1:2:0:0:
118,295,135537,1,0,1:2:0:0:
208,314,135714,2,0,P|166:305|123:302,1,85,0|2,1:2|0:0,0:0:0:0:
60,239,136419,5,2,0:0:0:0:
167,60,137478,5,8,0:0:0:0:
52,162,137655,2,0,P|49:88|165:72,1,212.5,6|0,1:2|0:0,0:0:0:0:
224,106,138184,5,2,1:2:0:0:
274,45,138361,1,0,1:0:0:0:
360,79,138537,2,0,P|397:71|450:65,1,85,0|2,1:0|0:0,0:0:0:0:
512,31,139243,5,2,0:0:0:0:
482,133,139419,5,0,3:0:0:0:
482,133,139508,1,0,3:0:0:0:
482,133,139596,1,0,1:2:0:0:
420,367,139772,6,0,P|435:296|453:236,1,127.5,8|0,0:0|0:0,0:0:0:0:
455,236,140125,1,8,0:0:0:0:
462,231,140214,1,8,0:0:0:0:
470,226,140302,5,0,1:0:0:0:
356,263,140478,1,0,1:0:0:0:
135,320,140655,5,0,1:0:0:0:
133,304,140743,1,0,1:0:0:0:
148,279,140831,1,0,1:0:0:0:
189,267,140919,1,0,1:0:0:0:
232,300,141008,6,0,P|242:333|251:407,1,85,2|0,3:2|0:0,0:0:0:0:
278,229,141361,2,0,P|265:199|203:192,1,85,0|0,3:2|0:0,0:0:0:0:
150,160,141714,2,0,P|117:164|94:222,1,85,0|0,3:2|0:0,0:0:0:0:
33,255,142066,1,0,3:0:0:0:
57,103,142243,5,0,0:0:0:0:
61,96,142331,1,0,0:0:0:0:
65,89,142419,2,0,P|72:43|75:-2,1,85,2|0,3:2|0:0,0:0:0:0:
154,0,142772,2,0,P|147:46|144:91,1,85,0|0,3:2|0:0,0:0:0:0:
151,159,143125,5,0,3:0:0:0:
139,247,143478,5,0,3:0:0:0:
228,263,143831,5,2,3:2:0:0:
242,168,144008,5,0,0:0:0:0:
242,168,144096,1,0,0:0:0:0:
242,168,144184,2,0,P|286:175|310:227,1,85,0|0,3:0|0:0,0:0:0:0:
421,290,144537,2,0,P|465:283|489:231,1,85,0|0,3:0|0:0,0:0:0:0:
451,175,144889,1,0,3:0:0:0:
491,242,145066,1,0,0:0:0:0:
373,168,145243,6,0,P|365:83|347:0,1,170,2|0,3:2|3:0,0:0:0:0:
439,74,145772,1,0,0:0:0:0:
439,74,145861,1,0,0:0:0:0:
439,74,145949,1,0,3:0:0:0:
291,90,146125,2,0,P|270:93|250:100,2,42.5,2|0|2,0:0|0:0|3:2,0:0:0:0:
364,80,146478,1,0,3:0:0:0:
135,0,146655,6,0,P|177:4|201:38,1,85,2|0,3:2|0:0,0:0:0:0:
80,154,147008,2,0,P|63:116|80:78,1,85,0|0,3:2|0:0,0:0:0:0:
239,119,147361,2,0,P|214:152|173:156,1,85,0|0,3:2|0:0,0:0:0:0:
151,90,147714,1,0,3:0:0:0:
204,238,147890,5,0,0:0:0:0:
204,238,147978,1,0,0:0:0:0:
204,238,148066,1,2,3:2:0:0:
175,162,148243,1,0,0:0:0:0:
131,283,148419,2,0,P|115:322|107:364,1,85,0|0,3:0|0:0,0:0:0:0:
107,363,148684,1,0,0:0:0:0:
107,363,148772,1,2,3:2:0:0:
39,299,148949,1,0,0:0:0:0:
248,364,149125,5,2,3:3:0:0:
263,368,149214,1,2,0:3:0:0:
279,373,149302,1,2,0:3:0:0:
294,377,149390,1,2,0:3:0:0:
310,382,149478,5,6,3:3:0:0:
381,326,149655,1,6,0:3:0:0:
362,242,149831,1,6,3:3:0:0:
466,351,150008,5,0,0:0:0:0:
466,351,150096,1,0,0:0:0:0:
466,351,150184,1,0,3:0:0:0:
300,302,150361,2,0,P|279:297|259:289,2,42.5,0|0|0,0:0|0:0|3:0,0:0:0:0:
429,194,150714,5,0,0:0:0:0:
429,194,150802,1,0,0:0:0:0:
428,194,150890,2,0,P|439:153|457:111,1,85,0|2,3:0|0:0,0:0:0:0:
460,108,151155,1,0,0:0:0:0:
467,104,151243,1,0,3:2:0:0:
346,17,151419,5,0,0:0:0:0:
342,10,151508,1,0,0:0:0:0:
338,3,151596,1,0,0:0:0:0:
512,18,151772,6,0,P|450:15|402:66,1,127.5,10|0,1:2|0:0,0:0:0:0:
352,105,152125,1,8,0:0:0:0:
346,115,152214,1,8,0:0:0:0:
343,124,152302,6,0,P|300:124|272:81,1,85,2|0,3:2|0:0,0:0:0:0:
201,81,152655,2,0,P|189:40|224:2,1,85,0|0,3:2|0:0,0:0:0:0:
220,154,153008,2,0,P|211:195|207:239,1,85,0|0,3:0|0:0,0:0:0:0:
99,354,153361,1,8,0:3:0:0:
23,226,153537,5,0,0:0:0:0:
23,226,153625,1,0,0:0:0:0:
23,226,153714,2,0,P|32:267|36:310,1,85,2|0,3:2|0:0,0:0:0:0:
170,384,154066,2,0,P|208:356|198:299,1,85,0|0,3:0|0:0,0:0:0:0:
93,194,154419,1,0,3:0:0:0:
93,194,154508,2,0,P|84:153|80:110,1,85,8|0,0:0|0:0,0:0:0:0:
17,69,154772,2,0,P|13:21|63:-1,1,85,8|0,0:0|0:0,0:0:0:0:
204,114,155125,6,0,B|248:137|286:89|280:86|276:81|303:39|351:57,1,170,2|0,3:2|3:0,0:0:0:0:
399,108,155655,1,2,0:0:0:0:
505,21,155831,2,0,P|465:26|411:43,1,85,0|0,3:0|0:0,0:0:0:0:
290,190,156184,5,10,3:2:0:0:
387,102,156361,1,0,0:0:0:0:
294,173,156537,1,2,3:2:0:0:
266,4,156713,6,0,P|284:42|295:83,1,85,8|0,0:0|3:0,0:0:0:0:
377,191,157066,1,2,0:0:0:0:
459,171,157243,2,0,P|491:134|470:86,1,85,0|0,3:2|0:0,0:0:0:0:
354,22,157596,1,10,0:0:0:0:
394,103,157772,1,0,3:0:0:0:
219,142,157949,6,0,P|174:150|123:169,1,85,2|0,3:2|0:0,0:0:0:0:
137,163,158213,1,0,0:0:0:0:
137,163,158302,1,0,3:0:0:0:
37,131,158478,1,2,0:0:0:0:
37,131,158566,1,2,0:0:0:0:
37,131,158655,1,2,3:2:0:0:
109,84,158831,1,2,0:0:0:0:
45,231,159008,5,10,3:2:0:0:
99,327,159184,2,0,P|104:347|106:368,2,42.5,0|0|2,0:0|0:0|3:2,0:0:0:0:
7,338,159537,5,0,3:0:0:0:
190,310,159713,1,0,3:0:0:0:
381,280,159890,6,0,P|354:283|328:289,1,42.5,0|0,3:0|3:0,0:0:0:0:
99,327,160066,1,14,1:2:0:0:
99,327,160243,1,14,1:2:0:0:
262,4,160772,5,6,1:2:0:0:
320,41,160949,1,0,0:0:0:0:
387,18,161125,2,0,P|410:36|400:109,1,85,2|0,0:0|3:0,0:0:0:0:
249,153,161478,2,0,P|236:113|255:77,1,85,10|0,0:0|3:0,0:0:0:0:
390,195,161831,1,2,0:0:0:0:
390,195,162008,2,0,P|372:256|365:319,1,127.5,0|0,3:2|0:0,0:0:0:0:
354,330,162361,5,2,3:2:0:0:
309,206,162537,2,0,P|297:246|293:289,1,85,2|0,0:0|3:0,0:0:0:0:
419,369,162890,1,10,0:0:0:0:
413,384,163066,1,0,0:0:0:0:
512,267,163243,2,0,P|479:259|447:322,1,85,2|0,3:2|0:0,0:0:0:0:
182,348,163596,6,0,P|242:336|282:382,2,127.5,2|2|2,3:2|0:2|3:2,0:0:0:0:
108,373,164302,1,10,0:0:0:0:
125,299,164478,1,0,3:0:0:0:
53,323,164655,2,0,P|15:304|2:265,1,85,2|0,0:0|0:0,0:0:0:0:
170,136,165008,6,0,P|178:92|197:45,1,85,2|0,3:2|0:0,0:0:0:0:
146,215,165361,1,10,0:0:0:0:
0,133,165537,5,2,1:3:0:0:
222,194,165890,1,2,1:3:0:0:
462,259,166243,6,0,B|419:236|386:288|391:291|395:296|360:344|315:317,1,170,6|0,1:2|3:0,0:0:0:0:
312,311,166684,1,0,3:0:0:0:
310,296,166772,2,0,P|323:252|326:213,1,85,2|0,3:2|0:0,0:0:0:0:
283,95,167125,2,0,P|336:118|342:163,1,85,10|2,0:0|0:3,0:0:0:0:
404,189,167478,1,2,3:2:0:0:
482,175,167655,1,2,0:3:0:0:
451,21,167831,6,0,P|423:101|408:184,1,170,2|2,3:2|0:3,0:0:0:0:
456,247,168361,1,2,0:0:0:0:
387,357,168537,2,0,P|342:346|330:296,1,85,10|2,0:0|0:3,0:0:0:0:
210,249,168890,2,0,P|155:272|166:330,1,127.5,2|0,3:2|0:0,0:0:0:0:
187,335,169243,6,0,P|234:267|219:185,1,170,0|2,3:2|0:0,0:0:0:0:
156,142,169772,1,0,3:2:0:0:
66,12,169949,2,0,P|84:51|98:101,1,85,10|2,0:0|0:0,0:0:0:0:
134,215,170302,1,2,0:3:0:0:
499,35,170655,6,0,P|449:43|390:64,1,85,6|0,3:2|0:0,0:0:0:0:
249,111,171008,1,2,0:3:0:0:
356,1,171184,5,0,3:0:0:0:
356,1,171361,2,0,P|318:22|331:88,1,85,14|0,3:2|3:0,0:0:0:0:
455,176,171713,1,2,3:3:0:0:
300,179,171890,5,0,1:0:0:0:
300,179,171978,1,0,1:0:0:0:
300,179,172066,2,0,P|332:180|389:202,1,85,6|0,3:2|0:0,0:0:0:0:
491,300,172419,2,0,P|451:285|434:248,1,85,8|0,0:0|0:0,0:0:0:0:
499,110,172772,5,2,1:2:0:0:
503,103,172861,1,0,1:0:0:0:
507,96,172949,1,0,0:0:0:0:
430,45,173125,1,8,0:0:0:0:
353,107,173302,1,0,0:0:0:0:
259,22,173478,6,0,P|210:12|172:-3,1,85,2|0,3:2|0:0,0:0:0:0:
40,122,173831,2,0,P|89:132|127:147,1,85,8|0,0:2|0:0,0:0:0:0:
94,45,174184,1,2,1:2:0:0:
74,42,174272,1,0,1:0:0:0:
56,38,174360,1,0,1:0:0:0:
37,32,174448,1,0,1:0:0:0:
18,24,174537,5,8,0:0:0:0:
34,121,174713,1,0,0:0:0:0:
261,108,174890,6,0,P|221:117|202:172,1,85,6|4,3:2|0:3,0:0:0:0:
202,166,175155,1,4,0:3:0:0:
212,171,175243,1,0,3:0:0:0:
163,66,175419,1,8,0:0:0:0:
112,250,175596,5,2,1:2:0:0:
114,264,175684,1,8,0:0:0:0:
128,277,175772,1,8,0:0:0:0:
155,279,175861,1,0,0:0:0:0:
197,260,175949,1,0,1:2:0:0:
248,262,176037,1,8,0:0:0:0:
289,303,176125,1,8,1:2:0:0:
285,362,176213,1,8,0:0:0:0:
270,379,176302,5,6,1:2:0:0:
210,336,177361,1,0,0:0:0:0:
83,107,177713,6,0,P|117:229|137:355,1,255,6|4,3:2|3:3,0:0:0:0:
137,355,178596,1,4,0:3:0:0:
71,378,178772,1,4,3:3:0:0:
180,179,179125,6,0,B|254:133|296:214|287:218|283:224|320:297|386:269,1,255,6|0,3:2|0:0,0:0:0:0:
385,269,179831,1,0,0:0:0:0:
477,306,180184,5,0,0:0:0:0:
425,205,180361,1,0,3:2:0:0:
478,93,180537,2,0,P|467:51|464:9,1,85,6|0,3:2|0:0,0:0:0:0:
407,131,180890,5,8,1:2:0:0:
361,122,181067,1,8,1:2:0:0:
310,152,181243,1,8,1:2:0:0:
286,217,181419,1,8,1:2:0:0:
275,290,181596,1,8,1:2:0:0:
212,338,181772,1,8,1:2:0:0:
132,324,181949,6,0,P|129:281|118:240,1,85,6|0,3:2|0:0,0:0:0:0:
38,134,182302,1,8,0:0:0:0:
201,253,182478,1,6,1:2:0:0:
204,247,182831,5,8,0:0:0:0:
332,196,183008,1,10,1:2:0:0:
398,273,183184,1,0,0:0:0:0:
466,235,183361,1,8,0:0:0:0:
512,286,183537,5,6,1:2:0:0:
282,257,183890,1,8,0:0:0:0:
416,180,184066,5,8,0:0:0:0:
416,180,184155,1,8,0:0:0:0:
416,180,184243,1,8,0:0:0:0:
386,356,184419,1,8,0:0:0:0:
386,356,184508,1,8,0:0:0:0:
386,356,184596,2,0,P|389:313|397:272,1,85,6|0,3:2|0:0,0:0:0:0:
416,180,184949,1,2,0:0:0:0:
461,26,185125,2,0,P|445:65|435:106,1,85,2|0,3:2|0:0,0:0:0:0:
270,166,185478,6,0,P|221:133|233:81,1,85,2|0,0:3|0:0,0:0:0:0:
155,64,185831,2,0,P|174:8|227:6,1,85,2|0,0:3|0:0,0:0:0:0:
366,91,186184,6,0,P|342:172|327:256,1,170,6|8,1:2|0:0,0:0:0:0:
85,0,186713,2,0,P|70:83|46:165,1,170,6|0,1:2|1:0,0:0:0:0:
28,366,187243,5,8,1:2:0:0:
19,366,187331,1,8,0:0:0:0:
10,359,187419,1,8,1:2:0:0:
2,342,187508,1,8,0:0:0:0:
3,310,187596,6,0,P|20:284|76:276,1,85,6|0,1:2|0:0,0:0:0:0:
239,145,187949,2,0,P|167:168|177:271,1,170,8|2,0:0|3:2,0:0:0:0:
168,258,188390,1,0,3:0:0:0:
180,257,188478,1,0,3:0:0:0:
274,384,188655,2,0,P|267:342|254:301,1,85,8|0,0:0|0:0,0:0:0:0:
174,72,189008,5,2,3:2:0:0:
174,72,189184,1,0,3:2:0:0:
250,28,189361,2,0,P|296:28|326:84,1,85,8|0,0:0|0:0,0:0:0:0:
428,205,189713,1,2,3:2:0:0:
439,211,189802,1,0,0:0:0:0:
452,209,189890,1,0,3:0:0:0:
323,145,190066,2,0,P|337:188|342:248,1,85,8|0,0:0|0:0,0:0:0:0:
503,38,190419,6,0,P|489:81|484:141,1,85,2|0,3:2|3:0,0:0:0:0:
410,25,190772,1,8,0:0:0:0:
348,72,190949,1,0,0:0:0:0:
213,8,191125,5,2,3:2:0:0:
198,4,191213,1,0,3:0:0:0:
182,0,191302,1,0,3:0:0:0:
96,111,191478,1,8,0:0:0:0:
26,75,191655,1,0,0:0:0:0:
230,166,191831,5,2,3:2:0:0:
230,166,192008,1,0,3:2:0:0:
210,84,192184,1,8,0:0:0:0:
253,248,192361,2,0,P|264:288|280:355,1,85,0|2,3:2|0:0,0:0:0:0:
271,339,192625,1,8,0:0:0:0:
266,348,192713,1,0,3:0:0:0:
380,253,192890,1,8,0:0:0:0:
447,301,193066,1,0,3:0:0:0:
187,331,193243,5,6,1:2:0:0:
106,337,193419,1,0,0:0:0:0:
39,384,193596,1,8,0:0:0:0:
65,229,193772,1,6,1:2:0:0:
61,243,194125,5,8,0:0:0:0:
178,106,194302,2,0,P|160:147|152:192,1,85,6|0,1:2|0:0,0:0:0:0:
173,257,194655,1,8,0:0:0:0:
33,0,194831,2,0,P|65:77|81:161,1,170,6|8,1:2|0:0,0:0:0:0:
81,161,195361,5,4,0:3:0:0:
152,186,195537,1,4,0:3:0:0:
204,132,195713,1,8,0:0:0:0:
512,240,196066,6,0,P|471:226|425:218,1,85,6|0,1:2|0:0,0:0:0:0:
252,189,196419,1,8,0:0:0:0:
480,108,196596,2,0,P|404:145|321:165,1,170,6|8,1:2|0:0,0:0:0:0:
147,361,197125,5,6,1:2:0:0:
226,334,197302,1,0,0:0:0:0:
292,384,197478,1,8,0:0:0:0:
249,198,197655,1,6,1:2:0:0:
246,209,198008,5,8,0:0:0:0:
290,11,198184,2,0,P|278:51|269:93,1,85,2|8,1:2|0:0,0:0:0:0:
161,233,198449,1,8,0:0:0:0:
113,252,198537,1,8,1:2:0:0:
64,236,198625,1,8,0:0:0:0:
46,188,198713,1,4,1:3:0:0:
55,173,198802,1,8,0:0:0:0:
60,156,198890,5,6,1:2:0:0:
223,286,199419,1,6,1:2:0:0:
511,207,199948,2,0,P|429:206|374:332,1,212.5,6|0,1:2|0:0,0:0:0:0:
379,319,200478,5,4,0:3:0:0:
206,131,200654,2,0,P|286:162|286:253,2,170,4|0|4,0:3|0:0|1:2,0:0:0:0:
296,0,201890,5,0,1:2:0:0:
1,81,202419,2,0,P|105:66|230:33,1,212.5,6|0,1:2|0:0,0:0:0:0:
217,32,202948,5,4,0:3:0:0:
52,157,203125,1,4,0:3:0:0:
142,190,203478,1,0,0:0:0:0:
108,384,203831,6,0,P|124:305|203:293,1,170,6|0,1:2|0:0,0:0:0:0:
407,378,204360,2,0,P|486:365|502:287,1,170,6|0,1:2|0:0,0:0:0:0:
330,139,204890,2,0,P|347:199|362:318,1,170,2|0,1:2|0:0,0:0:0:0:
361,305,205419,5,4,0:3:0:0:
423,181,205595,1,4,0:3:0:0:
328,133,205948,1,0,0:0:0:0:
512,2,206301,6,0,P|483:62|377:63,1,170,6|0,1:2|0:0,0:0:0:0:
71,140,206831,2,0,P|-4:95|10:41,1,136,2|0,0:0|0:0,0:0:0:0:
393,65,207360,6,0,B|323:-16|213:11|157:99|171:142|213:122|164:263|44:267|-18:201,1,518.62389489286,6|2,1:2|0:2,0:0:0:0:
293,6,221293,6,0,P|320:86|333:170,1,170
332,170,222858,5,0,0:0:0:0:
389,222,223380,1,0,0:0:0:0:
457,189,223902,1,0,0:0:0:0:
451,114,224424,6,0,P|427:194|415:285,1,170
415,279,225989,5,0,0:0:0:0:
357,330,226511,2,0,P|313:325|298:266,1,85
224,271,227032,2,0,P|217:227|271:197,1,85
317,215,227554,5,0,0:0:0:0:
351,150,228076,1,0,0:0:0:0:
317,83,228598,2,0,P|393:71|485:42,2,170
317,83,229902,5,0,0:0:0:0:
266,34,230163,1,0,0:0:0:0:
196,44,230424,1,0,0:0:0:0:
168,109,230685,6,0,P|178:145|186:193,1,85
256,224,231206,2,0,P|246:260|238:308,1,85
178,352,231728,2,0,P|133:319|145:276,1,85
256,150,232250,6,0,B|365:117|406:231|389:235|375:242|401:350|506:326,1,349.995053589768
480,241,233815,2,0,P|251:285|40:384,1,467.468930050844,0|6,0:0|0:0,0:0:0:0:
40,384,235641,5,0,0:0:0:0:
0,325,235901,1,0,0:0:0:0:
45,267,236162,1,0,0:0:0:0:
112,361,236423,1,0,3:0:0:0:
112,361,236684,1,0,3:0:0:0:
122,288,236945,6,0,P|199:302|269:374,1,170,2|0,0:0|3:1,0:0:0:0:
512,186,238510,6,0,P|457:231|442:344,1,170,2|0,0:0|0:0,0:0:0:0:
438,334,239293,2,0,P|389:267|280:272,1,170,2|0,0:0|0:0,0:0:0:0:
307,258,240075,5,0,3:1:0:0:
253,211,240336,1,0,3:1:0:0:
268,142,240597,1,0,3:1:0:0:
182,233,241119,5,2,0:0:0:0:
279,64,241641,6,0,P|195:79|110:84,1,170,2|0,0:0|3:1,0:0:0:0:
110,84,242423,1,0,0:0:0:0:
195,162,242684,1,0,3:1:0:0:
195,162,242945,1,0,3:1:0:0:
121,178,243206,6,0,P|77:164|31:160,1,85,2|0,0:0|3:1,0:0:0:0:
0,97,243728,2,0,P|6:51|57:27,1,85
105,10,244249,1,0,0:0:0:0:
271,143,244771,6,0,P|313:147|353:161,1,85,2|0,0:0|0:1,0:0:0:0:
448,80,245293,1,0,0:0:0:0:
448,80,245554,2,0,P|360:95|371:184,1,170,0|0,0:0|3:1,0:0:0:0:
409,212,246336,5,2,0:0:0:0:
443,276,246597,1,0,3:1:0:0:
391,327,246858,1,0,3:1:0:0:
390,327,247119,2,0,P|349:335|311:354,2,85,2|0|0,0:0|0:0|0:0,0:0:0:0:
311,354,247901,5,2,0:0:0:0:
244,322,248162,1,0,0:0:0:0:
175,336,248423,2,0,P|138:360|85:374,1,85
26,384,248945,2,0,P|-6:354|17:306,1,85,0|0,3:1|3:1,0:0:0:0:
53,174,249466,6,0,P|101:205|48:308,1,170,2|0,0:0|3:0,0:0:0:0:
334,143,251032,6,0,P|416:123|501:117,1,170,2|0,0:0|0:0,0:0:0:0:
512,110,251814,2,0,P|485:38|383:78,1,170,2|0,0:0|0:0,0:0:0:0:
403,43,252597,5,0,3:0:0:0:
334,56,252858,1,0,3:0:0:0:
293,0,253119,1,0,3:0:0:0:
4,21,254162,6,0,P|47:23|87:36,1,85,2|0,0:0|0:0,0:0:0:0:
208,103,254684,1,0,0:0:0:0:
208,103,254945,2,0,P|142:92|106:199,1,170
282,104,255727,6,0,P|315:131|307:184,1,85,2|0,0:0|0:0,0:0:0:0:
373,221,256249,2,0,P|355:259|302:265,1,85
248,301,256771,2,0,P|238:336|237:389,1,85
236,384,257293,5,2,0:0:0:0:
230,281,257814,1,0,0:0:0:0:
215,152,258336,1,0,0:0:0:0:
184,0,258858,5,2,0:0:0:0:
174,2,259380,6,0,P|152:13|130:22,3,42.5,0|0|0|0,3:1|3:1|3:1|3:1,0:0:0:0:
238,37,259901,1,4,3:0:0:0:
255,70,260032,1,4,3:0:0:0:
300,81,260162,1,4,3:0:0:0:
320,65,260293,1,4,3:0:0:0:
322,48,260423,6,0,P|291:127|280:211,1,170,2|0,0:0|0:0,0:0:0:0:
279,211,261466,5,0,3:1:0:0:
279,211,261727,1,0,3:1:0:0:
225,262,261988,1,0,3:1:0:0:
225,262,262249,1,0,3:1:0:0:
152,240,262510,6,0,P|148:194|129:138,1,85,2|0,0:0|0:0,0:0:0:0:
169,90,263032,2,0,P|184:48|149:5,1,85,2|0,0:0|0:0,0:0:0:0:
59,177,263553,5,2,0:0:0:0:
59,177,264075,2,0,P|43:158|44:123,3,42.5,0|0|0|0,3:0|3:0|3:0|3:0,0:0:0:0:
133,160,264597,1,0,3:1:0:0:
198,194,264858,1,0,3:1:0:0:
220,266,265119,6,0,P|261:263|286:215,1,85,0|0,3:0|3:0,0:0:0:0:
362,135,265640,1,0,3:0:0:0:
382,132,265770,1,0,3:0:0:0:
403,137,265900,1,0,3:0:0:0:
418,151,266031,1,0,3:0:0:0:
427,171,266161,5,2,0:0:0:0:
383,237,266423,1,2,0:0:0:0:
512,335,266684,6,0,P|455:320|378:372,1,127.5,2|0,0:0|0:0,0:0:0:0:
395,356,267206,2,0,P|370:368|341:358,3,42.5,0|0|0|0,3:0|3:0|3:0|3:0,0:0:0:0:
431,295,267727,1,0,3:0:0:0:
498,266,267988,1,0,3:0:0:0:
368,253,268249,5,0,3:0:0:0:
368,253,268510,1,0,3:0:0:0:
294,272,268771,2,0,P|276:260|255:255,3,42.5,0|0|0|0,3:0|3:0|3:0|3:0,3:0:0:0:
296,278,269293,1,2,0:0:0:0:
199,196,269814,6,0,P|147:213|141:298,1,127.5,2|0,0:0|0:0,0:0:0:0:
133,283,270336,2,0,P|140:306|142:340,3,42.5,0|0|0|0,3:0|3:0|3:0|3:0,3:0:0:0:
68,253,270858,1,0,3:0:0:0:
11,297,271119,1,0,3:0:0:0:
256,192,271380,12,2,272945,0:0:0:0:
256,192,273010,12,2,274510,0:0:0:0:
256,192,274575,12,2,276075,0:0:0:0:
256,192,276140,12,4,277641,0:2:0:0:
248,172,289078,5,0,1:0:0:0:
313,4,289266,2,0,P|318:69|248:91,1,127.5,8|0,1:2|0:0,0:0:0:0:
20,127,289641,5,6,3:2:0:0:
90,158,289828,1,0,0:0:0:0:
204,61,290016,2,0,P|162:66|128:91,1,85,10|0,0:0|3:0,0:0:0:0:
91,165,290391,1,2,0:0:0:0:
0,0,290578,2,0,P|13:29|24:139,1,127.5,10|0,0:0|0:0,0:0:0:0:
204,237,290953,6,0,P|164:223|124:236,1,85,2|2,3:2|0:0,0:0:0:0:
121,242,291234,1,8,0:0:0:0:
120,250,291328,1,0,3:0:0:0:
0,353,291516,2,0,P|7:310|27:264,1,85,10|0,0:0|0:0,0:0:0:0:
100,155,291891,1,0,3:2:0:0:
21,190,292078,1,0,3:0:0:0:
107,74,292266,2,0,P|56:79|34:133,1,85,10|0,0:0|0:0,0:0:0:0:
191,168,292641,6,0,P|231:155|273:151,1,85,2|0,3:2|0:0,0:0:0:0:
321,91,293016,1,10,0:0:0:0:
364,179,293203,2,0,P|396:153|399:112,1,85,2|0,3:2|0:0,0:0:0:0:
267,29,293578,1,10,0:0:0:0:
489,1,293953,6,0,P|478:42|472:84,1,85,2|0,3:2|0:0,0:0:0:0:
474,92,294234,1,8,0:0:0:0:
478,99,294328,1,0,3:0:0:0:
449,220,294516,2,0,P|441:261|439:304,1,85,10|0,0:0|0:0,0:0:0:0:
415,146,294891,5,2,3:2:0:0:
415,146,294984,1,8,0:0:0:0:
415,146,295078,1,0,3:0:0:0:
508,165,295266,1,10,0:0:0:0:
369,77,295453,5,8,0:0:0:0:
369,77,295547,1,8,0:0:0:0:
369,77,295641,2,0,P|326:93|308:148,1,85,6|0,3:2|0:0,0:0:0:0:
282,204,296016,1,10,0:0:0:0:
453,274,296203,2,0,P|368:272|284:285,1,170,2|8,3:2|0:0,0:0:0:0:
143,315,296766,1,2,0:0:0:0:
202,258,296953,6,0,P|214:297|218:339,1,85,2|0,3:2|0:0,0:0:0:0:
215,348,297234,1,8,0:0:0:0:
211,355,297328,1,0,3:2:0:0:
83,373,297516,2,0,P|68:331|64:289,1,85,10|0,0:2|3:0,0:0:0:0:
138,169,297891,1,0,3:2:0:0:
70,215,298078,1,0,3:0:0:0:
2,101,298266,2,0,P|38:101|66:151,1,85,10|0,0:0|0:0,0:0:0:0:
204,226,298641,6,0,P|259:219|279:142,1,127.5,2|0,3:2|0:0,0:0:0:0:
279,151,299016,1,10,0:0:0:0:
117,23,299203,2,0,P|138:106|140:190,1,170,2|8,3:2|0:0,0:0:0:0:
215,114,299766,1,2,0:0:0:0:
86,248,299953,6,0,P|42:232|40:171,1,85,2|0,3:2|0:0,0:0:0:0:
32,190,300234,1,8,0:0:0:0:
38,185,300328,1,0,3:0:0:0:
111,320,300516,2,0,P|149:303|192:297,1,85,10|0,0:0|0:0,0:0:0:0:
330,351,300891,5,0,3:0:0:0:
344,351,300984,1,8,0:0:0:0:
358,359,301078,1,0,3:0:0:0:
249,360,301266,1,8,0:0:0:0:
293,215,301453,5,8,0:0:0:0:
300,206,301547,1,8,0:0:0:0:
306,196,301641,2,0,P|319:152|324:95,1,85,2|0,3:2|0:0,0:0:0:0:
286,1,302016,1,8,0:0:0:0:
431,76,302203,2,0,P|405:42|351:49,1,85,2|0,3:2|0:0,0:0:0:0:
241,141,302578,2,0,P|199:138|174:105,1,85,8|2,0:0|0:0,0:0:0:0:
272,8,302953,1,0,3:2:0:0:
108,44,303141,5,0,3:2:0:0:
97,49,303234,1,8,0:0:0:0:
83,54,303328,1,0,3:2:0:0:
43,212,303516,2,0,P|65:172|54:130,1,85,10|0,0:0|0:0,0:0:0:0:
12,14,303891,1,0,3:0:0:0:
0,87,304078,1,0,3:0:0:0:
192,27,304266,2,0,P|180:68|170:126,1,85,10|0,0:0|0:0,0:0:0:0:
312,149,304641,5,2,3:2:0:0:
327,75,304828,1,0,0:0:0:0:
236,176,305016,1,10,0:0:0:0:
376,208,305203,2,0,P|412:186|454:180,1,85,0|0,3:0|0:0,0:0:0:0:
312,149,305578,1,8,0:0:0:0:
512,48,305953,6,0,P|483:56|465:118,1,85,2|0,3:2|0:0,0:0:0:0:
464,110,306234,1,8,0:0:0:0:
471,114,306328,1,0,3:0:0:0:
494,241,306516,2,0,P|507:281|512:324,1,85,10|0,0:0|0:0,0:0:0:0:
393,384,306891,5,0,3:0:0:0:
375,370,306984,1,8,0:0:0:0:
351,369,307078,1,0,3:0:0:0:
425,307,307266,1,10,0:0:0:0:
275,260,307453,5,8,0:0:0:0:
258,256,307547,1,8,0:0:0:0:
236,265,307641,2,0,P|230:316|266:337,1,85,2|0,3:2|0:0,0:0:0:0:
356,265,308016,1,8,0:0:0:0:
259,340,308203,2,0,P|174:344|102:386,1,170,2|8,3:2|0:0,0:0:0:0:
34,357,308766,1,2,0:0:0:0:
127,269,308953,6,0,P|117:217|81:190,1,85,2|0,3:2|0:0,0:0:0:0:
88,197,309234,1,8,0:0:0:0:
79,201,309328,1,0,3:2:0:0:
116,73,309516,1,8,0:0:0:0:
122,61,309891,5,0,3:0:0:0:
189,31,310078,1,0,3:0:0:0:
241,82,310266,2,0,P|279:68|326:62,1,85,8|0,0:0|0:0,0:0:0:0:
482,0,310641,6,0,P|425:5|415:96,1,127.5,2|0,3:2|0:0,0:0:0:0:
403,73,311016,1,10,0:0:0:0:
322,220,311203,2,0,P|348:252|406:249,1,85,2|0,3:2|0:0,0:0:0:0:
482,138,311578,2,0,P|470:176|462:244,1,85,10|0,3:2|3:2,3:2:0:0:
246,275,311953,6,0,P|237:220|228:188,1,85,2|0,3:2|0:2,3:2:0:0:
226,184,312234,1,8,0:2:0:0:
220,178,312328,1,0,3:0:0:0:
110,306,312516,2,0,P|154:287|157:232,1,85,10|0,0:0|0:0,0:0:0:0:
188,104,312891,1,2,3:2:0:0:
184,97,312984,1,8,0:0:0:0:
180,90,313078,1,0,3:0:0:0:
292,137,313266,1,10,0:0:0:0:
497,21,313453,5,8,0:0:0:0:
497,21,313547,1,8,0:0:0:0:
497,21,313641,2,0,P|482:60|478:102,1,85,6|0,3:2|0:0,0:0:0:0:
418,163,314016,1,10,0:0:0:0:
262,63,314203,1,6,3:2:0:0:
411,156,314578,6,0,P|385:161|351:214,1,85,10|0,0:0|0:0,0:0:0:0:
250,23,314953,2,0,P|263:63|272:104,1,85,6|0,3:2|0:0,0:0:0:0:
271,111,315234,1,8,0:0:0:0:
268,118,315328,1,0,3:0:0:0:
150,196,315516,6,0,P|111:182|95:143,1,85,10|0,0:0|0:0,0:0:0:0:
137,25,315891,1,2,3:2:0:0:
69,70,316078,1,0,3:2:0:0:
190,117,316266,1,10,0:0:0:0:
0,252,316641,6,0,P|29:282|42:328,1,85,6|0,3:2|0:0,0:0:0:0:
151,370,317016,1,10,0:0:0:0:
157,179,317203,2,0,P|127:235|117:298,1,127.5,6|0,3:2|0:0,0:0:0:0:
118,307,317578,1,8,0:0:0:0:
42,159,317766,1,6,3:2:0:0:
194,283,318234,5,10,0:2:0:0:
202,290,318328,1,0,3:2:0:0:
341,228,318516,1,8,0:0:0:0:
456,327,318891,5,2,3:2:0:0:
461,332,318984,1,8,0:0:0:0:
466,337,319078,1,0,3:2:0:0:
319,384,319266,2,0,P|310:343|332:308,1,85,10|8,0:0|0:0,0:0:0:0:
398,271,319547,5,8,0:0:0:0:
407,267,319641,1,6,3:2:0:0:
357,162,319828,1,0,0:0:0:0:
470,57,320016,1,10,0:0:0:0:
470,57,320203,6,0,P|453:96|446:138,1,85,6|0,3:2|0:0,0:0:0:0:
416,263,320578,1,8,0:0:0:0:
269,21,320953,6,0,P|280:54|287:120,1,85,6|0,3:2|0:0,0:0:0:0:
286,111,321234,1,8,0:0:0:0:
281,118,321328,1,0,3:0:0:0:
387,188,321516,2,0,P|427:180|448:144,1,85,10|0,0:0|0:0,0:0:0:0:
352,40,321891,1,0,3:2:0:0:
397,94,322078,1,0,3:0:0:0:
301,200,322266,2,0,P|261:183|219:180,1,85,10|0,0:0|0:0,0:0:0:0:
20,54,322641,6,0,B|64:28|101:69|94:76|88:86|122:131|172:107,1,170,6|8,3:2|0:0,0:0:0:0:
15,56,323203,1,2,3:2:0:0:
319,284,323578,5,8,0:0:0:0:
422,155,323766,2,0,P|401:237|390:321,1,170,6|0,3:2|0:0,0:0:0:0:
393,328,324234,1,8,0:0:0:0:
399,334,324328,1,0,3:0:0:0:
273,227,324516,2,0,P|247:192|279:131,1,85,10|0,0:0|0:0,0:0:0:0:
285,79,324797,6,0,P|280:50|271:24,1,42.5,8|8,0:0|0:0,0:0:0:0:
271,32,324984,1,8,0:0:0:0:
265,27,325078,1,8,0:0:0:0:
495,100,325266,5,8,3:2:0:0:
510,116,325359,1,8,0:0:0:0:
507,137,325453,1,8,0:0:0:0:
491,153,325547,1,8,0:0:0:0:
468,153,325641,6,0,P|421:132|375:125,1,85,6|0,1:2|0:0,0:0:0:0:
192,56,326016,1,0,1:0:0:0:
188,44,326109,1,0,1:0:0:0:
180,34,326203,1,0,1:0:0:0:
290,95,326391,5,0,1:0:0:0:
301,89,326484,1,0,1:0:0:0:
314,87,326578,1,0,1:0:0:0:
105,174,326766,5,6,1:2:0:0:
177,132,326953,1,0,1:2:0:0:
47,118,327141,6,0,P|37:95|25:77,2,42.5,0|0|0,1:0|1:0|1:0,1:0:0:0:
208,203,327516,2,0,P|226:191|245:183,2,42.5,0|0|0,1:0|1:0|1:0,1:0:0:0:
68,259,327891,5,0,1:0:0:0:
61,271,327984,1,0,1:0:0:0:
57,283,328078,1,0,1:0:0:0:
142,348,328266,5,0,1:0:0:0:
135,360,328359,1,0,1:0:0:0:
131,372,328453,1,0,1:0:0:0:
271,297,328641,5,6,1:2:0:0:
188,281,328828,1,0,1:0:0:0:
333,229,329016,5,0,1:0:0:0:
327,217,329109,1,0,1:0:0:0:
320,206,329203,1,0,1:0:0:0:
411,283,329391,5,0,1:0:0:0:
403,294,329484,1,0,1:0:0:0:
397,305,329578,1,0,1:0:0:0:
498,168,329766,5,6,1:2:0:0:
421,203,329953,1,0,1:0:0:0:
377,91,330141,6,0,P|369:62|354:35,2,42.5,0|0|0,1:0|1:0|1:0,1:0:0:0:
437,21,330516,5,0,1:0:0:0:
442,9,330609,1,0,1:0:0:0:
451,0,330703,1,0,1:0:0:0:
292,75,330891,5,0,1:0:0:0:
279,76,330984,1,0,1:0:0:0:
267,73,331078,1,0,1:0:0:0:
408,160,331266,5,0,1:0:0:0:
415,170,331359,1,0,1:0:0:0:
418,182,331453,1,0,1:0:0:0:
375,76,331641,5,6,1:2:0:0:
494,162,331828,1,0,1:0:0:0:
505,169,331922,1,0,1:0:0:0:
511,180,332016,2,0,P|502:222|442:242,1,85,0|0,1:0|1:0,0:0:0:0:
336,215,332391,5,0,1:0:0:0:
326,206,332484,1,0,1:0:0:0:
313,201,332578,1,0,1:0:0:0:
392,281,332766,5,6,1:2:0:0:
416,198,332953,1,0,1:0:0:0:
319,331,333141,6,0,P|315:305|305:284,2,42.5,0|0|0,1:0|1:0|1:0,1:0:0:0:
436,361,333516,2,0,P|450:338|467:323,2,42.5,0|0|0,1:0|1:0|1:0,1:0:0:0:
227,384,333891,5,0,1:0:0:0:
217,374,333984,1,0,1:0:0:0:
205,368,334078,1,0,1:0:0:0:
54,354,334266,5,0,1:0:0:0:
41,358,334360,1,0,1:0:0:0:
31,365,334453,1,0,1:0:0:0:
147,303,334641,5,6,1:2:0:0:
58,247,334828,5,0,1:0:0:0:
49,237,334922,1,0,1:0:0:0:
44,226,335016,2,0,P|50:186|72:139,1,85,0|0,1:0|1:0,0:0:0:0:
184,46,335391,5,0,1:0:0:0:
181,33,335484,1,0,1:0:0:0:
175,21,335578,1,0,1:0:0:0:
164,147,335766,5,6,1:2:0:0:
105,81,335953,1,0,1:2:0:0:
247,111,336141,6,0,P|265:103|289:98,2,42.5,0|0|4,1:0|1:0|1:3,1:0:0:0:
144,239,336516,5,4,1:3:0:0:
138,250,336609,1,0,1:0:0:0:
138,262,336703,1,0,1:0:0:0:
232,384,336891,5,4,1:3:0:0:
244,383,336984,1,0,1:0:0:0:
270,374,337078,1,4,1:3:0:0:
295,348,337172,1,0,1:0:0:0:
293,298,337266,1,4,1:3:0:0:
250,265,337359,1,4,1:3:0:0:
235,210,337453,1,4,1:3:0:0:
273,160,337547,1,0,1:0:0:0:
287,171,337641,5,4,1:3:0:0:
388,229,337828,5,0,3:0:0:0:
399,218,337922,1,0,3:0:0:0:
416,211,338016,1,4,3:3:0:0:
367,140,338203,1,0,3:0:0:0:
485,158,338391,5,4,3:0:0:0:
498,165,338485,1,0,3:0:0:0:
509,180,338579,1,0,3:3:0:0:
440,82,338766,5,4,1:3:0:0:
509,30,338953,1,0,3:0:0:0:
379,22,339141,5,4,3:3:0:0:
366,13,339234,1,0,3:0:0:0:
357,0,339328,1,0,3:0:0:0:
298,91,339516,5,4,3:3:0:0:
290,76,339609,1,0,3:0:0:0:
289,60,339703,1,0,3:0:0:0:
195,74,339891,5,4,3:3:0:0:
195,57,339984,1,0,3:0:0:0:
202,42,340078,1,0,3:0:0:0:
45,77,340266,6,0,P|85:90|134:119,1,85,12|0,3:0|0:0,0:0:0:0:
242,214,340641,5,4,1:3:0:0:
195,150,340828,1,0,3:0:0:0:
126,238,341016,5,4,3:0:0:0:
119,251,341109,1,0,3:0:0:0:
115,265,341203,1,0,3:0:0:0:
25,331,341391,5,4,3:0:0:0:
39,330,341484,1,0,3:0:0:0:
53,327,341578,1,0,3:0:0:0:
204,384,341766,5,4,1:3:0:0:
134,346,341953,1,0,3:0:0:0:
282,341,342141,6,0,P|304:337|337:336,2,42.5,4|0|0,3:3|3:0|3:0,0:0:0:0:
235,266,342516,5,4,3:0:0:0:
230,251,342609,1,0,3:0:0:0:
223,237,342703,1,0,3:0:0:0:
396,304,342891,5,4,3:0:0:0:
411,296,342984,1,0,3:0:0:0:
425,292,343078,1,0,3:0:0:0:
339,191,343266,5,12,3:0:0:0:
344,177,343359,1,0,3:0:0:0:
350,163,343453,1,0,3:0:0:0:
359,151,343547,1,0,3:0:0:0:
371,143,343641,6,0,P|409:143|436:207,1,85,4|0,1:3|3:0,0:0:0:0:
440,192,343922,1,0,3:0:0:0:
431,204,344016,1,4,3:0:0:0:
512,144,344203,1,0,3:0:0:0:
443,59,344391,5,4,3:0:0:0:
438,44,344484,1,0,3:0:0:0:
429,31,344578,1,0,3:0:0:0:
297,57,344766,5,4,1:3:0:0:
352,0,344953,1,0,3:0:0:0:
217,70,345141,6,0,P|192:58|166:53,2,42.5,4|0|0,3:0|3:0|3:0,3:0:0:0:
256,178,345516,2,0,P|265:159|271:138,2,42.5,4|0|0,3:0|3:0|3:0,3:0:0:0:
98,91,345891,5,4,3:0:0:0:
91,104,345984,1,0,3:0:0:0:
89,118,346078,1,0,3:0:0:0:
157,222,346266,5,4,3:0:0:0:
143,220,346360,1,0,3:0:0:0:
130,213,346453,1,0,3:0:0:0:
172,140,346641,5,4,1:3:0:0:
56,189,346828,1,0,3:0:0:0:
10,71,347016,5,4,3:0:0:0:
6,56,347109,1,0,3:0:0:0:
0,42,347203,1,0,3:0:0:0:
164,29,347391,5,4,3:0:0:0:
160,14,347484,1,0,3:0:0:0:
154,0,347578,1,0,3:0:0:0:
269,158,347766,6,0,P|301:159|364:180,1,85,12|0,1:3|3:0,0:0:0:0:
490,68,348141,5,4,3:0:0:0:
499,57,348234,1,0,3:0:0:0:
512,50,348328,1,0,3:0:0:0:
336,86,348516,5,4,3:0:0:0:
345,75,348609,1,0,3:0:0:0:
358,68,348703,1,0,3:0:0:0:
458,220,348891,5,0,1:0:0:0:
468,226,348984,1,0,3:0:0:0:
474,248,349078,1,0,1:0:0:0:
463,276,349172,1,0,3:0:0:0:
422,297,349266,1,0,1:0:0:0:
375,273,349359,1,0,1:0:0:0:
307,277,349453,1,0,1:0:0:0:
258,331,349547,1,0,1:0:0:0:
270,351,349641,6,0,P|293:352|320:357,1,42.5,6|0,1:2|0:0,0:0:0:0:
413,382,349828,1,2,1:2:0:0:
233,255,350203,6,0,P|209:256|183:261,1,42.5,2|0,1:2|0:0,0:0:0:0:
70,288,350390,1,10,1:2:0:0:
288,159,350766,6,0,P|311:160|338:165,1,42.5,6|0,1:2|0:0,0:0:0:0:
482,193,350953,1,2,1:2:0:0:
241,18,351328,6,0,P|217:19|191:24,1,42.5,6|0,1:2|0:0,0:0:0:0:
24,58,351515,1,2,1:2:0:0:
264,274,351891,5,10,0:0:0:0:
352,163,352078,1,2,0:0:0:0:
251,2,352266,2,0,P|271:48|288:141,1,127.5,2|0,1:2|0:0,0:0:0:0:
283,197,352641,5,2,1:2:0:0:
484,104,352828,1,2,1:2:0:0:
317,304,353203,5,0,1:2:0:0:
412,55,353391,1,10,1:2:0:0:
481,319,353766,5,6,1:2:0:0:
196,232,353953,1,2,1:2:0:0:
377,148,354328,5,0,1:2:0:0:
167,375,354516,1,2,1:2:0:0:
8,112,354891,5,10,0:0:0:0:
246,330,355078,1,2,0:0:0:0:
8,112,355266,2,0,P|8:50|60:17,1,127.5,2|0,1:2|0:0,0:0:0:0:
129,17,355641,5,2,1:2:0:0:
201,240,355828,6,0,P|134:245|52:262,1,127.5,2|0,0:0|0:0,0:0:0:0:
7,279,356203,1,0,1:2:0:0:
295,71,356391,6,0,P|361:65|443:48,1,127.5,8|0,1:2|0:0,0:0:0:0:
489,31,356766,1,6,1:2:0:0:
127,171,356953,6,0,P|113:108|172:64,1,127.5,0|0,1:2|0:0,0:0:0:0:
221,40,357328,1,2,1:2:0:0:
469,277,357516,6,0,P|483:214|424:170,1,127.5,0|0,1:2|0:0,0:0:0:0:
375,146,357891,1,10,0:0:0:0:
223,210,358078,1,2,0:0:0:0:
316,17,358266,6,0,P|294:76|283:139,1,127.5,2|0,1:2|0:0,0:0:0:0:
301,209,358641,5,2,1:2:0:0:
33,133,358828,2,0,P|49:206|110:211,1,127.5,2|0,1:2|0:0,0:0:0:0:
156,171,359204,5,2,1:2:0:0:
421,233,359391,1,8,1:2:0:0:
121,338,359766,5,6,1:2:0:0:
341,86,359953,1,2,1:2:0:0:
493,260,360141,5,2,1:2:0:0:
506,266,360234,1,0,3:0:0:0:
512,293,360328,1,2,1:2:0:0:
494,323,360422,1,0,3:0:0:0:
440,336,360516,1,4,1:3:0:0:
393,303,360609,1,0,3:0:0:0:
335,291,360703,1,4,3:3:0:0:
272,313,360797,1,0,3:0:0:0:
238,381,360891,5,6,1:2:0:0:
233,375,361748,5,4,1:2:0:0:
129,292,361962,1,4,1:2:0:0:
0,325,362176,1,4,1:2:0:0:
159,164,362605,5,6,1:2:0:0:
126,300,363462,5,6,1:2:0:0:
158,171,363891,1,2,1:2:0:0:
189,33,364319,1,6,1:2:0:0:
508,214,365176,5,4,1:2:0:0:
383,160,365391,1,4,1:2:0:0:
289,257,365605,1,4,1:2:0:0:
354,26,366033,5,6,1:2:0:0:
400,240,366462,1,0,1:2:0:0:
120,327,366891,5,6,1:2:0:0:
174,101,367319,1,0,1:2:0:0:
253,290,367748,6,0,P|263:331|267:373,1,85,6|0,1:2|0:0,0:0:0:0:
343,384,368176,2,0,P|383:361|376:309,1,85
334,266,368605,5,2,0:0:0:0:
358,201,368819,1,0,0:0:0:0:
428,192,369033,1,0,0:0:0:0:
272,19,369462,5,2,0:0:0:0:
301,82,369676,1,0,0:0:0:0:
309,148,369891,1,0,0:0:0:0:
475,281,370319,5,2,0:0:0:0:
509,260,370533,1,0,0:0:0:0:
512,209,370748,1,0,0:0:0:0:
451,169,370962,1,0,0:0:0:0:
435,182,371176,6,0,P|388:194|271:254,1,170,2|0,0:0|0:0,0:0:0:0:
184,368,372033,2,0,P|111:345|145:243,1,170,2|0,0:0|0:0,0:0:0:0:
114,264,372891,5,2,0:0:0:0:
108,237,373105,1,0,0:0:0:0:
94,194,373319,1,0,0:0:0:0:
63,147,373533,1,0,0:0:0:0:
0,43,373748,5,2,0:0:0:0:
43,80,373962,1,0,0:0:0:0:
85,74,374176,1,0,0:0:0:0:
94,62,374391,1,0,0:0:0:0:
171,131,374605,6,0,P|208:111|249:101,1,85,2|0,0:0|0:0,0:0:0:0:
285,2,375033,2,0,P|337:13|351:69,1,85
322,107,375462,5,2,0:0:0:0:
366,165,375676,1,0,0:0:0:0:
438,156,375891,1,0,0:0:0:0:
282,356,376319,5,2,0:0:0:0:
297,296,376533,1,0,0:0:0:0:
328,232,376748,1,0,0:0:0:0:
127,156,377176,6,0,P|129:198|154:233,1,85,2|0,0:0|0:0,0:0:0:0:
234,204,377605,2,0,P|232:162|208:128,1,85
144,85,378033,5,2,0:0:0:0:
88,43,378248,1,0,0:0:0:0:
19,52,378462,1,0,0:0:0:0:
259,0,378891,5,2,0:0:0:0:
304,49,379105,1,0,0:0:0:0:
352,50,379319,1,0,0:0:0:0:
375,35,379533,1,0,0:0:0:0:
428,134,379748,6,0,P|415:177|410:229,1,85,2|0,0:0|0:0,0:0:0:0:
284,245,380176,2,0,P|296:202|343:194,1,85
503,372,380605,6,0,P|461:362|419:361,1,85,2|0,0:0|3:0,0:0:0:0:
405,368,380926,1,0,3:0:0:0:
391,376,381033,2,0,P|329:361|353:289,1,127.5,8|0,3:0|0:0,0:0:0:0:
407,214,381462,6,0,P|400:172|386:131,1,85,2|0,3:2|0:0,0:0:0:0:
415,288,381891,1,8,3:1:0:0:
512,120,382319,6,0,P|508:166|466:191,1,85,2|0,3:3|0:0,0:0:0:0:
446,80,382748,2,0,P|456:31|476:-10,1,85,8|0,3:1|0:0,0:0:0:0:
382,127,383176,2,0,P|343:100|343:51,1,85,2|0,3:2|0:0,0:0:0:0:
470,0,383605,5,8,3:1:0:0:
409,206,384033,1,2,3:2:0:0:
445,90,384462,1,8,3:1:0:0:
328,233,384891,6,0,P|282:241|232:266,1,85,2|0,3:2|0:0,0:0:0:0:
127,183,385319,2,0,P|140:239|186:248,1,85,8|0,3:1|0:0,0:0:0:0:
242,139,385748,1,0,3:1:0:0:
241,132,385855,2,0,P|247:90|259:49,1,85,8|0,3:1|0:0,0:0:0:0:
265,45,386176,1,8,3:1:0:0:
42,9,386605,5,2,3:2:0:0:
1,63,386819,1,0,0:0:0:0:
41,118,387034,1,8,3:1:0:0:
105,97,387248,1,0,0:0:0:0:
105,29,387462,1,2,3:2:0:0:
0,229,387891,5,8,0:1:0:0:
0,229,388105,1,4,0:3:0:0:
101,358,388319,2,0,P|98:316|53:288,1,85,2|0,3:2|0:0,0:0:0:0:
161,182,388748,2,0,P|128:211|87:211,1,85,2|0,3:2|0:0,0:0:0:0:
200,298,389176,2,0,P|256:326|301:371,1,127.5,2|0,3:2|0:0,0:0:0:0:
309,381,389605,5,2,3:2:0:0:
370,340,389819,1,0,0:0:0:0:
483,384,390033,2,0,P|471:346|464:296,1,85,2|0,3:2|0:0,0:0:0:0:
351,196,390462,2,0,P|364:241|414:263,1,85,2|0,3:2|0:0,0:0:0:0:
512,154,390891,2,0,P|521:196|482:240,1,85,2|0,3:2|0:0,0:0:0:0:
410,89,391319,5,2,1:2:0:0:
405,73,391426,1,0,1:0:0:0:
398,58,391533,1,0,3:3:0:0:
256,192,391748,5,2,1:2:0:0:
313,125,391962,5,0,1:2:0:0:
323,117,392069,1,0,1:0:0:0:
335,112,392176,1,2,1:2:0:0:
169,176,392391,5,0,1:0:0:0:
157,171,392498,1,0,1:0:0:0:
147,163,392605,1,2,1:2:0:0:
285,274,392819,5,0,1:2:0:0:
287,287,392926,1,0,1:0:0:0:
285,300,393033,1,2,1:2:0:0:
220,96,393248,6,0,P|214:74|212:41,1,42.5,0|0,1:0|1:0,1:0:0:0:
256,192,393462,1,2,1:2:0:0:
364,211,393676,5,0,1:0:0:0:
379,217,393783,1,0,1:0:0:0:
391,227,393890,1,2,1:2:0:0:
219,88,394105,5,0,1:0:0:0:
216,72,394212,1,0,1:0:0:0:
218,56,394319,1,2,1:2:0:0:
184,275,394533,5,0,1:0:0:0:
172,285,394640,1,0,1:0:0:0:
157,292,394747,1,2,1:2:0:0:
346,99,394962,6,0,P|360:84|378:72,1,42.5,0|0,1:0|1:0,1:0:0:0:
256,192,395176,1,2,1:2:0:0:
302,319,395391,5,0,1:2:0:0:
305,339,395498,1,0,1:0:0:0:
302,358,395605,1,2,1:2:0:0:
345,87,395820,5,0,1:2:0:0:
360,74,395927,1,0,1:0:0:0:
378,66,396033,1,2,1:2:0:0:
121,165,396248,5,0,1:2:0:0:
103,159,396355,1,0,1:0:0:0:
86,147,396462,1,2,1:2:0:0:
409,226,396676,6,0,P|429:230|449:240,1,42.5,0|0,1:0|1:0,1:0:0:0:
256,192,396890,1,2,1:2:0:0:
156,309,397105,5,0,1:0:0:0:
138,324,397212,1,0,1:0:0:0:
118,331,397319,1,2,1:2:0:0:
409,220,397534,5,0,1:0:0:0:
431,227,397641,1,0,1:0:0:0:
449,240,397748,1,2,1:2:0:0:
205,43,397962,5,0,1:0:0:0:
201,22,398069,1,0,1:0:0:0:
203,0,398176,1,2,1:2:0:0:
256,192,398391,5,0,1:0:0:0:
256,192,398498,1,0,1:0:0:0:
256,192,398792,6,0,P|255:181|253:170,2,21.25,2|2|2,0:0|0:0|0:0,0:0:0:0:
307,56,399917,6,0,B|358:31|385:82|382:86|377:89|406:143|463:114,1,170,6|0,3:2|0:0,0:0:0:0:
508,68,400479,1,10,0:0:0:0:
512,62,400854,5,0,0:0:0:0:
452,123,401042,2,0,P|423:150|425:199,1,85,0|0,3:2|0:0,0:0:0:0:
512,364,401417,2,0,P|472:300|408:267,1,127.5,10|0,0:0|0:0,0:0:0:0:
419,272,401792,1,0,3:2:0:0:
303,362,401979,1,10,0:0:0:0:
146,315,402354,5,0,3:0:0:0:
98,364,402542,1,0,3:0:0:0:
36,335,402729,1,8,0:0:0:0:
70,237,402917,6,0,P|62:160|36:59,1,170,2|0,3:2|0:0,0:0:0:0:
6,0,403479,1,10,0:0:0:0:
0,4,403854,5,0,0:0:0:0:
48,70,404042,2,0,P|80:45|84:3,1,85,0|0,3:0|0:0,0:0:0:0:
150,94,404417,2,0,P|193:75|288:59,1,127.5,10|0,0:0|0:0,0:0:0:0:
279,62,404792,1,0,3:0:0:0:
189,2,404979,1,10,0:0:0:0:
426,79,405354,5,0,3:0:0:0:
432,80,405448,1,8,0:0:0:0:
438,82,405542,1,0,3:0:0:0:
363,24,405729,1,8,0:0:0:0:
338,187,405917,6,0,P|324:271|317:380,1,170,2|0,3:2|0:0,0:0:0:0:
241,310,406479,1,10,0:0:0:0:
235,305,406854,5,0,0:0:0:0:
320,362,407042,2,0,P|358:357|380:295,1,85,0|0,3:2|0:0,0:0:0:0:
507,384,407417,2,0,P|471:348|479:255,1,127.5,10|0,0:0|0:0,0:0:0:0:
477,268,407792,1,0,3:2:0:0:
378,186,407979,1,10,0:0:0:0:
378,186,408354,5,0,3:0:0:0:
315,142,408542,1,0,3:0:0:0:
271,198,408729,1,8,0:0:0:0:
177,295,408917,6,0,P|135:284|93:282,1,85,2|0,3:2|0:0,0:0:0:0:
17,288,409292,1,0,0:0:0:0:
0,133,409479,2,0,P|49:137|62:218,1,127.5,10|0,0:0|0:0,0:0:0:0:
64,207,409854,1,0,3:0:0:0:
180,179,410042,2,0,P|224:167|266:165,1,85,2|0,3:2|0:0,0:0:0:0:
498,151,410417,5,10,0:0:0:0:
305,96,410792,1,0,3:0:0:0:
455,214,410979,2,0,P|420:193|418:140,1,85,10|0,0:0|0:0,0:0:0:0:
511,35,411354,1,0,3:0:0:0:
427,77,411542,1,0,3:0:0:0:
231,59,411729,5,8,0:0:0:0:
231,59,411823,1,8,0:0:0:0:
231,59,411917,2,0,P|163:45|52:45,1,170,2|0,3:2|0:0,0:0:0:0:
287,0,412479,2,0,P|323:17|302:102,1,127.5,10|0,0:0|0:0,0:0:0:0:
309,96,412854,1,0,3:0:0:0:
150,44,413042,2,0,P|136:82|158:117,1,85,2|0,3:2|0:0,0:0:0:0:
361,240,413417,5,10,0:0:0:0:
141,189,413792,1,0,3:0:0:0:
319,177,413979,2,0,P|265:186|230:256,1,127.5,10|0,0:0|0:0,0:0:0:0:
232,252,414354,1,0,3:0:0:0:
287,319,414542,1,0,3:0:0:0:
248,384,414729,1,8,0:0:0:0:
0,308,414917,6,0,P|52:311|179:352,1,170,6|0,3:2|0:0,0:0:0:0:
244,379,415479,1,10,0:0:0:0:
486,280,415854,5,4,3:2:0:0:
424,248,416042,2,0,P|391:263|390:332,1,85,6|0,3:2|0:0,0:0:0:0:
126,177,416417,6,0,P|181:199|172:273,1,127.5,14|0,0:0|0:0,0:0:0:0:
176,265,416792,1,0,3:0:0:0:
100,332,416979,1,8,0:0:0:0:
296,289,417167,2,0,P|268:293|239:302,1,42.5,8|8,0:0|0:0,0:0:0:0:
66,344,417354,5,4,0:3:0:0:
42,362,417448,1,4,0:3:0:0:
29,381,417542,1,4,0:3:0:0:
0,97,417729,5,8,0:0:0:0:
0,97,417823,1,8,0:0:0:0:
0,97,417917,2,0,P|28:166|50:286,1,170,6|0,3:2|3:0,0:0:0:0:
103,143,418479,2,0,P|114:94|72:64,1,85,10|0,0:0|0:0,0:0:0:0:
14,19,418854,1,2,0:0:0:0:
183,55,419042,2,0,P|223:64|276:68,1,85,2|0,3:2|0:0,0:0:0:0:
457,4,419417,6,0,P|399:11|387:91,1,127.5,6|0,3:2|0:0,0:0:0:0:
384,72,419792,1,0,3:0:0:0:
257,139,419979,2,0,P|299:140|341:148,1,85,10|0,0:0|0:0,0:0:0:0:
502,205,420354,1,0,3:2:0:0:
507,210,420448,1,8,0:0:0:0:
511,216,420542,1,0,3:2:0:0:
432,145,420729,1,8,0:0:0:0:
390,297,420917,6,0,P|348:301|296:330,1,85,6|0,3:2|0:0,0:0:0:0:
244,357,421292,1,0,3:0:0:0:
126,322,421479,1,8,0:0:0:0:
217,225,421667,1,8,0:0:0:0:
217,225,421760,1,8,0:0:0:0:
217,225,421854,2,0,P|210:245|205:265,1,42.5,8|8,0:0|0:0,0:0:0:0:
174,378,422042,1,0,3:0:0:0:
0,281,422229,5,8,0:0:0:0:
0,281,422323,1,8,0:0:0:0:
0,280,422417,2,0,P|66:248|67:129,1,170,6|0,3:2|3:0,0:0:0:0:
13,22,422979,1,10,0:0:0:0:
140,94,423167,5,8,0:0:0:0:
148,100,423260,1,8,0:0:0:0:
161,100,423354,2,0,P|179:87|191:70,1,42.5,0|0,3:2|0:0,0:0:0:0:
351,144,423542,2,0,P|339:126|336:105,1,42.5,0|0,3:2|0:0,0:0:0:0:
232,204,423729,5,10,0:0:0:0:
221,216,423823,1,0,0:0:0:0:
207,242,423917,1,8,0:0:0:0:
189,296,424010,1,8,0:0:0:0:
178,363,424104,5,6,3:2:0:0:
256,192,424167,12,4,425863,0:0:0:0:
256,192,425935,12,4,427614,0:0:0:0:
256,192,427685,12,4,429340,0:0:0:0:
256,192,429414,12,4,430228,0:0:0:0:
256,192,430302,12,4,431095,0:3:0:0:
265,211,436483,5,8,3:0:0:0:
265,211,436556,1,8,3:0:0:0:
265,211,436628,1,8,3:0:0:0:
245,135,436774,1,8,3:0:0:0:
135,267,436920,5,8,3:0:0:0:
143,256,436993,1,8,3:0:0:0:
164,251,437065,1,8,3:0:0:0:
195,263,437138,1,8,3:0:0:0:
231,299,437211,1,8,3:0:0:0:
282,305,437284,1,8,3:0:0:0:
328,271,437357,1,8,3:0:0:0:
304,384,437502,5,2,0:3:0:0:
476,28,438085,5,14,1:2:0:0:
361,113,438230,2,0,P|377:152|383:194,1,85,8|2,0:0|0:3,0:0:0:0:
449,213,438521,1,2,0:0:0:0:
403,50,438667,1,10,0:0:0:0:
73,125,438958,5,4,1:2:0:0:
159,79,439104,1,6,1:2:0:0:
250,23,439250,2,0,P|208:15|168:-1,1,85,2|0,1:2|0:0,0:0:0:0:
69,130,439541,2,0,P|111:138|151:154,1,85,10|0,0:0|0:0,0:0:0:0:
316,61,439832,5,2,1:2:0:0:
236,122,439978,1,8,0:0:0:0:
228,125,440051,1,8,0:0:0:0:
221,128,440123,1,8,0:0:0:0:
282,196,440269,1,0,1:0:0:0:
177,313,440415,1,10,0:0:0:0:
266,279,440560,5,4,0:3:0:0:
266,279,440633,1,4,0:3:0:0:
266,279,440706,2,0,P|271:236|282:195,1,85,6|0,1:3|0:0,0:0:0:0:
435,113,440997,2,0,P|404:181|346:171,1,127.5,2|0,1:3|0:0,0:0:0:0:
339,102,441288,1,8,0:0:0:0:
195,176,441434,5,8,0:0:0:0:
195,176,441507,1,8,0:0:0:0:
195,176,441580,1,10,1:2:0:0:
240,3,441725,2,0,P|245:66|257:128,1,127.5,8|0,0:0|0:0,0:0:0:0:
287,199,442017,1,6,1:2:0:0:
98,68,442162,2,0,P|108:110|113:152,1,85,14|0,1:2|0:0,0:0:0:0:
222,382,442453,5,6,1:2:0:0:
264,327,442599,1,0,0:0:0:0:
112,293,442745,5,2,1:2:0:0:
135,363,442891,1,0,0:0:0:0:
242,248,443036,5,10,1:2:0:0:
167,231,443181,1,4,0:3:0:0:
190,305,443327,5,2,1:2:0:0:
378,352,443473,2,0,P|401:358|427:365,2,42.5,8|0|8,0:0|0:0|0:0,0:0:0:0:
288,332,443764,1,8,1:2:0:0:
492,249,443910,5,14,0:0:0:0:
488,257,443982,1,8,0:0:0:0:
485,265,444055,1,0,0:0:0:0:
340,52,444201,5,6,1:3:0:0:
380,183,444347,1,6,1:3:0:0:
413,284,444492,1,6,1:3:0:0:
511,77,444784,5,12,1:2:0:0:
481,52,444856,1,8,0:0:0:0:
442,52,444929,1,8,0:0:0:0:
410,72,445002,1,8,0:0:0:0:
398,109,445075,1,8,0:0:0:0:
196,79,445220,5,0,1:0:0:0:
196,79,445293,1,8,0:0:0:0:
196,79,445366,2,0,P|233:84|293:101,1,85,8|0,0:0|0:0,0:0:0:0:
505,192,445657,5,0,1:2:0:0:
469,140,445803,1,4,0:0:0:0:
344,264,445949,5,14,1:2:0:0:
326,206,446094,1,0,0:0:0:0:
142,225,446240,5,2,1:3:0:0:
173,183,446385,1,0,0:0:0:0:
360,373,446531,5,2,1:2:0:0:
171,301,446677,2,0,P|217:265|286:311,1,127.5,12|0,0:0|0:0,0:0:0:0:
287,356,446968,1,6,1:2:0:0:
485,299,447114,2,0,P|442:304|402:316,1,85,2|0,1:2|0:0,0:0:0:0:
306,136,447405,6,0,P|297:94|283:54,1,85,6|0,1:2|0:0,0:0:0:0:
335,232,447696,1,14,0:0:0:0:
68,212,447987,5,4,0:3:0:0:
215,174,448133,1,4,0:3:0:0:
31,145,448279,5,10,1:2:0:0:
65,122,448351,1,8,0:0:0:0:
106,125,448424,1,8,0:0:0:0:
133,154,448497,1,8,0:0:0:0:
141,195,448570,1,8,0:0:0:0:
319,342,448716,5,10,1:2:0:0:
309,354,448788,1,8,0:0:0:0:
306,366,448861,1,8,1:2:0:0:
135,277,449007,5,8,0:2:0:0:
135,277,449080,1,8,0:0:0:0:
135,277,449152,2,0,P|145:302|149:340,1,42.5,0|0,1:2|0:0,0:0:0:0:
127,290,449298,2,0,P|135:314|138:353,1,42.5,4|0,1:3|0:0,0:0:0:0:
268,220,449444,2,0,P|257:245|253:284,1,42.5,0|0,1:2|0:0,0:0:0:0:
271,233,449590,2,0,P|264:259|263:298,1,42.5,4|0,1:3|0:0,0:0:0:0:
219,356,449735,5,14,1:2:0:0:
409,112,450026,5,2,1:2:0:0:
485,213,450172,1,8,0:0:0:0:
487,221,450245,2,0,P|448:219|435:153,1,85,8|0,0:0|0:0,0:0:0:0:
480,78,450463,1,10,1:2:0:0:
482,69,450536,1,8,0:0:0:0:
485,61,450609,1,10,1:2:0:0:
346,167,450754,5,10,0:0:0:0:
346,167,450827,1,8,0:0:0:0:
346,167,450900,2,0,P|325:171|303:172,1,42.5,14|0,1:2|0:0,0:0:0:0:
156,189,451046,2,0,P|134:190|113:193,1,42.5,0|0,1:0|0:0,0:0:0:0:
232,177,451191,1,2,1:2:0:0:
151,370,451337,5,4,0:3:0:0:
151,370,451410,1,4,0:3:0:0:
151,370,451483,2,0,P|159:327|173:284,1,85,6|0,1:2|0:0,0:0:0:0:
178,284,451701,1,8,0:0:0:0:
185,280,451774,1,8,0:0:0:0:
85,311,451919,1,4,0:3:0:0:
303,325,452065,2,0,P|278:351|219:337,1,85,0|0,1:2|0:0,0:0:0:0:
40,200,452356,6,0,P|34:158|18:95,1,85,6|0,1:2|0:0,0:0:0:0:
257,260,452648,6,0,P|251:217|241:176,1,85,10|0,1:2|0:0,0:0:0:0:
437,83,452939,6,0,P|431:41|415:-22,1,85,10|0,1:2|0:0,0:0:0:0:
243,106,453230,5,2,1:2:0:0:
444,155,453376,2,0,P|457:157|483:169,2,42.5,8|8|8,0:0|0:0|0:0,0:0:0:0:
319,121,453667,1,8,1:2:0:0:
319,121,453740,1,8,0:0:0:0:
319,121,453813,2,0,P|328:161|365:180,1,85,8|8,0:0|0:0,0:0:0:0:
396,244,454031,5,8,0:0:0:0:
396,244,454104,2,0,P|384:272|375:321,1,56.6666666666667,8|0,1:2|0:0,0:0:0:0:
286,377,454298,1,8,0:0:0:0:
276,366,454395,2,0,P|269:338|256:313,1,56.6666666666667,8|0,1:2|0:0,0:0:0:0:
178,297,454589,1,4,0:3:0:0:
152,305,454686,1,4,1:3:0:0:
141,316,454783,1,4,0:3:0:0:
137,327,454881,1,4,0:3:0:0:
64,256,454978,5,4,1:0:0:0:
58,250,455123,2,0,P|59:191|124:164,1,127.5,8|0,0:0|0:0,0:0:0:0:
121,166,455415,1,0,1:0:0:0:
125,172,455487,1,0,1:0:0:0:
128,180,455560,1,8,1:2:0:0:
225,218,455706,1,0,1:0:0:0:
415,287,455851,6,0,P|375:272|333:263,1,85,2|0,1:2|0:0,0:0:0:0:
451,126,456143,1,2,1:2:0:0:
407,202,456288,1,0,0:0:0:0:
365,1,456434,2,0,P|375:40|383:95,1,85,10|0,0:0|1:0,0:0:0:0:
341,147,456652,5,0,1:0:0:0:
337,152,456725,1,6,1:2:0:0:
210,56,456871,2,0,P|191:120|184:194,1,127.5,10|0,0:0|0:0,0:0:0:0:
114,130,457162,2,0,P|120:107|126:77,1,42.5,2|0,1:2|1:0,0:0:0:0:
274,92,457308,2,0,P|260:132|256:174,1,85,10|0,0:0|0:0,0:0:0:0:
185,344,457599,5,0,1:0:0:0:
191,266,457745,1,2,1:2:0:0:
40,286,457890,1,10,1:2:0:0:
250,307,458036,1,8,0:0:0:0:
119,298,458182,6,0,P|116:276|111:256,1,42.5,6|0,1:2|0:0,0:0:0:0:
68,197,458327,1,8,0:0:0:0:
68,197,458400,1,8,0:0:0:0:
68,197,458473,1,8,0:0:0:0:
250,307,458618,6,0,P|275:311|310:320,1,42.5,0|0,1:0|1:0,0:0:0:0:
414,226,458764,1,8,0:0:0:0:
414,226,458837,1,8,0:0:0:0:
414,226,458910,1,8,0:0:0:0:
414,226,458982,1,8,0:0:0:0:
414,226,459055,6,0,P|374:247|366:314,1,85,6|0,1:2|0:0,0:0:0:0:
167,290,459347,2,0,P|208:297|250:307,1,85,6|0,1:2|0:0,0:0:0:0:
428,340,459638,2,0,P|470:345|510:357,1,85,8|0,1:2|1:2,0:0:0:0:
338,363,459929,5,2,1:2:0:0:
256,199,460075,1,4,0:3:0:0:
250,194,460148,1,4,0:3:0:0:
245,190,460220,1,4,0:3:0:0:
359,284,460366,1,6,1:3:0:0:
394,150,460512,2,0,P|396:128|402:108,2,42.5,4|4|4,0:3|0:3|0:3,0:0:0:0:
287,38,460803,5,2,1:2:0:0:
316,153,460948,1,2,1:3:0:0:
125,189,461094,5,2,1:2:0:0:
100,86,461240,1,2,1:3:0:0:
244,106,461385,5,10,1:2:0:0:
174,125,461531,1,2,1:3:0:0:
350,80,461677,6,0,P|390:68|432:61,1,85,6|8,1:2|0:0,0:0:0:0:
497,55,461895,1,8,0:0:0:0:
503,59,461968,1,8,0:0:0:0:
420,167,462114,1,6,1:2:0:0:
497,221,462259,1,14,0:0:0:0:
235,341,462550,5,2,1:2:0:0:
427,303,462696,1,0,1:0:0:0:
227,268,462842,2,0,P|261:264|294:331,1,85,10|0,0:0|0:0,0:0:0:0:
421,377,463133,2,0,P|455:381|488:314,1,85,2|0,1:2|0:0,0:0:0:0:
298,198,463424,5,2,1:2:0:0:
345,384,463570,1,8,0:0:0:0:
345,384,463643,1,8,0:0:0:0:
344,384,463715,2,8,P|346:362|350:341,1,42.5
371,261,463861,1,8,1:2:0:0:
165,315,464007,2,0,P|123:325|82:336,1,85,10|0,0:2|0:0,0:0:0:0:
267,281,464298,5,6,1:3:0:0:
272,285,464371,1,4,0:3:0:0:
277,289,464444,1,4,0:3:0:0:
87,239,464589,5,6,1:3:0:0:
87,232,464662,1,4,0:3:0:0:
88,226,464735,1,4,0:3:0:0:
247,4,464881,5,10,1:2:0:0:
252,0,464953,2,0,P|226:80|209:164,1,170,8|0,0:0|0:0,0:0:0:0:
196,235,465317,1,2,1:2:0:0:
134,62,465463,2,0,P|141:82|145:107,3,42.5,8|8|8|8,0:0|0:0|0:0|0:0,0:0:0:0:
293,132,465754,5,10,1:2:0:0:
294,126,465827,1,8,0:0:0:0:
297,121,465900,2,8,P|317:96|345:71,1,42.5,0|0,0:0|0:0,0:0:0:0:
213,148,466046,1,8,0:0:0:0:
238,42,466191,1,4,0:3:0:0:
196,235,466337,2,0,P|178:308|170:376,1,127.5,4|0,0:3|0:0,0:0:0:0:
104,384,466628,6,0,P|47:364|43:310,1,85,2|8,1:2|0:0,0:0:0:0:
6,279,466847,1,8,0:0:0:0:
0,275,466919,2,0,P|7:255|12:234,1,42.5,8|8,1:2|0:0,0:0:0:0:
111,216,467065,2,0,P|116:195|124:175,1,42.5,8|8,0:0|0:0,0:0:0:0:
16,117,467211,5,8,1:2:0:0:
2,83,467283,1,8,0:0:0:0:
15,49,467356,1,8,0:0:0:0:
45,31,467429,1,8,0:0:0:0:
81,32,467502,5,6,1:3:0:0:
211,150,467647,1,4,0:3:0:0:
39,193,467793,5,8,0:0:0:0:
156,1,467939,1,10,0:0:0:0:
287,280,468084,5,8,0:0:0:0:
498,175,468376,5,6,1:2:0:0:
289,269,468521,2,0,P|363:274|375:347,1,127.5,0|0,1:0|0:0,0:0:0:0:
447,351,468813,1,8,1:2:0:0:
414,148,468958,1,0,1:2:0:0:
414,148,469249,6,0,P|417:190|428:231,1,85,0|0,1:2|0:0,0:0:0:0:
208,298,469541,1,10,0:0:0:0:
208,298,469614,1,4,0:3:0:0:
208,298,469686,1,4,0:3:0:0:
208,298,469759,1,4,0:3:0:0:
208,298,469832,2,0,P|202:252|187:200,1,85,8|0,1:2|0:2,0:0:0:0:
230,64,470123,5,6,1:2:0:0:
366,95,470269,2,0,B|323:70|284:111|290:117|295:125|258:162|213:141,1,170,8|0,0:0|0:0,0:0:0:0:
95,34,470706,2,8,P|75:26|54:20,2,42.5,10|8|8,0:0|0:0|0:0,0:0:0:0:
142,91,470924,5,8,0:0:0:0:
139,98,470997,2,0,P|175:75|215:62,1,85,10|0,1:2|0:0,0:0:0:0:
75,145,471288,1,2,1:2:0:0:
18,85,471434,1,0,1:0:0:0:
65,305,471580,6,0,P|54:263|38:224,1,85,6|4,1:2|0:3,0:0:0:0:
0,160,471798,1,4,0:3:0:0:
4,155,471871,1,8,1:2:0:0:
108,191,472016,1,2,1:2:0:0:
226,229,472162,1,10,0:0:0:0:
354,277,472308,1,0,1:2:0:0:
256,128,472453,5,2,1:2:0:0:
206,342,472599,1,8,0:0:0:0:
204,348,472672,1,8,0:0:0:0:
202,354,472745,1,8,0:0:0:0:
267,294,472890,1,8,0:0:0:0:
273,293,472963,1,8,0:0:0:0:
280,292,473036,1,8,1:2:0:0:
55,335,473181,5,0,0:0:0:0:
52,340,473254,1,0,0:0:0:0:
49,345,473327,2,0,P|94:329|138:322,1,85,14|4,1:2|0:3,0:0:0:0:
231,149,473618,2,8,P|236:123|243:106,2,42.5,8|8|4,0:0|0:0|1:3,0:0:0:0:
96,256,473910,5,2,1:2:0:0:
273,210,474055,1,4,1:3:0:0:
174,212,474201,1,6,1:3:0:0:
192,280,474346,1,4,1:3:0:0:
34,124,474492,2,0,P|68:149|94:182,1,85,6|4,1:3|1:3,1:2:0:0:
194,288,474783,1,10,1:2:0:0:
155,143,474929,5,8,0:0:0:0:
156,137,475002,1,8,0:0:0:0:
156,131,475075,2,0,P|143:83|121:27,1,85,10|8,1:2|0:0,0:0:0:0:
77,4,475293,1,8,0:0:0:0:
74,0,475366,1,8,1:2:0:0:
316,91,475512,2,0,P|338:98|366:103,2,42.5,8|8|8,1:2|0:0|1:2,0:0:0:0:
203,15,475803,5,8,1:2:0:0:
200,10,475876,1,8,0:0:0:0:
196,4,475948,1,10,1:2:0:0:
274,151,476094,1,0,1:2:0:0:
487,112,476240,1,2,1:2:0:0:
425,171,476385,5,8,1:2:0:0:
422,177,476458,1,8,0:0:0:0:
419,183,476531,1,10,1:2:0:0:
245,85,476677,5,8,1:2:0:0:
240,82,476749,1,8,0:0:0:0:
235,78,476822,1,2,1:2:0:0:
375,282,476968,2,0,P|373:261|368:241,1,42.5,8|8,1:2|0:0,0:0:0:0:
328,86,477113,5,8,1:2:0:0:
306,16,477259,1,0,1:0:0:0:
347,161,477405,5,10,1:2:0:0:
335,87,477550,1,0,1:0:0:0:
122,241,477696,6,0,P|102:233|80:231,2,42.5,10|8|8,1:2|0:0|1:2,0:0:0:0:
187,214,477987,5,4,1:3:0:0:
174,293,478133,1,4,1:3:0:0:
14,258,478279,5,4,1:3:0:0:
24,191,478424,1,4,1:3:0:0:
104,235,478570,6,0,B|156:212|180:265|177:268|172:271|198:327|256:301,1,170,6|8,3:2|3:2,0:0:0:0:
304,261,479132,1,0,0:0:0:0:
395,330,479320,2,0,P|352:331|311:342,1,85,2|0,3:2|0:0,0:0:0:0:
386,250,479695,2,0,P|428:250|459:278,1,85,8|0,3:2|0:0,0:0:0:0:
512,100,480070,6,0,P|479:143|347:154,1,170,2|8,3:2|3:2,0:0:0:0:
312,111,480632,1,0,0:0:0:0:
214,148,480820,1,2,3:2:0:0:
200,139,480913,1,8,0:0:0:0:
184,136,481007,1,0,0:0:0:0:
248,220,481195,1,8,3:2:0:0:
210,295,481382,1,0,0:0:0:0:
277,380,481570,6,0,P|318:370|360:366,1,85,2|0,3:2|0:0,0:0:0:0:
496,310,481945,2,0,P|441:343|439:370,1,85,8|0,3:2|0:0,0:0:0:0:
328,300,482320,1,2,3:2:0:0:
326,284,482413,1,8,0:0:0:0:
330,269,482507,1,0,0:0:0:0:
394,211,482695,1,8,3:2:0:0:
359,137,482882,1,0,0:0:0:0:
475,187,483070,6,0,P|489:103|513:21,1,170,2|8,3:2|3:2,0:0:0:0:
302,59,483632,2,0,P|260:66|220:82,1,85,2|0,0:0|3:2,0:0:0:0:
88,138,484007,1,2,0:0:0:0:
184,6,484195,2,0,P|145:34|160:100,1,85,10|0,3:2|0:0,0:0:0:0:
5,170,484570,6,0,P|28:248|105:276,1,170,2|8,3:2|3:2,0:0:0:0:
167,230,485132,1,0,0:0:0:0:
237,326,485320,1,2,3:2:0:0:
237,326,485413,1,8,0:0:0:0:
237,326,485507,1,0,0:0:0:0:
268,166,485695,2,0,P|251:205|244:246,1,85,8|0,3:2|0:0,0:0:0:0:
316,354,486070,5,2,3:2:0:0:
377,305,486257,1,0,0:0:0:0:
482,384,486445,2,0,P|463:341|455:287,1,85,8|0,3:2|0:0,0:0:0:0:
414,173,486820,1,2,3:2:0:0:
414,156,486913,1,8,0:0:0:0:
424,143,487007,1,0,0:0:0:0:
357,224,487195,1,8,3:2:0:0:
464,236,487382,1,0,0:0:0:0:
300,278,487570,6,0,P|220:298|119:312,1,170,2|8,3:2|3:2,0:0:0:0:
78,368,488132,1,0,0:0:0:0:
7,270,488320,1,2,3:2:0:0:
11,286,488413,1,8,0:0:0:0:
17,301,488507,1,0,0:0:0:0:
184,245,488695,2,0,P|147:257|133:326,1,85,8|0,3:2|0:0,0:0:0:0:
27,130,489070,6,0,P|17:86|-3:45,1,85,2|0,3:2|0:0,0:0:0:0:
52,212,489445,1,8,3:2:0:0:
204,121,489632,6,0,P|158:144|108:183,1,85,2|0,0:0|3:2,0:0:0:0:
48,221,490007,1,8,0:0:0:0:
131,3,490195,6,0,P|115:42|101:82,1,85,10|8,3:2|0:0,0:0:0:0:
229,248,490570,6,0,B|282:267|303:213|300:210|295:207|318:151|378:174,1,170,6|8,3:2|3:2,0:0:0:0:
435,189,491132,1,0,0:0:0:0:
471,82,491320,2,0,P|477:61|486:42,2,42.5,2|8|0,3:2|0:0|0:0,0:0:0:0:
512,220,491695,2,0,P|474:200|433:188,1,85,8|0,3:2|0:0,0:0:0:0:
269,115,492070,6,0,P|235:128|224:189,1,85,2|0,3:2|0:0,0:0:0:0:
188,251,492445,2,0,P|201:291|204:333,1,85,8|0,3:2|0:0,0:0:0:0:
211,344,492726,1,8,0:0:0:0:
221,350,492820,2,0,P|251:349|270:329,1,42.5,2|8,3:2|0:0,0:0:0:0:
291,273,493007,1,2,0:2:0:0:
374,349,493195,1,10,3:2:0:0:
439,305,493382,1,2,0:0:0:0:
345,215,493570,6,0,P|327:131|301:51,1,170,2|8,3:2|3:2,0:0:0:0:
232,0,494132,1,0,0:0:0:0:
148,32,494320,2,0,P|163:69|221:78,1,85,2|0,3:2|0:0,0:0:0:0:
272,137,494695,2,0,P|242:160|200:223,1,85,8|0,3:2|0:0,0:0:0:0:
78,217,495070,6,0,P|31:194|-28:184,1,85,2|0,3:2|0:0,0:0:0:0:
154,251,495445,1,8,3:2:0:0:
213,191,495632,1,0,0:0:0:0:
122,102,495820,2,0,P|117:80|109:60,2,42.5,2|8|8,3:2|0:0|0:2,0:0:0:0:
156,257,496195,1,10,3:2:0:0:
138,175,496382,1,10,3:2:0:0:
0,353,496570,6,0,P|11:310|95:286,1,127.5,2|0,3:2|0:0,0:0:0:0:
90,290,496945,1,8,3:2:0:0:
182,384,497132,1,0,0:0:0:0:
193,374,497226,1,8,0:0:0:0:
207,370,497320,1,2,3:2:0:0:
222,367,497413,1,8,0:0:0:0:
236,369,497507,1,0,0:0:0:0:
350,291,497695,1,8,3:2:0:0:
268,304,497882,1,0,0:0:0:0:
233,220,498070,6,0,P|227:141|205:44,1,170,2|8,3:2|3:2,0:0:0:0:
154,0,498632,1,0,0:0:0:0:
86,35,498820,2,0,P|94:79|151:91,1,85,2|0,3:2|0:0,0:0:0:0:
212,89,499195,2,0,P|257:75|315:73,1,85,8|0,3:2|0:0,0:0:0:0:
482,9,499570,6,0,P|483:51|378:97,1,170,2|8,3:2|3:2,0:0:0:0:
261,167,500132,1,0,0:0:0:0:
277,162,500226,1,8,0:0:0:0:
294,163,500320,1,2,3:2:0:0:
309,169,500413,1,8,0:0:0:0:
321,179,500507,1,0,0:0:0:0:
282,0,500695,2,0,P|297:40|307:81,1,85,8|0,3:2|0:0,0:0:0:0:
452,264,501070,5,2,1:2:0:0:
505,186,501257,1,0,3:2:0:0:
402,358,501445,1,2,1:2:0:0:
182,166,501632,6,0,P|194:191|201:234,1,42.5,0|8,3:2|0:0,0:0:0:0:
318,276,501820,2,0,P|306:301|299:344,1,42.5,2|0,1:2|0:0,0:0:0:0:
264,383,502007,5,8,3:2:0:0:
363,213,502195,1,2,1:2:0:0:
245,266,502382,1,8,3:2:0:0:
4,191,502570,6,0,P|45:202|89:220,1,85,6|0,3:2|0:0,0:0:0:0:
154,273,502945,1,8,3:2:0:0:
292,64,503132,2,0,P|273:102|260:142,1,85,0|2,0:0|3:2,0:0:0:0:
260,151,503413,1,8,0:0:0:0:
263,159,503507,1,0,0:0:0:0:
182,195,503695,1,8,3:2:0:0:
122,133,503882,1,0,0:0:0:0:
334,217,504070,6,0,B|387:191|421:244|416:249|410:256|440:301|492:276,1,170,2|8,3:2|3:2,0:0:0:0:
512,350,504632,1,0,0:0:0:0:
482,200,504820,1,2,3:2:0:0:
489,186,504913,1,8,0:0:0:0:
501,176,505007,1,0,0:0:0:0:
432,268,505195,1,8,3:2:0:0:
357,219,505382,1,0,0:0:0:0:
280,322,505570,6,0,P|198:299|113:292,1,170,2|8,3:2|3:2,0:0:0:0:
35,303,506132,1,0,0:0:0:0:
112,217,506320,1,2,3:2:0:0:
123,206,506413,1,8,0:0:0:0:
136,198,506507,1,0,0:0:0:0:
0,151,506695,2,0,P|22:186|36:227,1,85,8|0,3:2|0:0,0:0:0:0:
221,221,507070,6,0,P|245:148|201:100,1,127.5,2|0,3:2|0:0,0:0:0:0:
212,112,507445,1,8,3:2:0:0:
264,38,507632,1,0,0:0:0:0:
346,138,507820,1,2,3:2:0:0:
346,138,507913,1,8,0:0:0:0:
346,138,508007,1,0,0:0:0:0:
173,36,508195,2,0,P|148:22|134:11,2,42.5,10|8|0,3:2|0:0|0:0,0:0:0:0:
406,67,508570,6,0,P|379:138|368:249,1,170,2|8,3:2|3:2,0:0:0:0:
396,306,509132,1,0,0:0:0:0:
306,355,509320,2,0,P|262:324|273:268,1,85,2|0,3:2|0:0,0:0:0:0:
289,221,509695,1,10,3:2:0:0:
393,384,509882,2,0,P|454:360|457:259,1,170,2|0,0:0|0:0,0:0:0:0:
361,130,510445,2,0,P|379:168|385:210,1,85,8|0,3:2|0:0,0:0:0:0:
178,275,510820,5,2,3:2:0:0:
178,275,510913,1,8,0:0:0:0:
178,275,511007,2,0,P|149:268|130:265,1,42.5,8|0,0:0|0:0,0:0:0:0:
255,299,511195,1,8,3:2:0:0:
198,196,511382,1,0,3:0:0:0:
104,342,511570,6,0,P|62:315|73:251,1,85,2|0,3:2|0:0,0:0:0:0:
150,135,511945,1,8,3:2:0:0:
0,224,512132,2,0,P|70:205|157:214,1,127.5
128,210,512507,1,10,0:0:0:0:
255,43,512695,2,0,P|239:88|232:129,1,85,10|0,0:0|0:0,0:0:0:0:
152,283,513070,5,2,3:2:0:0:
223,234,513257,1,0,0:0:0:0:
289,307,513445,1,8,3:2:0:0:
427,384,513632,5,10,0:0:0:0:
469,361,513726,1,8,0:0:0:0:
468,326,513820,1,2,3:2:0:0:
457,309,513913,1,8,0:0:0:0:
448,304,514007,1,8,0:0:0:0:
418,294,514101,5,0,0:0:0:0:
381,266,514195,1,10,3:2:0:0:
360,204,514288,1,0,0:0:0:0:
392,140,514382,1,2,0:0:0:0:
464,120,514476,1,0,0:0:0:0:
479,137,514570,6,0,P|461:179|455:224,1,85,6|2,1:2|0:0,0:0:0:0:
355,344,514945,1,8,0:0:0:0:
208,169,515320,6,0,P|229:205|244:245,1,85,2|2,1:2|0:0,0:0:0:0:
360,357,515695,1,8,0:0:0:0:
283,322,515882,1,0,3:0:0:0:
128,384,516070,5,2,1:2:0:0:
128,384,516257,1,2,1:2:0:0:
49,355,516445,2,0,P|17:325|37:268,1,85,8|0,0:0|3:0,0:0:0:0:
108,186,516820,2,0,P|116:144|131:104,1,85,2|0,1:2|0:0,0:0:0:0:
98,267,517195,1,8,0:0:0:0:
14,34,517570,6,0,P|31:72|38:114,1,85,2|2,1:2|0:0,0:0:0:0:
170,238,517945,1,8,0:0:0:0:
250,69,518320,6,0,P|220:99|198:143,1,85,2|2,1:2|0:0,0:0:0:0:
31,189,518695,1,8,0:0:0:0:
102,139,518882,1,0,3:0:0:0:
258,235,519070,5,2,1:2:0:0:
258,235,519257,1,2,1:2:0:0:
326,187,519445,2,0,P|364:216|358:270,1,85,8|0,0:0|3:0,0:0:0:0:
457,384,519820,5,2,1:2:0:0:
304,298,520007,1,8,0:0:0:0:
242,366,520195,1,2,1:2:0:0:
418,311,520382,1,8,0:0:0:0:
279,204,520570,6,0,P|270:159|252:113,1,85,6|2,1:2|0:0,0:0:0:0:
298,306,520945,1,8,0:0:0:0:
448,135,521320,6,0,P|458:92|475:51,1,85,2|2,1:2|0:0,0:0:0:0:
429,230,521695,1,8,0:0:0:0:
362,169,521882,1,0,3:0:0:0:
228,269,522070,6,0,P|185:273|131:292,1,85,2|2,1:2|0:0,0:0:0:0:
15,197,522445,2,0,P|17:232|74:254,1,85,8|0,0:0|0:0,0:0:0:0:
142,166,522820,5,2,1:2:0:0:
142,166,522913,1,0,1:0:0:0:
142,166,523007,1,2,1:2:0:0:
295,226,523195,5,8,1:2:0:0:
295,226,523288,1,0,1:0:0:0:
295,226,523382,1,0,1:0:0:0:
512,51,523570,6,0,P|523:129|440:159,1,170,6|8,3:2|3:2,0:0:0:0:
330,78,524132,1,0,0:0:0:0:
330,78,524226,1,8,0:0:0:0:
330,78,524320,2,0,P|320:49|302:23,2,42.5,2|8|0,3:2|0:0|0:0,0:0:0:0:
370,200,524695,1,8,3:2:0:0:
396,125,524882,1,0,0:0:0:0:
471,274,525070,6,0,P|429:277|393:300,1,85,2|0,3:2|0:0,0:0:0:0:
250,200,525445,2,0,P|281:228|295:267,1,85,8|0,3:2|0:0,0:0:0:0:
323,332,525726,1,8,0:0:0:0:
326,342,525820,2,0,P|317:361|313:382,2,42.5,2|8|0,3:2|0:0|0:0,0:0:0:0:
210,307,526195,1,8,3:2:0:0:
135,353,526382,1,0,0:0:0:0:
0,219,526570,6,0,B|50:191|87:234|79:246|70:258|109:295|156:275,1,170,6|8,3:2|3:2,0:0:0:0:
220,319,527132,1,0,0:0:0:0:
241,193,527320,2,0,P|247:150|258:109,1,85,2|0,3:2|0:0,0:0:0:0:
151,0,527695,5,8,3:2:0:0:
193,65,527882,1,0,0:0:0:0:
399,45,528070,1,2,3:2:0:0:
332,82,528257,1,0,0:0:0:0:
230,198,528445,5,2,3:2:0:0:
238,212,528538,1,0,1:0:0:0:
243,228,528632,1,2,1:2:0:0:
246,247,528726,1,0,1:0:0:0:
270,279,528820,5,2,3:2:0:0:
290,293,528913,1,0,1:0:0:0:
317,293,529007,1,2,1:2:0:0:
341,278,529101,1,0,1:0:0:0:
386,244,529195,5,2,3:2:0:0:
434,238,529288,1,2,1:2:0:0:
483,272,529382,1,2,1:2:0:0:
484,332,529476,1,2,1:2:0:0:
432,363,529570,6,0,P|350:365|242:392,1,170,6|8,3:2|3:2,0:0:0:0:
202,348,530132,1,0,0:0:0:0:
54,323,530320,2,0,P|101:339|142:366,1,85,2|0,3:2|0:0,0:0:0:0:
204,274,530695,2,0,P|213:236|159:190,1,85,8|0,3:2|0:0,0:0:0:0:
90,115,531070,5,2,3:2:0:0:
117,185,531257,1,0,0:0:0:0:
70,243,531445,1,8,3:2:0:0:
194,193,531632,5,0,0:0:0:0:
206,184,531726,1,8,0:0:0:0:
221,181,531820,1,2,3:2:0:0:
235,184,531913,1,8,0:0:0:0:
247,193,532007,1,0,0:0:0:0:
319,150,532195,1,8,3:2:0:0:
367,226,532382,1,0,0:0:0:0:
461,194,532570,6,0,P|452:147|440:112,1,85,2|0,3:2|0:0,0:0:0:0:
486,277,532945,2,0,P|496:315|513:362,1,85,8|0,3:2|0:0,0:0:0:0:
507,370,533226,1,8,0:0:0:0:
498,379,533320,2,0,P|453:375|423:330,1,85,2|0,3:2|0:0,0:0:0:0:
341,297,533695,2,0,P|292:303|279:356,1,85,8|0,3:2|0:0,0:0:0:0:
135,384,534070,5,2,3:2:0:0:
135,384,534257,1,0,0:0:0:0:
189,315,534445,2,0,P|180:272|164:229,1,85,8|0,3:2|0:0,0:0:0:0:
102,202,534726,1,8,0:0:0:0:
91,198,534820,2,0,P|78:176|66:148,2,42.5,2|8|0,3:2|0:0|0:0,0:0:0:0:
35,260,535195,1,8,3:2:0:0:
75,325,535382,1,0,0:0:0:0:
180,272,535570,6,0,B|212:233|267:262|258:270|254:278|314:312|351:254,1,170,2|8,3:2|3:2,0:0:0:0:
377,199,536132,1,0,0:0:0:0:
305,150,536320,1,2,3:2:0:0:
305,150,536413,1,8,0:0:0:0:
305,150,536507,1,0,0:0:0:0:
401,38,536695,2,0,P|387:77|379:120,1,85,8|0,3:2|0:0,0:0:0:0:
224,176,537070,6,0,P|180:163|169:97,1,85,2|0,3:2|0:0,0:0:0:0:
195,49,537445,1,8,3:2:0:0:
92,89,537632,1,0,0:0:0:0:
76,89,537726,1,8,0:0:0:0:
62,81,537820,1,2,3:2:0:0:
51,69,537913,1,8,0:0:0:0:
48,53,538007,1,0,0:0:0:0:
22,158,538195,2,0,P|9:188|-1:240,1,85,8|0,3:2|0:0,0:0:0:0:
38,313,538570,5,2,3:2:0:0:
107,269,538757,1,0,0:0:0:0:
162,330,538945,1,8,3:2:0:0:
243,280,539132,5,0,0:0:0:0:
243,280,539226,1,8,0:0:0:0:
243,280,539320,2,0,P|250:251|259:227,2,42.5,2|8|0,3:2|0:0|0:0,0:0:0:0:
297,341,539695,1,8,3:2:0:0:
367,296,539882,1,0,0:0:0:0:
451,358,540070,6,0,P|409:366|371:384,1,85,6|0,3:2|0:0,0:0:0:0:
488,274,540445,1,8,3:2:0:0:
402,148,540632,5,2,1:2:0:0:
387,144,540726,1,0,0:0:0:0:
369,127,540820,1,0,3:2:0:0:
369,94,540913,1,0,0:0:0:0:
395,75,541007,1,2,1:2:0:0:
444,76,541101,1,0,0:0:0:0:
482,113,541195,1,8,1:2:0:0:
491,162,541288,1,0,1:2:0:0:
466,207,541382,1,8,1:2:0:0:
415,228,541476,1,8,1:2:0:0:
395,223,541570,6,0,P|304:236|228:268,1,170,6|8,3:2|3:2,0:0:0:0:
94,234,542132,1,0,0:0:0:0:
94,234,542226,1,8,0:0:0:0:
94,234,542320,2,0,P|89:213|79:194,2,42.5,2|8|0,3:2|0:0|0:0,0:0:0:0:
150,305,542695,1,8,3:2:0:0:
174,220,542882,1,0,0:0:0:0:
234,64,543070,6,0,P|211:112|197:165,1,85,2|0,3:2|0:0,0:0:0:0:
174,220,543445,1,8,3:2:0:0:
125,132,543632,1,0,0:0:0:0:
111,121,543726,1,8,0:0:0:0:
97,115,543820,1,2,3:2:0:0:
82,112,543913,1,8,0:0:0:0:
66,115,544007,1,0,0:0:0:0:
1,13,544195,2,0,P|33:24|101:32,1,85,8|0,3:2|0:0,0:0:0:0:
212,111,544570,6,0,P|252:98|294:94,1,85,2|0,3:2|0:0,0:0:0:0:
240,18,544945,1,8,3:2:0:0:
365,65,545132,1,0,0:0:0:0:
365,65,545226,1,8,0:0:0:0:
365,65,545320,2,0,P|370:42|383:18,2,42.5,2|8|0,3:2|0:0|0:0,0:0:0:0:
409,138,545695,1,8,3:2:0:0:
493,119,545882,1,0,0:0:0:0:
441,219,546070,6,0,P|430:262|424:315,1,85,2|0,3:2|0:0,0:0:0:0:
371,368,546445,1,8,3:2:0:0:
308,315,546632,1,0,0:0:0:0:
293,305,546726,1,8,0:0:0:0:
278,302,546820,1,2,3:2:0:0:
262,301,546913,1,8,0:0:0:0:
247,306,547007,1,0,0:0:0:0:
172,356,547195,1,8,0:0:0:0:
78,164,547382,5,8,0:0:0:0:
78,164,547476,1,8,0:0:0:0:
78,164,547570,2,0,P|99:222|111:286,1,127.5,6|0,3:2|0:0,0:0:0:0:
117,290,547945,1,10,0:0:0:0:
174,208,548132,1,2,0:0:0:0:
174,208,548507,5,0,3:0:0:0:
258,94,548695,1,10,3:2:0:0:
315,13,548882,1,0,3:2:0:0:
382,181,549070,6,0,P|395:223|403:284,1,85,6|0,3:2|0:0,0:0:0:0:
277,372,549445,2,0,P|229:345|236:291,1,85,8|0,0:0|0:0,0:0:0:0:
231,308,549726,1,8,0:0:0:0:
239,297,549820,2,0,P|252:257|259:196,1,85,2|0,3:2|3:0,0:0:0:0:
40,201,550195,2,0,P|79:181|113:135,1,85,8|0,3:2|0:0,0:0:0:0:
248,9,550570,6,0,B|298:-43|383:-17|416:45|402:52|384:65|414:133|480:161|544:113,1,340,6|0,3:2|3:0,0:0:0:0:
512,130,551507,1,0,3:0:0:0:
414,199,551695,2,0,P|398:238|391:280,1,85,8|0,3:2|0:0,0:0:0:0:
243,352,552070,5,6,1:2:0:0:
237,359,552163,1,0,3:0:0:0:
217,368,552257,1,0,3:0:0:0:
191,364,552351,1,0,3:0:0:0:
161,337,552445,1,10,1:2:0:0:
146,287,552538,1,0,3:0:0:0:
172,241,552632,1,0,3:0:0:0:
168,180,552725,1,0,3:0:0:0:
123,140,552819,1,0,0:0:0:0:
70,148,552913,1,0,3:0:0:0:
47,186,553007,1,10,1:2:0:0:
55,218,553100,1,0,3:0:0:0:
72,225,553195,5,2,1:2:0:0:
103,217,553288,1,0,1:0:0:0:
135,180,553382,1,10,1:2:0:0:
185,158,553476,1,0,1:0:0:0:
253,181,553570,1,6,1:2:0:0:
256,192,553663,12,0,556476,0:0:0:0:
256,316,556570,5,2,0:0:0:0:
256,316,556945,1,0,0:0:0:0:
256,316,557507,5,0,0:0:0:0:
256,384,557695,1,2,0:0:0:0:
88,344,560695,5,2,0:0:0:0:
88,344,561070,1,0,0:0:0:0:
55,286,561445,1,2,0:0:0:0:
55,286,562007,5,0,0:0:0:0:
111,246,562195,1,2,0:0:0:0:
415,210,565195,5,2,0:0:0:0:
415,210,565570,1,0,0:0:0:0:
448,152,565945,1,2,0:0:0:0:
448,152,566507,5,0,0:0:0:0:
392,112,566695,1,2,0:0:0:0:
169,98,569695,5,2,0:0:0:0:
169,98,570070,1,0,0:0:0:0:
136,40,570445,1,2,0:0:0:0:
136,40,571007,5,0,0:0:0:0:
192,0,571195,1,2,0:0:0:0:
256,192,573820,5,2,0:0:0:0:
256,192,573913,1,0,0:0:0:0:
256,192,574007,1,0,0:0:0:0:
391,298,574195,5,2,0:0:0:0:
381,291,574288,1,0,0:0:0:0:
358,287,574382,1,2,0:3:0:0:
318,301,574476,1,2,0:3:0:0:
298,349,574570,1,2,0:0:0:0:
370,378,574945,5,0,0:0:0:0:
378,306,575320,1,0,0:0:0:0:
399,238,575695,2,0,P|401:195|410:154,1,85,2|0,0:0|0:0,0:0:0:0:
441,29,576820,6,0,P|387:45|376:83,1,85,2|0,0:0|0:1,0:0:0:0:
320,123,577570,1,0,0:0:0:0:
253,96,577945,1,2,0:0:0:0:
203,148,578320,1,0,0:0:0:0:
64,80,579070,6,0,P|104:86|127:121,1,85,2|0,0:0|0:1,0:0:0:0:
87,182,579820,1,0,0:0:0:0:
35,237,580195,2,0,P|18:276|11:318,1,85,2|0,0:0|0:0,0:0:0:0:
187,376,581320,6,0,P|203:336|210:294,1,85,2|0,0:0|0:0,0:0:0:0:
182,229,582070,1,0,0:0:0:0:
234,177,582445,1,2,0:0:0:0:
430,165,583570,6,0,P|470:152|512:146,2,85,2|0|0,0:0|0:0|0:0,0:0:0:0:
362,199,584695,1,2,0:0:0:0:
307,7,585820,6,0,P|323:46|336:116,1,85,2|2,0:0|0:0,0:0:0:0:
332,87,586382,1,2,0:0:0:0:
389,101,586570,1,2,0:0:0:0:
414,74,586757,1,2,0:0:0:0:
414,65,586945,5,2,0:0:0:0:
488,82,587320,1,0,0:0:0:0:
290,149,588070,6,0,P|248:141|187:139,1,85,2|0,0:0|0:0,0:0:0:0:
133,148,588820,1,0,0:0:0:0:
88,88,589195,2,0,P|99:37|135:24,1,85,2|0,0:0|0:0,0:0:0:0:
55,155,590320,5,2,0:0:0:0:
55,155,590695,2,0,P|70:210|79:304,1,127.5
78,279,591445,1,2,0:0:0:0:
278,384,592570,5,4,0:3:0:0:
278,383,592945,2,0,P|283:298|305:216,1,170,0|0,0:3|0:3,0:3:0:0:
258,155,594070,2,0,P|237:109|261:56,2,85,2|2|2,0:0|0:0|0:0,0:0:0:0:
305,216,595195,5,0,0:0:0:0:
383,204,595570,1,0,0:0:0:0:
453,251,595945,2,0,P|469:167|498:87,1,170,2|0,0:0|0:0,0:0:0:0:
463,20,597070,5,2,0:0:0:0:
326,32,598195,1,2,0:0:0:0:
189,43,599320,2,0,P|104:61|16:67,1,170,2|0,0:0|0:0,0:0:0:0:
0,136,600445,2,0,P|10:168|131:186,1,170,2|0,0:0|0:0,0:0:0:0:
169,134,601570,5,2,0:0:0:0:
284,208,602695,1,2,0:0:0:0:
427,170,603820,2,0,P|435:236|461:319,1,127.5,2|0,0:0|0:0,0:0:0:0:
451,294,604570,1,0,0:0:0:0:
403,356,604945,2,0,P|343:365|324:262,1,170,2|0,0:0|0:0,0:0:0:0:
350,211,606070,5,2,0:0:0:0:
308,74,607195,1,2,0:0:0:0:
184,3,608320,2,0,P|158:76|143:172,1,170,2|0,0:0|0:0,0:0:0:0:
77,217,609445,2,0,P|96:293|105:395,1,170,2|0,0:0|0:0,0:0:0:0:
205,288,610570,6,0,P|212:230|174:200,1,85,2|0,0:0|0:0,0:0:0:0:
189,210,611132,1,0,0:0:0:0:
179,212,611320,1,0,0:0:0:0:
89,263,611695,2,0,P|58:230|110:116,1,170,2|0,0:0|0:0,0:0:0:0:
163,94,612820,5,2,0:0:0:0:
284,159,613570,2,0,P|290:114|306:68,2,85,0|2|0,0:0|0:0|0:0,0:0:0:0:
343,209,614695,1,0,0:0:0:0:
416,180,615070,5,2,0:0:0:0:
505,303,616195,1,2,0:0:0:0:
383,384,617320,2,0,P|300:370|215:369,1,170,2|0,0:0|0:0,0:0:0:0:
139,375,618445,1,2,0:0:0:0:
0,235,619570,6,0,P|56:257|76:325,1,127.5,2|0,0:0|0:0,0:0:0:0:
77,316,620320,1,0,0:0:0:0:
112,163,620695,2,0,P|129:77|160:-13,1,170,2|0,0:0|0:0,0:0:0:0:
54,49,621820,5,2,0:0:0:0:
213,100,622570,1,0,0:0:0:0:
266,48,622945,1,2,0:0:0:0:
286,119,623320,1,0,0:0:0:0:
344,64,623695,1,0,0:0:0:0:
311,195,624070,6,0,P|247:205|133:239,1,170,2|0,0:0|0:0,0:0:0:0:
71,220,625195,2,0,P|87:143|166:142,1,170,2|0,0:0|0:0,0:0:0:0:
205,214,626320,5,4,0:3:0:0:
205,214,626507,1,4,0:3:0:0:
294,162,626882,1,4,0:3:0:0:
373,239,627257,1,4,0:3:0:0:
381,227,627445,1,0,3:0:0:0:
487,81,628570,6,0,B|429:44|381:108|392:114|403:125|355:174|305:144,1,203.999993774414,2|0,3:2|3:0,0:0:0:0:
257,102,629695,1,0,1:0:0:0:
294,30,630070,1,0,3:0:0:0:
215,37,630445,2,0,P|190:22|162:15,2,50.9999984436036,2|0|2,0:3|0:0|3:2,0:0:0:0:
295,183,631382,5,0,3:2:0:0:
295,183,631570,2,0,P|320:173|346:168,1,50.9999984436036,0|0,3:2|0:0,0:0:0:0:
396,107,631945,2,0,P|451:110|466:168,1,101.999996887207,2|0,1:2|3:0,0:0:0:0:
510,250,632695,2,0,P|492:276|455:285,1,50.9999984436036,2|0,0:3|0:0,0:0:0:0:
399,319,633070,6,0,P|351:308|279:307,1,101.999996887207,2|0,3:2|0:0,0:0:0:0:
211,319,633820,1,0,3:0:0:0:
145,377,634195,2,0,P|109:362|89:294,2,101.999996887207,2|0|2,1:2|3:0|0:3,0:0:0:0:
211,319,635320,5,2,3:2:0:0:
223,232,635695,1,0,0:0:0:0:
249,152,636070,1,0,3:2:0:0:
292,57,636445,2,0,P|241:70|177:78,1,101.999996887207,2|0,1:2|3:0,0:0:0:0:
130,136,637195,1,2,0:3:0:0:
68,165,637382,1,0,0:0:0:0:
21,114,637570,6,0,P|12:53|-6:2,2,101.999996887207,2|0|0,3:2|0:0|3:0,0:0:0:0:
0,200,638695,1,2,1:2:0:0:
57,259,639070,1,0,3:0:0:0:
134,230,639445,1,2,0:3:0:0:
192,302,639820,6,0,P|244:286|304:283,1,101.999996887207,2|0,3:2|0:0,0:0:0:0:
378,300,640570,1,0,3:0:0:0:
438,238,640945,2,0,P|482:254|478:318,1,101.999996887207,2|0,1:2|3:3,0:0:0:0:
434,366,641695,1,2,0:3:0:0:
371,319,641882,1,0,0:0:0:0:
307,376,642070,6,0,P|257:364|206:365,1,101.999996887207,2|0,3:2|0:0,0:0:0:0:
139,315,642820,1,0,3:0:0:0:
195,247,643195,2,0,P|190:192|177:143,1,101.999996887207,2|0,1:2|3:0,0:0:0:0:
179,147,643757,1,2,0:0:0:0:
152,142,643945,1,2,0:0:0:0:
120,112,644132,1,2,0:0:0:0:
138,44,644320,5,2,3:2:0:0:
132,32,644507,1,4,0:3:0:0:
260,2,644882,1,0,3:2:0:0:
301,73,645070,1,0,3:0:0:0:
371,76,645257,1,0,3:0:0:0:
377,73,645445,6,0,B|307:30|244:111|263:122|282:128|226:215|151:169,1,280.49999143982,2|0,0:2|0:2,0:2:0:0:
146,164,646570,5,6,3:2:0:0:
73,52,646945,5,2,0:3:0:0:
135,0,647132,1,0,3:0:0:0:
208,38,647320,2,0,P|195:66|189:99,1,59.4999981842042,2|0,3:0|0:0,0:0:0:0:
65,199,647695,5,10,1:2:0:0:
30,355,648070,5,2,0:3:0:0:
84,296,648257,1,0,3:0:0:0:
162,318,648445,1,2,3:0:0:0:
331,238,648820,6,0,P|313:294|307:353,1,118.999996368408,2|2,3:2|0:3,0:0:0:0:
294,368,649382,1,0,3:0:0:0:
276,370,649570,2,0,P|247:351|241:314,1,59.4999981842042,2|0,3:0|0:0,0:0:0:0:
357,172,649945,5,10,1:2:0:0:
466,226,650320,1,2,3:0:0:0:
512,109,650695,1,2,0:3:0:0:
405,11,651070,6,0,P|417:57|425:138,1,118.999996368408,2|2,3:2|0:3,0:0:0:0:
417,140,651632,1,0,3:0:0:0:
408,146,651820,1,2,3:0:0:0:
214,77,652195,6,0,P|206:139|181:206,1,118.999996368408,10|2,1:2|3:3,0:0:0:0:
196,205,652757,1,0,0:0:0:0:
204,217,652945,2,0,P|212:241|215:281,1,59.4999981842042,2|0,3:3|0:0,0:0:0:0:
321,379,653320,6,0,P|365:364|376:287,1,118.999996368408,2|2,3:2|3:0,0:0:0:0:
372,287,653882,1,0,3:0:0:0:
364,274,654070,2,0,P|367:239|372:215,1,59.4999981842042,2|0,3:0|0:0,0:0:0:0:
310,51,654445,5,14,1:2:0:0:
279,276,654820,1,4,3:3:0:0:
259,139,655195,5,4,0:3:0:0:
329,196,655382,1,4,0:3:0:0:
148,215,655570,6,0,P|89:223|32:242,1,118.999996368408,6|2,3:2|0:3,0:0:0:0:
23,252,656132,1,2,0:0:0:0:
15,265,656320,1,2,3:3:0:0:
33,28,656695,6,0,P|58:83|71:158,1,118.999996368408,10|2,1:2|3:3,0:0:0:0:
67,151,657257,1,0,0:0:0:0:
59,160,657445,1,2,3:0:0:0:
326,79,657820,6,0,P|409:54|524:45,1,178.499994552612,2|0,3:2|3:0,0:0:0:0:
512,51,658570,1,2,3:0:0:0:
256,120,658945,5,10,1:2:0:0:
378,47,659320,1,2,3:0:0:0:
487,144,659695,1,2,0:3:0:0:
264,16,660070,6,0,P|286:35|301:60,1,59.4999981842042,2|0,3:2|0:0,0:0:0:0:
355,130,660445,1,6,0:0:0:0:
490,59,660632,1,0,3:0:0:0:
490,59,660820,2,0,P|464:69|437:90,1,59.4999981842042,2|0,3:3|0:0,0:0:0:0:
327,235,661195,6,0,P|317:264|312:295,1,59.4999981842042,10|0,1:2|0:0,0:0:0:0:
252,354,661570,1,6,3:2:0:0:
117,301,661757,1,0,0:0:0:0:
117,301,661945,2,0,P|144:311|169:328,1,59.4999981842042,2|0,0:0|0:0,0:0:0:0:
344,384,662320,5,0,3:2:0:0:
362,376,662507,1,4,3:3:0:0:
383,340,662695,1,2,3:3:0:0:
346,293,662882,1,4,3:3:0:0:
313,230,663070,1,2,3:0:0:0:
346,161,663257,1,4,3:0:0:0:
421,136,663445,2,0,P|427:106|436:76,1,59.4999981842042,14|0,1:2|3:0,0:0:0:0:
473,0,663820,5,2,1:3:0:0:
481,11,663913,1,0,1:0:0:0:
483,35,664007,1,0,1:0:0:0:
461,68,664101,1,0,3:0:0:0:
409,76,664195,1,2,1:3:0:0:
360,47,664288,1,0,3:0:0:0:
299,57,664382,1,0,1:0:0:0:
265,117,664476,1,0,1:0:0:0:
279,129,664570,6,0,P|298:186|304:271,1,136,6|2,1:2|1:3,0:0:0:0:
279,345,665132,1,0,3:0:0:0:
401,273,665320,2,0,P|387:309|350:322,1,68,2|0,3:0|0:0,0:0:0:0:
222,275,665695,5,10,1:2:0:0:
140,312,665882,1,0,0:0:0:0:
89,241,666070,2,0,P|78:199|104:165,1,68,2|0,3:0|0:0,0:0:0:0:
0,64,666445,2,0,P|14:96|20:128,1,68,2|0,0:3|3:0,3:0:0:0:
165,218,666820,5,2,3:2:0:0:
229,185,667007,2,0,P|235:151|248:120,1,68,0|2,3:0|0:3,0:0:0:0:
153,0,667382,1,2,3:2:0:0:
123,63,667570,2,0,P|141:92|173:103,1,68,2|0,3:3|0:0,0:0:0:0:
380,54,667945,6,0,P|451:33|518:22,2,136,14|2|2,1:2|3:0|1:3,0:0:0:0:
0,207,669070,5,6,3:2:0:0:
245,69,669445,5,2,0:3:0:0:
199,156,669632,1,0,3:0:0:0:
106,122,669820,1,2,3:0:0:0:
380,67,670195,5,10,1:2:0:0:
106,122,670570,5,2,3:0:0:0:
199,156,670757,1,0,3:0:0:0:
245,69,670945,1,4,0:3:0:0:
150,35,671132,1,4,0:3:0:0:
234,238,671320,6,0,P|257:293|275:383,1,136,6|2,1:2|0:3,0:0:0:0:
341,268,671882,1,0,3:0:0:0:
422,284,672070,2,0,P|435:252|431:206,1,68,2|0,3:0|0:0,0:0:0:0:
390,360,672445,5,14,1:2:0:0:
306,198,672820,2,0,P|315:162|351:137,1,68,2|0,3:0|0:0,0:0:0:0:
420,142,673195,1,2,3:0:0:0:
482,89,673382,1,8,1:2:0:0:
312,19,673570,6,0,B|265:5|247:50|251:52|254:55|236:103|186:89,1,152.999995330811,6|2,1:2|0:3,0:0:0:0:
124,39,674132,1,0,3:0:0:0:
50,75,674319,2,0,P|65:111|69:149,1,76.4999976654053,2|0,3:0|0:0,0:0:0:0:
0,314,674695,5,10,1:2:0:0:
71,253,674882,1,0,0:0:0:0:
160,291,675070,2,0,P|201:279|255:273,1,76.4999976654053,2|0,3:0|0:0,0:0:0:0:
89,349,675445,1,2,3:0:0:0:
450,311,675820,5,6,1:2:0:0:
415,384,676007,1,4,0:3:0:0:
277,223,676382,5,0,3:0:0:0:
234,274,676570,1,2,3:0:0:0:
301,285,676757,1,0,3:0:0:0:
316,64,676945,6,0,P|301:99|294:136,1,76.4999976654053,14|0,1:2|0:2,1:2:0:0:
181,201,677320,2,0,P|183:163|212:140,1,76.4999976654053,2|0,3:0|0:2,0:2:0:0:
377,239,677695,2,0,P|389:209|366:159,1,76.4999976654053,2|0,3:0|0:2,0:2:0:0:
270,256,678070,5,2,3:2:0:0:
0,123,678445,5,6,0:0:0:0:
71,45,678632,1,6,3:2:0:0:
166,91,678820,1,2,3:2:0:0:
445,41,679195,5,10,1:2:0:0:
0,123,679570,5,6,3:2:0:0:
71,45,679757,1,6,0:0:0:0:
166,91,679945,1,2,0:0:0:0:
445,41,680320,5,2,3:2:0:0:
396,94,680507,2,0,P|386:125|380:182,1,76.4999976654053,4|0,3:3|3:0,0:0:0:0:
150,257,680882,1,2,3:2:0:0:
199,310,681069,2,0,P|209:341|215:398,1,76.4999976654053,4|0,3:3|3:0,0:0:0:0:
302,204,681445,5,6,3:2:0:0:
365,242,681632,1,8,1:2:0:0:
312,133,681820,1,0,3:0:0:0:
246,256,682007,1,8,1:2:0:0:
13,112,682195,5,10,1:2:0:0:
82,286,682382,1,10,1:2:0:0:
156,181,682570,6,0,P|169:98|189:15,1,170,6|8,1:2|0:2,0:0:0:0:
94,69,683132,1,0,3:0:0:0:
250,99,683320,2,0,P|292:103|332:115,1,85,8|0,0:0|0:0,0:0:0:0:
512,69,683695,5,2,1:2:0:0:
457,94,683882,1,0,0:0:0:0:
452,9,684070,1,10,0:0:0:0:
429,68,684257,1,0,3:0:0:0:
363,9,684445,1,10,0:0:0:0:
392,69,684632,1,0,3:0:0:0:
274,187,684820,6,0,P|190:199|113:236,1,170,2|8,3:2|0:0,0:0:0:0:
36,191,685382,1,0,3:0:0:0:
181,107,685570,2,0,P|140:120|106:144,1,85,8|0,0:2|3:0,0:0:0:0:
0,80,685945,6,0,P|-5:46|42:-4,1,85,10|0,1:2|0:0,0:0:0:0:
89,57,686320,1,2,3:2:0:0:
173,10,686507,1,0,3:0:0:0:
259,134,686695,2,0,P|278:94|266:52,1,85,14|0,0:0|3:0,0:0:0:0:
130,222,687070,6,0,P|212:231|254:307,1,170,6|8,1:2|0:0,0:0:0:0:
316,364,687632,1,0,3:0:0:0:
406,262,687820,2,0,P|415:306|384:343,1,85,8|0,0:0|3:0,0:0:0:0:
279,192,688195,5,2,1:2:0:0:
338,214,688382,1,0,3:0:0:0:
339,125,688570,1,10,0:0:0:0:
366,186,688757,1,0,3:0:0:0:
431,121,688945,1,10,0:0:0:0:
405,185,689132,1,0,3:0:0:0:
308,58,689320,6,0,P|259:66|217:91,1,85,2|0,3:2|3:0,0:0:0:0:
147,124,689695,1,8,0:0:0:0:
161,44,689882,1,0,3:0:0:0:
86,63,690070,2,0,P|56:33|21:10,1,85,8|0,0:0|3:0,0:0:0:0:
126,232,690445,6,0,P|110:294|104:361,1,127.5,6|0,1:2|0:0,0:0:0:0:
174,384,690820,1,2,3:2:0:0:
183,363,690913,1,8,0:0:0:0:
200,345,691007,1,8,0:0:0:0:
291,368,691195,1,10,0:0:0:0:
336,258,691382,1,0,3:0:0:0:
512,372,691570,6,0,P|450:342|332:329,1,170,6|8,1:2|0:0,0:0:0:0:
272,298,692132,1,0,3:0:0:0:
190,161,692320,2,0,P|190:205|235:228,1,85,8|0,0:0|3:0,0:0:0:0:
451,167,692695,5,2,1:2:0:0:
392,201,692882,1,0,0:0:0:0:
374,111,693070,1,10,3:2:0:0:
360,180,693257,1,0,0:0:0:0:
279,127,693445,1,10,0:0:0:0:
326,177,693632,1,0,3:0:0:0:
459,75,693820,6,0,P|480:38|508:6,1,85,2|0,3:2|3:0,0:0:0:0:
351,82,694195,2,0,P|371:95|389:120,2,42.5,10|2|2,0:0|0:0|0:0,0:0:0:0:
426,182,694570,1,8,0:0:0:0:
509,159,694757,1,0,3:0:0:0:
394,278,694945,6,0,P|380:318|377:360,1,85,2|0,3:2|3:0,0:0:0:0:
187,342,695320,1,12,3:2:0:0:
171,344,695413,1,0,0:0:0:0:
156,359,695507,1,0,3:0:0:0:
283,299,695695,5,8,0:0:0:0:
308,269,695788,1,8,0:0:0:0:
299,226,695882,1,8,3:2:0:0:
78,115,696070,6,0,P|101:174|112:236,1,127.5,2|0,3:2|0:0,0:0:0:0:
74,300,696445,1,12,0:0:0:0:
58,314,696538,1,0,0:0:0:0:
37,317,696632,1,0,3:0:0:0:
223,198,696820,2,0,P|215:238|168:270,1,85,8|0,0:0|3:0,0:0:0:0:
9,183,697195,5,2,1:2:0:0:
70,212,697382,1,0,0:0:0:0:
78,115,697570,1,10,3:2:0:0:
103,181,697757,1,0,3:0:0:0:
179,116,697945,1,10,3:2:0:0:
145,184,698132,1,0,0:0:0:0:
283,290,698320,5,6,0:3:0:0:
291,296,698413,1,4,0:3:0:0:
313,294,698507,1,4,0:3:0:0:
339,271,698601,1,4,0:3:0:0:
348,227,698695,2,4,P|342:200|315:170,3,42.5,6|4|4|4,0:3|0:3|0:3|0:3,0:3:0:0:
476,261,699070,2,4,P|493:240|528:224,3,42.5,6|4|4|4,0:3|0:3|0:3|0:3,0:3:0:0:
431,168,699445,6,0,P|443:124|467:70,1,85,6|8,1:2|0:0,0:0:0:0:
496,31,699726,1,8,0:0:0:0:
512,19,699820,1,8,0:0:0:0:
358,98,700007,5,8,0:0:0:0:
345,102,700101,1,8,0:0:0:0:
313,95,700195,1,8,1:2:0:0:
284,57,700288,1,0,0:0:0:0:
302,11,700382,1,8,1:2:0:0:
353,0,700476,1,8,0:0:0:0:
366,14,700570,6,0,P|346:93|334:180,1,170,6|2,1:2|3:3,0:0:0:0:
287,263,701132,1,8,0:0:0:0:
198,281,701320,2,0,P|164:249|167:202,1,85,2|0,0:3|3:0,0:0:0:0:
43,100,701695,5,10,1:2:0:0:
105,139,701882,1,2,0:0:0:0:
126,39,702070,1,2,3:2:0:0:
142,113,702257,1,0,3:0:0:0:
230,57,702445,1,10,3:2:0:0:
185,122,702632,1,2,0:0:0:0:
90,261,702820,6,0,P|70:290|45:346,1,85,6|0,1:2|3:0,0:0:0:0:
171,227,703195,2,0,P|211:217|253:216,1,42.5,8|0,0:2|3:0,0:0:0:0:
85,176,703570,2,0,P|81:133|68:93,1,85,2|0,0:3|3:0,0:0:0:0:
102,247,703945,5,10,1:2:0:0:
195,6,704320,2,0,P|198:47|213:99,1,85,2|8,3:2|0:0,0:0:0:0:
259,138,704601,1,8,0:0:0:0:
276,146,704695,1,8,0:0:0:0:
319,142,704788,1,8,0:0:0:0:
342,98,704882,1,4,0:3:0:0:
512,257,705070,6,0,P|470:235|414:229,1,85,6|0,1:2|3:0,0:0:0:0:
353,233,705445,1,10,0:2:0:0:
460,107,705632,2,0,P|418:126|411:184,2,85,0|2|0,3:0|0:3|3:0,0:0:0:0:
155,90,706195,5,2,1:2:0:0:
227,115,706382,1,10,0:0:0:0:
228,9,706570,1,2,0:0:0:0:
259,82,706757,1,0,3:2:0:0:
338,4,706945,1,10,3:2:0:0:
308,80,707132,1,2,0:0:0:0:
147,183,707320,6,0,P|107:166|57:158,1,85,2|0,3:2|3:0,0:0:0:0:
274,284,707695,2,0,P|313:270|327:218,1,85,6|0,1:2|0:0,0:0:0:0:
225,121,708070,2,0,P|241:159|249:202,1,85,2|0,0:3|3:0,0:0:0:0:
505,26,708445,6,0,P|487:90|477:175,1,127.5,10|0,1:2|0:0,0:0:0:0:
490,261,708820,2,0,P|450:248|431:211,1,85,6|0,1:2|3:0,0:0:0:0:
323,29,709195,5,8,1:2:0:0:
302,19,709288,1,8,1:2:0:0:
252,21,709382,1,8,1:2:0:0:
219,71,709476,1,8,1:2:0:0:
249,133,709570,6,0,P|268:190|274:285,1,127.5,6|0,1:2|0:0,0:0:0:0:
354,225,709945,1,14,0:0:0:0:
385,316,710132,2,0,P|425:294|472:286,2,85,0|2|0,3:0|0:3|3:0,0:0:0:0:
83,345,710695,5,10,1:2:0:0:
158,373,710882,1,2,0:0:0:0:
158,261,711070,1,2,3:2:0:0:
192,337,711257,1,0,3:0:0:0:
275,256,711445,1,10,3:2:0:0:
241,336,711632,1,2,0:0:0:0:
126,189,711820,6,0,P|106:144|72:102,1,85,6|0,3:2|3:2,0:0:0:0:
259,123,712195,2,0,P|268:75|287:17,1,85,8|0,0:0|3:0,0:0:0:0:
388,216,712570,2,0,P|421:189|465:166,1,85,2|0,3:0|3:0,0:0:0:0:
233,233,712945,5,10,3:2:0:0:
221,243,713038,1,4,3:0:0:0:
213,257,713132,1,4,3:0:0:0:
17,191,713320,5,4,3:0:0:0:
36,209,713413,1,4,3:0:0:0:
47,238,713507,1,4,3:0:0:0:
310,356,713695,5,4,3:0:0:0:
332,326,713788,1,4,3:0:0:0:
376,308,713882,1,4,3:0:0:0:
431,315,713976,1,4,3:0:0:0:
492,357,714070,6,0,P|468:283|449:191,1,170,6|8,1:2|0:0,0:0:0:0:
449,110,714632,1,0,3:0:0:0:
338,200,714820,2,0,P|351:158|357:102,1,85,8|0,0:0|0:0,0:0:0:0:
262,5,715195,5,2,1:2:0:0:
233,81,715382,1,0,0:0:0:0:
145,3,715570,1,8,3:2:0:0:
181,84,715757,1,0,3:0:0:0:
58,90,715945,1,8,3:2:0:0:
145,120,716132,1,0,3:0:0:0:
0,0,716320,6,0,P|25:80|38:174,1,170,6|8,1:2|0:0,0:0:0:0:
85,236,716882,1,0,3:0:0:0:
182,218,717070,2,0,P|167:256|159:307,1,85,8|0,0:0|3:0,0:0:0:0:
145,71,717445,5,6,1:2:0:0:
221,150,717820,5,8,0:0:0:0:
320,119,718007,1,0,3:0:0:0:
407,207,718195,1,8,0:0:0:0:
512,148,718382,1,0,3:0:0:0:
256,192,718570,12,2,721945,0:0:0:0:
256,192,723070,12,0,726351,0:0:0:0:
255,332,726445,6,0,P|248:352|244:373,1,42.4930374595717,2|0,0:0|0:0,0:0:0:0:
256,192,738820,12,0,743226,0:0:0:0:
256,192,743320,5,6,3:2:0:0:
403,74,744025,5,0,0:0:0:0:
351,121,744202,1,0,0:0:0:0:
388,6,744378,1,0,0:0:0:0:
469,97,744555,1,2,0:0:0:0:
256,192,746143,5,2,0:0:0:0:
67,223,746849,5,0,0:0:0:0:
82,155,747026,1,0,0:0:0:0:
119,270,747202,1,0,0:0:0:0:
1,246,747379,1,2,0:0:0:0:
250,196,748437,5,0,0:0:0:0:
255,184,748614,1,0,0:0:0:0:
262,194,748790,1,0,0:0:0:0:
343,51,748967,5,6,1:2:0:0:
410,110,749143,1,0,0:0:0:0:
492,74,749320,1,8,1:2:0:0:
397,187,749496,1,0,0:0:0:0:
392,201,749584,1,0,0:0:0:0:
393,216,749672,5,0,1:2:0:0:
439,290,749849,1,2,0:0:0:0:
367,342,750025,1,10,1:2:0:0:
317,268,750202,1,2,0:0:0:0:
206,352,750378,6,0,P|164:356|114:375,1,85,0|0,1:2|0:0,0:0:0:0:
45,336,750731,1,8,1:2:0:0:
141,275,750908,1,0,0:0:0:0:
149,260,750996,1,0,0:0:0:0:
151,243,751084,1,0,1:2:0:0:
143,227,751172,1,0,0:0:0:0:
128,217,751261,1,0,0:0:0:0:
0,180,751437,2,0,P|41:171|79:152,1,85,8|0,1:2|0:0,0:0:0:0:
243,229,751790,5,2,1:2:0:0:
322,179,751967,1,0,0:0:0:0:
408,210,752143,1,8,1:2:0:0:
493,129,752320,1,0,0:2:0:0:
499,111,752408,1,0,0:2:0:0:
494,92,752496,5,2,1:2:0:0:
410,63,752672,1,2,0:0:0:0:
310,33,752849,1,10,1:2:0:0:
204,9,753025,1,2,0:0:0:0:
60,69,753202,6,0,P|72:107|79:175,1,85,4|0,1:2|0:0,0:0:0:0:
209,302,753555,2,0,P|194:341|189:384,1,85,12|0,1:2|0:0,0:0:0:0:
113,227,753908,2,0,P|132:234|153:238,1,42.5,4|0,1:2|0:0,0:0:0:0:
336,226,754084,5,10,0:0:0:0:
271,173,754261,1,6,1:2:0:0:
313,309,754437,1,10,0:0:0:0:
417,199,754614,6,0,P|426:157|444:119,1,85,6|0,1:2|0:0,0:0:0:0:
403,287,754967,1,8,1:2:0:0:
349,144,755143,1,0,0:0:0:0:
341,124,755231,1,0,0:0:0:0:
333,104,755320,1,2,1:2:0:0:
325,84,755408,1,0,0:0:0:0:
316,64,755496,1,2,0:0:0:0:
476,32,755672,5,10,1:2:0:0:
412,93,755849,1,2,0:0:0:0:
199,49,756025,5,0,1:2:0:0:
199,49,756202,1,0,0:0:0:0:
109,135,756378,2,0,P|70:117|28:109,1,85,8|0,1:2|0:0,0:0:0:0:
0,47,756643,1,0,0:0:0:0:
11,26,756731,1,0,1:2:0:0:
32,16,756820,1,0,0:0:0:0:
54,20,756908,1,0,0:0:0:0:
181,123,757084,5,8,1:2:0:0:
124,60,757261,1,0,0:0:0:0:
25,237,757437,5,2,1:2:0:0:
25,237,757614,1,0,0:0:0:0:
128,274,757790,1,8,1:2:0:0:
229,204,757967,1,0,0:0:0:0:
251,193,758055,1,0,0:0:0:0:
276,194,758143,1,2,1:2:0:0:
299,203,758231,1,0,0:0:0:0:
314,223,758320,1,2,0:0:0:0:
485,263,758496,5,10,1:2:0:0:
393,306,758672,1,2,0:0:0:0:
357,104,758849,6,0,P|350:73|339:50,2,42.5,6|0|0,1:2|0:0|0:0,0:0:0:0:
512,143,759202,1,12,1:2:0:0:
494,146,759290,1,0,0:0:0:0:
482,153,759378,1,0,0:0:0:0:
473,0,759555,2,0,P|463:17|454:39,1,42.5,4|0,1:2|0:0,0:0:0:0:
397,195,759731,5,10,0:2:0:0:
428,108,759908,1,6,1:2:0:0:
373,265,760084,1,10,0:0:0:0:
93,241,760261,5,4,1:2:0:0:
93,241,760437,1,0,0:0:0:0:
150,312,760614,1,8,1:2:0:0:
247,228,760790,1,0,0:0:0:0:
240,199,760878,1,0,0:0:0:0:
232,169,760967,1,2,1:2:0:0:
222,140,761055,1,0,0:0:0:0:
212,112,761143,1,2,0:0:0:0:
42,18,761320,5,8,1:2:0:0:
102,107,761496,1,2,0:0:0:0:
263,45,761672,5,2,1:2:0:0:
284,32,761760,1,0,0:0:0:0:
313,34,761849,1,0,0:0:0:0:
333,54,761937,1,0,0:0:0:0:
339,80,762025,1,8,1:2:0:0:
353,106,762114,1,0,0:0:0:0:
373,115,762202,1,0,0:0:0:0:
385,110,762290,1,0,0:0:0:0:
450,90,762378,5,2,1:2:0:0:
464,91,762466,1,0,0:0:0:0:
486,117,762554,1,2,0:0:0:0:
470,158,762642,1,0,0:0:0:0:
427,168,762730,1,10,1:2:0:0:
395,212,762820,1,2,0:0:0:0:
408,268,762907,1,2,0:0:0:0:
456,287,762996,1,2,0:0:0:0:
473,276,763084,5,2,0:0:0:0:
275,253,763664,1,2,0:0:0:0:
95,376,764245,1,2,0:0:0:0:
38,341,764438,1,2,0:0:0:0:
