osu file format v14

[General]
AudioFilename: audio.mp3
AudioLeadIn: 0
PreviewTime: 43206
Countdown: 1
SampleSet: Soft
StackLeniency: 0.7
Mode: 0
LetterboxInBreaks: 0
WidescreenStoryboard: 1

[Editor]
Bookmarks: 13585,55559
DistanceSpacing: 0.8
BeatDivisor: 4
GridSize: 8
TimelineZoom: 1.2

[Metadata]
Title:God only knows -Secrets of the Goddess- (Extract)
TitleUnicode:God only knows -Secrets of the Goddess- (Extract)
Artist:Oratorio The World God Only Knows
ArtistUnicode:Oratorio The World God Only Knows
Creator:FailureAtOsu
Version:Normal
Source:神のみぞ知るセカイ 女神篇
Tags:Kami nomi zo Shiru Sekai Saori Hayami Goddesses TV Size Opening dubledo
BeatmapID:1567012
BeatmapSetID:741652

[Difficulty]
HPDrainRate:4
CircleSize:3.5
OverallDifficulty:4
ApproachRate:4
SliderMultiplier:1.2
SliderTickRate:1

[Events]
//Background and Video events
0,0,"background.jpg",0,0
Video,0,"video.avi"
//Break Periods
//Storyboard Layer 0 (Background)
//Storyboard Layer 1 (Fail)
//Storyboard Layer 2 (Pass)
//Storyboard Layer 3 (Foreground)
//Storyboard Sound Samples

[TimingPoints]
-483,413.793103448276,3,2,2,40,1,0
344,-100,3,2,2,40,0,0
758,-100,3,2,2,40,0,0
861,-100,3,2,2,40,0,0
2310,-100,3,2,2,5,0,0
2413,-100,3,2,2,40,0,0
3551,-100,3,2,2,5,0,0
3654,-100,3,2,2,40,0,0
3965,-100,3,2,2,5,0,0
4068,-100,3,2,2,40,0,0
4379,-100,3,2,2,5,0,0
4482,-100,3,2,2,40,0,0
10585,-100,3,2,2,5,0,0
10689,-100,3,2,1,40,0,0
10792,-100,3,2,2,40,0,0
12241,-100,3,2,2,5,0,0
12344,-100,3,2,2,40,0,0
13482,-100,3,2,2,5,0,0
13585,-100,3,2,2,40,0,0
13896,-100,3,2,2,5,0,0
13999,-100,3,2,2,40,0,0
14310,-100,3,2,2,5,0,0
14413,-100,3,2,2,40,0,0
18448,-100,3,2,2,5,0,0
18551,-100,3,2,2,40,0,0
18861,-100,3,2,2,5,0,0
18965,-100,3,2,2,40,0,0
19275,-100,3,2,2,5,0,0
19379,-100,3,2,2,40,0,0
20618,352.941176470588,4,2,1,80,1,0
20618,-100,4,2,1,80,0,0
26265,-100,4,2,1,80,0,0
31912,-100,4,2,1,80,0,0
36412,-100,4,2,1,5,0,0
36500,-100,4,2,1,80,0,0
43206,-100,4,2,1,80,0,1
44706,-100,4,2,1,5,0,1
44794,-100,4,2,1,80,0,1
47529,-100,4,2,1,5,0,1
47617,-100,4,2,1,80,0,1
50353,-100,4,2,1,5,0,1
50441,-100,4,2,1,80,0,1
51941,-100,4,2,1,5,0,1
52029,-100,4,2,1,80,0,1
56000,-100,4,2,1,5,0,1
56088,-100,4,2,1,80,0,1
61647,-100,4,2,1,5,0,1
61735,-100,4,2,1,80,0,1
63235,-100,4,2,1,5,0,1
63323,-100,4,2,1,80,0,1
65794,-100,4,2,1,80,0,0
68529,-100,4,2,1,5,0,0
68617,-100,4,2,1,80,0,0
71353,-100,4,2,1,5,0,0
71441,-100,4,2,1,80,0,0
74176,-100,4,2,1,5,0,0
74265,-100,4,2,1,80,0,0
77088,-100,4,2,1,80,0,0
79294,-100,4,2,1,5,0,0
79382,-100,4,2,1,80,0,0
79823,-100,4,2,1,5,0,0
79912,-100,4,2,1,80,0,0
82117,-100,4,2,1,5,0,0
82206,-100,4,2,1,80,0,0
83088,352.941176470588,5,2,1,40,1,0
83088,-100,5,2,1,40,0,0
87499,-100,5,2,1,5,0,0
87676,-100,5,2,1,40,0,0
88382,-100,5,2,1,5,0,0

[Colours]
Combo1 : 26,116,242
Combo2 : 164,32,240
Combo3 : 37,185,239
Combo4 : 23,209,116
Combo5 : 226,45,124

[HitObjects]
55,148,344,5,2,0:0:0:0:
121,217,758,1,6,0:0:0:0:
213,190,1172,2,0,B|299:163|304:222|389:190,1,180,10|0,0:0|0:0,0:0:0:0:
431,168,1999,2,0,L|438:29,1,120,10|8,0:0|0:3,0:0:0:0:
342,64,2827,2,0,P|301:65|278:63,1,60,4|8,0:3|0:3,0:0:0:0:
234,58,3241,6,0,P|197:56|117:73,2,120,10|10|2,0:0|0:0|0:0,0:0:0:0:
286,138,4482,2,0,B|336:252|268:259|296:380,1,240,10|8,0:0|0:0,0:0:0:0:
371,315,5723,5,10,0:0:0:0:
383,219,6137,2,0,P|380:182|321:52,1,180,2|0,0:0|0:0,0:0:0:0:
279,31,6965,2,0,B|221:50|213:17|162:34,1,120,10|0,0:0|0:0,0:0:0:0:
82,89,7792,2,0,L|78:148,1,60,0|0,0:0|0:0,0:0:0:0:
48,187,8206,6,0,L|55:310,2,120,10|10|10,0:0|0:0|0:0,0:0:0:0:
84,97,9448,2,0,P|116:83|200:89,1,120,10|0,0:0|0:0,0:0:0:0:
241,110,10068,1,0,0:0:0:0:
283,132,10275,1,2,0:0:0:0:
377,206,10689,5,6,0:0:0:0:
296,259,11103,2,0,P|214:294|108:270,1,180,10|0,0:0|0:0,0:0:0:0:
87,252,11930,2,0,L|77:130,1,120,10|8,0:0|0:3,0:0:0:0:
139,59,12758,2,0,P|171:49|198:50,1,60,4|8,0:3|0:3,0:0:0:0:
242,67,13172,6,0,P|275:70|361:34,2,120,10|10|2,0:0|0:0|0:0,0:0:0:0:
152,33,14413,2,0,P|99:30|89:177,1,240,10|8,0:0|0:0,0:0:0:0:
174,207,15654,5,10,0:0:0:0:
256,157,16068,2,0,P|297:142|408:204,1,180,10|0,0:0|0:0,0:0:0:0:
424,248,16896,2,0,L|430:370,1,120,10|0,0:0|0:0,0:0:0:0:
339,336,17723,2,0,P|308:331|272:335,1,60,8|8,0:0|0:0,0:0:0:0:
232,343,18137,6,0,P|176:351|113:336,2,120,2|2|2,0:0|0:0|0:0,0:0:0:0:
285,263,19379,1,2,0:0:0:0:
254,172,19792,1,2,0:0:0:0:
187,241,20206,1,2,0:0:0:0:
285,263,20618,5,4,0:0:0:0:
285,263,21853,2,0,L|347:269,1,60,0|4,0:0|0:0,0:0:0:0:
227,121,23441,5,4,0:0:0:0:
227,121,24676,2,0,L|165:115,1,60,0|4,0:0|0:0,0:0:0:0:
256,191,26265,6,0,P|290:198|367:161,1,120,4|8,0:0|0:0,0:0:0:0:
407,77,26970,1,0,0:0:0:0:
470,149,27323,1,8,0:0:0:0:
429,235,27676,2,0,L|421:356,1,120,0|8,0:0|0:0,0:0:0:0:
331,318,28382,2,0,P|272:313|222:345,1,120,0|8,2:0|0:0,0:0:0:0:
128,368,29088,6,0,L|8:358,1,120,0|8,0:0|0:0,0:0:0:0:
51,271,29794,1,0,0:0:0:0:
19,180,30147,1,8,0:0:0:0:
71,99,30500,2,0,L|191:89,1,120,0|8,0:0|0:0,0:0:0:0:
260,155,31206,2,0,L|380:145,1,120,0|8,0:0|0:0,0:0:0:0:
443,217,31912,6,0,P|456:248|433:334,2,120,6|8|2,0:0|0:0|0:0,0:0:0:0:
379,145,32970,1,8,0:0:0:0:
410,54,33323,2,0,L|413:-6,2,60,2|0|8,0:0|0:0|0:0,0:0:0:0:
379,145,34029,1,2,0:0:0:0:
285,164,34382,1,8,0:0:0:0:
221,92,34735,6,0,B|99:86,1,120,2|8,0:0|0:0,0:0:0:0:
18,134,35441,2,0,P|4:163|17:253,1,120,2|8,0:0|0:0,0:0:0:0:
48,281,35970,1,8,0:0:0:0:
96,277,36147,2,0,L|217:269,1,120,2|8,0:0|0:0,0:0:0:0:
263,263,36676,1,0,0:0:0:0:
292,225,36853,2,0,P|298:188|283:99,1,120,2|2,0:0|0:0,0:0:0:0:
208,50,37559,6,0,L|88:42,2,120,2|8|2,0:0|0:0|0:0,0:0:0:0:
286,107,38617,1,8,0:0:0:0:
362,48,38970,2,0,P|377:77|365:161,1,120,2|8,0:0|0:0,0:0:0:0:
306,236,39676,2,0,P|293:264|290:294,2,60,2|0|8,0:0|0:0|0:0,0:0:0:0:
365,160,40382,6,0,L|487:155,1,120,2|8,0:0|0:0,0:0:0:0:
453,64,41088,2,0,L|388:67,2,60,2|0|8,0:0|0:0|0:0,0:0:0:0:
484,155,41794,2,0,P|492:196|470:273,1,120,2|8,0:0|0:0,0:0:0:0:
392,324,42500,2,0,P|351:332|274:310,1,120,2|8,0:0|0:0,0:0:0:0:
213,239,43206,5,4,0:0:0:0:
259,154,43559,2,0,P|264:110|242:34,2,120,10|2|10,0:0|0:0|0:0,0:0:0:0:
232,194,44441,2,0,L|106:203,1,120,2|2,0:0|0:0,0:0:0:0:
17,219,45147,2,0,P|16:180|64:117,1,120,2|0,0:0|0:0,0:0:0:0:
107,100,45676,1,10,0:0:0:0:
202,109,46029,5,0,0:0:0:0:
280,53,46382,2,0,L|402:44,2,120,10|2|10,0:0|0:0|0:0,0:0:0:0:
236,31,47265,2,0,L|114:22,1,120,2|2,0:0|0:0,0:0:0:0:
160,107,47970,2,0,P|167:146|150:224,1,120,2|0,0:0|0:0,0:0:0:0:
120,262,48500,1,8,0:0:0:0:
182,334,48853,5,0,0:0:0:0:
277,341,49206,2,0,L|396:349,2,120,10|2|10,0:0|0:0|0:0,0:0:0:0:
250,300,50088,2,0,P|242:266|276:189,1,120,2|2,0:0|0:0,0:0:0:0:
341,121,50794,2,0,L|460:112,1,120,2|0,0:0|0:0,0:0:0:0:
508,108,51323,1,10,0:0:0:0:
458,189,51676,6,0,P|451:219|469:307,1,120,2|8,0:0|0:0,0:0:0:0:
497,342,52206,1,2,0:0:0:0:
369,275,52735,2,0,P|346:253|261:225,1,120,10|0,0:0|0:0,0:0:0:0:
217,232,53265,1,2,0:0:0:0:
73,240,53794,2,0,L|8:244,2,60,2|8|8,0:0|0:0|0:0,0:0:0:0:
144,174,54500,5,4,0:0:0:0:
213,107,54853,2,0,L|332:99,2,120,10|2|10,0:0|0:0|0:0,0:0:0:0:
180,142,55735,2,0,P|148:149|65:112,1,120,2|2,0:0|0:0,0:0:0:0:
4,46,56441,2,0,L|11:165,1,120,2|0,0:0|0:0,0:0:0:0:
14,213,56970,1,10,0:0:0:0:
16,302,57323,5,0,0:0:0:0:
98,253,57676,1,10,0:0:0:0:
187,288,58029,2,0,L|306:280,1,120,2|10,0:0|0:0,0:0:0:0:
347,254,58559,2,0,L|466:246,1,120,2|2,0:0|0:0,0:0:0:0:
430,157,59265,2,0,B|402:105|445:95|420:35,1,120,2|0,0:0|0:0,0:0:0:0:
387,7,59794,1,8,0:0:0:0:
303,54,60147,5,0,0:0:0:0:
216,12,60500,2,0,L|96:19,2,120,10|2|10,0:0|0:0|0:0,0:0:0:0:
259,32,61382,2,0,P|272:61|264:150,1,120,2|2,0:0|0:0,0:0:0:0:
213,228,62088,2,0,P|201:286|219:342,1,120,2|0,0:0|0:0,0:0:0:0:
263,362,62617,1,10,0:0:0:0:
313,280,62970,6,0,L|319:158,1,120,2|8,0:0|0:0,0:0:0:0:
322,111,63500,1,2,0:0:0:0:
185,157,64029,2,0,P|146:172|61:150,1,120,10|0,0:0|0:0,0:0:0:0:
35,124,64559,1,2,0:0:0:0:
154,43,65088,2,0,L|213:46,2,60,0|8|8,0:0|0:0|0:0,0:0:0:0:
66,3,65794,6,0,L|7:0,2,60,6|2|10,0:0|0:0|0:0,0:0:0:0:
67,99,66500,1,2,0:0:0:0:
146,152,66853,2,0,L|205:149,2,60,10|2|2,0:0|0:0|0:0,0:0:0:0:
145,248,67559,1,10,0:0:0:0:
76,315,67912,2,0,L|17:312,2,60,2|2|10,0:0|0:0|0:0,0:0:0:0:
167,343,68617,6,0,L|226:346,2,60,2|2|10,0:0|0:0|0:0,0:0:0:0:
145,248,69323,1,2,0:0:0:0:
209,176,69676,2,0,L|268:179,2,60,10|2|2,0:0|0:0|0:0,0:0:0:0:
187,81,70382,2,0,L|128:78,1,60,10|2,0:0|0:0,0:0:0:0:
87,50,70735,2,0,L|28:47,2,60,2|8|0,0:0|0:0|0:0,0:0:0:0:
56,141,71441,6,0,P|50:167|49:208,2,60,2|2|10,0:0|0:0|0:0,0:0:0:0:
87,50,72147,1,2,0:0:0:0:
151,122,72500,2,0,P|176:114|212:94,2,60,10|2|2,0:0|0:0|0:0,0:0:0:0:
56,141,73206,1,10,0:0:0:0:
121,211,73559,2,0,L|129:271,2,60,2|2|10,0:0|0:0|0:0,0:0:0:0:
151,122,74265,6,0,L|159:62,2,60,2|2|10,0:0|0:0|0:0,0:0:0:0:
219,188,74970,2,0,P|226:223|226:249,1,60,2|2,0:0|0:0,0:0:0:0:
214,293,75323,2,0,L|222:353,2,60,10|2|2,0:0|0:0|0:0,0:0:0:0:
135,237,76029,2,0,L|143:177,1,60,10|2,0:0|0:0,0:0:0:0:
152,130,76382,2,0,P|150:73|114:19,1,120,2|2,0:0|0:0,0:0:0:0:
65,102,77088,6,0,L|61:174,2,60,2|2|10,0:0|0:0|0:0,0:0:0:0:
32,66,77617,1,2,0:0:0:0:
116,21,77970,1,2,0:0:0:0:
201,64,78323,1,2,0:0:0:0:
285,19,78676,1,2,0:0:0:0:
373,57,79029,6,0,L|380:180,1,120,2|10,0:0|0:0,0:0:0:0:
383,225,79559,1,10,0:0:0:0:
298,269,79912,6,0,P|266:276|231:276,2,60,2|2|10,0:0|0:0|0:0,0:0:0:0:
329,304,80441,1,2,0:0:0:0:
383,225,80794,1,2,0:0:0:0:
333,142,81147,1,2,0:0:0:0:
396,68,81500,1,2,0:0:0:0:
486,105,81853,1,2,0:0:0:0:
478,202,82206,2,0,L|476:261,2,60,8|10|10,0:0|0:0|0:0,0:0:0:0:
364,113,83088,6,0,P|297:65|207:93,2,180,2|2|2,0:0|0:0|0:0,0:0:0:0:
278,157,84499,1,2,0:0:0:0:
186,185,84852,2,0,L|5:194,2,180,2|2|2,0:0|0:0|0:0,0:0:0:0:
278,157,86264,1,2,0:0:0:0:
352,96,86617,6,0,P|369:127|252:251,1,240,2|0,0:0|0:0,0:0:0:0:
163,223,87676,2,0,P|59:266|66:378,1,240,2|0,0:0|0:0,0:0:0:0:
