osu file format v14

[General]
AudioFilename: audio.mp3
AudioLeadIn: 0
PreviewTime: 54500
Countdown: 0
SampleSet: Soft
StackLeniency: 0.7
Mode: 0
LetterboxInBreaks: 0
WidescreenStoryboard: 0

[Editor]
Bookmarks: 22029,73029,77088,77617,83088,88382
DistanceSpacing: 0.5
BeatDivisor: 4
GridSize: 4
TimelineZoom: 1.8

[Metadata]
Title:God only knows -Secrets of the Goddess- (Extract)
TitleUnicode:God only knows —Secrets of the Goddess— (Extract)
Artist:Oratorio The World God Only Knows
ArtistUnicode:Oratorio The World God Only Knows
Creator:DavidEd
Version:Insane
Source:神のみぞ知るセカイ 女神篇
Tags:Kami nomi zo Shiru Sekai Saori Hayami [_L_u_k_a_s_] Benny- bennybananas Megami hen megami-hen Goddesses OP Opening TV Size 早見沙織
BeatmapID:1465778
BeatmapSetID:692711

[Difficulty]
HPDrainRate:6
CircleSize:3.5
OverallDifficulty:8
ApproachRate:8.5
SliderMultiplier:1.8
SliderTickRate:1

[Events]
//Background and Video events
0,0,"wgok.jpg",0,0
Video,-378,"video.avi"
//Break Periods
//Storyboard Layer 0 (Background)
//Storyboard Layer 1 (Fail)
//Storyboard Layer 2 (Pass)
//Storyboard Layer 3 (Foreground)
//Storyboard Sound Samples

[TimingPoints]
-485,413.793103448276,3,2,1,60,1,0
342,-200,3,2,2,60,0,0
652,-200,3,2,1,5,0,0
756,-100,3,2,1,60,0,0
1066,-100,3,2,1,5,0,0
1170,-125,3,2,2,60,0,0
1583,-125,3,2,1,60,0,0
1790,-125,3,2,2,60,0,0
2411,-125,3,3,1,60,0,0
3239,-100,3,2,2,60,0,0
3549,-100,3,2,1,5,0,0
3652,-125,3,2,2,60,0,0
3963,-125,3,2,1,5,0,0
4066,-125,3,2,2,60,0,0
4377,-125,3,2,1,5,0,0
4480,-125,3,2,2,60,0,0
5618,-125,3,2,1,5,0,0
5721,-100,3,2,2,60,0,0
6032,-100,3,2,1,5,0,0
6135,-100,3,2,2,60,0,0
6963,-125,3,2,2,60,0,0
8515,-125,3,2,1,5,0,0
8618,-111.111111111111,3,2,2,60,0,0
8928,-111.111111111111,3,2,1,5,0,0
9032,-99.9999999999999,3,2,2,60,0,0
9342,-99.9999999999999,3,2,1,5,0,0
9446,-99.9999999999999,3,2,2,60,0,0
9756,-99.9999999999999,3,2,1,5,0,0
9859,-99.9999999999999,3,2,2,60,0,0
10997,-99.9999999999999,3,2,1,5,0,0
11101,-125,3,2,2,60,0,0
12342,-125,3,3,1,60,0,0
13170,-100,3,2,2,60,0,0
13480,-100,3,2,1,5,0,0
13583,-125,3,2,2,60,0,0
13894,-125,3,2,1,5,0,0
13997,-125,3,2,2,60,0,0
14308,-125,3,2,1,5,0,0
14411,-125,3,2,2,60,0,0
15549,-125,3,2,1,5,0,0
15652,-100,3,2,2,60,0,0
15963,-100,3,2,1,5,0,0
16066,-100,3,2,2,60,0,0
16894,-125,3,2,2,60,0,0
18963,-100,3,2,2,60,0,0
20204,-125,3,2,2,60,0,0
20515,-125,3,2,1,5,0,0
20618,352.941176470588,4,2,1,70,1,0
26265,-83.3333333333333,4,2,1,70,0,0
31912,-100,4,2,1,70,0,0
39235,-100,4,2,1,70,0,0
39323,-100,4,2,1,70,0,0
40647,-100,4,2,1,5,0,0
40735,-100,4,2,1,70,0,0
43206,-90.9090909090909,4,2,1,80,0,1
54147,-90.9090909090909,4,2,1,80,0,0
54500,-90.9090909090909,4,2,1,80,0,1
65794,-90.9090909090909,4,3,1,70,0,0
77088,-100,4,2,1,70,0,0
83088,-133.333333333333,4,2,2,50,0,0
83529,-133.333333333333,4,2,1,5,0,0
83617,-181.818181818182,4,2,2,50,0,0
84059,-133.333333333333,4,2,1,5,0,0
84147,-133.333333333333,4,2,2,50,0,0
84853,-133.333333333333,4,2,2,50,0,0
85294,-133.333333333333,4,2,1,5,0,0
85382,-181.818181818182,4,2,2,50,0,0
85823,-133.333333333333,4,2,1,5,0,0
85912,-133.333333333333,4,2,2,50,0,0
87588,-133.333333333333,4,2,1,5,0,0
87676,-200,4,2,2,50,0,0
88382,-200,4,2,1,15,0,0

[Colours]
Combo1 : 95,128,160
Combo2 : 218,177,143
Combo3 : 188,208,153
Combo4 : 169,185,192

[HitObjects]
132,124,342,6,0,P|168:136|204:132,1,67.5,2|0,0:0|0:0,0:0:0:0:
264,76,756,6,0,P|240:136|256:204,1,135,4|0,0:0|0:0,0:0:0:0:
324,260,1170,2,0,L|467:251,1,144,2|0,0:0|0:0,0:0:0:0:
388,148,1790,1,2,0:0:0:0:
300,296,1997,1,2,0:0:0:0:
300,296,2411,5,8,0:0:0:0:
212,68,2618,1,8,0:0:0:0:
124,216,2825,1,4,0:0:0:0:
388,148,3032,1,8,0:0:0:0:
184,56,3239,6,0,L|48:63,1,135,2|0,0:0|0:0,0:0:0:0:
20,48,3652,2,0,P|40:100|36:164,1,108,2|0,0:0|0:0,0:0:0:0:
28,184,4066,2,0,P|80:172|133:181,1,108,2|0,0:0|0:0,0:0:0:0:
212,228,4480,2,0,P|283:247|351:235,1,144,2|0,0:0|0:0,0:0:0:0:
351,234,5308,2,0,P|350:180|370:130,1,108,2|0,0:0|0:0,0:0:0:0:
424,64,5721,6,0,P|368:92|280:72,1,135,2|0,0:0|0:0,0:0:0:0:
220,40,6135,2,0,B|188:124|252:124|220:228,1,180,2|0,0:0|0:0,0:0:0:0:
298,82,6756,1,2,0:0:0:0:
140,172,6963,2,0,B|100:192|60:184|60:184|44:216|60:244,1,144,2|0,0:0|0:0,0:0:0:0:
59,242,7790,1,2,0:0:0:0:
140,172,7997,1,2,0:0:0:0:
232,320,8204,6,0,P|288:340|340:332,1,108,2|0,0:0|0:0,0:0:0:0:
404,280,8618,2,0,L|416:140,1,121.499996292114,2|0,0:0|0:0,0:0:0:0:
480,100,9032,2,0,P|416:72|352:96,1,135,2|0,0:0|0:0,0:0:0:0:
300,160,9446,2,0,P|236:180|160:164,1,135,2|0,0:0|0:0,0:0:0:0:
136,156,9859,2,0,P|152:200|148:248,1,90,2|0,0:0|0:0,0:0:0:0:
16,332,10273,1,2,0:0:0:0:
68,214,10480,1,0,0:0:0:0:
236,332,10687,6,0,P|308:352|364:336,1,135,6|0,0:0|0:0,0:0:0:0:
424,276,11101,2,0,L|410:120,1,144,2|0,0:0|0:0,0:0:0:0:
448,28,11721,1,2,0:0:0:0:
316,92,11928,1,2,0:0:0:0:
316,92,12342,5,8,0:0:0:0:
228,320,12549,1,8,0:0:0:0:
140,172,12756,1,4,0:0:0:0:
404,240,12963,1,8,0:0:0:0:
196,332,13170,6,0,L|60:324,1,135,2|0,0:0|0:0,0:0:0:0:
32,324,13583,2,0,P|41:271|32:218,1,108,2|0,0:0|0:0,0:0:0:0:
20,192,13997,2,0,P|73:196|125:183,1,108,2|0,0:0|0:0,0:0:0:0:
212,152,14411,2,0,L|225:307,1,144,2|0,0:0|0:0,0:0:0:0:
224,295,15239,2,0,P|276:281|329:285,1,108,2|0,0:0|0:0,0:0:0:0:
396,336,15652,6,0,P|368:276|380:208,1,135,2|0,0:0|0:0,0:0:0:0:
464,172,16066,2,0,P|400:120|312:144,1,180,2|0,0:0|0:0,0:0:0:0:
224,295,16687,1,2,0:0:0:0:
378,210,16894,2,0,B|392:164|392:164|370:70,1,144,2|0,0:0|0:0,0:0:0:0:
370,70,17721,1,2,0:0:0:0:
300,160,17928,1,2,0:0:0:0:
124,56,18135,6,0,L|211:48,1,72,2|0,0:0|0:0,0:0:0:0:
300,160,18549,2,0,L|228:166,1,72,2|0,0:0|0:0,0:0:0:0:
92,44,18963,2,0,L|195:34,1,90,2|0,0:0|0:0,0:0:0:0:
328,176,19377,2,0,L|238:183,1,90,2|0,0:0|0:0,0:0:0:0:
92,44,19790,1,2,0:0:0:0:
160,112,19997,1,2,0:0:0:0:
68,141,20204,2,0,P|64:85|93:42,1,108,2|0,0:0|0:0,0:0:0:0:
256,48,20618,5,6,0:0:0:0:
256,48,21853,1,2,0:0:0:0:
256,336,22029,1,6,0:0:0:0:
420,192,23441,5,6,0:0:0:0:
420,192,24676,1,2,0:0:0:0:
92,192,24853,1,6,0:0:0:0:
256,192,26265,6,0,P|272:240|264:304,1,107.999996704102,6|0,0:0|0:0,0:0:0:0:
72,192,26617,2,0,P|66:138|82:87,1,107.999996704102,8|0,0:0|0:0,0:0:0:0:
144,32,26882,1,0,0:0:0:0:
152,40,26970,2,0,L|207:37,2,53.9999983520508,2|0|0,0:0|0:0|0:0,0:0:0:0:
72,192,27323,1,8,0:0:0:0:
328,116,27500,1,8,3:0:0:0:
328,116,27588,1,4,3:0:0:0:
328,116,27676,6,0,L|439:121,1,107.999996704102,6|0,0:0|0:0,0:0:0:0:
328,288,28029,2,0,L|217:293,1,107.999996704102,8|0,0:0|0:0,0:0:0:0:
180,304,28294,1,0,0:0:0:0:
190,269,28382,1,2,0:0:0:0:
190,233,28470,1,0,0:0:0:0:
179,199,28558,1,0,0:0:0:0:
324,52,28735,2,0,P|316:108|334:175,1,107.999996704102,8|0,0:0|0:0,0:0:0:0:
435,283,29088,6,0,B|327:288,1,107.999996704102,2|0,0:0|0:0,0:0:0:0:
179,199,29441,1,8,0:0:0:0:
344,36,29617,1,8,0:0:0:0:
354,60,29705,1,8,0:0:0:0:
356,87,29794,2,0,P|344:144|352:192,1,107.999996704102,6|0,0:0|0:0,0:0:0:0:
182,304,30147,2,0,P|190:250|178:198,1,107.999996704102,8|0,0:0|0:0,0:0:0:0:
128,20,30500,5,2,0:0:0:0:
61,134,30676,1,0,0:0:0:0:
245,84,30853,2,0,B|288:72|288:72|352:84,1,107.999996704102,8|0,0:0|0:0,0:0:0:0:
464,260,31206,5,2,0:0:0:0:
432,285,31294,1,8,0:0:0:0:
394,297,31382,1,2,0:0:0:0:
354,294,31470,1,2,0:0:0:0:
318,276,31559,1,8,0:0:0:0:
286,250,31647,1,8,0:0:0:0:
248,238,31735,1,8,0:0:0:0:
208,241,31823,1,8,0:0:0:0:
172,259,31912,6,0,P|144:292|132:336,1,90,6|0,0:0|0:0,0:0:0:0:
286,250,32265,2,0,L|276:154,1,90,8|0,0:0|0:0,0:0:0:0:
148,36,32617,2,0,L|138:125,1,90,2|0,0:0|0:0,0:0:0:0:
84,252,32970,2,0,P|123:263|171:259,1,90,8|8,0:0|0:0,0:0:0:0:
344,96,33323,5,2,0:0:0:0:
419,215,33500,1,0,0:0:0:0:
223,171,33676,1,8,0:0:0:0:
344,96,33853,1,0,0:0:0:0:
299,290,34029,2,0,P|291:342|295:378,1,90,2|0,0:0|0:0,0:0:0:0:
419,215,34382,1,8,0:0:0:0:
223,171,34559,1,8,0:0:0:0:
223,171,34647,1,8,0:0:0:0:
223,171,34735,6,0,L|111:176,1,90,2|0,0:0|0:0,0:0:0:0:
20,44,35088,2,0,L|109:48,1,90,8|0,0:0|0:0,0:0:0:0:
280,96,35441,2,0,P|289:53|273:4,1,90,2|0,0:0|0:0,0:0:0:0:
133,175,35794,1,8,0:0:0:0:
200,56,35970,1,8,0:0:0:0:
264,264,36147,6,0,P|272:316|268:352,1,90,2|0,0:0|0:0,0:0:0:0:
92,312,36500,1,8,0:0:0:0:
159,193,36676,1,0,0:0:0:0:
267,352,36853,1,2,0:0:0:0:
60,304,37029,1,8,0:0:0:0:
299,360,37206,1,2,0:0:0:0:
28,296,37382,1,8,0:0:0:0:
244,180,37559,6,0,P|256:228|252:268,1,90,2|0,0:0|0:0,0:0:0:0:
76,180,37912,2,0,P|72:135|84:92,1,90,8|0,0:0|0:0,0:0:0:0:
212,32,38265,2,0,L|319:37,1,90,2|0,0:0|0:0,0:0:0:0:
384,212,38617,1,8,0:0:0:0:
252,120,38794,1,8,0:0:0:0:
155,323,38970,6,0,P|219:323|251:255,1,135,2|0,0:0|0:0,0:0:0:0:
243,235,39323,2,0,B|151:230,1,90,8|0,0:0|0:0,0:0:0:0:
80,56,39676,1,2,0:0:0:0:
204,148,39853,1,0,0:0:0:0:
334,64,40029,2,0,P|370:56|422:64,1,90,8|0,0:0|0:0,0:0:0:0:
336,288,40382,6,0,L|188:295,1,135,2|0,0:0|0:0,0:0:0:0:
172,308,40735,2,0,P|176:260|160:212,1,90,8|0,0:0|0:0,0:0:0:0:
68,104,41088,1,2,0:0:0:0:
15,245,41265,1,0,0:0:0:0:
164,220,41441,2,0,L|263:225,1,90,8|0,0:0|0:0,0:0:0:0:
424,84,41794,6,0,L|325:89,1,90,2|0,0:0|0:0,0:0:0:0:
253,224,42147,1,8,0:0:0:0:
334,88,42323,1,0,0:0:0:0:
416,316,42500,5,8,0:0:0:0:
378,340,42588,1,8,0:0:0:0:
334,348,42676,1,8,0:0:0:0:
290,338,42764,1,8,0:0:0:0:
253,313,42853,1,8,0:0:0:0:
215,288,42941,1,8,0:0:0:0:
171,280,43029,1,8,0:0:0:0:
127,290,43117,1,8,0:0:0:0:
90,315,43206,6,0,P|76:276|84:207,1,99.0000030212403,6|0,0:0|0:0,0:0:0:0:
240,40,43559,2,0,L|249:147,1,99.0000030212403,10|0,0:0|0:0,0:0:0:0:
216,220,43823,1,0,0:0:0:0:
210,246,43912,1,2,0:0:0:0:
128,92,44088,1,0,0:0:0:0:
300,228,44265,1,10,0:0:0:0:
52,332,44441,6,0,P|48:284|60:236,1,99.0000030212403,0|2,0:0|0:0,0:0:0:0:
291,131,44794,2,0,P|303:178|299:227,1,99.0000030212403,0|10,0:0|0:0,0:0:0:0:
140,332,45147,1,0,0:0:0:0:
138,312,45235,1,0,0:0:0:0:
136,292,45323,1,2,0:0:0:0:
216,188,45500,1,0,0:0:0:0:
336,348,45676,1,10,0:0:0:0:
224,277,45853,1,0,0:0:0:0:
412,192,46029,6,0,L|511:197,1,99.0000030212403,2|0,0:0|0:0,0:0:0:0:
336,348,46382,2,0,L|236:353,1,99.0000030212403,10|0,0:0|0:0,0:0:0:0:
140,156,46735,1,2,0:0:0:0:
279,261,46912,1,0,0:0:0:0:
113,329,47088,1,10,0:0:0:0:
312,248,47265,6,0,P|360:244|412:252,1,99.0000030212403,0|2,0:0|0:0,0:0:0:0:
308,68,47617,2,0,P|260:72|208:64,1,99.0000030212403,0|10,0:0|0:0,0:0:0:0:
76,200,47970,1,0,0:0:0:0:
96,198,48058,1,0,0:0:0:0:
116,196,48146,1,2,0:0:0:0:
209,64,48323,1,8,0:0:0:0:
312,248,48500,1,8,0:0:0:0:
261,156,48676,1,0,0:0:0:0:
136,352,48853,6,0,P|184:340|240:348,1,99.0000030212403,6|0,0:0|0:0,0:0:0:0:
408,254,49206,2,0,P|359:259|311:247,1,99.0000030212403,10|0,0:0|0:0,0:0:0:0:
232,204,49470,1,0,0:0:0:0:
232,204,49559,1,2,0:0:0:0:
136,352,49735,1,0,0:0:0:0:
311,247,49912,1,10,0:0:0:0:
128,144,50088,6,0,L|24:149,1,99.0000030212403,4|2,0:0|0:0,0:0:0:0:
136,352,50441,2,0,L|240:357,1,99.0000030212403,0|10,0:0|0:0,0:0:0:0:
420,236,50794,1,0,0:0:0:0:
435,256,50882,1,0,0:0:0:0:
440,279,50970,1,2,0:0:0:0:
312,308,51147,1,0,0:0:0:0:
348,140,51323,2,0,P|352:92|340:40,1,99.0000030212403,10|0,0:0|0:0,0:0:0:0:
100,140,51676,6,0,P|89:188|93:237,1,99.0000030212403,6|0,0:0|0:0,0:0:0:0:
264,336,52029,1,10,0:0:0:0:
184,200,52206,1,0,0:0:0:0:
184,200,52294,1,0,0:0:0:0:
184,200,52382,1,2,0:0:0:0:
107,338,52559,1,0,0:0:0:0:
341,198,52735,1,10,0:0:0:0:
208,44,52912,6,0,P|196:92|208:148,1,99.0000030212403,4|2,0:0|0:0,0:0:0:0:
428,244,53265,2,0,P|436:195|424:147,1,99.0000030212403,0|10,0:0|0:0,0:0:0:0:
336,48,53617,1,0,0:0:0:0:
236,224,53794,5,2,0:0:0:0:
226,246,53882,1,2,0:0:0:0:
215,268,53970,2,0,L|163:272,1,49.5000015106202,8|2,0:0|0:0,0:0:0:0:
56,132,54147,1,8,0:0:0:0:
91,98,54235,1,8,0:0:0:0:
137,80,54323,1,8,0:0:0:0:
186,81,54411,1,8,0:0:0:0:
231,101,54500,6,0,P|287:113|331:105,1,99.0000030212403,6|0,0:0|0:0,0:0:0:0:
432,288,54853,2,0,P|383:281|335:293,1,99.0000030212403,10|0,0:0|0:0,0:0:0:0:
260,324,55117,1,0,0:0:0:0:
254,298,55206,1,2,0:0:0:0:
327,106,55382,1,0,0:0:0:0:
432,288,55559,1,10,0:0:0:0:
172,244,55735,6,0,L|64:249,1,99.0000030212403,0|2,0:0|0:0,0:0:0:0:
176,76,56088,2,0,L|274:80,1,99.0000030212403,0|10,0:0|0:0,0:0:0:0:
436,192,56441,1,0,0:0:0:0:
447,168,56529,1,0,0:0:0:0:
447,143,56617,1,2,0:0:0:0:
360,24,56794,1,0,0:0:0:0:
220,172,56970,2,0,P|176:180|120:168,1,99.0000030212403,10|0,0:0|0:0,0:0:0:0:
336,112,57323,6,0,L|345:219,1,99.0000030212403,2|0,0:0|0:0,0:0:0:0:
224,344,57676,1,10,0:0:0:0:
104,136,57853,1,0,0:0:0:0:
104,136,57941,1,0,0:0:0:0:
104,136,58029,1,2,0:0:0:0:
224,224,58206,1,0,0:0:0:0:
241,77,58382,1,10,0:0:0:0:
88,280,58559,6,0,P|80:332|92:388,1,99.0000030212403,0|2,0:0|0:0,0:0:0:0:
280,276,58912,2,0,P|287:227|279:178,1,99.0000030212403,0|10,0:0|0:0,0:0:0:0:
140,52,59265,1,0,0:0:0:0:
138,72,59353,1,0,0:0:0:0:
136,92,59441,1,2,0:0:0:0:
280,276,59617,1,0,0:0:0:0:
233,86,59794,1,10,0:0:0:0:
163,203,59970,1,0,0:0:0:0:
359,161,60147,6,0,L|462:166,1,99.0000030212403,6|0,0:0|0:0,0:0:0:0:
368,352,60500,2,0,L|269:356,1,99.0000030212403,10|0,0:0|0:0,0:0:0:0:
196,316,60765,1,0,0:0:0:0:
169,312,60854,1,2,0:0:0:0:
268,172,61029,1,0,0:0:0:0:
368,352,61206,1,10,0:0:0:0:
172,212,61382,6,0,P|166:163|177:114,1,99.0000030212403,4|2,0:0|0:0,0:0:0:0:
364,216,61735,2,0,P|374:264|369:313,1,99.0000030212403,0|10,0:0|0:0,0:0:0:0:
169,312,62088,1,0,0:0:0:0:
192,298,62176,1,0,0:0:0:0:
217,299,62264,1,2,0:0:0:0:
368,352,62441,1,0,0:0:0:0:
256,204,62617,2,0,P|250:155|261:106,1,99.0000030212403,10|0,0:0|0:0,0:0:0:0:
504,276,62970,6,0,B|412:316|412:232|312:280,1,198.000006042481,6|10,0:0|0:0,0:0:0:0:
196,340,63500,1,0,0:0:0:0:
196,340,63588,1,0,0:0:0:0:
196,340,63676,2,0,P|204:292|188:240,1,99.0000030212403,2|0,0:0|0:0,0:0:0:0:
124,112,64029,1,10,0:0:0:0:
18,296,64206,6,0,P|66:307|114:296,1,99.0000030212403,4|2,0:0|0:0,0:0:0:0:
260,172,64559,1,0,0:0:0:0:
65,211,64735,1,10,0:0:0:0:
272,184,64912,1,0,0:0:0:0:
272,184,65000,1,0,0:0:0:0:
272,184,65088,2,0,L|339:189,1,49.5000015106202,2|2,0:0|0:0,0:0:0:0:
432,316,65265,2,0,L|364:321,1,49.5000015106202,8|2,0:0|0:0,0:0:0:0:
288,276,65441,2,0,L|168:265,1,99.0000030212403,8|8,0:0|0:0,0:0:0:0:
108,276,65706,1,8,0:0:0:0:
106,256,65794,5,12,0:0:0:0:
216,48,65970,1,12,0:0:0:0:
288,276,66147,1,12,0:0:0:0:
296,296,66500,1,0,0:0:0:0:
304,316,66853,5,12,0:0:0:0:
232,88,67030,1,12,0:0:0:0:
122,296,67206,1,12,0:0:0:0:
114,316,67559,1,8,2:0:0:0:
106,336,67912,5,12,0:0:0:0:
216,128,68088,1,12,0:0:0:0:
284,352,68265,1,12,0:0:0:0:
284,352,68617,5,12,0:0:0:0:
404,180,68794,1,12,0:0:0:0:
208,44,68970,1,12,0:0:0:0:
189,32,69323,1,0,0:0:0:0:
170,20,69676,5,12,0:0:0:0:
366,156,69852,1,12,0:0:0:0:
246,328,70029,1,12,0:0:0:0:
233,345,70382,1,8,2:0:0:0:
220,362,70735,5,12,0:0:0:0:
340,190,70912,1,12,0:0:0:0:
144,54,71088,1,12,0:0:0:0:
144,54,71441,5,12,0:0:0:0:
381,93,71617,1,12,0:0:0:0:
168,216,71794,1,12,0:0:0:0:
149,227,72147,1,0,0:0:0:0:
130,238,72500,5,12,0:0:0:0:
343,115,72677,1,12,0:0:0:0:
106,76,72853,1,12,0:0:0:0:
84,72,73206,1,8,2:0:0:0:
62,68,73559,5,12,0:0:0:0:
299,107,73735,1,12,0:0:0:0:
86,230,73912,1,12,0:0:0:0:
86,230,74265,5,12,0:0:0:0:
264,106,74441,1,12,0:0:0:0:
388,286,74617,1,12,0:0:0:0:
399,302,74970,1,0,0:0:0:0:
410,318,75323,5,12,0:0:0:0:
286,138,75499,1,12,0:0:0:0:
108,262,75676,1,12,0:0:0:0:
92,273,76029,1,8,2:0:0:0:
76,284,76382,5,12,0:0:0:0:
254,160,76559,1,12,0:0:0:0:
378,340,76735,2,0,P|380:288|364:244,1,99.0000030212403,12|0,0:0|0:0,0:0:0:0:
236,92,77088,5,6,0:0:0:0:
208,208,77265,1,0,0:0:0:0:
323,175,77442,1,8,0:0:0:0:
121,125,77617,2,0,B|60:100|4:132|4:132|32:144|48:176,1,180,6|2,0:0|0:0,0:0:0:0:
124,276,78147,1,8,0:0:0:0:
254,160,78323,6,0,P|302:152|346:160,1,90,6|0,0:0|0:0,0:0:0:0:
434,304,78676,2,0,P|389:310|345:302,1,90,2|8,0:0|0:0,0:0:0:0:
170,124,79029,2,0,B|134:208|222:208|166:312,1,180,6|2,0:0|0:0,0:0:0:0:
80,120,79559,1,8,0:0:0:0:
92,77,79647,1,8,0:0:0:0:
123,45,79735,1,8,0:0:0:0:
166,32,79823,1,8,0:0:0:0:
210,42,79912,6,0,P|258:50|300:44,2,90,6|0|8,0:0|0:0|0:0,0:0:0:0:
80,120,80441,2,0,P|71:164|78:208,1,90,6|0,0:0|0:0,0:0:0:0:
228,300,80794,2,0,P|235:255|226:211,1,90,2|8,0:0|0:0,0:0:0:0:
32,292,81147,6,0,P|75:300|120:293,1,90,6|0,0:0|0:0,0:0:0:0:
272,136,81500,2,0,P|228:127|183:134,1,90,2|8,0:0|0:0,0:0:0:0:
304,320,81853,2,0,B|383:315|383:315|403:302|403:302|487:298,1,180,6|2,0:0|0:0,3:0:0:0:
388,144,82382,1,8,0:0:0:0:
368,166,82470,1,8,0:0:0:0:
358,194,82558,1,8,0:0:0:0:
357,224,82646,1,8,0:0:0:0:
357,224,83088,6,0,B|275:262|275:190|194:226,1,168.750006437302,2|0,0:0|0:0,0:0:0:0:
112,248,83617,2,0,P|120:184|172:144,1,123.75000377655,2|0,0:0|0:0,0:0:0:0:
248,132,84147,1,2,0:0:0:0:
251,96,84500,1,2,0:0:0:0:
254,60,84853,6,0,P|336:88|420:64,1,168.750006437302,2|0,0:0|0:0,0:0:0:0:
480,28,85382,2,0,P|456:84|464:152,1,123.75000377655,2|0,0:0|0:0,0:0:0:0:
488,220,85912,1,2,0:0:0:0:
452,223,86265,1,2,0:0:0:0:
416,228,86617,6,0,B|320:200|320:276|204:286|192:198|176:168|189:127|212:88|268:75,1,371.250014162064,2|0,0:0|0:0,0:0:0:0:
280,160,87676,6,0,B|336:240|244:240|292:340,1,180,2|0,0:0|0:0,0:0:0:0:
