osu file format v14

[General]
AudioFilename: kaminomi.ogg
AudioLeadIn: 0
PreviewTime: 176294
Countdown: 0
SampleSet: Soft
StackLeniency: 0.7
Mode: 3
LetterboxInBreaks: 0
SpecialStyle: 0
WidescreenStoryboard: 0

[Editor]
Bookmarks: 22600,34600,40600,46600
DistanceSpacing: 1.38
BeatDivisor: 4
GridSize: 8
TimelineZoom: 1.8

[Metadata]
Title:God only knows
TitleUnicode:God only knows
Artist:Oratorio The World God Only Knows
ArtistUnicode:Oratorio The World God Only Knows
Creator:Shiina Yuuki
Version:Ending
Source:神のみぞ知るセカイ
Tags:ramli ln longnote elisa the world god only knows Kami Nomi zo Shiru Sekai 神のみぞ知るセカイ TWGOK OP Opening
BeatmapID:1817798
BeatmapSetID:869817

[Difficulty]
HPDrainRate:8
CircleSize:4
OverallDifficulty:0
ApproachRate:5
SliderMultiplier:1.8
SliderTickRate:1

[Events]
//Background and Video events
0,0,"__apollo_ayukawa_tenri_diana_elysia_de_lute_ima_goidou_yui_and_others_kami_nomi_zo_shiru_sekai_drawn_by_gotou_masaki__3d648ef9302a76d69c757b995091a77a.jpg",0,0
//Break Periods
//Storyboard Layer 0 (Background)
//Storyboard Layer 1 (Fail)
//Storyboard Layer 2 (Pass)
//Storyboard Layer 3 (Foreground)
//Storyboard Sound Samples

[TimingPoints]
130,500,4,2,1,50,1,0
4350,500,4,2,1,50,1,0
9100,500,4,2,1,50,1,0
56600,666.666666666667,4,2,1,50,1,0
57276,705.882352941176,4,2,1,50,1,0
58686,800,4,2,1,50,1,0
59486,500,4,2,1,50,1,0
89486,368.098159509202,4,2,1,50,1,0
142500,352.941176470588,4,2,1,50,1,0
197554,400,4,2,1,50,1,0
199154,461.538461538462,4,2,1,50,1,0
280391,361.44578313253,4,2,1,50,1,0
377258,400,4,2,1,50,1,0
386858,444.444444444444,4,2,1,50,1,0
388635,571.428571428571,4,2,1,50,1,0
389777,750,4,2,1,50,1,0
391415,1000,4,2,1,50,1,0
423116,600,4,2,1,50,1,0
423416,600,4,2,1,50,1,0
463016,400,4,2,1,50,1,0

[HitObjects]
64,192,1630,128,0,2130:0:0:0:0:
192,192,2130,128,0,3130:0:0:0:0:
320,192,3130,128,0,3630:0:0:0:0:
448,192,3630,128,0,4350:0:0:0:0:
448,192,5850,128,0,6350:0:0:0:0:
320,192,6350,128,0,7350:0:0:0:0:
192,192,7350,128,0,7850:0:0:0:0:
64,192,7850,128,0,8600:0:0:0:0:
448,192,8850,128,0,10100:0:0:0:0:
64,192,10600,128,0,11100:0:0:0:0:
320,192,11100,128,0,12100:0:0:0:0:
192,192,12100,128,0,12600:0:0:0:0:
448,192,12600,128,0,13600:0:0:0:0:
64,192,13600,128,0,14100:0:0:0:0:
320,192,14100,128,0,14850:0:0:0:0:
320,192,15100,128,0,15600:0:0:0:0:
192,192,15600,128,0,16350:0:0:0:0:
448,192,16600,128,0,17100:0:0:0:0:
320,192,17100,128,0,17850:0:0:0:0:
192,192,18100,128,0,18600:0:0:0:0:
64,192,18600,128,0,19350:0:0:0:0:
320,192,19600,128,0,20100:0:0:0:0:
192,192,20100,128,0,20850:0:0:0:0:
64,192,20600,1,0,0:0:0:0:
448,192,21100,128,0,21600:0:0:0:0:
64,192,21100,128,0,21225:0:0:0:0:
64,192,21600,128,0,22350:0:0:0:0:
320,192,21600,128,0,21725:0:0:0:0:
192,192,22100,128,0,22225:0:0:0:0:
448,192,22100,128,0,22225:0:0:0:0:
64,192,22600,1,0,0:0:0:0:
192,192,22600,1,0,0:0:0:0:
320,192,22600,1,0,0:0:0:0:
448,192,22600,128,0,22850:0:0:0:0:
320,192,22850,128,0,23100:0:0:0:0:
192,192,23100,128,0,23350:0:0:0:0:
64,192,23100,1,0,0:0:0:0:
64,192,23350,128,0,23600:0:0:0:0:
320,192,23600,128,0,23850:0:0:0:0:
448,192,23600,1,0,0:0:0:0:
192,192,23850,128,0,24100:0:0:0:0:
448,192,24100,128,0,24350:0:0:0:0:
64,192,24350,128,0,24600:0:0:0:0:
192,192,24350,1,0,0:0:0:0:
192,192,24600,128,0,24850:0:0:0:0:
448,192,24600,1,0,0:0:0:0:
320,192,24850,128,0,25100:0:0:0:0:
448,192,25100,128,0,25350:0:0:0:0:
64,192,25100,1,0,0:0:0:0:
192,192,25350,128,0,25600:0:0:0:0:
64,192,25600,128,0,25850:0:0:0:0:
448,192,25600,1,0,0:0:0:0:
320,192,25850,128,0,26100:0:0:0:0:
448,192,26100,128,0,26350:0:0:0:0:
64,192,26350,128,0,26600:0:0:0:0:
192,192,26600,128,0,26850:0:0:0:0:
448,192,26850,128,0,27100:0:0:0:0:
192,192,27100,1,0,0:0:0:0:
64,192,27100,1,0,0:0:0:0:
320,192,27225,1,0,0:0:0:0:
448,192,27350,1,0,0:0:0:0:
64,192,27350,1,0,0:0:0:0:
192,192,27475,1,0,0:0:0:0:
448,192,27600,128,0,27850:0:0:0:0:
320,192,27600,128,0,27850:0:0:0:0:
192,192,27850,128,0,28100:0:0:0:0:
64,192,28100,128,0,28350:0:0:0:0:
448,192,28100,1,0,0:0:0:0:
320,192,28350,128,0,28600:0:0:0:0:
192,192,28350,1,0,0:0:0:0:
448,192,28600,128,0,28850:0:0:0:0:
64,192,28600,1,0,0:0:0:0:
64,192,28850,128,0,29100:0:0:0:0:
192,192,29100,128,0,29350:0:0:0:0:
320,192,29350,128,0,29600:0:0:0:0:
64,192,29350,1,0,0:0:0:0:
448,192,29600,128,0,29850:0:0:0:0:
64,192,29850,128,0,30100:0:0:0:0:
448,192,30100,128,0,30350:0:0:0:0:
320,192,30350,128,0,30600:0:0:0:0:
64,192,30350,1,0,0:0:0:0:
192,192,30600,128,0,30850:0:0:0:0:
448,192,30600,1,0,0:0:0:0:
64,192,30850,128,0,31100:0:0:0:0:
320,192,31100,128,0,31350:0:0:0:0:
448,192,31100,128,0,31350:0:0:0:0:
64,192,31350,128,0,31600:0:0:0:0:
320,192,31600,128,0,31850:0:0:0:0:
448,192,31600,1,0,0:0:0:0:
192,192,31850,128,0,32100:0:0:0:0:
64,192,32100,128,0,32350:0:0:0:0:
448,192,32350,128,0,32600:0:0:0:0:
320,192,32600,128,0,32850:0:0:0:0:
64,192,32850,128,0,33100:0:0:0:0:
320,192,33100,1,0,0:0:0:0:
448,192,33100,1,0,0:0:0:0:
192,192,33225,1,0,0:0:0:0:
64,192,33225,1,0,0:0:0:0:
448,192,33350,1,0,0:0:0:0:
320,192,33350,1,0,0:0:0:0:
192,192,33475,1,0,0:0:0:0:
64,192,33475,1,0,0:0:0:0:
448,192,33600,128,0,33725:0:0:0:0:
320,192,33662,128,0,33787:0:0:0:0:
192,192,33725,128,0,33850:0:0:0:0:
64,192,33787,128,0,33912:0:0:0:0:
448,192,33850,128,0,33975:0:0:0:0:
320,192,33912,128,0,34037:0:0:0:0:
192,192,33975,128,0,34100:0:0:0:0:
64,192,34037,128,0,34162:0:0:0:0:
320,192,34100,128,0,34225:0:0:0:0:
448,192,34162,128,0,34287:0:0:0:0:
192,192,34225,128,0,34350:0:0:0:0:
64,192,34287,128,0,34412:0:0:0:0:
320,192,34350,128,0,34475:0:0:0:0:
448,192,34412,128,0,34475:0:0:0:0:
192,192,34475,1,0,0:0:0:0:
64,192,34475,1,0,0:0:0:0:
448,192,34600,128,0,35225:0:0:0:0:
320,192,34600,128,0,34975:0:0:0:0:
192,192,34600,128,0,34725:0:0:0:0:
64,192,34600,128,0,35475:0:0:0:0:
192,192,34850,128,0,35725:0:0:0:0:
320,192,35100,128,0,35475:0:0:0:0:
448,192,35350,128,0,35975:0:0:0:0:
64,192,35600,128,0,36225:0:0:0:0:
320,192,35600,128,0,35975:0:0:0:0:
192,192,35850,128,0,36475:0:0:0:0:
320,192,36100,128,0,36475:0:0:0:0:
448,192,36100,128,0,36725:0:0:0:0:
64,192,36350,128,0,36975:0:0:0:0:
192,192,36600,128,0,36975:0:0:0:0:
320,192,36600,128,0,37225:0:0:0:0:
448,192,36850,128,0,37225:0:0:0:0:
64,192,37100,128,0,37475:0:0:0:0:
192,192,37100,128,0,37475:0:0:0:0:
448,192,37350,128,0,37475:0:0:0:0:
320,192,37350,128,0,37725:0:0:0:0:
192,192,37600,128,0,37975:0:0:0:0:
64,192,37600,128,0,38225:0:0:0:0:
448,192,37600,128,0,38725:0:0:0:0:
320,192,37850,128,0,38475:0:0:0:0:
192,192,38100,128,0,38975:0:0:0:0:
64,192,38350,128,0,38975:0:0:0:0:
320,192,38600,128,0,39100:0:0:0:0:
448,192,38850,128,0,39225:0:0:0:0:
64,192,39100,128,0,39225:0:0:0:0:
192,192,39100,128,0,39350:0:0:0:0:
320,192,39225,128,0,39475:0:0:0:0:
448,192,39350,128,0,39475:0:0:0:0:
64,192,39350,128,0,39975:0:0:0:0:
192,192,39475,128,0,39725:0:0:0:0:
320,192,39600,128,0,40225:0:0:0:0:
448,192,39600,128,0,39975:0:0:0:0:
192,192,39850,128,0,40475:0:0:0:0:
448,192,40100,128,0,40475:0:0:0:0:
64,192,40100,128,0,40225:0:0:0:0:
320,192,40350,128,0,40475:0:0:0:0:
64,192,40350,128,0,40475:0:0:0:0:
64,192,40600,128,0,41225:0:0:0:0:
192,192,40600,128,0,40975:0:0:0:0:
320,192,40600,128,0,40725:0:0:0:0:
448,192,40600,128,0,41475:0:0:0:0:
320,192,40850,128,0,41725:0:0:0:0:
192,192,41100,128,0,41475:0:0:0:0:
64,192,41350,128,0,41975:0:0:0:0:
448,192,41600,128,0,42225:0:0:0:0:
192,192,41600,128,0,41975:0:0:0:0:
320,192,41850,128,0,42475:0:0:0:0:
192,192,42100,128,0,42475:0:0:0:0:
64,192,42100,128,0,42725:0:0:0:0:
448,192,42350,128,0,42975:0:0:0:0:
320,192,42600,128,0,42975:0:0:0:0:
192,192,42600,128,0,43225:0:0:0:0:
64,192,42850,128,0,43225:0:0:0:0:
448,192,43100,128,0,43475:0:0:0:0:
320,192,43100,128,0,43475:0:0:0:0:
64,192,43350,128,0,43475:0:0:0:0:
192,192,43350,128,0,43725:0:0:0:0:
320,192,43600,128,0,43975:0:0:0:0:
448,192,43600,128,0,44225:0:0:0:0:
64,192,43600,128,0,44725:0:0:0:0:
192,192,43850,128,0,44475:0:0:0:0:
320,192,44100,128,0,44975:0:0:0:0:
448,192,44350,128,0,44975:0:0:0:0:
192,192,44600,128,0,45100:0:0:0:0:
64,192,44850,128,0,45225:0:0:0:0:
448,192,45100,128,0,45225:0:0:0:0:
320,192,45100,128,0,45350:0:0:0:0:
192,192,45225,128,0,45475:0:0:0:0:
64,192,45350,128,0,45475:0:0:0:0:
448,192,45350,128,0,45975:0:0:0:0:
320,192,45475,128,0,45725:0:0:0:0:
192,192,45600,128,0,46225:0:0:0:0:
64,192,45600,128,0,45975:0:0:0:0:
320,192,45850,128,0,46475:0:0:0:0:
64,192,46100,128,0,46475:0:0:0:0:
448,192,46100,128,0,46225:0:0:0:0:
192,192,46350,128,0,46475:0:0:0:0:
448,192,46350,128,0,46475:0:0:0:0:
64,192,46600,128,0,47600:0:0:0:0:
192,192,46600,128,0,46725:0:0:0:0:
320,192,46600,128,0,46725:0:0:0:0:
448,192,46600,128,0,46725:0:0:0:0:
448,192,47100,128,0,47350:0:0:0:0:
192,192,47350,128,0,47600:0:0:0:0:
320,192,47600,128,0,48100:0:0:0:0:
64,192,47850,128,0,48100:0:0:0:0:
192,192,48100,128,0,48600:0:0:0:0:
448,192,48100,128,0,48350:0:0:0:0:
320,192,48350,128,0,48600:0:0:0:0:
448,192,48600,128,0,49100:0:0:0:0:
64,192,48600,1,0,0:0:0:0:
192,192,48850,128,0,49100:0:0:0:0:
320,192,49100,128,0,49600:0:0:0:0:
64,192,49100,128,0,49350:0:0:0:0:
448,192,49350,128,0,49600:0:0:0:0:
64,192,49600,128,0,49725:0:0:0:0:
192,192,49662,128,0,49787:0:0:0:0:
320,192,49725,128,0,49850:0:0:0:0:
448,192,49787,128,0,49912:0:0:0:0:
64,192,49850,128,0,49975:0:0:0:0:
192,192,49912,128,0,50037:0:0:0:0:
320,192,49975,128,0,50100:0:0:0:0:
448,192,50037,128,0,50162:0:0:0:0:
192,192,50100,128,0,50225:0:0:0:0:
64,192,50162,128,0,50287:0:0:0:0:
320,192,50225,128,0,50350:0:0:0:0:
448,192,50287,128,0,50412:0:0:0:0:
64,192,50350,128,0,50475:0:0:0:0:
192,192,50412,128,0,50537:0:0:0:0:
448,192,50475,128,0,50600:0:0:0:0:
320,192,50537,128,0,50662:0:0:0:0:
192,192,50600,128,0,50725:0:0:0:0:
64,192,50662,128,0,50787:0:0:0:0:
448,192,50725,128,0,50850:0:0:0:0:
320,192,50787,128,0,50912:0:0:0:0:
192,192,50850,128,0,50975:0:0:0:0:
64,192,50912,128,0,50975:0:0:0:0:
320,192,50975,1,0,0:0:0:0:
448,192,50975,1,0,0:0:0:0:
64,192,51100,1,0,0:0:0:0:
192,192,51100,1,0,0:0:0:0:
320,192,51100,1,0,0:0:0:0:
448,192,51100,1,0,0:0:0:0:
64,192,51350,128,0,51475:0:0:0:0:
192,192,51412,128,0,51537:0:0:0:0:
320,192,51475,128,0,51600:0:0:0:0:
448,192,51537,128,0,51600:0:0:0:0:
64,192,51600,128,0,51725:0:0:0:0:
192,192,51725,128,0,51850:0:0:0:0:
320,192,51850,128,0,51975:0:0:0:0:
448,192,51975,128,0,52100:0:0:0:0:
64,192,52100,128,0,52225:0:0:0:0:
320,192,52225,128,0,52350:0:0:0:0:
192,192,52350,128,0,52475:0:0:0:0:
448,192,52475,128,0,52600:0:0:0:0:
192,192,52600,128,0,52725:0:0:0:0:
320,192,52600,128,0,52725:0:0:0:0:
64,192,52600,128,0,53350:0:0:0:0:
448,192,53350,128,0,53600:0:0:0:0:
320,192,53600,128,0,53850:0:0:0:0:
192,192,53850,128,0,54100:0:0:0:0:
448,192,53975,1,0,0:0:0:0:
64,192,54100,128,0,55100:0:0:0:0:
320,192,54100,1,0,0:0:0:0:
192,192,54225,1,0,0:0:0:0:
320,192,54350,1,0,0:0:0:0:
448,192,54475,1,0,0:0:0:0:
320,192,54600,1,0,0:0:0:0:
192,192,54600,128,0,54725:0:0:0:0:
448,192,54725,1,0,0:0:0:0:
320,192,54850,1,0,0:0:0:0:
192,192,54975,1,0,0:0:0:0:
320,192,55100,128,0,55225:0:0:0:0:
448,192,55100,128,0,55225:0:0:0:0:
192,192,55350,128,0,55600:0:0:0:0:
64,192,55350,128,0,55600:0:0:0:0:
448,192,55600,128,0,56350:0:0:0:0:
192,192,56350,128,0,56600:0:0:0:0:
320,192,56600,128,0,56933:0:0:0:0:
64,192,56933,128,0,57276:0:0:0:0:
448,192,57276,128,0,57981:0:0:0:0:
64,192,57981,128,0,58687:0:0:0:0:
320,192,58686,128,0,59386:0:0:0:0:
448,192,58686,128,0,59386:0:0:0:0:
448,192,59486,1,0,0:0:0:0:
320,192,59486,1,0,0:0:0:0:
192,192,59486,1,0,0:0:0:0:
64,192,59486,128,0,59736:0:0:0:0:
192,192,59736,128,0,59986:0:0:0:0:
320,192,59986,128,0,60236:0:0:0:0:
448,192,59986,1,0,0:0:0:0:
448,192,60236,128,0,60486:0:0:0:0:
192,192,60486,128,0,60736:0:0:0:0:
320,192,60736,128,0,60986:0:0:0:0:
448,192,60736,1,0,0:0:0:0:
64,192,60986,128,0,61236:0:0:0:0:
192,192,60986,1,0,0:0:0:0:
448,192,61236,128,0,61486:0:0:0:0:
320,192,61486,128,0,61736:0:0:0:0:
64,192,61486,1,0,0:0:0:0:
192,192,61736,128,0,61986:0:0:0:0:
64,192,61986,128,0,62236:0:0:0:0:
448,192,61986,1,0,0:0:0:0:
448,192,62236,128,0,62486:0:0:0:0:
64,192,62486,128,0,62611:0:0:0:0:
192,192,62548,128,0,62673:0:0:0:0:
320,192,62611,128,0,62736:0:0:0:0:
448,192,62673,128,0,62798:0:0:0:0:
64,192,62736,128,0,62861:0:0:0:0:
192,192,62798,128,0,62923:0:0:0:0:
320,192,62861,128,0,62986:0:0:0:0:
448,192,62923,128,0,63048:0:0:0:0:
64,192,62986,128,0,63236:0:0:0:0:
448,192,63236,128,0,63486:0:0:0:0:
192,192,63236,1,0,0:0:0:0:
320,192,63486,128,0,63736:0:0:0:0:
64,192,63736,128,0,63986:0:0:0:0:
320,192,63986,1,0,0:0:0:0:
448,192,63986,1,0,0:0:0:0:
192,192,64111,1,0,0:0:0:0:
64,192,64236,1,0,0:0:0:0:
448,192,64236,1,0,0:0:0:0:
320,192,64361,1,0,0:0:0:0:
64,192,64486,128,0,64736:0:0:0:0:
192,192,64486,128,0,64736:0:0:0:0:
320,192,64736,128,0,64986:0:0:0:0:
448,192,64986,128,0,65236:0:0:0:0:
64,192,64986,1,0,0:0:0:0:
320,192,65236,1,0,0:0:0:0:
64,192,65236,128,0,65486:0:0:0:0:
448,192,65486,128,0,65611:0:0:0:0:
320,192,65548,128,0,65673:0:0:0:0:
192,192,65611,128,0,65736:0:0:0:0:
64,192,65673,128,0,65736:0:0:0:0:
448,192,65736,128,0,65986:0:0:0:0:
320,192,65986,128,0,66236:0:0:0:0:
192,192,66236,128,0,66486:0:0:0:0:
448,192,66236,1,0,0:0:0:0:
64,192,66486,128,0,66736:0:0:0:0:
448,192,66736,128,0,66986:0:0:0:0:
64,192,66986,128,0,67236:0:0:0:0:
320,192,66986,1,0,0:0:0:0:
192,192,67236,128,0,67486:0:0:0:0:
448,192,67236,1,0,0:0:0:0:
320,192,67486,128,0,67736:0:0:0:0:
64,192,67486,1,0,0:0:0:0:
448,192,67736,128,0,67986:0:0:0:0:
192,192,67986,128,0,68236:0:0:0:0:
64,192,67986,128,0,68236:0:0:0:0:
448,192,68236,128,0,68486:0:0:0:0:
64,192,68486,128,0,68611:0:0:0:0:
192,192,68548,128,0,68673:0:0:0:0:
320,192,68611,128,0,68736:0:0:0:0:
448,192,68673,128,0,68798:0:0:0:0:
64,192,68736,128,0,68861:0:0:0:0:
192,192,68798,128,0,68923:0:0:0:0:
320,192,68861,128,0,68986:0:0:0:0:
448,192,68923,128,0,68986:0:0:0:0:
64,192,68986,128,0,69236:0:0:0:0:
320,192,69236,128,0,69486:0:0:0:0:
192,192,69486,128,0,69736:0:0:0:0:
448,192,69736,128,0,69986:0:0:0:0:
192,192,69986,1,0,0:0:0:0:
64,192,69986,1,0,0:0:0:0:
320,192,70111,1,0,0:0:0:0:
448,192,70111,1,0,0:0:0:0:
64,192,70236,1,0,0:0:0:0:
192,192,70236,1,0,0:0:0:0:
320,192,70361,1,0,0:0:0:0:
448,192,70361,1,0,0:0:0:0:
64,192,70486,128,0,70611:0:0:0:0:
192,192,70548,128,0,70673:0:0:0:0:
320,192,70611,128,0,70736:0:0:0:0:
448,192,70673,128,0,70798:0:0:0:0:
64,192,70736,128,0,70861:0:0:0:0:
192,192,70798,128,0,70923:0:0:0:0:
320,192,70861,128,0,70986:0:0:0:0:
448,192,70923,128,0,71048:0:0:0:0:
192,192,70986,128,0,71111:0:0:0:0:
64,192,71048,128,0,71173:0:0:0:0:
320,192,71111,128,0,71236:0:0:0:0:
448,192,71173,128,0,71298:0:0:0:0:
192,192,71236,128,0,71361:0:0:0:0:
64,192,71298,128,0,71361:0:0:0:0:
320,192,71361,1,0,0:0:0:0:
448,192,71361,1,0,0:0:0:0:
64,192,71486,128,0,72111:0:0:0:0:
192,192,71486,128,0,71861:0:0:0:0:
320,192,71486,128,0,71611:0:0:0:0:
448,192,71486,128,0,72361:0:0:0:0:
320,192,71736,128,0,72611:0:0:0:0:
192,192,71986,128,0,72361:0:0:0:0:
64,192,72236,128,0,72861:0:0:0:0:
448,192,72486,128,0,73111:0:0:0:0:
192,192,72486,128,0,72861:0:0:0:0:
320,192,72736,128,0,73361:0:0:0:0:
192,192,72986,128,0,73361:0:0:0:0:
64,192,72986,128,0,73611:0:0:0:0:
448,192,73236,128,0,73861:0:0:0:0:
320,192,73486,128,0,73861:0:0:0:0:
192,192,73486,128,0,74111:0:0:0:0:
64,192,73736,128,0,74111:0:0:0:0:
448,192,73986,128,0,74361:0:0:0:0:
320,192,73986,128,0,74361:0:0:0:0:
64,192,74236,128,0,74361:0:0:0:0:
192,192,74236,128,0,74611:0:0:0:0:
64,192,74486,128,0,75611:0:0:0:0:
448,192,74486,128,0,75111:0:0:0:0:
320,192,74486,128,0,74861:0:0:0:0:
192,192,74736,128,0,75361:0:0:0:0:
320,192,74986,128,0,75861:0:0:0:0:
448,192,75236,128,0,75861:0:0:0:0:
192,192,75486,128,0,75986:0:0:0:0:
64,192,75736,128,0,76111:0:0:0:0:
448,192,75986,128,0,76111:0:0:0:0:
320,192,75986,128,0,76236:0:0:0:0:
192,192,76111,128,0,76361:0:0:0:0:
64,192,76236,128,0,76361:0:0:0:0:
448,192,76236,128,0,76861:0:0:0:0:
320,192,76361,128,0,76611:0:0:0:0:
192,192,76486,128,0,77111:0:0:0:0:
64,192,76486,128,0,76861:0:0:0:0:
320,192,76736,128,0,77361:0:0:0:0:
64,192,76986,128,0,77361:0:0:0:0:
448,192,76986,128,0,77111:0:0:0:0:
192,192,77236,128,0,77361:0:0:0:0:
448,192,77236,128,0,77361:0:0:0:0:
448,192,77486,128,0,78111:0:0:0:0:
320,192,77486,128,0,77861:0:0:0:0:
192,192,77486,128,0,77611:0:0:0:0:
64,192,77486,128,0,78361:0:0:0:0:
192,192,77736,128,0,78611:0:0:0:0:
320,192,77986,128,0,78361:0:0:0:0:
448,192,78236,128,0,78861:0:0:0:0:
64,192,78486,128,0,79111:0:0:0:0:
320,192,78486,128,0,78861:0:0:0:0:
192,192,78736,128,0,79361:0:0:0:0:
320,192,78986,128,0,79361:0:0:0:0:
448,192,78986,128,0,79611:0:0:0:0:
64,192,79236,128,0,79861:0:0:0:0:
192,192,79486,128,0,79861:0:0:0:0:
320,192,79486,128,0,80111:0:0:0:0:
448,192,79736,128,0,80111:0:0:0:0:
64,192,79986,128,0,80361:0:0:0:0:
192,192,79986,128,0,80361:0:0:0:0:
448,192,80236,128,0,80361:0:0:0:0:
320,192,80236,128,0,80611:0:0:0:0:
192,192,80486,128,0,80861:0:0:0:0:
64,192,80486,128,0,81111:0:0:0:0:
448,192,80486,128,0,81611:0:0:0:0:
320,192,80736,128,0,81361:0:0:0:0:
192,192,80986,128,0,81861:0:0:0:0:
64,192,81236,128,0,81861:0:0:0:0:
320,192,81486,128,0,81986:0:0:0:0:
448,192,81736,128,0,82111:0:0:0:0:
64,192,81986,128,0,82111:0:0:0:0:
192,192,81986,128,0,82236:0:0:0:0:
320,192,82111,128,0,82361:0:0:0:0:
448,192,82236,128,0,82361:0:0:0:0:
64,192,82236,128,0,82861:0:0:0:0:
192,192,82361,128,0,82611:0:0:0:0:
320,192,82486,128,0,83111:0:0:0:0:
448,192,82486,128,0,82861:0:0:0:0:
192,192,82736,128,0,83361:0:0:0:0:
448,192,82986,128,0,83361:0:0:0:0:
64,192,82986,128,0,83111:0:0:0:0:
320,192,83236,128,0,83361:0:0:0:0:
64,192,83236,128,0,83361:0:0:0:0:
64,192,83486,1,0,0:0:0:0:
192,192,83486,1,0,0:0:0:0:
320,192,83486,1,0,0:0:0:0:
448,192,83486,128,0,83736:0:0:0:0:
192,192,83736,128,0,83986:0:0:0:0:
64,192,83986,128,0,84486:0:0:0:0:
320,192,83986,128,0,84111:0:0:0:0:
448,192,83986,128,0,84111:0:0:0:0:
192,192,84236,1,0,0:0:0:0:
448,192,84486,128,0,84736:0:0:0:0:
320,192,84611,1,0,0:0:0:0:
192,192,84736,128,0,84986:0:0:0:0:
64,192,84861,1,0,0:0:0:0:
320,192,84986,128,0,85361:0:0:0:0:
448,192,85111,1,0,0:0:0:0:
64,192,85236,1,0,0:0:0:0:
192,192,85361,1,0,0:0:0:0:
320,192,85486,128,0,85986:0:0:0:0:
448,192,85611,1,0,0:0:0:0:
64,192,85736,1,0,0:0:0:0:
192,192,85861,1,0,0:0:0:0:
64,192,85986,128,0,86486:0:0:0:0:
448,192,86111,1,0,0:0:0:0:
320,192,86236,1,0,0:0:0:0:
192,192,86236,1,0,0:0:0:0:
192,192,86486,1,0,0:0:0:0:
448,192,86486,128,0,86736:0:0:0:0:
320,192,86736,128,0,86986:0:0:0:0:
192,192,86986,128,0,87486:0:0:0:0:
64,192,86986,128,0,87111:0:0:0:0:
448,192,86986,128,0,87111:0:0:0:0:
64,192,87236,128,0,87486:0:0:0:0:
448,192,87486,128,0,87986:0:0:0:0:
320,192,87736,128,0,87986:0:0:0:0:
64,192,87986,128,0,88111:0:0:0:0:
192,192,88048,128,0,88173:0:0:0:0:
320,192,88111,128,0,88236:0:0:0:0:
448,192,88173,128,0,88236:0:0:0:0:
448,192,88486,1,0,0:0:0:0:
320,192,88517,1,0,0:0:0:0:
192,192,88548,1,0,0:0:0:0:
64,192,88579,1,0,0:0:0:0:
64,192,88986,1,0,0:0:0:0:
192,192,89017,1,0,0:0:0:0:
320,192,89048,1,0,0:0:0:0:
448,192,89079,1,0,0:0:0:0:
64,192,89486,1,0,0:0:0:0:
192,192,89486,1,0,0:0:0:0:
320,192,89486,1,0,0:0:0:0:
448,192,89486,1,0,0:0:0:0:
