osu file format v14

[General]
AudioFilename: audio.mp3
AudioLeadIn: 0
PreviewTime: 203188
Countdown: 1
SampleSet: Soft
StackLeniency: 0.7
Mode: 0
LetterboxInBreaks: 0
WidescreenStoryboard: 1

[Editor]
Bookmarks: 6010,179533,188065,223869
DistanceSpacing: 1
BeatDivisor: 4
GridSize: 8
TimelineZoom: 1.8

[Metadata]
Title:hana to kioku
TitleUnicode:花と記憶
Artist:Orangestar feat.IA
ArtistUnicode:Orangestar feat.IA
Creator:Irin
Version:natsu dayo
Source:vocaloid
Tags:orangestar vocaloid irin IA
BeatmapID:1947713
BeatmapSetID:927768

[Difficulty]
HPDrainRate:5
CircleSize:4
OverallDifficulty:7.2
ApproachRate:9.6
SliderMultiplier:1.4
SliderTickRate:2

[Events]
//Background and Video events
0,0,"62ccc9bd8fa8a0534b823fe1659c7c51.jpg",0,0
//Break Periods
//Storyboard Layer 0 (Background)
//Storyboard Layer 1 (Fail)
//Storyboard Layer 2 (Pass)
//Storyboard Layer 3 (Foreground)
//Storyboard Sound Samples

[TimingPoints]
178629,258.5092632486,4,2,0,30,1,0
178629,-142.857142857143,4,2,0,30,0,0
185351,-83.3333333333333,4,2,0,50,0,0
192847,-83.3333333333333,4,2,0,25,0,0
194786,-83.3333333333333,4,2,0,50,0,0
194915,-83.3333333333333,4,2,0,50,0,0
201120,-83.3333333333333,4,2,0,25,0,0
203059,-83.3333333333333,4,2,0,75,0,0
203188,-83.3333333333333,4,2,0,75,0,0
225937,-83.3333333333333,4,2,0,50,0,0
228005,-83.3333333333333,4,2,0,75,0,0
234209,-83.3333333333333,4,2,0,50,0,0
236148,-83.3333333333333,4,2,0,100,0,1
252822,-66.6666666666667,4,2,0,100,0,1
265230,-100,4,2,0,100,0,1
266006,-111.111111111111,4,2,0,100,0,1
266264,-117.647058823529,4,2,0,100,0,1
266781,-125,4,2,0,100,0,1
269366,-133.333333333333,4,2,0,50,0,0
284618,-83.3333333333333,4,2,0,50,0,1
304523,-83.3333333333333,4,2,0,50,0,0
325269,-83.3333333333333,4,2,0,10,0,0

[HitObjects]
128,84,178629,5,0,0:0:0:0:
288,152,178888,5,0,0:0:0:0:
440,128,179146,1,0,0:0:0:0:
416,280,179664,5,0,0:0:0:0:
184,320,180181,5,0,0:0:0:0:
88,136,180697,5,0,0:0:0:0:
176,48,180956,1,0,0:0:0:0:
296,88,181214,1,0,0:0:0:0:
408,192,181732,5,0,0:0:0:0:
488,304,181990,1,0,0:0:0:0:
344,312,182249,1,0,0:0:0:0:
88,280,182507,5,0,0:0:0:0:
24,200,182766,1,0,0:0:0:0:
56,104,183024,1,0,0:0:0:0:
152,72,183283,1,0,0:0:0:0:
184,192,183800,5,0,0:0:0:0:
312,344,184317,5,0,0:0:0:0:
440,88,184834,1,0,0:0:0:0:
320,48,185092,1,0,0:0:0:0:
208,72,185351,6,0,L|192:160,1,83.9999974365235
128,120,185609,2,0,L|112:208,1,83.9999974365235
48,160,185868,2,0,L|32:248,1,83.9999974365235
112,202,186126,6,0,L|200:218,1,83.9999974365235
192,154,186385,6,0,L|280:170,1,83.9999974365235
280,104,186643,2,0,L|328:112,2,41.9999987182618
453,180,186902,5,0,0:0:0:0:
344,208,187031,2,0,B|484:489|452:177,1,335.999989746094
352,24,187677,5,0,0:0:0:0:
352,24,187742,1,0,0:0:0:0:
352,24,187806,1,0,0:0:0:0:
112,208,187936,1,0,0:0:0:0:
216,312,188065,1,0,0:0:0:0:
384,56,188194,5,0,0:0:0:0:
384,56,188259,1,0,0:0:0:0:
384,56,188323,1,0,0:0:0:0:
112,208,188453,1,0,0:0:0:0:
216,312,188582,1,0,0:0:0:0:
416,88,188711,5,0,0:0:0:0:
416,88,188776,1,0,0:0:0:0:
416,88,188840,1,0,0:0:0:0:
112,208,188970,1,0,0:0:0:0:
186,361,189099,2,0,B|186:385|218:377|216:291,1,83.9999974365235
256,184,189358,5,0,0:0:0:0:
328,264,189487,1,0,0:0:0:0:
328,96,189616,1,0,0:0:0:0:
168,44,189746,1,0,0:0:0:0:
70,180,189875,1,0,0:0:0:0:
168,315,190004,1,0,0:0:0:0:
368,320,190133,1,0,0:0:0:0:
208,268,190263,1,0,0:0:0:0:
208,100,190392,1,0,0:0:0:0:
368,49,190521,1,0,0:0:0:0:
466,185,190650,1,0,0:0:0:0:
256,192,190779,2,0,L|184:136,1,83.9999974365235
88,48,191038,5,0,0:0:0:0:
16,0,191167,2,0,P|0:64|24:104,1,83.9999974365235
80,144,191426,5,0,0:0:0:0:
82,245,191555,1,0,0:0:0:0:
139,328,191684,1,0,0:0:0:0:
231,368,191813,1,0,0:0:0:0:
331,351,191942,1,0,0:0:0:0:
405,284,192072,1,0,0:0:0:0:
431,186,192201,1,0,0:0:0:0:
401,90,192330,1,0,0:0:0:0:
323,26,192460,1,0,0:0:0:0:
223,14,192589,1,0,0:0:0:0:
132,58,192718,1,0,0:0:0:0:
80,144,192847,6,0,P|-3:239|45:343,1,251.999992309571
42,341,193364,6,0,P|125:231|77:143,1,251.999992309571
77,143,193881,6,0,P|172:226|276:178,1,251.999992309571
274,181,194398,6,0,P|164:98|76:146,1,251.999992309571
160,256,194915,5,0,0:0:0:0:
187,287,194979,1,0,0:0:0:0:
215,319,195044,1,0,0:0:0:0:
344,360,195174,5,0,0:0:0:0:
424,320,195303,2,0,B|408:281|344:273|344:273|448:233|448:233|376:217|355:154,1,335.999989746094
456,112,195950,5,0,0:0:0:0:
440,80,196015,1,0,0:0:0:0:
424,48,196079,1,0,0:0:0:0:
152,96,196208,1,0,0:0:0:0:
208,224,196337,1,0,0:0:0:0:
424,40,196467,5,0,0:0:0:0:
440,80,196531,1,0,0:0:0:0:
455,119,196596,1,0,0:0:0:0:
216,240,196725,1,0,0:0:0:0:
144,80,196854,1,0,0:0:0:0:
463,127,196984,5,0,0:0:0:0:
440,80,197049,1,0,0:0:0:0:
415,31,197113,1,0,0:0:0:0:
136,64,197242,1,0,0:0:0:0:
224,256,197371,2,0,P|208:264|240:272,1,83.9999974365235
312,360,197630,5,0,0:0:0:0:
464,296,197759,1,0,0:0:0:0:
504,136,197888,1,0,0:0:0:0:
400,8,198018,1,0,0:0:0:0:
336,168,198147,5,0,0:0:0:0:
248,24,198276,1,0,0:0:0:0:
168,168,198405,1,0,0:0:0:0:
80,24,198535,1,0,0:0:0:0:
16,176,198664,5,0,0:0:0:0:
112,312,198793,1,0,0:0:0:0:
280,344,198922,1,0,0:0:0:0:
440,288,199052,2,0,L|456:200,1,83.9999974365235
424,128,199310,5,0,0:0:0:0:
360,184,199439,2,0,L|344:266,1,83.9999974365235
247,370,199698,5,0,0:0:0:0:
152,337,199827,1,0,0:0:0:0:
89,258,199956,1,0,0:0:0:0:
80,158,200086,1,0,0:0:0:0:
126,68,200215,1,0,0:0:0:0:
213,18,200344,1,0,0:0:0:0:
314,22,200474,1,0,0:0:0:0:
396,81,200603,1,0,0:0:0:0:
434,174,200732,1,0,0:0:0:0:
415,273,200861,1,0,0:0:0:0:
345,346,200990,1,0,0:0:0:0:
256,264,201119,6,0,P|161:347|57:299,1,251.999992309571
59,302,201636,6,0,P|169:219|257:267,1,251.999992309571
257,267,202154,6,0,P|174:172|224:64,1,251.999992309571
219,70,202671,6,0,P|302:180|254:268,1,251.999992309571
88,200,203188,6,0,L|24:136,1,83.9999974365235
152,168,203446,2,0,L|88:104,1,83.9999974365235
216,136,203705,2,0,L|152:72,1,83.9999974365235
240,48,203963,6,0,L|304:112,1,83.9999974365235
320,8,204222,2,0,P|399:132|331:211,1,251.999992309571
408,262,204739,6,0,L|344:198,1,83.9999974365235
344,302,204997,2,0,L|280:238,1,83.9999974365235
288,350,205256,2,0,L|224:286,1,83.9999974365235
128,288,205514,6,0,L|184:352,1,83.9999974365235
40,312,205773,2,0,B|32:184|152:216|168:104,1,251.999992309571
80,112,206290,6,0,L|120:32,1,83.9999974365235
167,109,206548,2,0,L|207:29,1,83.9999974365235
248,112,206807,2,0,L|288:32,1,83.9999974365235
384,16,207065,6,0,L|346:91,1,83.9999974365235
424,128,207324,1,0,0:0:0:0:
424,128,207389,1,0,0:0:0:0:
424,128,207453,2,0,B|392:176|344:176|344:176|424:208|424:208|336:216|304:328,1,335.999989746094
424,312,208099,2,0,L|384:392,1,83.9999974365235
313,300,208358,6,0,L|233:260,1,83.9999974365235
232,328,208616,2,0,L|152:288,1,83.9999974365235
152,352,208875,2,0,B|40:320|120:240|112:184|240:264|240:264|304:192|256:128|256:128,1,419.999987182618
192,184,209651,2,0,L|160:64,1,83.9999974365235
120,48,209909,6,0,P|188:30|224:48,1,83.9999974365235
272,0,210168,2,0,P|271:70|245:100,1,83.9999974365235
344,88,210426,2,0,P|308:148|270:161,1,83.9999974365235
368,192,210685,2,0,P|306:226|267:218,1,83.9999974365235
336,296,210943,2,0,P|265:295|235:269,1,83.9999974365235
152,328,211202,5,0,0:0:0:0:
160,296,211266,1,0,0:0:0:0:
168,264,211331,1,0,0:0:0:0:
104,184,211460,6,0,L|80:280,1,83.9999974365235
48,112,211719,2,0,L|24:208,1,83.9999974365235
144,32,211977,2,0,L|120:128,1,83.9999974365235
192,152,212236,6,0,L|216:56,1,83.9999974365235
213,248,212495,2,0,P|284:137|175:71,1,251.999992309571
211,70,213011,6,0,L|304:96,1,83.9999974365235
272,24,213270,2,0,L|364:49,1,83.9999974365235
292,92,213528,2,0,L|384:117,1,83.9999974365235
416,56,213787,6,0,L|432:152,1,83.9999974365235
512,128,214046,2,0,B|520:240|368:192|384:330,1,251.999992309571
464,288,214562,6,0,L|384:328,1,83.9999974365235
408,248,214820,2,0,L|328:288,1,83.9999974365235
352,208,215079,2,0,L|272:248,1,83.9999974365235
320,352,215337,6,0,L|256:296,1,83.9999974365235
224,224,215596,1,0,0:0:0:0:
224,224,215661,1,0,0:0:0:0:
224,224,215725,2,0,B|178:254|178:302|178:302|146:222|146:222|138:310|53:333,1,335.999989746094
56,240,216372,2,0,L|8:152,1,83.9999974365235
112,152,216630,6,0,L|160:248,1,83.9999974365235
216,160,216888,2,0,L|176:72,1,83.9999974365235
96,80,217147,2,0,B|120:16|176:-8|256:-32|264:104|312:48|360:8|424:8|472:128,1,419.999987182618
368,120,217923,2,0,L|408:208,1,83.9999974365235
456,256,218181,6,0,P|387:273|352:256,1,83.9999974365235
304,304,218440,2,0,P|304:233|330:203,1,83.9999974365235
304,384,218698,2,0,P|243:348|230:310,1,83.9999974365235
176,296,218957,2,0,P|237:261|276:269,1,83.9999974365235
112,328,219215,2,0,P|112:257|138:227,1,83.9999974365235
192,216,219474,2,0,P|141:166|101:164,1,83.9999974365235
80,88,219733,5,0,0:0:0:0:
102,64,219797,1,0,0:0:0:0:
125,40,219862,1,0,0:0:0:0:
232,72,219991,5,0,0:0:0:0:
272,0,220120,2,0,B|311:16|319:80|319:80|359:-24|359:-24|375:48|438:69,1,335.999989746094
384,144,220767,5,0,0:0:0:0:
400,176,220831,1,0,0:0:0:0:
416,208,220896,1,0,0:0:0:0:
344,360,221025,1,0,0:0:0:0:
208,304,221154,1,0,0:0:0:0:
415,215,221284,5,0,0:0:0:0:
400,176,221349,1,0,0:0:0:0:
384,136,221413,1,0,0:0:0:0:
152,200,221542,1,0,0:0:0:0:
144,80,221671,1,0,0:0:0:0:
375,127,221801,5,0,0:0:0:0:
400,176,221865,1,0,0:0:0:0:
423,223,221930,1,0,0:0:0:0:
208,304,222059,1,0,0:0:0:0:
344,360,222188,2,0,P|352:376|360:344,1,83.9999974365235
408,176,222447,1,0,0:0:0:0:
304,296,222576,5,0,0:0:0:0:
375,127,222705,1,0,0:0:0:0:
264,248,222834,1,0,0:0:0:0:
328,96,222964,1,0,0:0:0:0:
216,224,223093,1,0,0:0:0:0:
280,72,223222,1,0,0:0:0:0:
168,200,223352,1,0,0:0:0:0:
240,48,223481,1,0,0:0:0:0:
128,176,223610,1,0,0:0:0:0:
200,24,223739,1,0,0:0:0:0:
96,152,223869,2,0,L|16:224,1,83.9999974365235
51,288,224128,5,0,0:0:0:0:
3,344,224256,2,0,P|67:360|107:336,1,83.9999974365235
165,346,224515,5,0,0:0:0:0:
263,371,224644,1,0,0:0:0:0:
358,337,224773,1,0,0:0:0:0:
421,259,224902,1,0,0:0:0:0:
430,158,225031,1,0,0:0:0:0:
385,69,225161,1,0,0:0:0:0:
297,18,225290,1,0,0:0:0:0:
196,22,225419,1,0,0:0:0:0:
114,81,225549,1,0,0:0:0:0:
77,175,225678,1,0,0:0:0:0:
96,274,225807,1,0,0:0:0:0:
223,273,225936,6,0,P|318:356|422:308,1,251.999992309571
420,311,226453,6,0,P|310:228|222:276,1,251.999992309571
222,276,226970,6,0,P|305:181|257:77,1,251.999992309571
260,79,227487,6,0,P|177:189|225:277,1,251.999992309571
344,192,228005,5,0,0:0:0:0:
375,165,228069,1,0,0:0:0:0:
407,137,228134,1,0,0:0:0:0:
376,32,228264,5,0,0:0:0:0:
336,96,228393,2,0,B|297:80|289:16|289:16|249:120|249:120|233:48|170:27,1,335.999989746094
144,128,229038,5,0,0:0:0:0:
112,144,229104,1,0,0:0:0:0:
80,160,229168,1,0,0:0:0:0:
120,368,229298,1,0,0:0:0:0:
296,288,229426,1,0,0:0:0:0:
232,128,229555,5,0,0:0:0:0:
271,143,229620,1,0,0:0:0:0:
311,159,229684,1,0,0:0:0:0:
288,376,229815,1,0,0:0:0:0:
104,296,229944,1,0,0:0:0:0:
161,119,230074,5,0,0:0:0:0:
112,144,230138,1,0,0:0:0:0:
65,167,230203,1,0,0:0:0:0:
104,376,230332,1,0,0:0:0:0:
296,288,230461,2,0,P|304:304|312:272,1,83.9999974365235
320,104,230720,5,0,0:0:0:0:
448,216,230849,1,0,0:0:0:0:
416,48,230978,1,0,0:0:0:0:
352,208,231108,1,0,0:0:0:0:
496,120,231237,1,0,0:0:0:0:
344,40,231366,5,0,0:0:0:0:
200,120,231495,5,0,0:0:0:0:
56,32,231625,1,0,0:0:0:0:
120,184,231754,1,0,0:0:0:0:
160,24,231883,1,0,0:0:0:0:
40,136,232012,1,0,0:0:0:0:
16,280,232142,2,0,L|96:312,1,83.9999974365235
248,312,232400,5,0,0:0:0:0:
309,365,232529,2,0,P|327:328|319:287,1,83.9999974365235
184,304,232788,5,0,0:0:0:0:
320,256,232917,1,0,0:0:0:0:
176,248,233046,1,0,0:0:0:0:
328,208,233176,1,0,0:0:0:0:
168,192,233305,1,0,0:0:0:0:
336,160,233434,1,0,0:0:0:0:
160,144,233564,1,0,0:0:0:0:
344,112,233693,1,0,0:0:0:0:
152,96,233822,1,0,0:0:0:0:
352,64,233951,1,0,0:0:0:0:
144,56,234080,1,0,0:0:0:0:
256,104,234209,6,0,P|351:21|455:69,1,251.999992309571
453,66,234726,6,0,P|343:149|255:101,1,251.999992309571
255,101,235244,6,0,P|160:184|52:134,1,251.999992309571
56,139,235761,6,0,P|166:56|254:104,1,251.999992309571
264,160,236277,6,0,L|208:232,1,83.9999974365235
328,176,236535,2,0,L|272:248,1,83.9999974365235
392,192,236794,2,0,L|336:264,1,83.9999974365235
232,304,237052,6,0,L|144:280,1,83.9999974365235
182,378,237311,2,0,P|51:310|70:207,1,251.999992309571
100,287,237828,6,0,L|164:223,1,83.9999974365235
60,223,238086,2,0,L|124:159,1,83.9999974365235
12,167,238345,2,0,L|76:103,1,83.9999974365235
120,32,238603,6,0,L|176:96,1,83.9999974365235
287,85,238862,2,0,B|272:192|152:160|160:288,1,251.999992309571
256,264,239379,6,0,L|293:339,1,83.9999974365235
343,267,239637,2,0,L|380:342,1,83.9999974365235
424,264,239896,2,0,L|461:339,1,83.9999974365235
512,256,240154,6,0,L|474:180,1,83.9999974365235
440,88,240413,1,0,0:0:0:0:
440,88,240478,1,0,0:0:0:0:
440,88,240542,2,0,B|392:120|392:168|392:168|360:88|360:88|352:176|240:208,1,335.999989746094
264,96,241188,2,0,L|176:64,1,83.9999974365235
112,120,241447,6,0,L|190:148,1,83.9999974365235
48,168,241706,2,0,L|126:196,1,83.9999974365235
112,280,241964,2,0,B|106:277|161:310|217:231|217:231|226:374|304:136|380:368|360:240|360:240|336:200|376:144,1,419.999987182618
432,200,242740,2,0,L|472:96,1,83.9999974365235
494,49,242998,6,0,P|453:45|416:64,1,83.9999974365235
456,128,243257,2,0,P|385:127|355:101,1,83.9999974365235
368,200,243515,2,0,P|307:164|294:126,1,83.9999974365235
264,224,243774,2,0,P|229:162|237:123,1,83.9999974365235
160,192,244032,2,0,P|160:121|186:91,1,83.9999974365235
224,40,244291,5,0,0:0:0:0:
192,32,244356,1,0,0:0:0:0:
160,24,244420,1,0,0:0:0:0:
64,48,244549,6,0,L|40:144,1,83.9999974365235
24,96,244808,2,0,L|0:192,1,83.9999974365235
80,160,245066,2,0,L|56:256,1,83.9999974365235
104,296,245325,6,0,L|200:320,1,83.9999974365235
270,372,245584,2,0,P|259:257|144:248,1,251.999992309571
144,248,246100,6,0,L|176:168,1,83.9999974365235
216,232,246359,2,0,L|248:152,1,83.9999974365235
272,272,246617,2,0,L|304:192,1,83.9999974365235
288,328,246876,6,0,L|368:272,1,83.9999974365235
464,288,247135,2,0,B|480:156|328:204|336:92,1,251.999992309571
424,96,247651,6,0,L|376:24,1,83.9999974365235
335,94,247910,2,0,L|287:22,1,83.9999974365235
248,96,248168,2,0,L|200:24,1,83.9999974365235
112,32,248427,6,0,L|158:101,1,83.9999974365235
88,144,248685,1,0,0:0:0:0:
88,144,248750,1,0,0:0:0:0:
88,144,248814,2,0,B|118:189|166:189|166:189|86:221|86:221|174:229|197:314,1,335.999989746094
113,313,249461,2,0,L|233:313,1,83.9999974365235
192,360,249719,6,0,L|312:360,1,83.9999974365235
264,288,249978,2,0,L|384:288,1,83.9999974365235
389,378,250236,2,0,B|480:344|480:280|440:232|384:184|520:176|496:96|472:40|408:16,1,419.999987182618
386,97,251012,2,0,L|418:1,1,83.9999974365235
400,176,251270,6,0,P|331:157|309:124,1,83.9999974365235
248,144,251529,2,0,P|283:83|321:70,1,83.9999974365235
368,48,251787,2,0,P|341:16|301:2,1,83.9999974365235
224,32,252046,2,0,P|192:64|176:112,1,83.9999974365235
211,169,252304,2,0,P|140:168|110:142,1,83.9999974365235
104,88,252563,2,0,P|54:138|52:178,1,83.9999974365235
0,232,252822,6,0,L|104:304,1,105.000004005432
41,196,253080,2,0,L|95:310,1,105.000004005432
94,187,253339,2,0,L|83:313,1,105.000004005432
145,205,253597,2,0,L|73:309,1,105.000004005432
180,246,253856,2,0,L|65:300,1,105.000004005432
272,320,254373,6,0,L|376:248,1,105.000004005432
313,356,254631,2,0,L|367:241,1,105.000004005432
366,365,254890,2,0,L|355:238,1,105.000004005432
417,347,255148,2,0,L|345:243,1,105.000004005432
452,306,255407,2,0,L|337:251,1,105.000004005432
288,144,255924,6,0,L|402:198,1,105.000004005432
288,144,256182,2,0,L|407:101,1,105.000004005432
288,144,256441,2,0,L|342:29,1,105.000004005432
288,144,256699,2,0,L|245:24,1,105.000004005432
288,144,256958,2,0,L|173:89,1,105.000004005432
288,144,257216,2,0,L|168:186,1,105.000004005432
288,144,257475,2,0,L|244:266,1,105.000004005432
288,315,257733,6,0,P|236:314|192:288,1,105.000004005432
64,288,257992,6,0,L|131:207,1,105.000004005432
27,216,258250,2,0,L|131:207,1,105.000004005432
51,140,258509,2,0,L|131:207,1,105.000004005432
123,103,258767,2,0,L|131:207,1,105.000004005432
199,127,259026,2,0,L|131:207,1,105.000004005432
236,199,259284,2,0,L|131:207,1,105.000004005432
280,120,259543,6,0,L|406:109,1,105.000004005432
297,171,259801,2,0,L|401:99,1,105.000004005432
338,205,260060,2,0,L|392:90,1,105.000004005432
392,215,260318,2,0,L|381:88,1,105.000004005432
442,197,260577,2,0,L|369:93,1,105.000004005432
480,264,260835,5,0,0:0:0:0:
436,293,260899,1,0,0:0:0:0:
393,323,260964,1,0,0:0:0:0:
336,264,261094,6,0,L|249:323,1,105.000004005432
256,256,261352,2,0,L|169:315,1,105.000004005432
176,248,261611,2,0,L|89:307,1,105.000004005432
192,176,261869,2,0,L|105:235,1,105.000004005432
216,96,262128,2,0,L|129:155,1,105.000004005432
72,104,262645,6,0,L|40:-1,1,105.000004005432
41,6,262903,6,0,L|129:77,1,105.000004005432
122,72,263162,6,0,L|9:53,1,105.000004005432
21,60,263420,6,0,L|108:3,1,105.000004005432
108,2,263679,6,0,L|64:118,1,105.000004005432
170,129,264196,6,0,L|208:32,1,105.000004005432
239,87,264454,2,0,L|335:44,1,105.000004005432
318,106,264713,2,0,L|416:144,1,105.000004005432
360,175,264971,2,0,L|403:271,1,105.000004005432
256,200,265230,1,0,0:0:0:0:
256,200,265295,1,0,0:0:0:0:
256,200,265359,2,0,P|304:256|208:216,1,280
208,160,266006,6,0,P|168:160|144:192,1,62.9999980773926
196,232,266264,2,0,P|152:256|120:256,1,59.5000011348725
81,316,266523,2,0,P|106:331|136:336,1,59.5000011348725
240,368,266781,6,0,B|312:224|376:360|464:200,1,280
352,200,267557,6,0,L|368:136,1,56
408,152,267815,2,0,L|400:80,1,56
448,96,268074,2,0,L|420:27,1,56
272,168,268332,6,0,L|224:128,1,56
264,112,268591,2,0,L|207:85,1,56
248,48,268849,2,0,L|175:25,1,56
208,0,269108,2,0,L|134:3,1,56
120,72,269366,6,0,P|77:100|64:144,1,78.7500030040742
152,152,269754,5,0,0:0:0:0:
248,128,269948,6,0,P|288:88|312:160,1,157.500006008148
288,128,270465,2,0,P|328:88|352:160,1,157.500006008148
328,128,270982,2,0,P|368:88|392:160,1,157.500006008148
392,152,271499,6,0,P|432:192|360:216,1,157.500006008148
392,192,272016,2,0,P|432:232|360:256,1,157.500006008148
392,232,272533,2,0,P|432:272|360:296,1,157.500006008148
392,272,273050,2,0,P|432:312|360:336,1,157.500006008148
352,320,273502,1,0,0:0:0:0:
336,296,273567,1,0,0:0:0:0:
251,289,274084,6,0,P|218:356|144:360,1,157.500006008148
144,360,274601,2,0,P|101:297|136:231,1,157.500006008148
136,231,275118,2,0,P|178:168|143:102,1,157.500006008148
117,127,275570,5,0,0:0:0:0:
96,160,275635,6,0,P|61:93|103:31,1,157.500006008148
103,31,276152,2,0,P|177:34|210:101,1,157.500006008148
210,101,276669,2,0,P|232:29|305:15,1,157.500006008148
305,15,277186,2,0,P|355:70|331:141,1,157.500006008148
285,131,277638,1,0,0:0:0:0:
282,86,277703,6,0,L|445:67,1,157.500006008148
438,67,278220,2,0,L|329:189,1,157.500006008148
333,184,278737,2,0,L|496:165,1,157.500006008148
489,165,279254,2,0,L|380:287,1,157.500006008148
408,320,279707,1,0,0:0:0:0:
429,350,279771,6,0,P|355:366|306:309,1,157.500006008148
306,309,280288,2,0,P|232:325|183:268,1,157.500006008148
183,268,280805,2,0,P|109:284|60:227,1,157.500006008148
136,216,281322,2,0,B|168:99|8:8|8:8|180:65|240:-32|240:-32|214:76|376:168|376:168|202:110|136:216,1,1023.75003905296
