osu file format v14

[General]
AudioFilename: audio.mp3
AudioLeadIn: 0
PreviewTime: 199218
Countdown: 1
SampleSet: Normal
StackLeniency: 0.7
Mode: 0
LetterboxInBreaks: 0
WidescreenStoryboard: 1

[Editor]
Bookmarks: 21562
DistanceSpacing: 1
BeatDivisor: 4
GridSize: 8
TimelineZoom: 1.2

[Metadata]
Title:If no sekai seetei
TitleUnicode:Ifの世界設定
Artist:Orangestar feat.IA
ArtistUnicode:Orangestar feat.IA
Creator:Irin
Version:A world in which stars vanished
Source:vocaloid
Tags:vocaloid
BeatmapID:1956762
BeatmapSetID:924289

[Difficulty]
HPDrainRate:6
CircleSize:4
OverallDifficulty:7.5
ApproachRate:9.1
SliderMultiplier:1.60000000596046
SliderTickRate:1

[Events]
//Background and Video events
0,0,"467a6aa4a45e4b873aed2c33593506e6.jpg",0,0
//Break Periods
2,60106,71118
2,123293,143493
//Storyboard Layer 0 (Background)
//Storyboard Layer 1 (Fail)
//Storyboard Layer 2 (Pass)
//Storyboard Layer 3 (Foreground)
//Storyboard Sound Samples

[TimingPoints]
93,375,4,1,0,100,1,0
93,-133.333333333333,4,1,0,10,0,0
11718,-100,4,1,0,30,0,0
17343,-100,4,1,0,50,0,0
18093,-100,4,1,0,30,0,0
23343,-100,4,1,0,50,0,0
24656,-100,4,1,0,30,0,0
25218,-100,4,1,0,50,0,0
25781,-100,4,1,0,30,0,0
26156,-100,4,1,0,50,0,0
27093,-100,4,1,0,50,0,0
27656,-100,4,1,0,30,0,0
28218,-100,4,1,0,50,0,0
28781,-100,4,1,0,30,0,0
29156,-100,4,1,0,50,0,0
30093,-100,4,1,0,50,0,0
30656,-100,4,1,0,30,0,0
31218,-100,4,1,0,50,0,0
31781,-100,4,1,0,30,0,0
32156,-100,4,1,0,50,0,0
33093,-100,4,1,0,50,0,0
33656,-100,4,1,0,30,0,0
34218,-100,4,1,0,50,0,0
34781,-100,4,1,0,30,0,0
35156,-100,4,1,0,50,0,0
71718,-100,4,1,0,30,0,0
72093,-100,4,1,0,50,0,0
123093,-100,4,1,0,10,0,0
144093,-100,4,1,0,30,0,0
156093,-100,4,1,0,50,0,0
172593,-100,4,1,0,100,0,0
173062,-120.0000048,4,1,0,100,0,0
173156,-120.0000048,4,1,0,50,0,0
197343,-80,4,1,0,100,0,0
199218,-80,4,1,0,100,0,1
252843,-80,4,1,0,100,0,0

[HitObjects]
104,352,93,6,8,B|43:248|40:160|152:208|152:208|144:72,1,360.000015074014
224,16,1593,2,8,B|264:56|248:112|248:112|336:16|336:16|312:96|400:128,1,360.000015074014
424,48,3093,2,8,B|512:248|296:344,1,360.000015074014
312,240,4593,2,8,B|256:288|160:288|160:288|144:216|144:216|232:216|272:176,1,360.000015074014
159,78,6093,6,0,P|184:36|136:40,1,120.000005024671
312,96,6843,2,0,P|337:54|288:57,1,120.000005024671
440,128,7593,2,8,B|416:192|344:200,1,120.000005024671
120,192,8343,2,8,B|56:168|48:96,1,120.000005024671
256,192,9093,12,0,11718,0:0:0:0:
256,8,12093,5,2,0:0:0:0:
64,216,12468,1,10,0:0:0:0:
320,88,12843,1,2,0:0:0:0:
32,88,13218,1,10,0:0:0:0:
208,312,13593,1,2,0:0:0:0:
424,128,13968,1,10,0:0:0:0:
504,216,14343,2,8,P|459:246|352:208,1,160.000000596046
24,272,15093,5,2,0:0:0:0:
184,32,15468,1,10,0:0:0:0:
216,320,15843,5,2,0:0:0:0:
376,72,16218,1,10,0:0:0:0:
88,152,16593,1,2,0:0:0:0:
376,72,16968,1,10,0:0:0:0:
224,320,17343,1,10,0:0:0:0:
192,184,17531,1,2,0:0:0:0:
328,216,17718,1,10,0:0:0:0:
256,96,18093,5,2,0:0:0:0:
16,248,18468,1,10,0:0:0:0:
296,264,18843,1,2,0:0:0:0:
488,48,19218,1,10,0:0:0:0:
200,48,19593,1,2,0:0:0:0:
400,256,19968,1,10,0:0:0:0:
224,128,20343,1,2,0:0:0:0:
152,336,20718,1,10,0:0:0:0:
160,144,21093,5,2,0:0:0:0:
408,192,21468,1,10,0:0:0:0:
312,0,21843,1,2,0:0:0:0:
104,80,22218,1,10,0:0:0:0:
272,312,22593,5,2,0:0:0:0:
16,200,22968,1,10,0:0:0:0:
232,24,23343,1,10,0:0:0:0:
256,160,23530,1,2,0:0:0:0:
120,120,23718,1,10,0:0:0:0:
392,32,24093,5,10,0:0:0:0:
395,36,24280,1,10,0:0:0:0:
408,176,24656,5,2,0:0:0:0:
408,176,24843,1,2,0:0:0:0:
272,112,25218,5,10,0:0:0:0:
272,112,25406,1,10,0:0:0:0:
280,272,25781,5,2,0:0:0:0:
280,272,25969,1,2,0:0:0:0:
336,336,26156,2,8,P|304:360|248:352,1,80.000000298023
176,336,26530,1,8,0:0:0:0:
176,336,26624,1,0,0:0:0:0:
176,336,26718,1,8,0:0:0:0:
136,184,27093,5,10,0:0:0:0:
136,184,27281,1,10,0:0:0:0:
256,256,27656,5,2,0:0:0:0:
256,256,27844,1,2,0:0:0:0:
264,112,28218,5,10,0:0:0:0:
264,112,28406,1,10,0:0:0:0:
384,192,28780,5,2,0:0:0:0:
384,192,28968,1,2,0:0:0:0:
464,208,29156,2,8,B|472:160|440:128,1,80.000000298023
400,80,29531,1,8,0:0:0:0:
400,80,29625,1,0,0:0:0:0:
400,80,29718,1,8,0:0:0:0:
200,40,30093,5,10,0:0:0:0:
200,184,30281,1,10,0:0:0:0:
338,215,30655,5,2,0:0:0:0:
400,80,30843,1,2,0:0:0:0:
320,72,31218,5,10,0:0:0:0:
424,168,31406,1,10,0:0:0:0:
296,224,31781,5,10,0:0:0:0:
147,222,31969,1,2,0:0:0:0:
176,312,32156,2,8,B|121:337|89:289,1,80.000000298023
32,240,32531,1,8,0:0:0:0:
32,240,32625,1,0,0:0:0:0:
32,240,32718,1,8,0:0:0:0:
152,216,33093,5,10,0:0:0:0:
104,16,33281,1,10,0:0:0:0:
192,40,33656,5,2,0:0:0:0:
48,176,33843,1,2,0:0:0:0:
248,272,34218,5,10,0:0:0:0:
392,120,34406,1,10,0:0:0:0:
256,80,34781,5,10,0:0:0:0:
408,232,34969,1,2,0:0:0:0:
240,224,35156,2,8,P|160:176|160:176,1,80.000000298023
168,32,35531,5,8,0:0:0:0:
24,104,35718,5,8,0:0:0:0:
16,264,35906,5,10,0:0:0:0:
160,304,36093,6,8,B|356:377|504:287|502:93,1,480.000002384184
501,104,37593,1,10,0:0:0:0:
501,104,37968,1,10,0:0:0:0:
511,114,38343,1,2,0:0:0:0:
511,114,38718,1,10,0:0:0:0:
511,114,39093,6,8,B|351:32|169:97|171:315,1,480.000002384184
171,302,40593,1,10,0:0:0:0:
171,302,40968,1,10,0:0:0:0:
171,302,41343,1,2,0:0:0:0:
171,302,41718,1,10,0:0:0:0:
182,312,42093,6,8,B|62:167|190:-33|383:14,1,480.000002384184
378,12,43593,1,10,0:0:0:0:
392,24,43968,1,10,0:0:0:0:
392,24,44343,1,2,0:0:0:0:
392,24,44718,1,10,0:0:0:0:
400,32,45093,6,8,B|518:159|404:360|179:321,1,480.000002384184
191,322,46593,1,10,0:0:0:0:
191,322,46968,1,8,0:0:0:0:
191,322,47343,1,0,0:0:0:0:
191,322,47718,1,8,0:0:0:0:
32,176,48093,5,2,0:0:0:0:
72,40,48281,1,2,0:0:0:0:
184,136,48468,1,10,0:0:0:0:
264,208,48656,2,0,P|288:176|296:128,1,80.000000298023
416,56,49031,5,10,0:0:0:0:
456,232,49218,1,2,0:0:0:0:
320,352,49406,2,8,B|198:314|198:314|248:288,1,160.000000596046
174,233,50156,6,0,L|104:272,1,80.000000298023
16,256,50531,6,8,P|30:219|64:200,1,80.000000298023
152,144,50906,6,0,P|120:104|64:96,1,80.000000298023
208,48,51281,1,2,0:0:0:0:
344,112,51468,1,10,0:0:0:0:
304,216,51656,2,0,P|269:201|240:136,1,80.000000298023
144,240,52031,5,10,0:0:0:0:
32,152,52218,1,2,0:0:0:0:
136,32,52406,2,8,P|216:0|296:16,1,160.000000596046
232,112,53156,2,8,P|312:144|400:96,1,160.000000596046
496,152,53718,1,8,0:0:0:0:
494,187,53812,1,0,0:0:0:0:
470,214,53906,1,8,0:0:0:0:
320,320,54093,5,2,0:0:0:0:
360,184,54281,1,2,0:0:0:0:
224,216,54468,1,10,0:0:0:0:
152,344,54656,2,0,B|88:336|88:336|104:304,1,80.000000298023
64,176,55031,5,10,0:0:0:0:
192,96,55218,1,2,0:0:0:0:
178,44,55406,2,8,P|242:60|178:84,1,160.000000596046
384,32,56156,6,8,L|464:80,1,80.000000298023
512,72,56531,6,0,L|464:160,1,80.000000298023
400,144,56906,6,8,L|352:232,1,80.000000298023
448,320,57281,1,2,0:0:0:0:
256,352,57468,1,10,0:0:0:0:
120,336,57656,2,0,B|144:328|144:328|144:296|144:296|176:280,1,80.000000298023
32,240,58031,5,10,0:0:0:0:
144,160,58218,1,2,0:0:0:0:
56,96,58406,2,8,P|136:48|216:88,1,160.000000596046
296,32,59156,2,8,P|312:96|252:161,1,160.000000596046
176,256,59718,1,8,0:0:0:0:
207,273,59812,1,0,0:0:0:0:
242,276,59906,1,8,0:0:0:0:
200,120,71718,6,8,L|136:72,1,80.000000298023
82,141,72093,2,12,L|152:192,1,80.000000298023
264,288,72656,5,2,0:0:0:0:
320,360,72843,2,8,P|351:318|352:280,1,80.000000298023
248,64,73218,5,2,0:0:0:0:
424,24,73406,1,2,0:0:0:0:
376,192,73593,1,10,0:0:0:0:
200,224,73781,1,2,0:0:0:0:
72,96,73968,1,2,0:0:0:0:
24,272,74156,1,2,0:0:0:0:
112,368,74343,2,8,L|192:344,1,80.000000298023
307,323,74718,6,8,P|259:243|171:226,1,160.000000596046
88,216,75468,2,8,P|144:120|208:112,1,160.000000596046
256,24,76218,6,0,P|288:40|304:80,1,80.000000298023
408,104,76593,2,8,P|401:131|360:168,1,80.000000298023
464,248,76969,1,2,0:0:0:0:
376,336,77156,1,2,0:0:0:0:
344,240,77343,2,8,P|304:264|280:320,1,80.000000298023
256,176,77718,2,0,P|304:144|352:144,1,80.000000298023
208,72,78093,1,14,0:0:0:0:
159,187,78468,5,2,0:0:0:0:
4,308,78656,2,8,P|52:196|183:201,1,240.000000894069
288,256,79406,1,2,0:0:0:0:
208,72,79593,2,8,P|303:147|265:272,1,240.000000894069
168,328,80343,1,2,0:0:0:0:
80,224,80718,6,0,L|112:136,1,80.000000298023
128,108,81093,2,8,L|168:184,1,80.000000298023
219,269,81468,2,0,L|256:184,1,80.000000298023
293,98,81843,2,8,L|328:184,1,80.000000298023
365,285,82218,2,0,L|400:208,1,80.000000298023
461,86,82593,2,8,L|467:169,1,80.000000298023
478,294,83156,1,2,0:0:0:0:
478,294,83343,1,2,0:0:0:0:
56,64,83718,6,0,L|96:144,1,80.000000298023
56,216,84093,5,14,0:0:0:0:
80,232,84187,1,0,0:0:0:0:
112,232,84281,2,8,P|150:223|176:176,1,80.000000298023
208,88,84656,5,2,0:0:0:0:
232,96,84750,1,0,0:0:0:0:
256,112,84843,2,8,P|282:134|272:248,1,160.000000596046
334,292,85405,6,8,L|352:328,1,40.0000001490115
432,336,85593,2,8,L|472:312,1,40.0000001490115
400,256,85780,2,8,L|400:208,1,40.0000001490115
464,200,85968,2,8,L|504:168,1,40.0000001490115
448,128,86155,2,8,L|384:128,1,40.0000001490115
376,128,86343,1,8,0:0:0:0:
352,136,86436,1,0,0:0:0:0:
336,165,86529,1,8,0:0:0:0:
304,264,86718,6,8,P|248:232|248:128,1,160.000000596046
264,40,87280,1,2,0:0:0:0:
160,16,87468,2,8,P|96:24|48:112,1,160.000000596046
152,120,88030,1,2,0:0:0:0:
104,248,88218,2,8,B|128:288|128:288|176:264,1,80.000000298023
262,313,88593,6,8,L|304:296,1,40.0000001490115
272,240,88780,2,0,L|272:192,1,40.0000001490115,8|0,0:0|0:0,0:0:0:0:
208,208,88968,2,8,L|168:176,1,40.0000001490115
184,104,89155,2,8,L|224:136,1,40.0000001490115
248,72,89343,2,8,L|280:48,1,40.0000001490115
312,104,89530,1,8,0:0:0:0:
328,128,89624,1,0,0:0:0:0:
344,152,89718,2,8,P|352:192|328:232,1,80.000000298023
192,344,90093,6,4,P|114:358|40:312,1,160.000000596046
128,272,90656,1,2,0:0:0:0:
72,192,90843,2,0,P|126:178|224:232,1,160.000000596046
352,112,91406,1,2,0:0:0:0:
384,8,91593,2,0,B|488:48|448:168,1,160.000000596046
400,224,92156,1,2,0:0:0:0:
480,328,92343,1,2,0:0:0:0:
331,295,92718,6,0,L|240:280,1,80.000000298023
183,271,93093,2,8,L|280:240,1,80.000000298023
345,222,93468,2,0,L|256:208,1,80.000000298023
161,199,93843,2,8,L|256:176,1,80.000000298023
360,151,94218,2,0,L|280:144,1,80.000000298023
137,133,94593,2,8,L|232:112,1,80.000000298023
383,77,94968,2,0,L|272:64,1,80.000000298023
114,56,95343,1,10,0:0:0:0:
80,147,95718,5,8,0:0:0:0:
65,173,95811,1,0,0:0:0:0:
58,202,95905,1,8,0:0:0:0:
59,232,95999,1,0,0:0:0:0:
67,261,96093,2,8,P|104:313|208:336,1,160.000000596046
208,208,96656,5,2,0:0:0:0:
312,344,96843,2,8,P|409:353|512:264,1,240.000000894069
376,232,97593,2,0,L|432:176,1,80.000000298023
480,208,97968,2,8,L|440:112,1,80.000000298023
392,144,98343,2,0,L|424:64,1,80.000000298023
464,24,98719,5,8,0:0:0:0:
432,8,98812,1,0,0:0:0:0:
396,14,98906,1,8,0:0:0:0:
264,96,99093,2,8,L|200:48,1,80.000000298023
234,16,99468,2,0,L|144:56,1,80.000000298023
150,74,99843,2,8,L|96:8,1,80.000000298023
40,168,100218,6,0,P|64:200|107:212,1,80.000000298023
174,272,100593,2,8,P|195:239|200:200,1,80.000000298023
168,160,100968,2,0,L|224:88,1,80.000000298023
120,72,101343,2,8,P|182:8|328:40,1,240.000000894069
301,124,102093,5,8,0:0:0:0:
327,109,102186,1,0,0:0:0:0:
356,102,102280,1,8,0:0:0:0:
386,103,102374,1,0,0:0:0:0:
415,111,102468,1,8,0:0:0:0:
373,230,102656,5,2,0:0:0:0:
304,336,102843,2,0,P|248:354|136:320,1,160.000000596046
229,246,103406,1,2,0:0:0:0:
120,240,103593,2,0,L|96:160,1,80.000000298023
134,157,103968,2,8,L|40:144,1,80.000000298023
32,165,104343,2,0,L|16:64,1,80.000000298023
32,0,104718,6,8,P|72:16|96:56,1,80.000000298023
160,120,105093,2,0,L|176:160,2,40.0000001490115
242,86,105468,2,8,L|256:128,2,40.0000001490115
333,53,105843,2,0,L|352:104,2,40.0000001490115
440,176,106218,5,8,0:0:0:0:
416,194,106311,1,0,0:0:0:0:
392,212,106405,1,8,0:0:0:0:
283,193,106593,1,8,0:0:0:0:
308,176,106686,1,0,0:0:0:0:
332,158,106780,1,8,0:0:0:0:
315,275,106968,5,8,0:0:0:0:
291,293,107061,1,0,0:0:0:0:
267,311,107155,1,8,0:0:0:0:
158,292,107343,1,8,0:0:0:0:
183,275,107436,1,0,0:0:0:0:
207,257,107530,1,8,0:0:0:0:
494,144,108093,5,8,0:0:0:0:
502,115,108187,1,0,0:0:0:0:
503,85,108281,1,8,0:0:0:0:
496,56,108375,1,0,0:0:0:0:
481,30,108468,1,8,0:0:0:0:
407,92,108656,5,2,0:0:0:0:
312,24,108843,2,0,P|294:91|328:176,1,160.000000596046
430,279,109406,1,2,0:0:0:0:
336,344,109593,2,0,L|256:320,1,80.000000298023
240,368,109968,2,8,L|232:272,1,80.000000298023
264,264,110343,2,0,L|168:248,1,80.000000298023
92,317,110718,6,8,B|48:320|32:264,1,80.000000298023
107,144,111093,5,8,0:0:0:0:
107,144,111187,1,0,0:0:0:0:
107,144,111281,1,8,0:0:0:0:
0,199,111468,5,8,0:0:0:0:
0,199,111562,1,0,0:0:0:0:
0,199,111656,1,8,0:0:0:0:
119,222,111843,5,8,0:0:0:0:
119,222,111937,1,0,0:0:0:0:
119,222,112031,1,8,0:0:0:0:
43,131,112218,5,8,0:0:0:0:
43,131,112312,1,0,0:0:0:0:
43,131,112406,1,8,0:0:0:0:
200,176,112593,2,0,L|248:112,1,80.000000298023
273,222,112968,2,8,L|224:288,1,80.000000298023
368,288,113343,2,0,B|416:216|352:136,1,160.000000596046
361,87,114093,5,8,0:0:0:0:
346,60,114187,1,0,0:0:0:0:
325,38,114281,1,8,0:0:0:0:
300,23,114375,1,0,0:0:0:0:
271,15,114468,1,8,0:0:0:0:
267,115,114656,5,2,0:0:0:0:
264,208,114843,2,0,P|196:183|180:95,1,160.000000596046
48,48,115406,1,2,0:0:0:0:
0,176,115593,2,0,L|80:208,1,80.000000298023
83,163,115968,2,8,L|96:256,1,80.000000298023
64,272,116343,2,0,L|160:288,1,80.000000298023
128,360,116718,6,8,B|176:368|200:336,1,80.000000298023
328,312,117094,5,8,0:0:0:0:
328,312,117187,1,0,0:0:0:0:
328,312,117281,1,8,0:0:0:0:
400,216,117468,5,8,0:0:0:0:
400,216,117562,1,0,0:0:0:0:
400,216,117656,1,8,0:0:0:0:
368,104,117843,5,8,0:0:0:0:
368,104,117937,1,0,0:0:0:0:
368,104,118031,1,8,0:0:0:0:
264,48,118218,5,8,0:0:0:0:
264,48,118312,1,0,0:0:0:0:
264,48,118406,1,8,0:0:0:0:
152,80,118593,5,8,0:0:0:0:
152,80,118687,1,0,0:0:0:0:
152,80,118781,1,8,0:0:0:0:
56,160,118968,5,8,0:0:0:0:
56,160,119062,1,0,0:0:0:0:
56,160,119156,1,8,0:0:0:0:
104,272,119343,5,8,0:0:0:0:
131,325,119437,1,0,0:0:0:0:
183,355,119531,1,8,0:0:0:0:
242,349,119625,1,0,0:0:0:0:
296,323,119719,1,8,0:0:0:0:
256,192,120093,12,0,123093,0:0:0:0:
64,64,144093,6,0,L|80:24,1,40.0000001490115
144,88,144280,2,0,L|129:125,1,40.0000001490115
216,120,144468,2,0,L|232:80,1,40.0000001490115
320,48,144655,2,0,L|305:85,1,40.0000001490115
296,120,144843,5,8,0:0:0:0:
320,144,144937,1,0,0:0:0:0:
352,152,145031,1,8,0:0:0:0:
384,136,145125,1,0,0:0:0:0:
400,104,145218,2,8,P|449:67|520:96,1,120.000000447034
472,152,145592,6,0,L|496:192,1,40.0000001490115
496,272,145780,2,0,L|448:320,1,40.0000001490115
408,240,145967,2,0,L|408:288,1,40.0000001490115
424,360,146155,2,0,L|392:384,1,40.0000001490115
360,352,146343,5,8,0:0:0:0:
329,353,146437,1,0,0:0:0:0:
302,338,146531,1,8,0:0:0:0:
287,311,146625,1,0,0:0:0:0:
276,283,146718,2,8,P|263:232|206:244,1,120.000000596046
208,328,147093,6,0,L|152:328,1,40.0000001490115
112,272,147281,2,0,L|64:320,1,40.0000001490115
48,224,147468,2,0,L|48:184,1,40.0000001490115
119,174,147656,2,0,L|143:142,1,40.0000001490115
128,96,147843,5,8,0:0:0:0:
143,70,147937,1,0,0:0:0:0:
171,54,148031,1,8,0:0:0:0:
202,57,148125,1,0,0:0:0:0:
226,75,148218,2,8,P|281:89|319:46,1,120.000000596046
384,8,148593,6,0,L|416:56,1,40.0000001490115
488,64,148781,2,0,L|440:112,1,40.0000001490115
384,120,148968,6,0,L|416:168,1,40.0000001490115
496,176,149155,2,0,L|448:224,1,40.0000001490115
448,240,149343,5,8,0:0:0:0:
452,269,149437,1,0,0:0:0:0:
439,295,149531,1,8,0:0:0:0:
418,315,149625,1,0,0:0:0:0:
400,336,149718,2,8,P|349:361|307:323,1,120.000000596046
312,256,150093,6,0,L|368:240,1,40.0000001490115
264,216,150281,2,0,L|216:184,1,40.0000001490115
312,184,150468,2,0,L|368:168,1,40.0000001490115
296,136,150655,2,0,L|248:104,1,40.0000001490115
240,80,150843,5,8,0:0:0:0:
255,54,150937,1,0,0:0:0:0:
280,39,151031,1,8,0:0:0:0:
309,29,151125,1,0,0:0:0:0:
347,20,151218,2,8,P|403:15|430:70,1,120.000000596046
432,152,151593,6,0,L|446:208,1,40.0000001490115
400,264,151781,2,0,L|353:240,1,40.0000001490115
312,176,151968,2,0,L|326:232,1,40.0000001490115
264,270,152155,2,0,L|212:244,1,40.0000001490115
192,248,152343,5,8,0:0:0:0:
164,259,152437,1,0,0:0:0:0:
143,281,152531,1,8,0:0:0:0:
128,307,152625,1,0,0:0:0:0:
98,328,152718,2,8,P|37:338|28:274,1,120.000000596046
8,208,153093,6,0,L|64:176,1,40.0000001490115
128,208,153281,2,0,L|128:160,1,40.0000001490115
184,104,153468,2,0,L|144:88,1,40.0000001490115
64,88,153655,2,0,L|64:48,1,40.0000001490115
88,16,153843,5,8,0:0:0:0:
116,3,153937,1,0,0:0:0:0:
146,0,154031,1,8,0:0:0:0:
173,14,154125,1,0,0:0:0:0:
200,32,154218,2,8,P|244:64|228:128,1,120.000000596046
248,192,154593,6,0,L|312:176,1,40.0000001490115
200,200,154781,2,0,L|168:168,1,40.0000001490115
216,240,154968,2,0,L|256:272,1,40.0000001490115
160,264,155155,2,0,L|144:304,1,40.0000001490115
160,336,155343,5,8,0:0:0:0:
186,350,155437,1,0,0:0:0:0:
215,357,155531,1,8,0:0:0:0:
241,344,155625,1,0,0:0:0:0:
267,322,155718,2,8,P|317:293|375:324,1,120.000000596046
400,328,156093,5,0,0:0:0:0:
424,312,156187,1,0,0:0:0:0:
447,292,156281,1,8,0:0:0:0:
466,269,156375,1,0,0:0:0:0:
483,245,156468,1,8,0:0:0:0:
493,216,156562,1,0,0:0:0:0:
494,185,156656,1,8,0:0:0:0:
384,192,156843,5,8,0:0:0:0:
370,165,156937,1,0,0:0:0:0:
355,138,157031,1,8,0:0:0:0:
331,118,157125,1,0,0:0:0:0:
321,89,157218,2,8,P|303:52|218:56,1,120.000000596046
200,48,157593,5,0,0:0:0:0:
171,47,157687,1,0,0:0:0:0:
140,48,157781,1,8,0:0:0:0:
110,50,157875,1,0,0:0:0:0:
80,54,157968,1,8,0:0:0:0:
49,55,158062,1,0,0:0:0:0:
18,56,158156,1,8,0:0:0:0:
16,152,158343,5,8,0:0:0:0:
6,180,158437,1,0,0:0:0:0:
19,206,158531,1,8,0:0:0:0:
47,215,158625,1,0,0:0:0:0:
77,200,158718,2,8,P|120:156|169:175,1,120.000000596046
197,195,159092,5,0,0:0:0:0:
219,215,159186,1,8,0:0:0:0:
250,213,159280,1,0,0:0:0:0:
266,188,159373,1,8,0:0:0:0:
277,160,159467,1,0,0:0:0:0:
300,140,159561,1,8,0:0:0:0:
328,128,159655,1,0,0:0:0:0:
376,16,159843,5,8,0:0:0:0:
402,29,159937,1,0,0:0:0:0:
422,50,160031,1,8,0:0:0:0:
438,75,160125,1,0,0:0:0:0:
458,108,160218,2,8,P|478:165|431:214,1,120.000000596046
424,232,160592,5,0,0:0:0:0:
400,248,160686,1,8,0:0:0:0:
370,254,160780,1,0,0:0:0:0:
346,271,160873,1,8,0:0:0:0:
327,294,160967,1,0,0:0:0:0:
307,317,161061,1,8,0:0:0:0:
280,328,161155,1,0,0:0:0:0:
208,384,161343,5,8,0:0:0:0:
187,361,161437,1,0,0:0:0:0:
172,335,161531,1,8,0:0:0:0:
173,304,161625,1,0,0:0:0:0:
188,278,161718,2,8,L|256:224,1,80.000000298023
248,64,162094,5,2,0:0:0:0:
344,160,162281,1,2,0:0:0:0:
248,256,162469,1,10,0:0:0:0:
144,160,162656,1,2,0:0:0:0:
104,304,162843,1,2,0:0:0:0:
0,200,163030,1,2,0:0:0:0:
32,56,163218,1,10,0:0:0:0:
160,8,163406,1,2,0:0:0:0:
312,48,163593,5,2,0:0:0:0:
456,24,163781,1,2,0:0:0:0:
408,160,163968,1,10,0:0:0:0:
264,184,164156,1,2,0:0:0:0:
208,88,164343,1,2,0:0:0:0:
344,128,164530,1,2,0:0:0:0:
304,256,164718,1,10,0:0:0:0:
168,224,164905,1,2,0:0:0:0:
24,296,165093,5,8,0:0:0:0:
47,314,165186,1,0,0:0:0:0:
74,326,165280,1,8,0:0:0:0:
104,331,165374,1,0,0:0:0:0:
134,329,165468,1,8,0:0:0:0:
163,321,165561,1,0,0:0:0:0:
190,308,165656,1,8,0:0:0:0:
223,292,165750,1,0,0:0:0:0:
238,317,165843,1,8,0:0:0:0:
260,337,165937,1,0,0:0:0:0:
287,350,166031,1,8,0:0:0:0:
317,354,166125,1,0,0:0:0:0:
347,349,166218,1,8,0:0:0:0:
480,336,166406,5,10,0:0:0:0:
456,216,166593,5,8,0:0:0:0:
464,187,166687,1,0,0:0:0:0:
465,156,166781,1,8,0:0:0:0:
455,127,166875,1,0,0:0:0:0:
436,103,166968,1,8,0:0:0:0:
411,85,167062,1,0,0:0:0:0:
382,75,167156,1,8,0:0:0:0:
352,69,167250,1,0,0:0:0:0:
322,72,167343,1,8,0:0:0:0:
292,68,167437,1,0,0:0:0:0:
260,60,167531,5,8,0:0:0:0:
231,49,167625,1,0,0:0:0:0:
201,45,167718,1,8,0:0:0:0:
170,43,167812,1,0,0:0:0:0:
139,43,167906,1,8,0:0:0:0:
109,45,167999,1,0,0:0:0:0:
77,62,168093,6,8,P|40:80|0:112,1,80.000000298023
24,296,168468,1,10,0:0:0:0:
104,184,168655,1,2,0:0:0:0:
136,328,168843,1,2,0:0:0:0:
208,208,169030,1,10,0:0:0:0:
232,360,169218,1,2,0:0:0:0:
376,352,169405,5,2,0:0:0:0:
472,248,169593,1,2,0:0:0:0:
472,104,169780,1,10,0:0:0:0:
368,8,169968,1,2,0:0:0:0:
216,8,170155,1,2,0:0:0:0:
88,72,170343,1,2,0:0:0:0:
32,192,170530,1,10,0:0:0:0:
72,320,170718,2,8,P|90:359|112:392,1,80.000000298023
192,320,171093,5,8,0:0:0:0:
221,324,171187,1,0,0:0:0:0:
249,315,171281,1,8,0:0:0:0:
277,304,171375,1,0,0:0:0:0:
303,290,171468,1,8,0:0:0:0:
328,273,171562,1,0,0:0:0:0:
349,252,171656,1,8,0:0:0:0:
370,230,171750,1,0,0:0:0:0:
388,206,171843,1,8,0:0:0:0:
401,179,171937,1,0,0:0:0:0:
415,152,172031,1,8,0:0:0:0:
427,124,172125,1,0,0:0:0:0:
435,95,172218,1,8,0:0:0:0:
440,65,172312,1,0,0:0:0:0:
441,34,172406,1,8,0:0:0:0:
414,48,172500,1,0,0:0:0:0:
386,60,172593,1,8,0:0:0:0:
168,216,173156,5,2,0:0:0:0:
56,136,173343,1,2,0:0:0:0:
200,80,173531,1,10,0:0:0:0:
304,160,173718,1,2,0:0:0:0:
288,304,173906,1,2,0:0:0:0:
160,368,174093,2,8,P|120:360|96:344,1,66.6666626764669
96,208,174656,6,8,P|48:216|8:192,1,66.6666626764669
56,96,175031,1,10,0:0:0:0:
168,32,175218,1,2,0:0:0:0:
304,32,175406,1,2,0:0:0:0:
232,152,175593,1,2,0:0:0:0:
96,208,175781,2,8,P|119:255|187:298,1,133.333325352934
304,336,176343,5,2,0:0:0:0:
284,195,176531,1,10,0:0:0:0:
408,256,176718,1,2,0:0:0:0:
392,112,176906,1,2,0:0:0:0:
284,195,177093,2,8,P|262:214|224:224,1,66.6666626764669
104,184,177468,5,2,0:0:0:0:
176,56,177656,1,2,0:0:0:0:
344,40,177843,2,8,B|416:0|480:64,1,133.333325352934
392,128,178406,6,0,P|372:157|344:184,1,66.6666626764669
336,272,178781,1,10,0:0:0:0:
88,352,179156,5,2,0:0:0:0:
56,216,179343,1,2,0:0:0:0:
192,248,179531,1,10,0:0:0:0:
168,104,179718,1,2,0:0:0:0:
312,136,179906,1,2,0:0:0:0:
280,0,180093,1,2,0:0:0:0:
408,32,180281,1,10,0:0:0:0:
456,120,180656,6,0,L|400:184,1,66.6666626764669
336,256,181031,2,8,L|392:192,1,66.6666626764669
336,128,181406,2,0,L|392:184,1,66.6666626764669
448,240,181781,2,8,L|400:192,1,66.6666626764669
401,100,182156,6,0,L|432:64,1,33.3333313382335
358,27,182343,6,0,L|312:80,1,66.6666626764669
273,43,182624,6,0,L|224:96,1,66.6666626764669
183,69,182906,6,8,L|88:168,1,133.333325352934
48,288,183656,6,0,L|20:316,1,33.3333313382335
84,357,183843,6,0,L|144:296,1,66.6666626764669
176,332,184124,6,0,L|232:272,1,66.6666626764669
268,300,184406,6,8,L|360:200,1,133.333325352934
480,40,185156,5,2,0:0:0:0:
360,24,185343,1,2,0:0:0:0:
400,136,185531,1,10,0:0:0:0:
280,112,185718,1,2,0:0:0:0:
312,224,185906,1,2,0:0:0:0:
384,272,186093,2,0,P|320:312|264:296,1,133.333325352934
168,280,186656,6,0,L|184:208,1,66.6666626764669
216,232,187031,2,8,L|192:160,1,66.6666626764669
232,168,187406,2,0,L|176:120,1,66.6666626764669
208,104,187781,2,8,L|136:88,1,66.6666626764669
48,40,188156,5,2,0:0:0:0:
0,144,188343,1,2,0:0:0:0:
112,192,188531,1,10,0:0:0:0:
48,296,188718,1,2,0:0:0:0:
160,344,188906,1,2,0:0:0:0:
192,256,189093,2,0,P|224:264|248:296,1,66.6666626764669
336,360,189468,5,2,0:0:0:0:
400,312,189656,2,0,L|376:224,1,66.6666626764669
448,256,190031,2,8,L|424:176,1,66.6666626764669
409,130,190406,2,0,L|360:184,1,66.6666626764669
377,74,190781,2,8,L|328:128,1,66.6666626764669
312,288,191156,5,2,0:0:0:0:
192,336,191343,1,2,0:0:0:0:
216,208,191531,1,10,0:0:0:0:
104,248,191718,1,2,0:0:0:0:
112,120,191906,1,2,0:0:0:0:
8,176,192093,1,2,0:0:0:0:
16,56,192281,2,8,P|40:24|80:16,1,66.6666626764669
112,120,192656,6,0,L|168:72,1,66.6666626764669
190,18,193031,2,8,L|240:64,1,66.6666626764669
320,48,193406,5,2,0:0:0:0:
192,152,193593,1,2,0:0:0:0:
344,208,193781,1,10,0:0:0:0:
280,128,193968,1,2,0:0:0:0:
160,251,194156,5,2,0:0:0:0:
224,347,194343,1,2,0:0:0:0:
224,235,194531,1,10,0:0:0:0:
152,323,194718,1,2,0:0:0:0:
272,291,194906,1,2,0:0:0:0:
136,192,195093,6,0,P|160:152|200:144,1,66.6666626764669
304,136,195468,1,2,0:0:0:0:
240,48,195656,2,0,P|277:29|317:29,1,66.6666626764669
400,88,196031,2,8,P|412:113|411:162,1,66.6666626764669
512,146,196406,2,0,B|491:272|361:284,1,199.999988029401
324,197,197343,6,8,P|188:181|320:168,1,400.000001490115
256,192,198468,1,10,0:0:0:0:
368,224,198656,1,10,0:0:0:0:
368,40,199031,1,10,0:0:0:0:
224,56,199218,6,0,B|176:113|176:113|153:98,1,100.000000372529
72,48,199593,1,10,0:0:0:0:
0,144,199781,1,2,0:0:0:0:
24,264,199968,1,2,0:0:0:0:
120,336,200156,1,2,0:0:0:0:
232,304,200343,1,10,0:0:0:0:
256,184,200531,1,2,0:0:0:0:
184,88,200718,1,2,0:0:0:0:
272,0,200906,1,2,0:0:0:0:
392,24,201093,5,10,0:0:0:0:
464,120,201281,1,2,0:0:0:0:
448,240,201468,1,2,0:0:0:0:
336,288,201656,1,2,0:0:0:0:
232,232,201843,1,10,0:0:0:0:
328,160,202031,1,2,0:0:0:0:
288,272,202218,2,0,P|268:328|213:363,1,100.000000372529
128,328,202593,5,8,0:0:0:0:
90,308,202686,1,0,0:0:0:0:
56,277,202780,1,8,0:0:0:0:
30,240,202875,1,0,0:0:0:0:
7,200,202969,1,8,0:0:0:0:
0,155,203061,5,0,0:0:0:0:
12,111,203155,1,8,0:0:0:0:
32,71,203250,1,0,0:0:0:0:
61,37,203344,1,8,0:0:0:0:
104,16,203436,1,0,0:0:0:0:
146,12,203531,1,8,0:0:0:0:
190,9,203625,1,0,0:0:0:0:
232,24,203719,1,8,0:0:0:0:
272,43,203811,1,0,0:0:0:0:
307,70,203906,1,8,0:0:0:0:
496,160,204093,5,8,0:0:0:0:
486,204,204187,1,0,0:0:0:0:
467,244,204281,1,8,0:0:0:0:
440,280,204375,1,0,0:0:0:0:
401,302,204468,1,8,0:0:0:0:
356,306,204562,1,0,0:0:0:0:
317,282,204656,1,8,0:0:0:0:
311,237,204750,1,0,0:0:0:0:
329,196,204843,1,8,0:0:0:0:
373,189,204937,1,0,0:0:0:0:
410,213,205031,1,8,0:0:0:0:
368,248,205218,6,8,L|287:189,1,100.000000372529
200,288,205593,1,2,0:0:0:0:
80,272,205781,1,10,0:0:0:0:
24,168,205968,1,2,0:0:0:0:
72,56,206156,1,10,0:0:0:0:
184,24,206343,1,2,0:0:0:0:
240,128,206531,1,8,0:0:0:0:
271,148,206624,1,0,0:0:0:0:
308,153,206718,1,8,0:0:0:0:
343,143,206812,1,0,0:0:0:0:
376,128,206906,1,8,0:0:0:0:
296,24,207093,5,2,0:0:0:0:
416,32,207281,1,2,0:0:0:0:
480,136,207468,1,2,0:0:0:0:
472,256,207656,1,8,0:0:0:0:
435,253,207749,1,0,0:0:0:0:
405,231,207843,1,8,0:0:0:0:
296,280,208031,1,2,0:0:0:0:
223,184,208218,2,8,P|225:129|249:86,1,100.000000372529
296,25,208593,5,8,0:0:0:0:
340,40,208687,1,0,0:0:0:0:
369,52,208781,1,8,0:0:0:0:
409,71,208875,1,0,0:0:0:0:
441,101,208968,1,8,0:0:0:0:
463,139,209062,1,0,0:0:0:0:
474,182,209156,1,8,0:0:0:0:
479,226,209250,1,0,0:0:0:0:
479,270,209343,1,8,0:0:0:0:
460,311,209437,1,0,0:0:0:0:
419,330,209531,5,8,0:0:0:0:
377,312,209625,1,0,0:0:0:0:
353,273,209718,1,8,0:0:0:0:
363,229,209812,1,0,0:0:0:0:
396,198,209906,1,8,0:0:0:0:
245,144,210093,5,8,0:0:0:0:
213,111,210187,1,0,0:0:0:0:
170,94,210281,1,8,0:0:0:0:
130,114,210375,1,0,0:0:0:0:
105,151,210468,1,8,0:0:0:0:
106,196,210562,1,0,0:0:0:0:
137,227,210656,1,8,0:0:0:0:
177,246,210750,1,0,0:0:0:0:
220,235,210843,1,8,0:0:0:0:
253,204,210937,1,0,0:0:0:0:
257,159,211031,1,8,0:0:0:0:
231,121,211125,1,0,0:0:0:0:
194,95,211218,1,8,0:0:0:0:
148,95,211312,1,0,0:0:0:0:
110,120,211406,1,8,0:0:0:0:
37,340,211593,5,2,0:0:0:0:
192,328,211781,1,8,0:0:0:0:
184,288,211875,1,0,0:0:0:0:
160,264,211968,1,8,0:0:0:0:
312,232,212156,1,2,0:0:0:0:
360,360,212343,5,10,0:0:0:0:
480,256,212531,2,0,L|464:149,1,100.000000372529
408,80,212906,2,0,P|384:49|320:36,1,100.000000372529
328,128,213281,2,0,L|368:224,1,100.000000372529
248,176,213656,2,0,L|208:80,1,100.000000372529
96,96,214031,2,8,L|136:192,1,100.000000372529
128,296,214406,2,8,P|72:280|48:240,2,100.000000372529
176,368,214968,5,8,0:0:0:0:
192,360,215062,1,0,0:0:0:0:
208,352,215156,2,8,L|304:312,1,100.000000372529
376,336,215531,2,8,L|416:232,1,100.000000372529
464,208,215906,2,0,L|400:120,1,100.000000372529
320,72,216281,5,8,0:0:0:0:
288,48,216375,1,0,0:0:0:0:
248,48,216468,1,8,0:0:0:0:
112,40,216656,2,0,P|120:104|136:152,1,100.000000372529
240,144,217031,1,10,0:0:0:0:
96,272,217218,1,2,0:0:0:0:
272,312,217406,1,2,0:0:0:0:
431,226,217593,5,2,0:0:0:0:
288,160,217781,1,8,0:0:0:0:
264,136,217875,1,0,0:0:0:0:
240,104,217968,2,8,P|216:56|160:40,1,100.000000372529
96,208,218343,5,2,0:0:0:0:
147,351,218531,2,8,P|208:352|256:336,1,100.000000372529
400,288,218906,2,0,P|442:272|460:216,1,100.000000372529
368,200,219281,2,8,L|328:104,1,100.000000372529
248,129,219656,2,0,L|288:224,1,100.000000372529
248,344,220031,1,10,0:0:0:0:
184,216,220218,1,2,0:0:0:0:
120,88,220406,1,2,0:0:0:0:
80,0,220593,2,0,B|24:24|24:80,1,100.000000372529
34,274,220968,5,2,0:0:0:0:
136,328,221156,2,0,P|192:312|240:288,1,100.000000372529
168,208,221531,2,8,P|218:200|248:148,1,100.000000372529
328,88,221905,1,0,0:0:0:0:
336,208,222093,2,8,P|360:248|408:264,1,100.000000372529
416,272,222374,1,0,0:0:0:0:
416,272,222468,1,8,0:0:0:0:
496,136,222656,6,0,P|448:96|400:72,1,100.000000372529
224,32,223031,1,10,0:0:0:0:
56,104,223218,1,2,0:0:0:0:
72,280,223406,1,2,0:0:0:0:
238,208,223593,5,2,0:0:0:0:
72,152,223781,2,8,P|53:198|40:248,1,100.000000372529
144,336,224156,2,0,P|178:365|248:368,1,100.000000372529
400,240,224531,2,8,P|372:192|328:144,1,100.000000372529
336,64,224906,2,0,P|280:80|240:136,1,100.000000372529
161,150,225281,2,8,L|200:248,1,100.000000372529
278,230,225656,2,0,L|240:136,1,100.000000372529
384,128,226031,5,10,0:0:0:0:
512,128,226218,1,2,0:0:0:0:
448,256,226406,1,2,0:0:0:0:
336,344,226593,1,8,0:0:0:0:
336,344,226687,1,0,0:0:0:0:
336,344,226781,1,8,0:0:0:0:
184,299,226968,1,2,0:0:0:0:
88,216,227156,2,0,P|64:168|56:112,1,100.000000372529
232,168,227531,2,8,P|256:128|272:64,1,100.000000372529
395,103,227906,5,2,0:0:0:0:
288,0,228093,1,2,0:0:0:0:
145,57,228281,1,10,0:0:0:0:
0,32,228468,1,2,0:0:0:0:
64,144,228656,2,0,P|64:200|88:248,1,100.000000372529
232,168,229031,1,10,0:0:0:0:
100,329,229218,1,2,0:0:0:0:
240,344,229406,1,8,0:0:0:0:
272,344,229499,1,0,0:0:0:0:
304,352,229593,2,8,P|384:376|480:272,1,200.000000745057
368,240,230156,6,0,L|328:144,1,100.000000372529
152,128,230531,1,10,0:0:0:0:
329,147,230718,1,2,0:0:0:0:
232,184,230906,2,0,B|280:296,1,100.000000372529
352,336,231281,6,8,P|373:261|367:237,1,100.000000372529
463,111,231656,2,0,L|367:63,1,100.000000372529
264,200,232031,1,10,0:0:0:0:
373,66,232218,1,2,0:0:0:0:
296,120,232405,2,0,L|200:72,1,100.000000372529
168,240,232781,5,10,0:0:0:0:
16,256,232968,1,2,0:0:0:0:
64,104,233156,1,2,0:0:0:0:
240,16,233343,1,2,0:0:0:0:
256,192,233531,2,8,P|312:232|368:240,1,100.000000372529
487,128,233906,2,0,P|448:96|392:88,1,100.000000372529
272,72,234281,5,8,0:0:0:0:
272,72,234375,1,0,0:0:0:0:
272,72,234468,1,0,0:0:0:0:
112,8,234656,2,0,P|96:102|160:176,1,200.000000745057
48,256,235218,1,2,0:0:0:0:
176,312,235406,5,0,0:0:0:0:
176,312,235499,1,0,0:0:0:0:
176,312,235593,2,0,P|256:304|200:272,1,200.000000745057
208,216,236156,6,0,P|264:232|312:232,1,100.000000372529
352,160,236531,1,10,0:0:0:0:
344,328,236718,1,2,0:0:0:0:
432,264,236906,2,0,P|440:208|440:160,1,100.000000372529
512,144,237281,2,8,P|461:108|408:104,1,100.000000372529
400,32,237656,2,0,P|368:72|360:144,1,100.000000372529
256,160,238031,1,10,0:0:0:0:
384,240,238218,1,2,0:0:0:0:
272,376,238406,6,8,L|168:336,1,100.000000372529
144,320,238687,1,0,0:0:0:0:
115,295,238780,1,8,0:0:0:0:
95,264,238874,1,0,0:0:0:0:
90,227,238968,1,8,0:0:0:0:
95,190,239062,1,0,0:0:0:0:
99,153,239155,1,8,0:0:0:0:
117,121,239249,1,0,0:0:0:0:
147,98,239343,1,8,0:0:0:0:
167,68,239437,1,0,0:0:0:0:
195,42,239530,1,8,0:0:0:0:
229,27,239624,1,0,0:0:0:0:
266,23,239718,1,8,0:0:0:0:
303,28,239812,1,0,0:0:0:0:
337,43,239905,1,8,0:0:0:0:
424,0,240093,5,8,0:0:0:0:
438,34,240186,1,0,0:0:0:0:
437,71,240281,1,8,0:0:0:0:
420,104,240374,1,0,0:0:0:0:
391,128,240468,1,8,0:0:0:0:
416,248,240656,5,10,0:0:0:0:
456,336,240843,2,8,P|393:343|360:328,1,100.000000372529
264,344,241218,1,10,0:0:0:0:
152,360,241406,5,0,0:0:0:0:
112,352,241499,1,0,0:0:0:0:
80,328,241593,2,0,P|40:256|104:168,1,200.000000745057
152,248,242156,6,0,P|142:188|128:144,1,100.000000372529
80,72,242531,5,8,0:0:0:0:
114,57,242624,1,0,0:0:0:0:
151,58,242718,1,8,0:0:0:0:
184,75,242812,1,0,0:0:0:0:
208,104,242906,2,8,P|260:81|304:72,1,100.000000372529
352,0,243281,2,0,P|384:32|384:112,1,100.000000372529
480,96,243656,5,8,0:0:0:0:
467,132,243749,1,0,0:0:0:0:
454,167,243843,1,8,0:0:0:0:
328,192,244031,1,2,0:0:0:0:
496,304,244218,1,2,0:0:0:0:
344,336,244406,6,8,P|296:312|248:296,1,100.000000372529
216,304,244687,1,0,0:0:0:0:
178,306,244780,1,8,0:0:0:0:
141,303,244874,1,0,0:0:0:0:
104,294,244968,1,8,0:0:0:0:
71,279,245062,1,0,0:0:0:0:
40,256,245155,1,8,0:0:0:0:
37,236,245249,5,0,0:0:0:0:
72,225,245343,1,8,0:0:0:0:
108,214,245437,1,0,0:0:0:0:
144,203,245531,1,8,0:0:0:0:
180,192,245624,1,0,0:0:0:0:
156,171,245718,1,8,0:0:0:0:
131,144,245812,1,0,0:0:0:0:
119,109,245905,1,8,0:0:0:0:
232,112,246093,5,8,0:0:0:0:
275,125,246187,1,0,0:0:0:0:
317,140,246281,1,8,0:0:0:0:
352,166,246374,1,0,0:0:0:0:
392,188,246468,1,8,0:0:0:0:
442,181,246562,1,0,0:0:0:0:
479,154,246656,1,8,0:0:0:0:
496,112,246749,1,0,0:0:0:0:
489,66,246843,1,8,0:0:0:0:
466,27,246937,1,0,0:0:0:0:
425,8,247031,1,8,0:0:0:0:
381,10,247124,1,0,0:0:0:0:
344,33,247218,1,8,0:0:0:0:
317,68,247312,1,0,0:0:0:0:
314,113,247406,1,8,0:0:0:0:
256,192,247593,12,0,252843,0:0:0:0:
