osu file format v14

[General]
AudioFilename: Asu no Yozora Shoukaihan.mp3
AudioLeadIn: 2
PreviewTime: 33744
Countdown: 0
SampleSet: Soft
StackLeniency: 0.7
Mode: 3
LetterboxInBreaks: 0
SpecialStyle: 0
WidescreenStoryboard: 0

[Editor]
DistanceSpacing: 0.8
BeatDivisor: 4
GridSize: 8
TimelineZoom: 1.5

[Metadata]
Title:Asu no Yozora Shoukaihan
TitleUnicode:アスノヨゾラ哨戒班
Artist:Orangestar feat.IA
ArtistUnicode:Orangestar feat.IA
Creator:dakemoto
Version:Night Sky
Source:CHUNITHM PLUS
Tags:VOCALOID EXIT_TUNES_PRESENTS_Vocalofantasy Mikansei_Eight_Beats チュウニズム MUSECA MÚSECA
BeatmapID:1029950
BeatmapSetID:301331

[Difficulty]
HPDrainRate:8.5
CircleSize:4
OverallDifficulty:8.5
ApproachRate:10
SliderMultiplier:1.4
SliderTickRate:1

[Events]
//Background and Video events
0,0,"background.jpg",0,0
//Break Periods
//Storyboard Layer 0 (Background)
//Storyboard Layer 1 (Fail)
//Storyboard Layer 2 (Pass)
//Storyboard Layer 3 (Foreground)
//Storyboard Sound Samples

[TimingPoints]
826,324.3243,4,2,0,30,1,0
34555,-100,4,2,0,30,0,1
60339,-100,4,2,0,30,0,0
130555,-100,4,2,0,30,0,1
156339,-100,4,2,0,30,0,0

[HitObjects]
448,192,826,5,0,0:0:0:0:
448,192,988,1,0,0:0:0:0:
448,192,1150,1,0,0:0:0:0:
448,192,1312,1,0,0:0:0:0:
448,192,1474,1,0,0:0:0:0:
64,0,1474,128,0,1798:0:0:0:0:
448,192,1636,1,0,0:0:0:0:
448,192,1798,1,0,0:0:0:0:
192,0,1798,128,0,2123:0:0:0:0:
448,192,1961,1,0,0:0:0:0:
64,192,2123,1,0,0:0:0:0:
64,192,2285,1,0,0:0:0:0:
64,192,2447,1,0,0:0:0:0:
64,192,2609,1,0,0:0:0:0:
64,192,2771,1,0,0:0:0:0:
448,0,2771,128,0,3096:0:0:0:0:
64,192,2934,1,0,0:0:0:0:
64,192,3096,1,0,0:0:0:0:
320,0,3096,128,0,3420:0:0:0:0:
64,192,3258,1,0,0:0:0:0:
192,192,3420,1,0,0:0:0:0:
192,192,3582,1,0,0:0:0:0:
192,192,3744,1,0,0:0:0:0:
192,192,3907,1,0,0:0:0:0:
192,192,4069,1,0,0:0:0:0:
320,0,4069,128,0,4393:0:0:0:0:
192,192,4231,1,0,0:0:0:0:
448,0,4393,128,0,4717:0:0:0:0:
192,192,4393,1,0,0:0:0:0:
192,192,4555,1,0,0:0:0:0:
64,192,4717,1,0,0:0:0:0:
64,192,4880,1,0,0:0:0:0:
64,192,5042,1,0,0:0:0:0:
64,192,5204,1,0,0:0:0:0:
320,192,5366,1,0,0:0:0:0:
192,0,5366,128,0,5690:0:0:0:0:
320,192,5528,1,0,0:0:0:0:
320,192,5690,1,0,0:0:0:0:
64,0,5690,128,0,5853:0:0:0:0:
320,192,5853,1,0,0:0:0:0:
192,0,5853,128,0,6177:0:0:0:0:
448,192,6015,1,0,0:0:0:0:
448,192,6177,1,0,0:0:0:0:
448,192,6339,1,0,0:0:0:0:
448,192,6501,1,0,0:0:0:0:
448,192,6663,1,0,0:0:0:0:
64,0,6663,128,0,6988:0:0:0:0:
448,192,6825,1,0,0:0:0:0:
448,192,6988,1,0,0:0:0:0:
192,0,6988,128,0,7312:0:0:0:0:
448,192,7150,1,0,0:0:0:0:
64,192,7312,1,0,0:0:0:0:
64,192,7474,1,0,0:0:0:0:
64,192,7636,1,0,0:0:0:0:
64,192,7798,1,0,0:0:0:0:
64,192,7961,1,0,0:0:0:0:
320,0,7961,128,0,8285:0:0:0:0:
64,192,8123,1,0,0:0:0:0:
64,192,8285,1,0,0:0:0:0:
448,0,8285,128,0,8609:0:0:0:0:
64,192,8447,1,0,0:0:0:0:
320,192,8609,1,0,0:0:0:0:
320,192,8771,1,0,0:0:0:0:
320,192,8934,1,0,0:0:0:0:
320,192,9096,1,0,0:0:0:0:
320,192,9258,1,0,0:0:0:0:
64,0,9258,128,0,9582:0:0:0:0:
320,192,9420,1,0,0:0:0:0:
320,192,9582,1,0,0:0:0:0:
192,0,9582,128,0,9907:0:0:0:0:
320,192,9744,1,0,0:0:0:0:
64,192,9907,1,0,0:0:0:0:
64,192,10069,1,0,0:0:0:0:
64,192,10231,1,0,0:0:0:0:
448,0,10231,128,0,10555:0:0:0:0:
64,192,10393,1,0,0:0:0:0:
192,192,10555,1,0,0:0:0:0:
320,0,10555,128,0,10717:0:0:0:0:
448,0,10717,128,0,10880:0:0:0:0:
192,192,10717,1,0,0:0:0:0:
192,192,10880,1,0,0:0:0:0:
64,192,10880,1,0,0:0:0:0:
320,0,10880,128,0,11204:0:0:0:0:
64,192,11042,1,0,0:0:0:0:
64,192,11204,1,0,0:0:0:70:kick2.wav
192,192,11204,1,0,0:0:0:0:
448,192,11204,1,4,0:0:0:70:
192,192,11366,1,0,0:0:0:0:
64,192,11528,1,0,0:0:0:0:
320,192,11528,1,0,0:0:0:0:
448,192,11528,1,0,0:0:0:70:kick2.wav
448,192,11690,1,0,0:0:0:70:soft-hitwhistle.wav
64,192,11853,1,0,0:0:0:70:kick2.wav
192,192,11853,1,0,0:0:0:0:
320,192,11853,1,0,0:0:0:0:
192,192,12015,1,0,0:0:0:70:soft-hitwhistle.wav
64,192,12177,1,0,0:0:0:0:
320,192,12177,1,0,0:0:0:0:
448,192,12177,1,0,0:0:0:70:kick2.wav
320,192,12339,1,0,0:0:0:70:soft-hitwhistle.wav
192,192,12501,1,0,0:0:0:0:
64,192,12501,1,0,0:0:0:70:kick2.wav
448,192,12501,1,0,0:0:0:0:
64,192,12663,1,0,0:0:0:70:soft-hitwhistle.wav
320,192,12825,1,0,0:0:0:0:
192,192,12825,1,0,0:0:0:0:
448,192,12825,1,0,0:0:0:70:kick2.wav
320,192,12988,1,0,0:0:0:70:soft-hitwhistle.wav
64,192,13150,1,0,0:0:0:70:kick2.wav
192,192,13150,1,0,0:0:0:0:
448,192,13150,1,0,0:0:0:0:
192,192,13312,1,0,0:0:0:70:soft-hitwhistle.wav
64,192,13474,1,0,0:0:0:0:
448,192,13474,1,0,0:0:0:70:kick2.wav
320,192,13474,1,0,0:0:0:0:
448,192,13636,1,0,0:0:0:70:soft-hitwhistle.wav
320,192,13798,1,0,0:0:0:0:
64,192,13798,1,0,0:0:0:70:kick2.wav
192,192,13961,1,0,0:0:0:70:soft-hitwhistle.wav
64,192,14123,1,0,0:0:0:0:
320,192,14123,1,0,0:0:0:0:
448,192,14123,1,0,0:0:0:70:kick2.wav
64,192,14285,1,0,0:0:0:70:soft-hitwhistle.wav
320,192,14447,1,0,0:0:0:0:
192,192,14447,1,0,0:0:0:70:kick2.wav
448,192,14447,1,0,0:0:0:0:
320,192,14609,1,0,0:0:0:70:soft-hitwhistle.wav
64,192,14771,1,0,0:0:0:0:
192,192,14771,1,0,0:0:0:0:
448,192,14771,1,0,0:0:0:70:kick2.wav
192,192,14934,1,0,0:0:0:70:soft-hitwhistle.wav
64,192,15096,1,0,0:0:0:70:kick2.wav
320,192,15096,1,0,0:0:0:0:
448,192,15096,1,0,0:0:0:0:
448,192,15258,1,0,0:0:0:70:soft-hitwhistle.wav
64,192,15420,1,0,0:0:0:0:
192,192,15420,1,0,0:0:0:0:
320,192,15420,1,0,0:0:0:70:kick2.wav
192,192,15582,1,0,0:0:0:70:soft-hitwhistle.wav
64,192,15744,1,0,0:0:0:70:kick2.wav
320,192,15744,1,0,0:0:0:0:
448,192,15744,1,0,0:0:0:0:
320,192,15907,1,0,0:0:0:70:soft-hitwhistle.wav
64,192,16069,1,0,0:0:0:0:
192,192,16069,1,0,0:0:0:0:
448,192,16069,1,0,0:0:0:70:kick2.wav
64,192,16231,1,0,0:0:0:0:
448,192,16231,1,4,0:0:0:70:
320,192,16231,1,0,0:0:0:0:
320,192,16393,1,0,0:0:0:70:kick2.wav
448,192,16393,1,0,0:0:0:0:
192,192,16555,1,0,0:0:0:0:
64,192,16717,1,0,0:0:0:0:
192,192,16717,1,0,0:0:0:0:
448,192,16717,1,0,0:0:0:70:kick2.wav
448,192,16880,1,0,0:0:0:70:soft-hitwhistle.wav
64,192,17042,1,0,0:0:0:70:kick2.wav
192,192,17042,1,0,0:0:0:0:
320,192,17042,1,0,0:0:0:0:
320,192,17204,1,0,0:0:0:70:soft-hitwhistle.wav
64,192,17366,1,0,0:0:0:0:
192,192,17366,1,0,0:0:0:0:
448,192,17366,1,0,0:0:0:70:kick2.wav
192,192,17528,1,0,0:0:0:70:soft-hitwhistle.wav
64,192,17690,1,0,0:0:0:70:kick2.wav
320,192,17690,1,0,0:0:0:0:
448,192,17690,1,0,0:0:0:0:
64,192,17853,1,0,0:0:0:70:soft-hitwhistle.wav
320,192,18015,1,0,0:0:0:0:
192,192,18015,1,0,0:0:0:0:
448,192,18015,1,0,0:0:0:70:kick2.wav
320,192,18177,1,0,0:0:0:70:soft-hitwhistle.wav
64,192,18339,1,0,0:0:0:70:kick2.wav
192,192,18339,1,0,0:0:0:0:
448,192,18339,1,0,0:0:0:0:
192,192,18501,1,0,0:0:0:70:soft-hitwhistle.wav
320,192,18663,1,0,0:0:0:0:
64,192,18663,1,0,0:0:0:0:
448,192,18663,1,0,0:0:0:70:kick2.wav
448,192,18825,1,0,0:0:0:70:soft-hitwhistle.wav
64,192,18988,1,0,0:0:0:70:kick2.wav
192,192,18988,1,0,0:0:0:0:
448,192,19150,1,0,0:0:0:70:soft-hitwhistle.wav
64,192,19312,1,0,0:0:0:0:
320,192,19312,1,0,0:0:0:0:
448,192,19312,1,0,0:0:0:70:kick2.wav
320,192,19474,1,0,0:0:0:70:soft-hitwhistle.wav
64,192,19636,1,0,0:0:0:70:kick2.wav
192,192,19636,1,0,0:0:0:0:
448,192,19636,1,0,0:0:0:0:
192,192,19798,1,0,0:0:0:70:soft-hitwhistle.wav
64,192,19961,1,0,0:0:0:0:
320,192,19961,1,0,0:0:0:0:
448,192,19961,1,0,0:0:0:70:kick2.wav
448,192,20123,1,0,0:0:0:70:soft-hitwhistle.wav
64,192,20285,1,0,0:0:0:70:kick2.wav
192,192,20285,1,0,0:0:0:0:
320,192,20285,1,0,0:0:0:0:
64,192,20447,1,0,0:0:0:70:soft-hitwhistle.wav
192,192,20609,1,0,0:0:0:0:
320,192,20609,1,0,0:0:0:0:
448,192,20609,1,0,0:0:0:70:kick2.wav
448,192,20771,1,0,0:0:0:70:soft-hitwhistle.wav
64,192,20934,1,0,0:0:0:70:kick2.wav
320,192,20934,1,0,0:0:0:0:
448,192,20934,1,0,0:0:0:0:
192,192,21096,1,0,0:0:0:70:soft-hitwhistle.wav
64,192,21258,1,0,0:0:0:0:
448,192,21258,1,0,0:0:0:70:kick2.wav
320,192,21420,1,0,0:0:0:0:
448,192,21582,1,0,0:0:0:0:
192,0,21582,128,0,21907:0:0:0:0:
64,0,22231,128,0,22880:0:0:0:0:
448,192,22880,1,0,0:0:0:0:
320,0,22880,128,0,23204:0:0:0:0:
448,0,23528,128,0,24177:0:0:0:0:
192,192,24177,1,0,0:0:0:0:
320,0,24177,128,0,24501:0:0:0:0:
64,0,24825,128,0,25474:0:0:0:0:
448,192,25474,1,0,0:0:0:0:
192,0,25474,128,0,25798:0:0:0:0:
64,192,26123,1,0,0:0:0:0:
320,0,26123,128,0,26771:0:0:0:0:
64,192,26771,1,4,0:0:0:0:
192,192,26771,1,0,0:0:0:0:
448,192,26771,1,0,0:0:0:70:kick2.wav
64,192,26934,1,0,0:0:0:0:
448,192,27096,1,0,0:0:0:70:kick2.wav
320,192,27096,1,0,0:0:0:0:
192,192,27258,1,0,0:0:0:70:soft-hitwhistle.wav
64,192,27420,1,0,0:0:0:0:
448,192,27420,1,0,0:0:0:70:kick2.wav
320,192,27420,1,0,0:0:0:0:
448,192,27582,1,0,0:0:0:70:soft-hitwhistle.wav
192,192,27744,1,0,0:0:0:0:
64,192,27744,1,0,0:0:0:70:kick2.wav
64,192,27907,128,0,28069:0:0:0:0:
320,192,27907,1,0,0:0:0:70:soft-hitwhistle.wav
448,192,28069,1,0,0:0:0:70:kick2.wav
192,192,28069,1,0,0:0:0:0:
320,192,28069,1,0,0:0:0:0:
192,192,28231,1,0,0:0:0:70:soft-hitwhistle.wav
448,192,28393,1,0,0:0:0:70:kick2.wav
320,192,28393,1,0,0:0:0:0:
64,192,28555,1,0,0:0:0:70:soft-hitwhistle.wav
448,192,28717,1,0,0:0:0:0:
192,192,28717,1,0,0:0:0:70:kick2.wav
320,192,28717,1,0,0:0:0:0:
320,192,28880,1,0,0:0:0:70:soft-hitwhistle.wav
64,192,29042,1,0,0:0:0:70:kick2.wav
448,192,29042,1,0,0:0:0:0:
192,192,29204,1,0,0:0:0:70:soft-hitwhistle.wav
320,192,29204,128,0,29366:0:0:0:0:
64,192,29366,1,0,0:0:0:70:kick2.wav
448,192,29366,1,0,0:0:0:0:
192,192,29366,1,0,0:0:0:0:
320,192,29447,1,0,0:0:0:0:
448,192,29528,1,0,0:0:0:70:soft-hitwhistle.wav
64,192,29528,1,0,0:0:0:0:
192,192,29609,1,0,0:0:0:0:
64,192,29690,1,0,0:0:0:0:
448,192,29690,1,0,0:0:0:70:kick2.wav
320,192,29690,1,0,0:0:0:0:
192,192,29771,1,0,0:0:0:0:
64,192,29853,1,0,0:0:0:0:
320,192,29853,1,0,0:0:0:70:soft-hitwhistle.wav
448,192,29934,1,0,0:0:0:0:
64,192,30015,1,0,0:0:0:70:kick2.wav
320,192,30015,1,0,0:0:0:0:
192,192,30015,1,0,0:0:0:0:
448,192,30096,1,0,0:0:0:0:
64,192,30177,1,0,0:0:0:0:
192,192,30177,1,0,0:0:0:70:soft-hitwhistle.wav
320,192,30258,1,0,0:0:0:0:
64,192,30339,1,0,0:0:0:0:
448,192,30339,1,0,0:0:0:70:kick2.wav
192,192,30339,1,0,0:0:0:0:
320,192,30420,1,0,0:0:0:0:
448,192,30501,1,0,0:0:0:70:soft-hitwhistle.wav
192,192,30501,1,0,0:0:0:0:
320,192,30582,1,0,0:0:0:0:
64,192,30663,1,0,0:0:0:70:kick2.wav
448,192,30663,1,0,0:0:0:0:
192,192,30663,1,0,0:0:0:0:
320,192,30744,1,0,0:0:0:0:
64,192,30825,1,0,0:0:0:0:
192,192,30825,1,0,0:0:0:70:soft-hitwhistle.wav
320,192,30907,1,0,0:0:0:0:
192,192,30988,1,0,0:0:0:0:
448,192,30988,1,0,0:0:0:70:kick2.wav
64,192,30988,1,0,0:0:0:0:
320,192,31069,1,0,0:0:0:0:
448,192,31150,1,0,0:0:0:70:soft-hitwhistle.wav
64,192,31150,1,0,0:0:0:0:
192,192,31231,1,0,0:0:0:0:
64,192,31312,1,0,0:0:0:70:kick2.wav
448,192,31312,1,0,0:0:0:0:
320,192,31312,1,0,0:0:0:0:
192,192,31393,1,0,0:0:0:0:
320,192,31474,1,0,0:0:0:70:soft-hitwhistle.wav
448,192,31474,1,0,0:0:0:0:
64,192,31555,1,0,0:0:0:0:
192,192,31636,1,0,0:0:0:0:
320,192,31636,1,0,0:0:0:0:
448,192,31636,1,0,0:0:0:70:kick2.wav
64,192,31717,1,0,0:0:0:0:
192,192,31798,1,0,0:0:0:70:soft-hitwhistle.wav
448,192,31798,1,0,0:0:0:0:
320,192,31880,1,0,0:0:0:0:
448,192,31961,1,0,0:0:0:0:
64,192,31961,1,0,0:0:0:70:kick2.wav
192,192,32042,1,0,0:0:0:0:
448,192,32123,1,0,0:0:0:0:
320,192,32123,1,0,0:0:0:70:soft-hitwhistle.wav
64,192,32204,1,0,0:0:0:0:
192,192,32285,1,0,0:0:0:0:
448,192,32285,1,0,0:0:0:70:kick2.wav
320,192,32285,1,0,0:0:0:0:
64,192,32366,1,0,0:0:0:0:
320,192,32447,1,0,0:0:0:0:
448,192,32447,1,0,0:0:0:70:soft-hitwhistle.wav
192,192,32528,1,0,0:0:0:0:
64,192,32609,1,0,0:0:0:70:kick2.wav
448,192,32609,1,0,0:0:0:0:
320,192,32609,1,0,0:0:0:0:
192,192,32690,1,0,0:0:0:0:
64,192,32771,1,0,0:0:0:70:soft-hitwhistle.wav
320,192,32771,1,0,0:0:0:0:
448,192,32853,1,0,0:0:0:0:
64,192,32934,1,0,0:0:0:0:
192,192,32934,1,0,0:0:0:0:
320,192,32934,1,0,0:0:0:70:kick2.wav
448,192,33015,1,0,0:0:0:0:
64,192,33096,1,0,0:0:0:0:
192,192,33096,1,0,0:0:0:70:soft-hitwhistle.wav
320,192,33177,1,0,0:0:0:0:
64,192,33258,1,0,0:0:0:70:kick2.wav
192,192,33258,1,0,0:0:0:0:
448,192,33258,1,0,0:0:0:0:
320,192,33339,1,0,0:0:0:0:
64,192,33420,1,0,0:0:0:70:soft-hitwhistle.wav
192,192,33420,1,0,0:0:0:0:
320,192,33501,1,0,0:0:0:0:
64,192,33582,1,0,0:0:0:0:
448,192,33582,1,0,0:0:0:70:kick2.wav
192,192,33582,1,0,0:0:0:0:
320,192,33663,1,0,0:0:0:0:
192,192,33744,1,0,0:0:0:70:soft-hitwhistle.wav
448,0,33744,128,0,34393:0:0:0:0:
64,0,33907,128,0,34393:0:0:0:0:
192,0,34069,128,0,34393:0:0:0:0:
320,0,34231,128,0,34393:0:0:0:0:
64,192,34555,1,4,0:0:0:70:
320,192,34555,1,0,0:0:0:0:
448,192,34555,1,0,0:0:0:70:kick2.wav
192,192,34636,1,0,0:0:0:0:
320,192,34717,1,0,0:0:0:0:
64,192,34798,1,0,0:0:0:0:
192,192,34880,1,0,0:0:0:0:
320,192,34880,1,0,0:0:0:0:
448,192,34880,1,0,0:0:0:70:soft-hitclap.wav
64,192,34961,1,0,0:0:0:0:
448,192,35042,1,0,0:0:0:70:soft-hitwhistle.wav
320,192,35123,1,0,0:0:0:0:
64,192,35204,1,0,0:0:0:70:kick2.wav
192,192,35204,1,0,0:0:0:0:
448,192,35285,1,0,0:0:0:0:
64,192,35366,1,0,0:0:0:70:soft-hitwhistle.wav
192,192,35447,1,0,0:0:0:0:
64,192,35528,1,0,0:0:0:0:
320,192,35528,1,0,0:0:0:0:
448,192,35528,1,0,0:0:0:70:soft-hitclap.wav
192,192,35609,1,0,0:0:0:0:
448,192,35690,1,0,0:0:0:70:soft-hitwhistle.wav
64,192,35771,1,0,0:0:0:0:
192,192,35853,1,0,0:0:0:70:kick2.wav
320,192,35853,1,0,0:0:0:0:
64,192,35934,1,0,0:0:0:0:
448,192,36015,1,0,0:0:0:70:soft-hitwhistle.wav
320,192,36096,1,0,0:0:0:0:
64,192,36177,1,8,0:0:0:70:soft-hitclap.wav
192,192,36177,1,0,0:0:0:0:
448,192,36177,1,0,0:0:0:0:
320,192,36258,1,0,0:0:0:0:
64,192,36339,1,0,0:0:0:70:soft-hitwhistle.wav
192,192,36420,1,0,0:0:0:0:
320,192,36501,1,0,0:0:0:0:
448,192,36501,1,0,0:0:0:70:kick2.wav
64,192,36582,1,0,0:0:0:0:
448,192,36663,1,0,0:0:0:70:soft-hitwhistle.wav
320,192,36744,1,0,0:0:0:0:
192,192,36825,1,0,0:0:0:0:
448,192,36825,1,0,0:0:0:0:
64,192,36825,1,0,0:0:0:70:soft-hitclap.wav
320,192,36907,1,0,0:0:0:0:
192,192,36988,1,0,0:0:0:70:soft-hitwhistle.wav
64,192,37069,1,0,0:0:0:0:
192,192,37150,1,0,0:0:0:0:
448,192,37150,1,0,0:0:0:70:kick2.wav
320,192,37231,1,0,0:0:0:0:
448,192,37312,1,0,0:0:0:70:soft-hitwhistle.wav
192,192,37393,1,0,0:0:0:0:
64,192,37474,1,0,0:0:0:0:
448,192,37474,1,0,0:0:0:70:soft-hitclap.wav
320,192,37474,1,0,0:0:0:0:
192,192,37555,1,0,0:0:0:0:
448,192,37636,1,0,0:0:0:70:soft-hitwhistle.wav
320,192,37717,1,0,0:0:0:0:
64,192,37798,1,0,0:0:0:70:kick2.wav
192,192,37798,1,0,0:0:0:0:
320,192,37880,1,0,0:0:0:0:
448,192,37961,1,0,0:0:0:70:soft-hitwhistle.wav
64,192,38042,1,0,0:0:0:0:
192,192,38123,1,0,0:0:0:0:
320,192,38123,1,0,0:0:0:70:soft-hitclap.wav
448,192,38123,1,0,0:0:0:0:
64,192,38204,1,0,0:0:0:0:
320,192,38285,1,0,0:0:0:70:soft-hitwhistle.wav
192,192,38366,1,0,0:0:0:0:
64,192,38447,1,0,0:0:0:70:kick2.wav
448,192,38447,1,0,0:0:0:0:
192,192,38528,1,0,0:0:0:0:
448,192,38609,1,0,0:0:0:70:soft-hitwhistle.wav
320,192,38690,1,0,0:0:0:0:
64,192,38771,1,0,0:0:0:0:
192,192,38771,1,0,0:0:0:0:
448,192,38771,1,0,0:0:0:70:soft-hitclap.wav
320,192,38853,1,0,0:0:0:0:
64,192,38934,1,0,0:0:0:70:soft-hitwhistle.wav
192,192,39015,1,0,0:0:0:0:
320,192,39096,1,0,0:0:0:0:
448,192,39096,1,0,0:0:0:70:kick2.wav
64,192,39177,1,0,0:0:0:0:
448,192,39258,1,0,0:0:0:70:soft-hitwhistle.wav
320,192,39339,1,0,0:0:0:0:
64,192,39420,1,0,0:0:0:0:
192,192,39420,1,0,0:0:0:0:
448,192,39420,1,0,0:0:0:70:soft-hitclap.wav
320,192,39501,1,0,0:0:0:0:
64,192,39582,1,4,0:0:0:70:
192,192,39582,1,0,0:0:0:0:
320,192,39663,1,0,0:0:0:0:
448,192,39744,1,0,0:0:0:0:
64,192,39825,1,0,0:0:0:0:
448,192,39907,1,0,0:0:0:70:soft-hitclap.wav
320,192,39907,1,0,0:0:0:0:
192,192,39988,1,0,0:0:0:0:
64,192,40069,1,0,0:0:0:0:
320,192,40069,1,0,0:0:0:0:
448,192,40069,1,0,0:0:70:70:soft-hitclap.wav
192,192,40150,1,0,0:0:0:0:
320,192,40231,1,0,0:0:0:70:soft-hitwhistle.wav
448,192,40312,1,0,0:0:0:0:
64,192,40393,1,0,0:0:0:70:kick2.wav
192,192,40393,1,0,0:0:0:0:
320,192,40474,1,0,0:0:0:0:
448,192,40555,1,0,0:0:0:70:soft-hitwhistle.wav
192,192,40636,1,0,0:0:0:0:
64,192,40717,1,0,0:0:0:0:
320,192,40717,1,0,0:0:70:70:soft-hitclap.wav
448,192,40717,1,0,0:0:0:0:
192,192,40798,1,0,0:0:0:0:
64,192,40880,1,0,0:0:0:70:soft-hitwhistle.wav
320,192,40961,1,0,0:0:0:0:
64,192,41042,1,0,0:0:0:0:
448,192,41042,1,0,0:0:0:70:kick2.wav
192,192,41123,1,0,0:0:0:0:
320,192,41204,1,0,0:0:0:70:soft-hitwhistle.wav
64,192,41285,1,0,0:0:0:0:
192,192,41366,1,0,0:0:0:0:
320,192,41366,1,0,0:0:70:70:soft-hitclap.wav
448,192,41366,1,0,0:0:0:0:
64,192,41447,1,0,0:0:0:0:
320,192,41528,1,0,0:0:0:70:soft-hitwhistle.wav
192,192,41609,1,0,0:0:0:0:
64,192,41690,1,0,0:0:0:70:kick2.wav
448,192,41690,1,0,0:0:0:0:
320,192,41771,1,0,0:0:0:0:
64,192,41853,1,0,0:0:0:70:soft-hitwhistle.wav
192,192,41934,1,0,0:0:0:0:
64,192,42015,1,0,0:0:0:70:soft-hitclap.wav
320,192,42015,1,0,0:0:0:0:
448,192,42015,1,0,0:0:0:0:
192,192,42096,1,0,0:0:0:0:
448,192,42177,1,0,0:0:0:70:soft-hitwhistle.wav
64,192,42258,1,0,0:0:0:0:
192,192,42339,1,0,0:0:0:0:
448,192,42339,1,0,0:0:0:70:kick2.wav
320,192,42420,1,0,0:0:0:0:
192,192,42501,1,0,0:0:0:70:soft-hitwhistle.wav
448,192,42582,1,0,0:0:0:0:
64,192,42663,1,0,0:0:0:70:soft-hitclap.wav
192,192,42663,1,0,0:0:0:0:
320,192,42663,1,0,0:0:0:0:
448,192,42744,1,0,0:0:0:0:
192,192,42825,1,0,0:0:0:70:soft-hitwhistle.wav
320,192,42907,1,0,0:0:0:0:
64,192,42988,1,0,0:0:0:70:kick2.wav
448,192,42988,1,0,0:0:0:0:
320,192,43069,1,0,0:0:0:0:
192,192,43150,1,0,0:0:0:70:soft-hitwhistle.wav
448,192,43231,1,0,0:0:0:0:
64,192,43312,1,0,0:0:0:0:
192,192,43312,1,0,0:0:0:70:soft-hitclap.wav
320,192,43312,1,0,0:0:0:0:
448,192,43393,1,0,0:0:0:0:
64,192,43474,1,0,0:0:0:70:soft-hitwhistle.wav
192,192,43555,1,0,0:0:0:0:
320,192,43636,1,0,0:0:0:0:
448,192,43636,1,0,0:0:0:70:kick2.wav
192,192,43717,1,0,0:0:0:0:
64,192,43798,1,0,0:0:0:70:soft-hitwhistle.wav
448,192,43880,1,0,0:0:0:0:
64,192,43961,1,0,0:0:0:0:
192,192,43961,1,0,0:0:0:70:soft-hitclap.wav
320,192,43961,1,0,0:0:0:0:
448,192,44042,1,0,0:0:0:0:
64,192,44123,1,0,0:0:0:70:soft-hitwhistle.wav
192,192,44204,1,0,0:0:0:0:
320,192,44285,1,0,0:0:0:0:
448,192,44285,1,0,0:0:0:70:kick2.wav
64,192,44366,1,0,0:0:0:0:
320,192,44447,1,0,0:0:0:70:soft-hitclap.wav
448,192,44447,1,0,0:0:0:70:whistle.wav
64,192,44528,1,0,0:0:0:0:
192,192,44528,1,0,0:0:0:70:soft-hitclap.wav
320,192,44609,1,0,0:0:0:70:soft-hitclap.wav
448,192,44609,1,0,0:0:0:0:
64,192,44690,1,0,0:0:0:0:
192,192,44690,1,0,0:0:0:70:soft-hitclap.wav
64,192,44771,1,4,0:0:0:70:
320,192,44771,1,0,0:0:0:70:soft-hitclap.wav
448,192,44771,1,0,0:0:0:0:
192,192,44853,1,0,0:0:0:0:
448,192,44934,1,0,0:0:0:0:
320,192,45015,1,0,0:0:0:0:
64,192,45096,1,0,0:0:0:0:
448,192,45096,1,0,0:0:0:70:soft-hitclap.wav
192,192,45177,1,0,0:0:0:0:
64,192,45258,1,0,0:0:0:0:
320,192,45258,1,0,0:0:0:0:
448,192,45258,1,0,0:0:0:70:soft-hitclap.wav
192,192,45339,1,0,0:0:0:0:
320,192,45420,1,0,0:0:0:70:soft-hitwhistle.wav
64,192,45501,1,0,0:0:0:0:
192,192,45582,1,0,0:0:0:70:kick2.wav
448,192,45582,1,0,0:0:0:0:
64,192,45663,1,0,0:0:0:0:
448,192,45744,1,0,0:0:0:70:soft-hitwhistle.wav
320,192,45825,1,0,0:0:0:0:
64,192,45907,1,0,0:0:0:0:
192,192,45907,1,0,0:0:0:70:soft-hitclap.wav
448,192,45907,1,0,0:0:0:0:
320,192,45988,1,0,0:0:0:0:
64,192,46069,1,0,0:0:0:70:soft-hitwhistle.wav
192,192,46150,1,0,0:0:0:0:
64,192,46231,1,0,0:0:0:0:
448,192,46231,1,0,0:0:0:70:kick2.wav
320,192,46312,1,0,0:0:0:0:
192,192,46393,1,0,0:0:0:70:soft-hitwhistle.wav
320,192,46474,1,0,0:0:0:0:
64,192,46555,1,0,0:0:0:0:
192,192,46555,1,0,0:0:0:70:soft-hitclap.wav
448,192,46555,1,0,0:0:0:0:
320,192,46636,1,0,0:0:0:0:
448,192,46717,1,0,0:0:0:70:soft-hitwhistle.wav
64,192,46798,1,0,0:0:0:0:
320,192,46880,1,0,0:0:0:0:
448,192,46880,1,0,0:0:0:70:kick2.wav
192,192,46961,1,0,0:0:0:0:
320,192,47042,1,0,0:0:0:70:soft-hitwhistle.wav
64,192,47123,1,0,0:0:0:0:
192,192,47204,1,0,0:0:0:0:
320,192,47204,1,0,0:0:0:0:
448,192,47204,1,0,0:0:0:70:soft-hitclap.wav
64,192,47285,1,0,0:0:0:0:
320,192,47366,1,0,0:0:0:70:soft-hitwhistle.wav
192,192,47447,1,0,0:0:0:0:
64,192,47528,1,0,0:0:0:70:kick2.wav
448,192,47528,1,0,0:0:0:0:
320,192,47609,1,0,0:0:0:0:
192,192,47690,1,0,0:0:0:70:soft-hitwhistle.wav
320,192,47771,1,0,0:0:0:0:
64,192,47853,1,0,0:0:0:0:
192,192,47853,1,0,0:0:0:0:
448,192,47853,1,0,0:0:0:70:soft-hitclap.wav
320,192,47934,1,0,0:0:0:0:
448,192,48015,1,0,0:0:0:70:soft-hitwhistle.wav
64,192,48096,1,0,0:0:0:0:
192,192,48177,1,0,0:0:0:70:kick2.wav
448,192,48177,1,0,0:0:0:0:
64,192,48258,1,0,0:0:0:0:
320,192,48339,1,0,0:0:0:70:soft-hitwhistle.wav
64,192,48420,1,0,0:0:0:0:
192,192,48501,1,0,0:0:0:0:
320,192,48501,1,0,0:0:0:70:soft-hitclap.wav
448,192,48501,1,0,0:0:0:0:
64,192,48582,1,0,0:0:0:0:
320,192,48663,1,0,0:0:0:70:soft-hitwhistle.wav
192,192,48744,1,0,0:0:0:0:
64,192,48825,1,0,0:0:0:0:
448,192,48825,1,0,0:0:0:70:kick2.wav
320,192,48907,1,0,0:0:0:0:
192,192,48988,1,0,0:0:0:70:soft-hitwhistle.wav
448,192,49069,1,0,0:0:0:0:
64,192,49150,1,0,0:0:0:0:
192,192,49150,1,0,0:0:0:0:
320,192,49150,1,0,0:0:0:70:soft-hitclap.wav
448,192,49231,1,0,0:0:0:0:
192,192,49312,1,0,0:0:0:70:soft-hitwhistle.wav
64,192,49393,1,0,0:0:0:0:
320,192,49474,1,0,0:0:0:70:kick2.wav
448,192,49474,1,0,0:0:0:0:
192,192,49555,1,0,0:0:0:0:
448,192,49636,1,0,0:0:0:70:soft-hitwhistle.wav
64,192,49717,1,0,0:0:0:0:
320,192,49798,1,0,0:0:0:70:soft-hitclap.wav
448,192,49798,1,0,0:0:0:0:
64,192,49880,1,0,0:0:0:0:
192,192,49880,1,0,0:0:0:70:soft-hitclap.wav
64,192,49961,1,4,0:0:0:70:
320,192,49961,1,0,0:0:0:70:soft-hitclap.wav
448,192,49961,1,0,0:0:0:0:
192,192,50042,1,0,0:0:0:0:
448,192,50123,1,0,0:0:0:0:
320,192,50204,1,0,0:0:0:0:
64,192,50285,1,0,0:0:0:70:soft-hitclap.wav
448,192,50285,1,0,0:0:0:0:
192,192,50366,1,0,0:0:0:0:
64,192,50447,1,0,0:0:0:70:soft-hitclap.wav
320,192,50447,1,0,0:0:0:0:
448,192,50447,1,0,0:0:0:0:
192,192,50528,1,0,0:0:0:0:
320,192,50609,1,0,0:0:0:70:soft-hitwhistle.wav
64,192,50690,1,0,0:0:0:0:
192,192,50771,1,0,0:0:0:0:
448,192,50771,1,0,0:0:0:70:kick2.wav
64,192,50853,1,0,0:0:0:0:
448,192,50934,1,0,0:0:0:70:soft-hitwhistle.wav
320,192,51015,1,0,0:0:0:0:
64,192,51096,1,0,0:0:0:0:
192,192,51096,1,0,0:0:0:0:
448,192,51096,1,0,0:0:0:70:soft-hitclap.wav
320,192,51177,1,0,0:0:0:0:
192,192,51258,1,0,0:0:0:70:soft-hitwhistle.wav
448,192,51339,1,0,0:0:0:0:
192,192,51420,1,0,0:0:0:0:
320,192,51420,1,0,0:0:0:70:kick2.wav
64,192,51501,1,0,0:0:0:0:
448,192,51582,1,0,0:0:0:70:soft-hitwhistle.wav
192,192,51663,1,0,0:0:0:0:
64,192,51744,1,0,0:0:0:0:
320,192,51744,1,0,0:0:0:0:
448,192,51744,1,0,0:0:0:70:soft-hitclap.wav
192,192,51825,1,0,0:0:0:0:
448,192,51907,1,0,0:0:0:70:soft-hitwhistle.wav
320,192,51988,1,0,0:0:0:0:
64,192,52069,1,0,0:0:0:70:kick2.wav
448,192,52069,1,0,0:0:0:0:
192,192,52150,1,0,0:0:0:0:
320,192,52231,1,0,0:0:0:70:soft-hitwhistle.wav
64,192,52312,1,0,0:0:0:0:
192,192,52393,1,0,0:0:0:0:
320,192,52393,1,0,0:0:0:70:soft-hitclap.wav
448,192,52393,1,0,0:0:0:0:
64,192,52474,1,0,0:0:0:0:
320,192,52555,1,0,0:0:0:70:soft-hitwhistle.wav
192,192,52636,1,0,0:0:0:0:
64,192,52717,1,0,0:0:0:70:kick2.wav
448,192,52717,1,0,0:0:0:0:
320,192,52798,1,0,0:0:0:0:
64,192,52880,1,0,0:0:0:70:soft-hitwhistle.wav
448,192,52961,1,0,0:0:0:0:
64,192,53042,1,0,0:0:0:0:
192,192,53042,1,0,0:0:0:0:
320,192,53042,1,0,0:0:0:70:soft-hitclap.wav
448,192,53123,1,0,0:0:0:0:
192,192,53204,1,0,0:0:0:70:soft-hitwhistle.wav
320,192,53285,1,0,0:0:0:0:
192,192,53366,1,0,0:0:0:0:
448,192,53366,1,0,0:0:0:70:kick2.wav
64,192,53447,1,0,0:0:0:0:
320,192,53528,1,0,0:0:0:70:soft-hitwhistle.wav
192,192,53609,1,0,0:0:0:0:
64,192,53690,1,0,0:0:0:70:soft-hitclap.wav
320,192,53690,1,0,0:0:0:0:
448,192,53690,1,0,0:0:0:0:
192,192,53771,1,0,0:0:0:0:
320,192,53853,1,0,0:0:0:70:soft-hitwhistle.wav
448,192,53934,1,0,0:0:0:0:
64,192,54015,1,0,0:0:0:70:kick2.wav
192,192,54015,1,0,0:0:0:0:
320,192,54096,1,0,0:0:0:0:
448,192,54177,1,0,0:0:0:70:soft-hitwhistle.wav
64,192,54258,1,0,0:0:0:0:
192,192,54339,1,0,0:0:0:0:
320,192,54339,1,0,0:0:0:70:soft-hitclap.wav
448,192,54339,1,0,0:0:0:0:
64,192,54420,1,0,0:0:0:0:
448,192,54501,1,0,0:0:0:70:soft-hitwhistle.wav
320,192,54582,1,0,0:0:0:0:
192,192,54663,1,0,0:0:0:70:kick2.wav
448,192,54663,1,0,0:0:0:0:
64,192,54744,1,0,0:0:0:0:
320,192,54825,1,0,0:0:0:70:soft-hitclap.wav
448,192,54825,1,0,0:0:0:0:
64,192,54907,1,0,0:0:0:0:
192,192,54907,1,0,0:0:0:70:soft-hitclap.wav
320,192,54988,1,0,0:0:0:70:soft-hitclap.wav
448,192,54988,1,0,0:0:0:0:
64,192,55069,1,0,0:0:0:0:
192,192,55069,1,0,0:0:0:70:soft-hitclap.wav
64,192,55150,1,4,0:0:0:70:
320,192,55150,1,0,0:0:0:70:soft-hitclap.wav
448,192,55150,1,0,0:0:0:0:
192,192,55231,1,0,0:0:0:0:
320,192,55312,1,0,0:0:0:0:
64,192,55393,1,0,0:0:0:0:
320,192,55474,1,0,0:0:0:0:
448,192,55474,1,0,0:0:0:70:soft-hitclap.wav
192,192,55555,1,0,0:0:0:0:
64,192,55636,1,0,0:0:0:0:
320,192,55636,1,0,0:0:0:0:
448,192,55636,1,0,0:0:0:70:soft-hitclap.wav
192,192,55717,1,0,0:0:0:0:
64,192,55798,1,0,0:0:0:70:soft-hitwhistle.wav
320,192,55880,1,0,0:0:0:0:
192,192,55961,1,0,0:0:0:0:
448,192,55961,1,0,0:0:0:70:kick2.wav
64,192,56042,1,0,0:0:0:0:
448,192,56123,1,0,0:0:0:70:soft-hitwhistle.wav
320,192,56204,1,0,0:0:0:0:
64,192,56285,1,0,0:0:0:70:soft-hitclap.wav
192,192,56285,1,0,0:0:0:0:
448,192,56285,1,0,0:0:0:0:
320,192,56366,1,0,0:0:0:0:
448,192,56447,1,0,0:0:0:70:soft-hitwhistle.wav
64,192,56528,1,0,0:0:0:0:
320,192,56609,1,0,0:0:0:0:
448,192,56609,1,0,0:0:0:70:kick2.wav
64,192,56690,1,0,0:0:0:0:
192,192,56771,1,0,0:0:0:70:soft-hitwhistle.wav
448,192,56853,1,0,0:0:0:0:
64,192,56934,1,0,0:0:0:70:soft-hitclap.wav
192,192,56934,1,0,0:0:0:0:
320,192,56934,1,0,0:0:0:0:
448,192,57015,1,0,0:0:0:0:
192,192,57096,1,0,0:0:0:70:soft-hitwhistle.wav
320,192,57177,1,0,0:0:0:0:
64,192,57258,1,0,0:0:0:70:kick2.wav
448,192,57258,1,0,0:0:0:0:
192,192,57339,1,0,0:0:0:0:
448,192,57420,1,0,0:0:0:70:soft-hitwhistle.wav
320,192,57501,1,0,0:0:0:0:
64,192,57582,1,0,0:0:0:0:
192,192,57582,1,0,0:0:0:70:soft-hitclap.wav
448,192,57582,1,0,0:0:0:0:
320,192,57663,1,0,0:0:0:0:
64,192,57744,1,0,0:0:0:70:soft-hitwhistle.wav
192,192,57825,1,0,0:0:0:0:
320,192,57907,1,0,0:0:0:0:
448,192,57907,1,0,0:0:0:70:kick2.wav
64,192,57988,1,0,0:0:0:0:
320,192,58069,1,0,0:0:0:70:soft-hitwhistle.wav
192,192,58150,1,0,0:0:0:0:
64,192,58231,1,0,0:0:0:0:
320,192,58231,1,0,0:0:0:70:soft-hitclap.wav
448,192,58231,1,0,0:0:0:0:
192,192,58312,1,0,0:0:0:0:
64,192,58393,1,0,0:0:0:70:soft-hitwhistle.wav
320,192,58474,1,0,0:0:0:0:
192,192,58555,1,0,0:0:0:0:
448,192,58555,1,0,0:0:0:70:kick2.wav
320,192,58636,1,0,0:0:0:0:
64,192,58717,1,0,0:0:0:70:soft-hitwhistle.wav
192,192,58798,1,0,0:0:0:0:
64,192,58880,1,0,0:0:0:0:
320,192,58880,1,0,0:0:0:0:
448,192,58880,1,0,0:0:0:70:soft-hitclap.wav
192,192,58961,1,0,0:0:0:0:
320,192,59042,1,0,0:0:0:70:soft-hitwhistle.wav
448,192,59123,1,0,0:0:0:0:
64,192,59204,1,0,0:0:0:70:kick2.wav
192,192,59204,1,0,0:0:0:0:
320,192,59285,1,0,0:0:0:0:
448,192,59366,1,0,0:0:0:70:soft-hitwhistle.wav
64,192,59447,1,0,0:0:0:0:
192,192,59528,1,0,0:0:0:0:
320,192,59528,1,0,0:0:0:0:
448,192,59528,1,0,0:0:0:70:soft-hitclap.wav
64,192,59609,1,0,0:0:0:0:
320,192,59690,1,0,0:0:0:70:soft-hitwhistle.wav
192,192,59771,1,0,0:0:0:0:
64,192,59853,1,0,0:0:0:0:
448,192,59853,1,0,0:0:0:70:kick2.wav
320,192,59934,1,0,0:0:0:0:
192,192,60015,1,0,0:0:0:70:soft-hitwhistle.wav
448,192,60096,1,0,0:0:0:0:
64,192,60177,1,0,0:0:0:70:soft-hitclap.wav
320,192,60177,1,0,0:0:0:0:
192,192,60258,1,0,0:0:0:0:
64,192,60339,1,4,0:0:0:70:
448,192,60339,1,0,0:0:0:0:
320,192,60339,1,0,0:0:0:0:
192,192,60420,1,0,0:0:0:0:
320,192,60501,1,0,0:0:0:0:
64,192,60582,1,0,0:0:0:0:
320,192,60663,1,0,0:0:0:0:
448,192,60663,1,0,0:0:0:70:soft-hitclap.wav
192,192,60744,1,0,0:0:0:0:
64,192,60825,1,0,0:0:0:0:
320,192,60825,1,0,0:0:0:0:
448,192,60825,1,0,0:0:0:70:soft-hitclap.wav
192,192,60907,1,0,0:0:0:0:
448,192,60988,1,0,0:0:0:70:soft-hitwhistle.wav
320,192,61069,1,0,0:0:0:0:
64,192,61150,1,0,0:0:0:70:kick2.wav
448,192,61150,1,0,0:0:0:0:
192,192,61231,1,0,0:0:0:0:
320,192,61312,1,0,0:0:0:70:soft-hitwhistle.wav
64,192,61393,1,0,0:0:0:0:
192,192,61474,1,0,0:0:0:0:
320,192,61474,1,0,0:0:0:70:soft-hitclap.wav
448,192,61474,1,0,0:0:0:0:
64,192,61555,1,0,0:0:0:0:
320,192,61636,1,0,0:0:0:70:soft-hitwhistle.wav
192,192,61717,1,0,0:0:0:0:
64,192,61798,1,0,0:0:0:0:
448,192,61798,1,0,0:0:0:70:kick2.wav
320,192,61880,1,0,0:0:0:0:
64,192,61961,1,0,0:0:0:70:soft-hitwhistle.wav
192,192,62042,1,0,0:0:0:0:
64,192,62123,1,0,0:0:0:0:
320,192,62123,1,0,0:0:0:70:soft-hitclap.wav
448,192,62123,1,0,0:0:0:0:
192,192,62204,1,0,0:0:0:0:
448,192,62285,1,0,0:0:0:70:soft-hitwhistle.wav
320,192,62366,1,0,0:0:0:0:
64,192,62447,1,0,0:0:0:70:kick2.wav
192,192,62447,1,0,0:0:0:0:
320,192,62528,1,0,0:0:0:0:
448,192,62609,1,0,0:0:0:70:soft-hitwhistle.wav
192,192,62690,1,0,0:0:0:0:
64,192,62771,1,0,0:0:0:70:soft-hitclap.wav
320,192,62771,1,0,0:0:0:0:
448,192,62771,1,0,0:0:0:0:
192,192,62853,1,0,0:0:0:0:
320,192,62934,1,0,0:0:0:70:soft-hitwhistle.wav
64,192,63015,1,0,0:0:0:0:
192,192,63096,1,0,0:0:0:70:kick2.wav
320,192,63096,1,0,0:0:0:0:
448,192,63177,1,0,0:0:0:0:
64,192,63258,1,0,0:0:0:70:soft-hitwhistle.wav
320,192,63339,1,0,0:0:0:0:
64,192,63420,1,0,0:0:0:70:soft-hitclap.wav
192,192,63420,1,0,0:0:0:0:
448,192,63420,1,0,0:0:0:0:
320,192,63501,1,0,0:0:0:0:
192,192,63582,1,0,0:0:0:70:soft-hitwhistle.wav
448,192,63663,1,0,0:0:0:0:
64,192,63744,1,0,0:0:0:70:kick2.wav
320,192,63744,1,0,0:0:0:0:
192,192,63825,1,0,0:0:0:0:
448,192,63907,1,0,0:0:0:70:soft-hitwhistle.wav
64,192,63988,1,0,0:0:0:0:
192,192,64069,1,0,0:0:0:70:soft-hitclap.wav
320,192,64069,1,0,0:0:0:0:
448,192,64069,1,0,0:0:0:0:
64,192,64150,1,0,0:0:0:0:
320,192,64231,1,0,0:0:0:70:soft-hitwhistle.wav
448,192,64312,1,0,0:0:0:0:
64,192,64393,1,0,0:0:0:70:kick2.wav
192,192,64393,1,0,0:0:0:0:
320,192,64474,1,0,0:0:0:0:
448,192,64555,1,0,0:0:0:70:soft-hitwhistle.wav
64,192,64636,1,0,0:0:0:0:
192,192,64717,1,0,0:0:0:70:soft-hitclap.wav
320,192,64717,1,0,0:0:0:0:
448,192,64717,1,0,0:0:0:0:
64,192,64798,1,0,0:0:0:0:
448,192,64880,1,0,0:0:0:70:soft-hitwhistle.wav
320,192,64961,1,0,0:0:0:0:
192,192,65042,1,0,0:0:0:0:
448,192,65042,1,0,0:0:0:70:kick2.wav
64,192,65123,1,0,0:0:0:0:
320,192,65204,1,0,0:0:0:70:soft-hitclap.wav
448,192,65204,1,0,0:0:0:0:
64,192,65285,1,0,0:0:0:0:
192,192,65285,1,0,0:0:0:70:soft-hitclap.wav
320,192,65366,1,0,0:0:0:70:soft-hitclap.wav
448,192,65366,1,0,0:0:0:0:
64,192,65447,1,0,0:0:0:0:
192,192,65447,1,0,0:0:0:70:soft-hitclap.wav
64,192,65528,1,4,0:0:0:70:
320,192,65528,1,0,0:0:0:70:soft-hitclap.wav
448,192,65528,1,0,0:0:0:0:
192,192,65609,1,0,0:0:0:0:
448,192,65690,1,0,0:0:0:0:
320,192,65771,1,0,0:0:0:0:
64,192,65853,1,0,0:0:0:70:soft-hitclap.wav
192,192,65853,1,0,0:0:0:0:
320,192,65934,1,0,0:0:0:0:
64,192,66015,1,0,0:0:0:70:soft-hitclap.wav
192,192,66015,1,0,0:0:0:0:
448,192,66015,1,0,0:0:0:0:
320,192,66096,1,0,0:0:0:0:
448,192,66177,1,0,0:0:0:70:soft-hitwhistle.wav
64,192,66258,1,0,0:0:0:0:
192,192,66339,1,0,0:0:0:70:kick2.wav
320,192,66339,1,0,0:0:0:0:
448,192,66420,1,0,0:0:0:0:
64,192,66501,1,0,0:0:0:70:soft-hitwhistle.wav
320,192,66582,1,0,0:0:0:0:
64,192,66663,1,0,0:0:0:0:
448,192,66663,1,0,0:0:0:70:soft-hitclap.wav
192,192,66663,1,0,0:0:0:0:
320,192,66744,1,0,0:0:0:0:
64,192,66825,1,0,0:0:0:70:soft-hitwhistle.wav
192,192,66907,1,0,0:0:0:0:
320,192,66988,1,0,0:0:0:0:
448,192,66988,1,0,0:0:0:70:kick2.wav
64,192,67069,1,0,0:0:0:0:
448,192,67150,1,0,0:0:0:70:soft-hitwhistle.wav
320,192,67231,1,0,0:0:0:0:
64,192,67312,1,0,0:0:0:0:
192,192,67312,1,0,0:0:0:0:
448,192,67312,1,0,0:0:0:70:soft-hitclap.wav
320,192,67393,1,0,0:0:0:0:
448,192,67474,1,0,0:0:0:70:soft-hitwhistle.wav
192,192,67555,1,0,0:0:0:0:
64,192,67636,1,0,0:0:0:70:kick2.wav
320,192,67636,1,0,0:0:0:0:
448,192,67717,1,0,0:0:0:0:
192,192,67798,1,0,0:0:0:70:soft-hitwhistle.wav
320,192,67880,1,0,0:0:0:0:
64,192,67961,1,0,0:0:0:0:
192,192,67961,1,0,0:0:0:70:soft-hitclap.wav
448,192,67961,1,0,0:0:0:0:
320,192,68042,1,0,0:0:0:0:
192,192,68123,1,0,0:0:0:70:soft-hitwhistle.wav
448,192,68204,1,0,0:0:0:0:
64,192,68285,1,0,0:0:0:70:kick2.wav
320,192,68285,1,0,0:0:0:0:
192,192,68366,1,0,0:0:0:0:
448,192,68447,1,0,0:0:0:70:soft-hitwhistle.wav
320,192,68528,1,0,0:0:0:0:
64,192,68609,1,0,0:0:0:0:
192,192,68609,1,0,0:0:0:70:soft-hitclap.wav
448,192,68609,1,0,0:0:0:0:
320,192,68690,1,0,0:0:0:0:
64,192,68771,1,0,0:0:0:70:soft-hitwhistle.wav
192,192,68853,1,0,0:0:0:0:
320,192,68934,1,0,0:0:0:0:
448,192,68934,1,0,0:0:0:70:kick2.wav
192,192,69015,1,0,0:0:0:0:
448,192,69096,1,0,0:0:0:70:soft-hitwhistle.wav
320,192,69177,1,0,0:0:0:0:
64,192,69258,1,0,0:0:0:70:soft-hitclap.wav
192,192,69258,1,0,0:0:0:0:
448,192,69258,1,0,0:0:0:0:
320,192,69339,1,0,0:0:0:0:
64,192,69420,1,0,0:0:0:70:soft-hitwhistle.wav
192,192,69501,1,0,0:0:0:0:
320,192,69582,1,0,0:0:0:0:
448,192,69582,1,0,0:0:0:70:kick2.wav
64,192,69663,1,0,0:0:0:0:
320,192,69744,1,0,0:0:0:70:soft-hitwhistle.wav
192,192,69825,1,0,0:0:0:0:
64,192,69907,1,0,0:0:0:70:soft-hitclap.wav
320,192,69907,1,0,0:0:0:0:
448,192,69907,1,0,0:0:0:0:
192,192,69988,1,0,0:0:0:0:
448,192,70069,1,0,0:0:0:70:soft-hitwhistle.wav
64,192,70150,1,0,0:0:0:0:
192,192,70231,1,0,0:0:0:0:
448,192,70231,1,0,0:0:0:70:kick2.wav
320,192,70312,1,0,0:0:0:0:
192,192,70393,1,0,0:0:0:70:soft-hitwhistle.wav
64,192,70474,1,0,0:0:0:0:
320,192,70555,1,0,0:0:0:70:soft-hitclap.wav
448,192,70555,1,0,0:0:0:0:
64,192,70636,1,0,0:0:0:0:
192,192,70636,1,0,0:0:0:70:soft-hitclap.wav
64,192,70717,1,4,0:0:0:70:
320,192,70717,1,0,0:0:0:70:soft-hitclap.wav
448,192,70717,1,0,0:0:0:0:
192,192,70798,1,0,0:0:0:0:
320,192,70880,1,0,0:0:0:0:
64,192,70961,1,0,0:0:0:0:
448,192,71042,1,0,0:0:0:70:soft-hitclap.wav
192,192,71042,1,0,0:0:0:0:
320,192,71123,1,0,0:0:0:0:
64,192,71204,1,0,0:0:0:0:
192,192,71204,1,0,0:0:0:0:
448,192,71204,1,0,0:0:0:70:soft-hitclap.wav
320,192,71285,1,0,0:0:0:0:
64,192,71366,1,0,0:0:0:70:soft-hitwhistle.wav
192,192,71447,1,0,0:0:0:0:
320,192,71528,1,0,0:0:0:0:
448,192,71528,1,0,0:0:0:70:kick2.wav
192,192,71609,1,0,0:0:0:0:
64,192,71690,1,0,0:0:0:70:soft-hitwhistle.wav
448,192,71771,1,0,0:0:0:0:
64,192,71853,1,0,0:0:0:70:soft-hitclap.wav
192,192,71853,1,0,0:0:0:0:
320,192,71853,1,0,0:0:0:0:
448,192,71934,1,0,0:0:0:0:
64,192,72015,1,0,0:0:0:70:soft-hitwhistle.wav
192,192,72096,1,0,0:0:0:0:
320,192,72177,1,0,0:0:0:0:
448,192,72177,1,0,0:0:0:70:kick2.wav
64,192,72258,1,0,0:0:0:0:
320,192,72339,1,0,0:0:0:70:soft-hitwhistle.wav
192,192,72420,1,0,0:0:0:0:
64,192,72501,1,0,0:0:0:70:soft-hitclap.wav
320,192,72501,1,0,0:0:0:0:
448,192,72501,1,0,0:0:0:0:
192,192,72582,1,0,0:0:0:0:
320,192,72663,1,0,0:0:0:70:soft-hitwhistle.wav
64,192,72744,1,0,0:0:0:0:
192,192,72825,1,0,0:0:0:70:kick2.wav
448,192,72825,1,0,0:0:0:0:
320,192,72907,1,0,0:0:0:0:
448,192,72988,1,0,0:0:0:70:soft-hitwhistle.wav
64,192,73069,1,0,0:0:0:0:
192,192,73150,1,0,0:0:0:0:
320,192,73150,1,0,0:0:0:70:soft-hitclap.wav
448,192,73150,1,0,0:0:0:0:
64,192,73231,1,0,0:0:0:0:
320,192,73312,1,0,0:0:0:70:soft-hitwhistle.wav
192,192,73393,1,0,0:0:0:0:
64,192,73474,1,0,0:0:0:70:kick2.wav
448,192,73474,1,0,0:0:0:0:
320,192,73555,1,0,0:0:0:0:
64,192,73636,1,0,0:0:0:70:soft-hitwhistle.wav
192,192,73717,1,0,0:0:0:0:
64,192,73798,1,0,0:0:0:0:
320,192,73798,1,0,0:0:0:70:soft-hitclap.wav
448,192,73798,1,0,0:0:0:0:
192,192,73880,1,0,0:0:0:0:
448,192,73961,1,0,0:0:0:70:soft-hitwhistle.wav
320,192,74042,1,0,0:0:0:0:
64,192,74123,1,0,0:0:0:70:kick2.wav
192,192,74123,1,0,0:0:0:0:
448,192,74204,1,0,0:0:0:0:
192,192,74285,1,0,0:0:0:70:soft-hitwhistle.wav
320,192,74366,1,0,0:0:0:0:
64,192,74447,1,0,0:0:0:0:
192,192,74447,1,0,0:0:0:0:
448,192,74447,1,0,0:0:0:70:soft-hitclap.wav
320,192,74528,1,0,0:0:0:0:
192,192,74609,1,0,0:0:0:70:soft-hitwhistle.wav
64,192,74690,1,0,0:0:0:0:
320,192,74771,1,0,0:0:0:0:
448,192,74771,1,0,0:0:0:70:kick2.wav
64,192,74853,1,0,0:0:0:0:
448,192,74934,1,0,0:0:0:70:soft-hitwhistle.wav
192,192,75015,1,0,0:0:0:0:
64,192,75096,1,0,0:0:0:0:
320,192,75096,1,0,0:0:0:0:
448,192,75096,1,0,0:0:0:70:soft-hitclap.wav
192,192,75177,1,0,0:0:0:0:
320,192,75258,1,0,0:0:0:70:soft-hitwhistle.wav
64,192,75339,1,0,0:0:0:0:
192,192,75420,1,0,0:0:0:70:kick2.wav
448,192,75420,1,0,0:0:0:0:
64,192,75501,1,0,0:0:0:0:
320,192,75582,1,0,0:0:0:70:soft-hitclap.wav
448,192,75582,1,0,0:0:0:0:
64,192,75663,1,0,0:0:0:0:
192,192,75663,1,0,0:0:0:70:soft-hitclap.wav
320,192,75744,1,0,0:0:0:70:soft-hitclap.wav
448,192,75744,1,0,0:0:0:0:
64,192,75825,1,0,0:0:0:0:
192,192,75825,1,0,0:0:0:70:soft-hitclap.wav
320,192,75907,1,0,0:0:0:70:soft-hitclap.wav
448,192,75907,1,0,0:0:0:0:
64,0,75907,128,4,76393:0:0:0:70:
192,192,76069,1,0,0:0:0:0:
448,192,76231,1,0,0:0:0:0:
192,192,76393,1,0,0:0:0:0:
448,192,76555,1,0,0:0:0:0:
192,192,76717,1,0,0:0:0:0:
448,192,76880,1,0,0:0:0:0:
192,192,77042,1,0,0:0:0:0:
64,192,77204,1,0,0:0:0:0:
320,192,77204,1,0,0:0:0:0:
448,192,77366,1,0,0:0:0:0:
64,192,77528,1,0,0:0:0:0:
448,192,77690,1,0,0:0:0:0:
64,192,77853,1,0,0:0:0:0:
448,192,78015,1,0,0:0:0:0:
64,192,78177,1,0,0:0:0:0:
448,192,78339,1,0,0:0:0:0:
192,192,78501,1,0,0:0:0:0:
320,192,78501,1,0,0:0:0:0:
64,192,78663,1,0,0:0:0:0:
320,192,78825,1,0,0:0:0:0:
64,192,78988,1,0,0:0:0:0:
320,192,79150,1,0,0:0:0:0:
64,192,79312,1,0,0:0:0:0:
320,192,79474,1,0,0:0:0:0:
192,192,79636,1,0,0:0:0:0:
448,192,79798,1,0,0:0:0:0:
64,192,79798,1,0,0:0:0:0:
320,192,79961,1,0,0:0:0:0:
448,192,80123,1,0,0:0:0:0:
320,192,80285,1,0,0:0:0:0:
448,192,80447,1,0,0:0:0:0:
192,192,80609,1,0,0:0:0:0:
320,192,80609,1,0,0:0:0:0:
64,192,80771,1,0,0:0:0:0:
192,192,80934,1,0,0:0:0:0:
320,192,81096,1,0,0:0:0:0:
448,192,81096,1,0,0:0:0:0:
64,192,81258,1,0,0:0:0:0:
320,192,81420,1,0,0:0:0:0:
64,192,81582,1,0,0:0:0:0:
320,192,81744,1,0,0:0:0:0:
64,192,81907,1,0,0:0:0:0:
320,192,82069,1,0,0:0:0:0:
448,192,82231,1,0,0:0:0:0:
64,192,82393,1,0,0:0:0:0:
192,192,82393,1,0,0:0:0:0:
320,192,82555,1,0,0:0:0:0:
64,192,82717,1,0,0:0:0:0:
320,192,82880,1,0,0:0:0:0:
64,192,83042,1,0,0:0:0:0:
320,192,83204,1,0,0:0:0:0:
64,192,83366,1,0,0:0:0:0:
320,192,83528,1,0,0:0:0:0:
192,192,83690,1,0,0:0:0:0:
448,192,83690,1,0,0:0:0:0:
320,192,83853,1,0,0:0:0:0:
192,192,84015,1,0,0:0:0:0:
320,192,84177,1,0,0:0:0:0:
192,192,84339,1,0,0:0:0:0:
320,192,84501,1,0,0:0:0:0:
192,192,84663,1,0,0:0:0:0:
320,192,84825,1,0,0:0:0:0:
448,192,84988,1,0,0:0:0:0:
64,192,84988,1,0,0:0:0:0:
192,192,85150,1,0,0:0:0:0:
448,192,85312,1,0,0:0:0:0:
192,192,85474,1,0,0:0:0:0:
448,192,85636,1,0,0:0:0:0:
320,192,85798,1,0,0:0:0:0:
192,192,85798,1,0,0:0:0:0:
64,192,85961,1,0,0:0:0:0:
320,192,86123,1,0,0:0:0:0:
192,192,86285,1,0,0:0:0:70:whistle.wav
448,192,86285,1,0,0:0:0:0:
64,192,86447,1,0,0:0:0:70:kick2.wav
320,192,86609,1,0,0:0:0:70:whistle.wav
192,192,86609,1,0,0:0:0:0:
64,192,86771,1,0,0:0:0:70:soft-hitclap.wav
192,192,86771,1,0,0:0:0:0:
448,192,86771,1,0,0:0:0:0:
320,192,86934,1,0,0:0:0:70:whistle.wav
64,192,86934,1,0,0:0:0:0:
448,192,87096,1,0,0:0:0:70:kick2.wav
64,192,87258,1,0,0:0:0:70:whistle.wav
192,192,87258,1,0,0:0:0:0:
448,192,87420,1,0,0:0:0:70:kick2.wav
192,192,87582,1,0,0:0:0:70:whistle.wav
320,192,87582,1,0,0:0:0:0:
448,192,87744,1,0,0:0:0:70:kick2.wav
64,192,87907,1,0,0:0:0:70:whistle.wav
192,192,87907,1,0,0:0:0:0:
320,192,88069,1,0,0:0:0:0:
448,192,88069,1,0,0:0:0:70:soft-hitclap.wav
192,192,88069,1,0,0:0:0:0:
64,192,88231,1,0,0:0:0:70:whistle.wav
320,192,88231,1,0,0:0:0:0:
192,192,88393,1,0,0:0:0:70:kick2.wav
448,192,88555,1,0,0:0:0:70:whistle.wav
64,192,88555,1,0,0:0:0:0:
192,192,88717,1,0,0:0:0:70:kick2.wav
320,192,88880,1,0,0:0:0:70:whistle.wav
448,192,88880,1,0,0:0:0:0:
64,192,89042,1,0,0:0:0:70:kick2.wav
192,192,89204,1,0,0:0:0:70:whistle.wav
320,192,89204,1,0,0:0:0:0:
64,192,89366,1,0,0:0:0:70:soft-hitclap.wav
320,192,89366,1,0,0:0:0:0:
448,192,89366,1,0,0:0:0:0:
192,192,89528,1,0,0:0:0:70:whistle.wav
448,192,89528,1,0,0:0:0:0:
64,192,89690,1,0,0:0:0:70:kick2.wav
448,192,89853,1,0,0:0:0:70:whistle.wav
320,192,89853,1,0,0:0:0:0:
192,192,90015,1,0,0:0:0:70:kick2.wav
320,192,90177,1,0,0:0:0:70:whistle.wav
64,192,90177,1,0,0:0:0:0:
448,192,90339,1,0,0:0:0:70:kick2.wav
192,192,90501,1,0,0:0:0:70:whistle.wav
64,192,90501,1,0,0:0:0:0:
320,192,90663,1,0,0:0:0:70:soft-hitclap.wav
448,192,90663,1,0,0:0:0:0:
64,192,90663,1,0,0:0:0:0:
192,192,90825,1,0,0:0:0:70:whistle.wav
320,192,90825,1,0,0:0:0:0:
64,192,90988,1,0,0:0:0:70:kick2.wav
448,192,91150,1,0,0:0:0:70:whistle.wav
192,192,91150,1,0,0:0:0:0:
320,192,91312,1,0,0:0:0:70:kick2.wav
64,192,91474,1,2,3:0:0:70:
192,192,91474,1,0,0:0:0:0:
448,192,91636,1,0,0:0:0:70:kick2.wav
64,192,91798,1,0,0:0:0:70:whistle.wav
320,192,91798,1,0,0:0:0:0:
320,192,91961,1,0,0:0:0:0:
448,192,91961,1,0,0:0:0:70:soft-hitclap.wav
192,192,91961,1,0,0:0:0:0:
64,192,92123,1,0,0:0:0:70:whistle.wav
192,192,92123,1,0,0:0:0:0:
448,192,92285,1,0,0:0:0:70:kick2.wav
320,192,92447,1,0,0:0:0:70:whistle.wav
64,192,92447,1,0,0:0:0:0:
192,192,92609,1,0,0:0:0:70:kick2.wav
448,192,92771,1,0,0:0:0:70:whistle.wav
320,192,92771,1,0,0:0:0:0:
64,192,92934,1,0,0:0:0:70:kick2.wav
320,192,93096,1,0,0:0:0:70:whistle.wav
192,192,93096,1,0,0:0:0:0:
64,192,93258,1,0,0:0:0:0:
192,192,93258,1,0,0:0:0:70:soft-hitclap.wav
448,192,93258,1,0,0:0:0:0:
320,192,93420,1,0,0:0:0:70:whistle.wav
448,192,93420,1,0,0:0:0:0:
64,192,93582,1,0,0:0:0:70:kick2.wav
448,192,93744,1,0,0:0:0:70:whistle.wav
192,192,93744,1,0,0:0:0:0:
64,192,93907,1,0,0:0:0:70:kick2.wav
192,192,94069,1,0,0:0:0:70:whistle.wav
320,192,94069,1,0,0:0:0:0:
448,192,94231,1,0,0:0:0:70:kick2.wav
192,192,94393,1,0,0:0:0:70:whistle.wav
64,192,94393,1,0,0:0:0:0:
64,192,94555,1,0,0:0:0:70:soft-hitclap.wav
320,192,94555,1,0,0:0:0:0:
448,192,94555,1,0,0:0:0:0:
192,192,94717,1,0,0:0:0:70:whistle.wav
320,192,94717,1,0,0:0:0:0:
448,192,94880,1,0,0:0:0:70:kick2.wav
64,192,95042,1,0,0:0:0:70:whistle.wav
192,192,95042,1,0,0:0:0:0:
448,192,95204,1,0,0:0:0:70:kick2.wav
320,192,95366,1,0,0:0:0:70:whistle.wav
192,192,95366,1,0,0:0:0:0:
448,192,95528,1,0,0:0:0:70:kick2.wav
64,192,95690,1,0,0:0:0:70:whistle.wav
320,192,95690,1,0,0:0:0:0:
320,192,95853,1,0,0:0:0:0:
448,192,95853,1,0,0:0:0:70:soft-hitclap.wav
192,192,95853,1,0,0:0:0:0:
64,192,96015,1,0,0:0:0:70:whistle.wav
192,192,96015,1,0,0:0:0:0:
320,192,96177,1,0,0:0:0:70:kick2.wav
448,192,96339,1,0,0:0:0:70:whistle.wav
192,192,96339,1,0,0:0:0:0:
64,192,96420,1,0,0:0:0:0:
192,192,96501,1,0,0:0:0:70:whistle.wav
320,192,96501,1,0,0:0:0:70:soft-hitclap.wav
448,192,96501,1,0,0:0:0:0:
64,192,96582,1,0,0:0:0:70:kick.wav
320,192,96663,1,0,0:0:0:70:kick.wav
448,192,96663,1,2,3:0:0:0:
192,192,96744,1,0,0:0:0:0:
448,192,96825,1,0,0:0:0:70:kick2.wav
320,192,96907,1,0,0:0:0:0:
64,192,96988,1,0,0:0:0:70:whistle.wav
448,192,96988,1,0,0:0:0:0:
192,192,97069,1,0,0:0:0:0:
320,192,97069,1,0,0:0:0:70:whistle.wav
64,192,97150,1,0,0:0:0:70:whistle.wav
448,192,97150,1,0,0:0:0:70:soft-hitclap.wav
192,192,97231,1,0,0:0:0:0:
448,192,97312,1,0,0:0:0:0:
320,192,97312,1,0,0:0:0:70:whistle.wav
64,192,97393,1,0,0:0:0:0:
192,192,97393,1,0,0:0:0:70:whistle.wav
320,192,97474,1,0,0:0:0:70:whistle.wav
448,192,97474,1,0,0:0:0:70:kick2.wav
64,192,97555,1,0,0:0:0:0:
448,192,97636,1,0,0:0:0:0:
192,192,97636,1,0,0:0:0:70:whistle.wav
320,192,97717,1,0,0:0:0:0:
64,192,97717,1,0,0:0:0:70:whistle.wav
192,192,97798,1,0,0:0:0:70:whistle.wav
448,192,97798,1,0,0:0:0:70:soft-hitclap.wav
320,192,97880,1,0,0:0:0:0:
64,192,97961,1,0,0:0:0:0:
448,192,97961,1,0,0:0:0:0:
192,192,98042,1,0,0:0:0:0:
320,192,98123,1,0,0:0:0:70:kick2.wav
448,192,98123,1,0,0:0:0:0:
64,192,98204,1,0,0:0:0:0:
320,192,98285,1,0,0:0:0:0:
448,192,98285,1,0,0:0:0:70:whistle.wav
192,192,98366,1,0,0:0:0:0:
64,192,98366,1,0,0:0:0:70:whistle.wav
320,192,98447,1,0,0:0:0:70:soft-hitclap.wav
448,192,98447,1,0,0:0:0:70:whistle.wav
192,192,98528,1,0,0:0:0:0:
320,192,98609,1,0,0:0:0:0:
64,192,98609,1,0,0:0:0:70:whistle.wav
448,192,98690,1,0,0:0:0:0:
192,192,98690,1,0,0:0:0:70:whistle.wav
64,192,98771,1,0,0:0:0:70:whistle.wav
320,192,98771,1,0,0:0:0:70:kick2.wav
192,192,98853,1,0,0:0:0:0:
448,192,98934,1,0,0:0:0:70:whistle.wav
320,192,98934,1,0,0:0:0:0:
64,192,99015,1,0,0:0:0:70:whistle.wav
192,192,99015,1,0,0:0:0:0:
320,192,99096,1,0,0:0:0:70:soft-hitclap.wav
448,192,99096,1,0,0:0:0:70:whistle.wav
192,192,99177,1,0,0:0:0:0:
448,192,99258,1,0,0:0:0:0:
64,192,99258,1,0,0:0:0:0:
192,192,99339,1,0,0:0:0:0:
320,192,99420,1,0,0:0:0:0:
448,192,99420,1,0,0:0:0:70:kick2.wav
64,192,99501,1,0,0:0:0:0:
320,192,99582,1,0,0:0:0:70:whistle.wav
448,192,99582,1,0,0:0:0:0:
192,192,99663,1,0,0:0:0:70:whistle.wav
64,192,99663,1,0,0:0:0:0:
320,192,99744,1,0,0:0:0:70:whistle.wav
448,192,99744,1,0,0:0:0:70:soft-hitclap.wav
192,192,99825,1,0,0:0:0:0:
448,192,99907,1,0,0:0:0:0:
64,192,99907,1,0,0:0:0:70:whistle.wav
192,192,99988,1,0,0:0:0:0:
320,192,99988,1,0,0:0:0:70:whistle.wav
64,192,100069,1,0,0:0:0:70:whistle.wav
448,192,100069,1,0,0:0:0:70:kick2.wav
320,192,100150,1,0,0:0:0:0:
192,192,100231,1,0,0:0:0:70:whistle.wav
448,192,100231,1,0,0:0:0:0:
320,192,100312,1,0,0:0:0:0:
64,192,100312,1,0,0:0:0:70:whistle.wav
192,192,100393,1,0,0:0:0:70:whistle.wav
448,192,100393,1,0,0:0:0:70:soft-hitclap.wav
320,192,100474,1,0,0:0:0:0:
192,192,100555,1,0,0:0:0:0:
64,192,100555,1,0,0:0:0:0:
448,192,100636,1,0,0:0:0:0:
64,192,100717,1,0,0:0:0:70:kick2.wav
320,192,100717,1,0,0:0:0:0:
192,192,100798,1,0,0:0:0:0:
320,192,100880,1,0,0:0:0:70:whistle.wav
64,192,100880,1,0,0:0:0:0:
448,192,100961,1,0,0:0:0:70:whistle.wav
192,192,100961,1,0,0:0:0:0:
64,192,101042,1,0,0:0:0:70:soft-hitclap.wav
320,192,101042,1,0,0:0:0:70:whistle.wav
192,192,101123,1,0,0:0:0:0:
448,192,101204,1,0,0:0:0:0:
320,192,101204,1,0,0:0:0:70:whistle.wav
64,192,101285,1,0,0:0:0:0:
192,192,101285,1,0,0:0:0:70:whistle.wav
448,192,101366,1,0,0:0:0:70:kick2.wav
320,192,101366,1,0,0:0:0:70:whistle.wav
64,192,101447,1,0,0:0:0:0:
320,192,101528,1,0,0:0:0:70:whistle.wav
448,192,101528,1,0,0:0:0:0:
192,192,101609,1,0,0:0:0:0:
64,192,101609,1,0,0:0:0:70:whistle.wav
320,192,101690,1,0,0:0:0:70:whistle.wav
448,192,101690,1,0,0:0:0:70:soft-hitclap.wav
192,192,101771,1,0,0:0:0:0:
320,192,101853,1,0,0:0:0:0:
448,192,101853,1,2,3:0:0:70:
64,192,101853,1,0,0:0:0:0:
192,192,101934,1,0,0:0:0:0:
320,192,102015,1,0,0:0:0:70:kick2.wav
448,192,102096,1,0,0:0:0:0:
64,192,102177,1,0,0:0:0:70:whistle.wav
192,192,102177,1,0,0:0:0:0:
320,192,102258,1,0,0:0:0:0:
448,192,102258,1,0,0:0:0:70:whistle.wav
64,192,102339,1,0,0:0:0:70:whistle.wav
192,192,102339,1,0,0:0:0:70:soft-hitclap.wav
320,192,102420,1,0,0:0:0:0:
192,192,102501,1,0,0:0:0:0:
448,192,102501,1,0,0:0:0:70:whistle.wav
64,192,102582,1,0,0:0:0:0:
320,192,102582,1,0,0:0:0:70:whistle.wav
448,192,102663,1,0,0:0:0:70:whistle.wav
192,192,102663,1,0,0:0:0:70:kick2.wav
64,192,102744,1,0,0:0:0:0:
320,192,102825,1,0,0:0:0:70:whistle.wav
192,192,102825,1,0,0:0:0:0:
448,192,102907,1,0,0:0:0:70:whistle.wav
64,192,102907,1,0,0:0:0:0:
192,192,102988,1,0,0:0:0:70:soft-hitclap.wav
320,192,102988,1,0,0:0:0:70:whistle.wav
448,192,103069,1,0,0:0:0:0:
192,192,103150,1,0,0:0:0:0:
64,192,103150,1,0,0:0:0:0:
320,192,103231,1,0,0:0:0:0:
64,192,103312,1,0,0:0:0:70:kick2.wav
448,192,103312,1,0,0:0:0:0:
192,192,103393,1,0,0:0:0:0:
320,192,103474,1,0,0:0:0:0:
448,192,103474,1,0,0:0:0:70:whistle.wav
64,192,103555,1,0,0:0:0:70:whistle.wav
192,192,103555,1,0,0:0:0:0:
320,192,103636,1,0,0:0:0:70:soft-hitclap.wav
448,192,103636,1,0,0:0:0:70:whistle.wav
64,192,103717,1,0,0:0:0:0:
448,192,103798,1,0,0:0:0:0:
192,192,103798,1,0,0:0:0:70:whistle.wav
320,192,103880,1,0,0:0:0:0:
64,192,103880,1,0,0:0:0:70:whistle.wav
192,192,103961,1,0,0:0:0:70:whistle.wav
448,192,103961,1,0,0:0:0:70:kick2.wav
320,192,104042,1,0,0:0:0:0:
192,192,104123,1,0,0:0:0:70:whistle.wav
64,192,104123,1,0,0:0:0:0:
448,192,104204,1,0,0:0:0:0:
320,192,104204,1,0,0:0:0:70:whistle.wav
64,192,104285,1,0,0:0:0:70:soft-hitclap.wav
192,192,104285,1,0,0:0:0:70:whistle.wav
448,192,104366,1,0,0:0:0:0:
192,192,104447,1,0,0:0:0:0:
320,192,104447,1,0,0:0:0:0:
64,192,104528,1,0,0:0:0:0:
320,192,104609,1,0,0:0:0:0:
448,192,104609,1,0,0:0:0:70:kick2.wav
192,192,104690,1,0,0:0:0:0:
448,192,104771,1,0,0:0:0:0:
64,192,104771,1,0,0:0:0:70:whistle.wav
320,192,104853,1,0,0:0:0:70:whistle.wav
192,192,104853,1,0,0:0:0:0:
64,192,104934,1,0,0:0:0:70:whistle.wav
448,192,104934,1,0,0:0:0:70:soft-hitclap.wav
192,192,105015,1,0,0:0:0:0:
64,192,105096,1,0,0:0:0:0:
320,192,105096,1,0,0:0:0:70:whistle.wav
192,192,105177,1,0,0:0:0:0:
448,192,105177,1,0,0:0:0:70:whistle.wav
320,192,105258,1,0,0:0:0:70:whistle.wav
64,192,105258,1,0,0:0:0:70:kick2.wav
448,192,105339,1,0,0:0:0:0:
64,192,105420,1,0,0:0:0:0:
192,192,105420,1,0,0:0:0:70:whistle.wav
448,192,105501,1,0,0:0:0:0:
320,192,105501,1,0,0:0:0:70:whistle.wav
64,192,105582,1,0,0:0:0:70:soft-hitclap.wav
192,192,105582,1,0,0:0:0:70:whistle.wav
320,192,105663,1,0,0:0:0:0:
448,192,105744,1,0,0:0:0:0:
192,192,105744,1,0,0:0:0:0:
64,192,105825,1,0,0:0:0:0:
192,192,105907,1,0,0:0:0:0:
320,192,105907,1,0,0:0:0:70:kick2.wav
64,192,105988,1,0,0:0:0:0:
448,192,106069,1,0,0:0:0:70:whistle.wav
192,192,106069,1,0,0:0:0:0:
320,192,106150,1,0,0:0:0:70:whistle.wav
64,192,106150,1,0,0:0:0:0:
192,192,106231,1,0,0:0:0:70:soft-hitclap.wav
448,192,106231,1,0,0:0:0:70:whistle.wav
320,192,106312,1,0,0:0:0:0:
448,192,106393,1,0,0:0:0:0:
64,192,106393,1,0,0:0:0:70:whistle.wav
192,192,106474,1,0,0:0:0:0:
320,192,106474,1,0,0:0:0:70:whistle.wav
64,192,106555,1,0,0:0:0:70:whistle.wav
448,192,106555,1,0,0:0:0:70:kick2.wav
320,192,106636,1,0,0:0:0:0:
64,192,106717,1,0,0:0:0:0:
192,192,106717,1,0,0:0:0:70:whistle.wav
320,192,106798,1,0,0:0:0:0:
448,192,106798,1,0,0:0:0:70:whistle.wav
64,192,106880,1,0,0:0:0:70:soft-hitclap.wav
192,192,106880,1,0,0:0:0:70:whistle.wav
320,192,106961,1,0,0:0:0:0:
64,192,107042,1,2,3:0:0:70:
192,192,107042,1,0,0:0:0:0:
448,192,107042,1,0,0:0:0:0:
320,192,107123,1,0,0:0:0:0:
448,192,107204,1,0,0:0:0:70:kick2.wav
64,192,107285,1,0,0:0:0:0:
320,192,107366,1,0,0:0:0:70:whistle.wav
448,192,107366,1,0,0:0:0:0:
192,192,107447,1,0,0:0:0:0:
64,192,107447,1,0,0:0:0:70:whistle.wav
320,192,107528,1,0,0:0:0:70:whistle.wav
448,192,107528,1,0,0:0:0:70:soft-hitclap.wav
64,192,107609,1,0,0:0:0:0:
192,192,107690,1,0,0:0:0:0:
448,192,107690,1,0,0:0:0:70:whistle.wav
64,192,107771,1,0,0:0:0:0:
320,192,107771,1,0,0:0:0:70:whistle.wav
448,192,107853,1,0,0:0:0:70:whistle.wav
192,192,107853,1,0,0:0:0:70:kick2.wav
64,192,107934,1,0,0:0:0:0:
192,192,108015,1,0,0:0:0:0:
320,192,108015,1,0,0:0:0:70:whistle.wav
448,192,108096,1,0,0:0:0:70:whistle.wav
64,192,108096,1,0,0:0:0:0:
192,192,108177,1,0,0:0:0:70:soft-hitclap.wav
320,192,108177,1,0,0:0:0:70:whistle.wav
448,192,108258,1,0,0:0:0:0:
64,192,108339,1,0,0:0:0:70:whistle.wav
320,192,108339,1,0,0:0:0:0:
192,192,108420,1,0,0:0:0:70:whistle.wav
448,192,108420,1,0,0:0:0:0:
320,192,108501,1,0,0:0:0:70:kick2.wav
64,192,108501,1,0,0:0:0:70:whistle.wav
192,192,108582,1,0,0:0:0:0:
448,192,108663,1,0,0:0:0:70:whistle.wav
320,192,108663,1,0,0:0:0:0:
192,192,108744,1,0,0:0:0:0:
64,192,108744,1,0,0:0:0:70:whistle.wav
320,192,108825,1,0,0:0:0:70:soft-hitclap.wav
448,192,108825,1,0,0:0:0:70:whistle.wav
192,192,108907,1,0,0:0:0:0:
320,192,108988,1,0,0:0:0:0:
64,192,108988,1,0,0:0:0:70:whistle.wav
192,192,109069,1,0,0:0:0:70:whistle.wav
448,192,109069,1,0,0:0:0:0:
320,192,109150,1,0,0:0:0:70:kick2.wav
64,192,109150,1,0,0:0:0:70:whistle.wav
192,192,109231,1,0,0:0:0:0:
320,192,109312,1,0,0:0:0:0:
448,192,109312,1,0,0:0:0:70:whistle.wav
192,192,109393,1,0,0:0:0:70:whistle.wav
64,192,109393,1,0,0:0:0:0:
320,192,109474,1,0,0:0:0:70:soft-hitclap.wav
448,192,109474,1,0,0:0:0:70:whistle.wav
192,192,109555,1,0,0:0:0:0:
448,192,109636,1,0,0:0:0:0:
64,192,109636,1,0,0:0:0:70:whistle.wav
320,192,109717,1,0,0:0:0:70:whistle.wav
192,192,109717,1,0,0:0:0:0:
64,192,109798,1,0,0:0:0:70:whistle.wav
448,192,109798,1,0,0:0:0:70:kick2.wav
192,192,109880,1,0,0:0:0:0:
448,192,109961,1,0,0:0:0:0:
320,192,109961,1,0,0:0:0:70:whistle.wav
64,192,110042,1,0,0:0:0:70:whistle.wav
192,192,110042,1,0,0:0:0:0:
320,192,110123,1,0,0:0:0:70:whistle.wav
448,192,110123,1,0,0:0:0:70:soft-hitclap.wav
64,192,110204,1,0,0:0:0:0:
448,192,110285,1,0,0:0:0:70:whistle.wav
192,192,110285,1,0,0:0:0:0:
64,192,110366,1,0,0:0:0:0:
320,192,110366,1,0,0:0:0:70:whistle.wav
448,192,110447,1,0,0:0:0:70:whistle.wav
192,192,110447,1,0,0:0:0:70:kick2.wav
320,192,110528,1,0,0:0:0:0:
64,192,110609,1,0,0:0:0:70:whistle.wav
192,192,110609,1,0,0:0:0:0:
448,192,110690,1,0,0:0:0:0:
320,192,110690,1,0,0:0:0:70:whistle.wav
64,192,110771,1,0,0:0:0:70:whistle.wav
192,192,110771,1,0,0:0:0:70:soft-hitclap.wav
448,192,110853,1,0,0:0:0:0:
192,192,110934,1,0,0:0:0:0:
320,192,110934,1,0,0:0:0:70:whistle.wav
448,192,111015,1,0,0:0:0:70:whistle.wav
64,192,111015,1,0,0:0:0:0:
192,192,111096,1,0,0:0:0:70:kick2.wav
320,192,111096,1,0,0:0:0:70:whistle.wav
448,192,111177,1,0,0:0:0:0:
320,192,111258,1,0,0:0:0:70:whistle.wav
64,192,111258,1,0,0:0:0:0:
192,192,111339,1,0,0:0:0:0:
448,192,111339,1,0,0:0:0:70:whistle.wav
64,192,111420,1,0,0:0:0:70:soft-hitclap.wav
320,192,111420,1,0,0:0:0:70:whistle.wav
192,192,111501,1,0,0:0:0:0:
448,192,111582,1,0,0:0:0:70:whistle.wav
64,192,111582,1,0,0:0:0:0:
320,192,111663,1,0,0:0:0:0:
192,192,111663,1,0,0:0:0:70:whistle.wav
64,192,111744,1,0,0:0:0:70:kick2.wav
448,192,111744,1,0,0:0:0:70:whistle.wav
192,192,111825,1,0,0:0:0:0:
320,192,111907,1,0,0:0:0:70:whistle.wav
448,192,111907,1,0,0:0:0:0:
64,192,111988,1,0,0:0:0:70:whistle.wav
192,192,111988,1,0,0:0:0:0:
320,192,112069,1,0,0:0:0:70:whistle.wav
448,192,112069,1,0,0:0:0:70:soft-hitclap.wav
64,192,112150,1,0,0:0:0:0:
192,192,112231,1,0,0:0:0:0:
320,192,112231,1,0,0:0:0:0:
448,192,112231,1,2,3:0:0:70:
64,192,112312,1,0,0:0:0:0:
192,192,112393,1,0,0:0:0:70:kick2.wav
320,192,112474,1,0,0:0:0:0:
192,192,112555,1,0,0:0:0:70:whistle.wav
448,192,112555,1,0,0:0:0:0:
64,192,112636,1,0,0:0:0:70:whistle.wav
320,192,112636,1,0,0:0:0:0:
448,192,112717,1,0,0:0:0:70:soft-hitclap.wav
192,192,112717,1,0,0:0:0:70:whistle.wav
320,192,112798,1,0,0:0:0:0:
448,192,112880,1,0,0:0:0:0:
64,192,112880,1,0,0:0:0:70:whistle.wav
192,192,112961,1,0,0:0:0:0:
320,192,112961,1,0,0:0:0:70:whistle.wav
448,192,113042,1,0,0:0:0:70:kick2.wav
64,192,113042,1,0,0:0:0:70:whistle.wav
192,192,113123,1,0,0:0:0:0:
320,192,113204,1,0,0:0:0:0:
448,192,113204,1,0,0:0:0:70:whistle.wav
192,192,113285,1,0,0:0:0:70:whistle.wav
64,192,113285,1,0,0:0:0:0:
320,192,113366,1,0,0:0:0:70:soft-hitclap.wav
448,192,113366,1,0,0:0:0:70:whistle.wav
192,192,113447,1,0,0:0:0:0:
448,192,113528,1,0,0:0:0:70:whistle.wav
64,192,113528,1,0,0:0:0:0:
320,192,113609,1,0,0:0:0:70:whistle.wav
192,192,113609,1,0,0:0:0:0:
448,192,113690,1,0,0:0:0:70:whistle.wav
64,192,113690,1,0,0:0:0:70:kick2.wav
192,192,113771,1,0,0:0:0:0:
320,192,113853,1,0,0:0:0:70:whistle.wav
448,192,113853,1,0,0:0:0:0:
64,192,113934,1,0,0:0:0:70:whistle.wav
192,192,113934,1,0,0:0:0:0:
320,192,114015,1,0,0:0:0:70:whistle.wav
448,192,114015,1,0,0:0:0:70:soft-hitclap.wav
64,192,114096,1,0,0:0:0:0:
320,192,114177,1,0,0:0:0:0:
192,192,114177,1,0,0:0:0:70:whistle.wav
64,192,114258,1,0,0:0:0:70:whistle.wav
448,192,114258,1,0,0:0:0:0:
320,192,114339,1,0,0:0:0:70:kick2.wav
192,192,114339,1,0,0:0:0:70:whistle.wav
448,192,114420,1,0,0:0:0:0:
64,192,114501,1,0,0:0:0:70:whistle.wav
320,192,114501,1,0,0:0:0:0:
192,192,114582,1,0,0:0:0:70:whistle.wav
448,192,114582,1,0,0:0:0:0:
64,192,114663,1,0,0:0:0:70:whistle.wav
320,192,114663,1,0,0:0:0:70:soft-hitclap.wav
192,192,114744,1,0,0:0:0:0:
448,192,114825,1,0,0:0:0:70:whistle.wav
320,192,114825,1,0,0:0:0:0:
64,192,114907,1,0,0:0:0:0:
192,192,114907,1,0,0:0:0:70:whistle.wav
448,192,114988,1,0,0:0:0:70:whistle.wav
320,192,114988,1,0,0:0:0:70:kick2.wav
64,192,115069,1,0,0:0:0:0:
192,192,115150,1,0,0:0:0:0:
448,192,115150,1,0,0:0:0:70:whistle.wav
64,192,115231,1,0,0:0:0:0:
320,192,115231,1,0,0:0:0:70:whistle.wav
192,192,115312,1,0,0:0:0:70:soft-hitclap.wav
448,192,115312,1,0,0:0:0:70:whistle.wav
64,192,115393,1,0,0:0:0:0:
320,192,115474,1,0,0:0:0:70:whistle.wav
192,192,115474,1,0,0:0:0:0:
448,192,115555,1,0,0:0:0:70:whistle.wav
64,192,115555,1,0,0:0:0:0:
192,192,115636,1,0,0:0:0:70:kick2.wav
320,192,115636,1,0,0:0:0:70:whistle.wav
64,192,115717,1,0,0:0:0:0:
448,192,115798,1,0,0:0:0:70:whistle.wav
320,192,115798,1,0,0:0:0:0:
192,192,115880,1,0,0:0:0:0:
64,192,115880,1,0,0:0:0:70:whistle.wav
320,192,115961,1,0,0:0:0:70:soft-hitclap.wav
448,192,115961,1,0,0:0:0:70:whistle.wav
192,192,116042,1,0,0:0:0:0:
320,192,116123,1,0,0:0:0:0:
64,192,116123,1,0,0:0:0:70:whistle.wav
192,192,116204,1,0,0:0:0:70:whistle.wav
448,192,116204,1,0,0:0:0:0:
64,192,116285,1,0,0:0:0:70:whistle.wav
320,192,116285,1,0,0:0:0:70:kick2.wav
192,192,116366,1,0,0:0:0:0:
320,192,116447,1,0,0:0:0:0:
448,192,116447,1,0,0:0:0:70:whistle.wav
64,192,116528,1,0,0:0:0:0:
192,192,116528,1,0,0:0:0:70:whistle.wav
320,192,116609,1,0,0:0:0:70:soft-hitclap.wav
448,192,116609,1,0,0:0:0:70:whistle.wav
64,192,116690,1,0,0:0:0:0:
448,192,116771,1,0,0:0:0:0:
192,192,116771,1,0,0:0:0:70:whistle.wav
320,192,116853,1,0,0:0:0:0:
64,192,116853,1,0,0:0:0:70:whistle.wav
448,192,116934,1,0,0:0:0:70:kick2.wav
192,192,116934,1,0,0:0:0:70:whistle.wav
64,192,117015,1,0,0:0:0:0:
320,192,117096,1,0,0:0:0:70:soft-hitclap.wav
448,192,117096,1,0,0:0:0:0:
64,192,117177,1,0,0:0:0:0:
192,192,117177,1,0,0:0:0:70:soft-hitclap.wav
320,192,117258,1,0,0:0:0:70:soft-hitclap.wav
448,192,117258,1,0,0:0:0:0:
64,192,117339,1,0,0:0:0:0:
192,192,117339,1,0,0:0:0:70:soft-hitclap.wav
320,192,117420,1,0,0:0:0:70:soft-hitclap.wav
448,192,117420,1,0,0:0:0:0:
64,192,117501,1,0,0:0:0:0:
192,192,117501,1,0,0:0:0:70:soft-hitclap.wav
320,192,117582,1,4,0:0:0:70:
448,192,117582,1,0,0:0:0:0:
448,192,117744,1,0,0:0:0:0:
192,192,117907,1,0,0:0:0:0:
448,192,118069,1,0,0:0:0:0:
192,192,118231,1,0,0:0:0:0:
448,192,118393,1,0,0:0:0:0:
192,192,118555,1,0,0:0:0:0:
64,192,118717,1,0,0:0:0:0:
320,192,118717,1,0,0:0:0:0:
448,192,118880,1,0,0:0:0:0:
64,192,119042,1,0,0:0:0:0:
448,192,119204,1,0,0:0:0:0:
64,192,119366,1,0,0:0:0:0:
448,192,119528,1,0,0:0:0:0:
64,192,119690,1,0,0:0:0:0:
448,192,119853,1,0,0:0:0:0:
64,192,120015,1,0,0:0:0:0:
192,192,120177,1,0,0:0:0:0:
448,192,120177,1,0,0:0:0:0:
320,192,120339,1,0,0:0:0:0:
192,192,120501,1,0,0:0:0:0:
320,192,120663,1,0,0:0:0:0:
192,192,120825,1,0,0:0:0:0:
320,192,120988,1,0,0:0:0:0:
192,192,121150,1,0,0:0:0:0:
64,192,121312,1,0,0:0:0:0:
448,192,121312,1,0,0:0:0:0:
320,192,121474,1,0,0:0:0:0:
448,192,121636,1,0,0:0:0:0:
320,192,121798,1,0,0:0:0:0:
448,192,121961,1,0,0:0:0:0:
320,192,122123,1,0,0:0:0:0:
192,192,122123,1,0,0:0:0:0:
64,192,122285,1,0,0:0:0:0:
448,192,122447,1,0,0:0:0:0:
192,192,122609,1,4,0:0:0:70:
320,192,122609,1,0,0:0:0:0:
448,192,122609,1,0,0:0:0:0:
64,192,122771,1,0,0:0:0:70:kick2.wav
320,192,122771,1,0,0:0:0:0:
448,192,122934,1,0,0:0:0:70:whistle.wav
192,192,122934,1,0,0:0:0:0:
64,192,123015,1,0,0:0:0:70:whistle.wav
448,192,123096,1,0,0:0:0:70:whistle.wav
320,192,123096,1,0,0:0:0:70:soft-hitclap.wav
320,192,123258,1,0,0:0:0:70:whistle.wav
64,192,123258,1,0,0:0:0:0:
448,192,123339,1,0,0:0:0:70:whistle.wav
64,192,123420,1,0,0:0:0:70:whistle.wav
192,192,123420,1,0,0:0:0:70:kick2.wav
448,192,123582,1,0,0:0:0:70:whistle.wav
192,192,123582,1,0,0:0:0:0:
320,192,123663,1,0,0:0:0:70:whistle.wav
64,192,123744,1,0,0:0:0:70:kick2.wav
192,192,123744,1,0,0:0:0:70:whistle.wav
64,192,123907,1,0,0:0:0:70:whistle.wav
320,192,123907,1,0,0:0:0:0:
320,192,124069,1,0,0:0:0:0:
448,192,124069,1,0,0:0:0:70:kick2.wav
64,192,124231,1,0,0:0:0:70:whistle.wav
448,192,124231,1,0,0:0:0:0:
192,192,124312,1,0,0:0:0:70:whistle.wav
320,192,124393,1,0,0:0:0:70:soft-hitclap.wav
448,192,124393,1,0,0:0:0:70:whistle.wav
192,192,124555,1,0,0:0:0:70:whistle.wav
64,192,124555,1,0,0:0:0:0:
448,192,124636,1,0,0:0:0:70:whistle.wav
64,192,124717,1,0,0:0:0:70:kick2.wav
320,192,124717,1,0,0:0:0:70:whistle.wav
448,192,124880,1,0,0:0:0:70:whistle.wav
192,192,124880,1,0,0:0:0:0:
64,192,124961,1,0,0:0:0:70:whistle.wav
192,192,125042,1,0,0:0:0:70:whistle.wav
320,192,125042,1,0,0:0:0:70:kick2.wav
320,192,125204,1,0,0:0:0:70:whistle.wav
64,192,125204,1,0,0:0:0:0:
448,192,125366,1,0,0:0:0:70:kick2.wav
320,192,125447,1,0,0:0:0:0:
64,192,125528,1,0,0:0:0:0:
192,192,125528,1,0,0:0:0:70:soft-hitwhistle.wav
448,192,125609,1,0,0:0:0:0:
192,192,125690,1,0,0:0:0:0:
320,192,125690,1,0,0:0:0:70:soft-hitclap.wav
64,192,125690,1,0,0:0:0:0:
448,192,125771,1,0,0:0:0:0:
64,192,125853,1,0,0:0:0:0:
192,192,125853,1,0,0:0:0:70:soft-hitwhistle.wav
320,192,125934,1,0,0:0:0:0:
64,192,126015,1,0,0:0:0:0:
448,192,126015,1,0,0:0:0:70:kick2.wav
192,192,126096,1,0,0:0:0:0:
320,192,126177,1,0,0:0:0:70:soft-hitwhistle.wav
448,192,126177,1,0,0:0:0:0:
64,192,126258,1,0,0:0:0:0:
192,192,126339,1,0,0:0:0:70:soft-hitclap.wav
448,192,126339,1,0,0:0:0:0:
320,192,126339,1,0,0:0:0:0:
64,192,126420,1,0,0:0:0:0:
192,192,126501,1,0,0:0:0:0:
320,192,126501,1,0,0:0:0:70:soft-hitwhistle.wav
64,192,126582,1,0,0:0:0:0:
320,192,126663,1,0,0:0:0:0:
448,192,126663,1,0,0:0:0:70:kick2.wav
192,192,126744,1,0,0:0:0:0:
64,192,126825,1,0,0:0:0:0:
320,192,126825,1,0,0:0:0:70:soft-hitwhistle.wav
192,192,126907,1,0,0:0:0:0:
320,192,126988,1,0,0:0:0:0:
448,192,126988,1,0,0:0:0:70:soft-hitclap.wav
64,192,126988,1,0,0:0:0:0:
192,192,127069,1,0,0:0:0:0:
320,192,127150,1,0,0:0:0:70:soft-hitwhistle.wav
448,192,127150,1,0,0:0:0:0:
64,192,127231,1,0,0:0:0:0:
192,192,127312,1,0,0:0:0:70:kick2.wav
448,192,127393,1,0,0:0:0:0:
64,192,127474,1,0,0:0:0:0:
192,192,127474,1,0,0:0:0:70:soft-hitwhistle.wav
320,192,127555,1,0,0:0:0:0:
64,192,127636,1,0,0:0:0:70:soft-hitclap.wav
192,192,127636,1,0,0:0:0:0:
448,192,127636,1,0,0:0:0:0:
320,192,127717,1,0,0:0:0:0:
64,192,127798,1,0,0:0:0:0:
192,192,127798,1,0,0:0:0:70:soft-hitwhistle.wav
320,192,127880,1,0,0:0:0:0:
448,192,127961,1,0,0:0:0:70:kick2.wav
64,192,128042,1,0,0:0:0:0:
320,192,128123,1,0,0:0:0:70:soft-hitwhistle.wav
448,192,128123,1,0,0:0:0:0:
192,192,128204,1,0,0:0:0:0:
320,192,128285,1,0,0:0:0:0:
448,192,128285,1,0,0:0:0:70:soft-hitclap.wav
64,192,128285,1,0,0:0:0:0:
192,192,128366,1,0,0:0:0:0:
64,192,128447,1,0,0:0:0:70:soft-hitwhistle.wav
448,192,128447,1,0,0:0:0:0:
192,192,128528,1,0,0:0:0:0:
320,192,128609,1,0,0:0:0:0:
448,192,128609,1,0,0:0:0:70:kick2.wav
64,192,128690,1,0,0:0:0:0:
192,192,128771,1,0,0:0:0:70:soft-hitwhistle.wav
448,192,128771,1,0,0:0:0:0:
320,192,128853,1,0,0:0:0:0:
64,192,128934,1,0,0:0:0:70:soft-hitclap.wav
192,192,128934,1,0,0:0:0:0:
448,192,128934,1,0,0:0:0:0:
320,192,129015,1,0,0:0:0:0:
64,192,129096,1,0,0:0:0:0:
192,192,129096,1,0,0:0:0:70:soft-hitwhistle.wav
448,192,129177,1,0,0:0:0:0:
64,192,129258,1,0,0:0:0:70:kick2.wav
320,192,129258,1,0,0:0:0:0:
448,192,129339,1,0,0:0:0:0:
64,192,129420,1,0,0:0:0:0:
192,192,129420,1,0,0:0:0:70:soft-hitwhistle.wav
320,192,129501,1,0,0:0:0:0:
192,192,129582,1,0,0:0:0:0:
448,192,129582,1,0,0:0:0:70:soft-hitclap.wav
64,192,129582,1,0,0:0:0:0:
320,192,129663,1,0,0:0:0:0:
64,192,129744,1,0,0:0:0:70:soft-hitwhistle.wav
448,0,129744,128,0,130069:0:0:0:0:
64,0,129907,128,0,130393:0:0:0:0:
192,192,129907,1,0,0:0:0:0:
320,192,130069,1,0,0:0:0:0:
320,192,130231,1,0,0:0:0:70:soft-hitclap.wav
448,192,130231,1,0,0:0:0:0:
320,192,130393,1,0,0:0:0:70:soft-hitclap.wav
448,192,130393,1,0,0:0:0:0:
64,192,130474,1,0,0:0:0:0:
192,192,130474,1,0,0:0:0:70:soft-hitclap.wav
64,192,130555,5,4,0:0:0:70:
448,192,130555,1,0,0:0:0:70:kick2.wav
320,192,130555,1,0,0:0:0:0:
192,192,130636,1,0,0:0:0:0:
320,192,130717,1,0,0:0:0:70:soft-hitwhistle.wav
448,192,130717,1,0,0:0:0:0:
64,192,130798,1,0,0:0:0:0:
192,192,130880,1,0,0:0:0:0:
320,192,130880,1,0,0:0:0:0:
448,192,130880,1,0,0:0:0:70:soft-hitclap.wav
64,192,130961,1,0,0:0:0:0:
448,192,131042,1,0,0:0:0:0:
192,192,131042,1,0,0:0:0:70:soft-hitwhistle.wav
320,192,131123,1,0,0:0:0:0:
64,192,131204,1,0,0:0:0:70:kick2.wav
192,192,131204,1,0,0:0:0:0:
448,192,131285,1,0,0:0:0:0:
64,192,131366,1,0,0:0:0:0:
320,192,131366,1,0,0:0:0:70:soft-hitwhistle.wav
192,192,131447,1,0,0:0:0:0:
64,192,131528,1,0,0:0:0:0:
320,192,131528,1,0,0:0:0:0:
448,192,131528,1,0,0:0:0:70:soft-hitclap.wav
192,192,131609,1,0,0:0:0:0:
448,192,131690,1,0,0:0:0:0:
320,192,131690,1,0,0:0:0:70:soft-hitwhistle.wav
64,192,131771,1,0,0:0:0:0:
192,192,131853,1,0,0:0:0:0:
320,192,131853,1,0,0:0:0:70:kick2.wav
64,192,131934,1,0,0:0:0:0:
448,192,132015,1,0,0:0:0:0:
192,192,132015,1,0,0:0:0:70:soft-hitwhistle.wav
320,192,132096,1,0,0:0:0:0:
64,192,132177,1,0,0:0:0:70:soft-hitclap.wav
192,192,132177,1,0,0:0:0:0:
448,192,132177,1,0,0:0:0:0:
320,192,132258,1,0,0:0:0:0:
64,192,132339,1,0,0:0:0:0:
448,192,132339,1,0,0:0:0:70:soft-hitwhistle.wav
192,192,132420,1,0,0:0:0:0:
320,192,132501,1,0,0:0:0:0:
448,192,132501,1,0,0:0:0:70:kick2.wav
64,192,132582,1,0,0:0:0:0:
448,192,132663,1,0,0:0:0:0:
192,192,132663,1,0,0:0:0:70:soft-hitwhistle.wav
320,192,132744,1,0,0:0:0:0:
64,192,132825,1,0,0:0:0:70:soft-hitclap.wav
192,192,132825,1,0,0:0:0:0:
448,192,132825,1,0,0:0:0:0:
320,192,132907,1,0,0:0:0:0:
192,192,132988,1,0,0:0:0:70:soft-hitwhistle.wav
448,192,132988,1,0,0:0:0:0:
64,192,133069,1,0,0:0:0:0:
192,192,133150,1,0,0:0:0:0:
448,192,133150,1,0,0:0:0:70:kick2.wav
320,192,133231,1,0,0:0:0:0:
448,192,133312,1,0,0:0:0:0:
64,192,133312,1,0,0:0:0:70:soft-hitwhistle.wav
192,192,133393,1,0,0:0:0:0:
64,192,133474,1,0,0:0:0:0:
320,192,133474,1,0,0:0:0:70:soft-hitclap.wav
448,192,133474,1,0,0:0:0:0:
192,192,133555,1,0,0:0:0:0:
448,192,133636,1,0,0:0:0:70:soft-hitwhistle.wav
64,192,133636,1,0,0:0:0:0:
320,192,133717,1,0,0:0:0:0:
64,192,133798,1,0,0:0:0:70:kick2.wav
192,192,133798,1,0,0:0:0:0:
320,192,133880,1,0,0:0:0:0:
448,192,133961,1,0,0:0:0:0:
192,192,133961,1,0,0:0:0:70:soft-hitwhistle.wav
64,192,134042,1,0,0:0:0:0:
192,192,134123,1,0,0:0:0:0:
320,192,134123,1,0,0:0:0:70:soft-hitclap.wav
448,192,134123,1,0,0:0:0:0:
64,192,134204,1,0,0:0:0:0:
320,192,134285,1,0,0:0:0:70:soft-hitwhistle.wav
448,192,134285,1,0,0:0:0:0:
192,192,134366,1,0,0:0:0:0:
64,192,134447,1,0,0:0:0:0:
448,192,134447,1,0,0:0:0:70:kick2.wav
192,192,134528,1,0,0:0:0:0:
448,192,134609,1,0,0:0:0:0:
64,192,134609,1,0,0:0:0:70:soft-hitwhistle.wav
320,192,134690,1,0,0:0:0:0:
64,192,134771,1,0,0:0:0:0:
192,192,134771,1,0,0:0:0:0:
448,192,134771,1,0,0:0:0:70:soft-hitclap.wav
320,192,134853,1,0,0:0:0:0:
64,192,134934,1,0,0:0:0:70:soft-hitwhistle.wav
448,192,134934,1,0,0:0:0:0:
192,192,135015,1,0,0:0:0:0:
320,192,135096,1,0,0:0:0:0:
448,192,135096,1,0,0:0:0:70:kick2.wav
64,192,135177,1,0,0:0:0:0:
448,192,135258,1,0,0:0:0:0:
192,192,135258,1,0,0:0:0:70:soft-hitwhistle.wav
320,192,135339,1,0,0:0:0:0:
64,192,135420,1,0,0:0:0:0:
448,192,135420,1,0,0:0:0:70:soft-hitclap.wav
320,192,135501,1,0,0:0:0:0:
64,192,135582,1,4,0:0:0:70:
448,192,135582,1,0,0:0:0:0:
192,192,135582,1,0,0:0:0:0:
320,192,135663,1,0,0:0:0:0:
448,192,135744,1,0,0:0:0:0:
64,192,135825,1,0,0:0:0:0:
320,192,135907,1,0,0:0:0:0:
448,192,135907,1,0,0:0:0:70:soft-hitclap.wav
192,192,135988,1,0,0:0:0:0:
64,192,136069,1,0,0:0:0:0:
320,192,136069,1,0,0:0:0:0:
448,192,136069,1,0,0:0:0:70:soft-hitclap.wav
192,192,136150,1,0,0:0:0:0:
320,192,136231,1,0,0:0:0:70:soft-hitwhistle.wav
64,192,136231,1,0,0:0:0:0:
448,192,136312,1,0,0:0:0:0:
64,192,136393,1,0,0:0:0:70:kick2.wav
192,192,136393,1,0,0:0:0:0:
320,192,136474,1,0,0:0:0:0:
448,192,136555,1,0,0:0:0:0:
64,192,136555,1,0,0:0:0:70:soft-hitwhistle.wav
192,192,136636,1,0,0:0:0:0:
64,192,136717,1,0,0:0:0:0:
320,192,136717,1,0,0:0:0:70:soft-hitclap.wav
448,192,136717,1,0,0:0:0:0:
192,192,136798,1,0,0:0:0:0:
64,192,136880,1,0,0:0:0:0:
448,192,136880,1,0,0:0:0:70:soft-hitwhistle.wav
320,192,136961,1,0,0:0:0:0:
64,192,137042,1,0,0:0:0:70:kick2.wav
448,192,137042,1,0,0:0:0:0:
192,192,137123,1,0,0:0:0:0:
320,192,137204,1,0,0:0:0:70:soft-hitwhistle.wav
448,192,137204,1,0,0:0:0:0:
64,192,137285,1,0,0:0:0:0:
192,192,137366,1,0,0:0:0:0:
320,192,137366,1,0,0:0:0:70:soft-hitclap.wav
448,192,137366,1,0,0:0:0:0:
64,192,137447,1,0,0:0:0:0:
320,192,137528,1,0,0:0:0:70:soft-hitwhistle.wav
448,192,137528,1,0,0:0:0:0:
192,192,137609,1,0,0:0:0:0:
64,192,137690,1,0,0:0:0:70:kick2.wav
448,192,137690,1,0,0:0:0:0:
320,192,137771,1,0,0:0:0:0:
64,192,137853,1,0,0:0:0:70:soft-hitwhistle.wav
448,192,137853,1,0,0:0:0:0:
192,192,137934,1,0,0:0:0:0:
64,192,138015,1,0,0:0:0:70:soft-hitclap.wav
320,192,138015,1,0,0:0:0:0:
448,192,138015,1,0,0:0:0:0:
192,192,138096,1,0,0:0:0:0:
448,192,138177,1,0,0:0:0:0:
320,192,138177,1,0,0:0:0:70:soft-hitwhistle.wav
64,192,138258,1,0,0:0:0:0:
192,192,138339,1,0,0:0:0:0:
448,192,138339,1,0,0:0:0:70:kick2.wav
320,192,138420,1,0,0:0:0:0:
192,192,138501,1,0,0:0:0:70:soft-hitwhistle.wav
64,192,138501,1,0,0:0:0:0:
448,192,138582,1,0,0:0:0:0:
64,192,138663,1,0,0:0:0:70:soft-hitclap.wav
192,192,138663,1,0,0:0:0:0:
320,192,138663,1,0,0:0:0:0:
448,192,138744,1,0,0:0:0:0:
192,192,138825,1,0,0:0:0:70:soft-hitwhistle.wav
64,192,138825,1,0,0:0:0:0:
320,192,138907,1,0,0:0:0:0:
64,192,138988,1,0,0:0:0:0:
448,192,138988,1,0,0:0:0:70:kick2.wav
320,192,139069,1,0,0:0:0:0:
192,192,139150,1,0,0:0:0:70:soft-hitwhistle.wav
64,192,139150,1,0,0:0:0:0:
448,192,139231,1,0,0:0:0:0:
64,192,139312,1,0,0:0:0:0:
192,192,139312,1,0,0:0:0:70:soft-hitclap.wav
320,192,139312,1,0,0:0:0:0:
448,192,139393,1,0,0:0:0:0:
64,192,139474,1,0,0:0:0:0:
320,192,139474,1,0,0:0:0:70:soft-hitwhistle.wav
192,192,139555,1,0,0:0:0:0:
320,192,139636,1,0,0:0:0:0:
448,192,139636,1,0,0:0:0:70:kick2.wav
192,192,139717,1,0,0:0:0:0:
64,192,139798,1,0,0:0:0:0:
320,192,139798,1,0,0:0:0:70:soft-hitwhistle.wav
448,192,139880,1,0,0:0:0:0:
64,192,139961,1,0,0:0:0:0:
192,192,139961,1,0,0:0:0:70:soft-hitclap.wav
320,192,139961,1,0,0:0:0:0:
448,192,140042,1,0,0:0:0:0:
64,192,140123,1,0,0:0:0:0:
320,192,140123,1,0,0:0:0:70:soft-hitwhistle.wav
192,192,140204,1,0,0:0:0:0:
320,192,140285,1,0,0:0:0:0:
448,192,140285,1,0,0:0:0:70:kick2.wav
64,192,140366,1,0,0:0:0:0:
320,192,140447,1,0,0:0:0:70:soft-hitclap.wav
448,192,140447,1,0,0:0:0:0:
64,192,140528,1,0,0:0:0:0:
192,192,140528,1,0,0:0:0:70:soft-hitclap.wav
320,192,140609,1,0,0:0:0:70:soft-hitclap.wav
448,192,140609,1,0,0:0:0:0:
64,192,140690,1,0,0:0:0:0:
192,192,140690,1,0,0:0:0:70:soft-hitclap.wav
64,192,140771,1,4,0:0:0:70:
320,192,140771,1,0,0:0:0:70:soft-hitclap.wav
448,192,140771,1,0,0:0:0:0:
192,192,140853,1,0,0:0:0:0:
448,192,140934,1,0,0:0:0:0:
320,192,141015,1,0,0:0:0:0:
64,192,141096,1,0,0:0:0:0:
448,192,141096,1,0,0:0:0:70:soft-hitclap.wav
192,192,141177,1,0,0:0:0:0:
64,192,141258,1,0,0:0:0:0:
320,192,141258,1,0,0:0:0:0:
448,192,141258,1,0,0:0:0:70:soft-hitclap.wav
192,192,141339,1,0,0:0:0:0:
320,192,141420,1,0,0:0:0:70:soft-hitwhistle.wav
448,192,141420,1,0,0:0:0:0:
64,192,141501,1,0,0:0:0:0:
192,192,141582,1,0,0:0:0:0:
448,192,141582,1,0,0:0:0:70:kick2.wav
64,192,141663,1,0,0:0:0:0:
448,192,141744,1,0,0:0:0:0:
192,192,141744,1,0,0:0:0:70:soft-hitwhistle.wav
320,192,141825,1,0,0:0:0:0:
64,192,141907,1,0,0:0:0:0:
192,192,141907,1,0,0:0:0:70:soft-hitclap.wav
448,192,141907,1,0,0:0:0:0:
320,192,141988,1,0,0:0:0:0:
64,192,142069,1,0,0:0:0:0:
448,192,142069,1,0,0:0:0:70:soft-hitwhistle.wav
192,192,142150,1,0,0:0:0:0:
64,192,142231,1,0,0:0:0:70:kick2.wav
448,192,142231,1,0,0:0:0:0:
320,192,142312,1,0,0:0:0:0:
192,192,142393,1,0,0:0:0:70:soft-hitwhistle.wav
448,192,142393,1,0,0:0:0:0:
320,192,142474,1,0,0:0:0:0:
64,192,142555,1,0,0:0:0:0:
192,192,142555,1,0,0:0:0:70:soft-hitclap.wav
448,192,142555,1,0,0:0:0:0:
320,192,142636,1,0,0:0:0:0:
448,192,142717,1,0,0:0:0:70:soft-hitwhistle.wav
192,192,142717,1,0,0:0:0:0:
64,192,142798,1,0,0:0:0:0:
320,192,142880,1,0,0:0:0:0:
448,192,142880,1,0,0:0:0:70:kick2.wav
192,192,142961,1,0,0:0:0:0:
320,192,143042,1,0,0:0:0:70:soft-hitwhistle.wav
448,192,143042,1,0,0:0:0:0:
64,192,143123,1,0,0:0:0:0:
192,192,143204,1,0,0:0:0:0:
320,192,143204,1,0,0:0:0:0:
448,192,143204,1,0,0:0:0:70:soft-hitclap.wav
64,192,143285,1,0,0:0:0:0:
320,192,143366,1,0,0:0:0:70:soft-hitwhistle.wav
448,192,143366,1,0,0:0:0:0:
192,192,143447,1,0,0:0:0:0:
64,192,143528,1,0,0:0:0:70:kick2.wav
448,192,143528,1,0,0:0:0:0:
320,192,143609,1,0,0:0:0:0:
192,192,143690,1,0,0:0:0:70:soft-hitwhistle.wav
64,192,143690,1,0,0:0:0:0:
320,192,143771,1,0,0:0:0:0:
64,192,143853,1,0,0:0:0:0:
192,192,143853,1,0,0:0:0:0:
448,192,143853,1,0,0:0:0:70:soft-hitclap.wav
320,192,143934,1,0,0:0:0:0:
448,192,144015,1,0,0:0:0:0:
192,192,144015,1,0,0:0:0:70:soft-hitwhistle.wav
64,192,144096,1,0,0:0:0:0:
192,192,144177,1,0,0:0:0:0:
448,192,144177,1,0,0:0:0:70:kick2.wav
64,192,144258,1,0,0:0:0:0:
320,192,144339,1,0,0:0:0:70:soft-hitwhistle.wav
448,192,144339,1,0,0:0:0:0:
64,192,144420,1,0,0:0:0:0:
192,192,144501,1,0,0:0:0:0:
320,192,144501,1,0,0:0:0:70:soft-hitclap.wav
448,192,144501,1,0,0:0:0:0:
64,192,144582,1,0,0:0:0:0:
320,192,144663,1,0,0:0:0:70:soft-hitwhistle.wav
448,192,144663,1,0,0:0:0:0:
192,192,144744,1,0,0:0:0:0:
64,192,144825,1,0,0:0:0:70:kick2.wav
448,192,144825,1,0,0:0:0:0:
320,192,144907,1,0,0:0:0:0:
192,192,144988,1,0,0:0:0:70:soft-hitwhistle.wav
64,192,144988,1,0,0:0:0:0:
448,192,145069,1,0,0:0:0:0:
64,192,145150,1,0,0:0:0:0:
192,192,145150,1,0,0:0:0:0:
320,192,145150,1,0,0:0:0:70:soft-hitclap.wav
448,192,145231,1,0,0:0:0:0:
192,192,145312,1,0,0:0:0:70:soft-hitwhistle.wav
320,192,145312,1,0,0:0:0:0:
64,192,145393,1,0,0:0:0:0:
320,192,145474,1,0,0:0:0:0:
448,192,145474,1,0,0:0:0:70:kick2.wav
192,192,145555,1,0,0:0:0:0:
448,192,145636,1,0,0:0:0:0:
320,192,145636,1,0,0:0:0:70:soft-hitwhistle.wav
64,192,145717,1,0,0:0:0:0:
320,192,145798,1,0,0:0:0:70:soft-hitclap.wav
448,192,145798,1,0,0:0:0:0:
64,192,145880,1,0,0:0:0:0:
192,192,145880,1,0,0:0:0:70:soft-hitclap.wav
64,192,145961,1,4,0:0:0:70:
320,192,145961,1,0,0:0:0:70:soft-hitclap.wav
448,192,145961,1,0,0:0:0:0:
192,192,146042,1,0,0:0:0:0:
448,192,146123,1,0,0:0:0:0:
320,192,146204,1,0,0:0:0:0:
64,192,146285,1,0,0:0:0:70:soft-hitclap.wav
448,192,146285,1,0,0:0:0:0:
192,192,146366,1,0,0:0:0:0:
64,192,146447,1,0,0:0:0:70:soft-hitclap.wav
320,192,146447,1,0,0:0:0:0:
448,192,146447,1,0,0:0:0:0:
192,192,146528,1,0,0:0:0:0:
320,192,146609,1,0,0:0:0:70:soft-hitwhistle.wav
448,192,146609,1,0,0:0:0:0:
64,192,146690,1,0,0:0:0:0:
192,192,146771,1,0,0:0:0:0:
448,192,146771,1,0,0:0:0:70:kick2.wav
64,192,146853,1,0,0:0:0:0:
448,192,146934,1,0,0:0:0:0:
192,192,146934,1,0,0:0:0:70:soft-hitwhistle.wav
320,192,147015,1,0,0:0:0:0:
64,192,147096,1,0,0:0:0:0:
192,192,147096,1,0,0:0:0:0:
448,192,147096,1,0,0:0:0:70:soft-hitclap.wav
320,192,147177,1,0,0:0:0:0:
192,192,147258,1,0,0:0:0:70:soft-hitwhistle.wav
64,192,147258,1,0,0:0:0:0:
448,192,147339,1,0,0:0:0:0:
192,192,147420,1,0,0:0:0:70:kick2.wav
320,192,147420,1,0,0:0:0:0:
64,192,147501,1,0,0:0:0:0:
448,192,147582,1,0,0:0:0:0:
320,192,147582,1,0,0:0:0:70:soft-hitwhistle.wav
192,192,147663,1,0,0:0:0:0:
64,192,147744,1,0,0:0:0:0:
320,192,147744,1,0,0:0:0:0:
448,192,147744,1,0,0:0:0:70:soft-hitclap.wav
192,192,147825,1,0,0:0:0:0:
448,192,147907,1,0,0:0:0:0:
64,192,147907,1,0,0:0:0:70:soft-hitwhistle.wav
320,192,147988,1,0,0:0:0:0:
64,192,148069,1,0,0:0:0:0:
448,192,148069,1,0,0:0:0:70:kick2.wav
192,192,148150,1,0,0:0:0:0:
320,192,148231,1,0,0:0:0:70:soft-hitwhistle.wav
448,192,148231,1,0,0:0:0:0:
64,192,148312,1,0,0:0:0:0:
192,192,148393,1,0,0:0:0:0:
320,192,148393,1,0,0:0:0:70:soft-hitclap.wav
448,192,148393,1,0,0:0:0:0:
64,192,148474,1,0,0:0:0:0:
320,192,148555,1,0,0:0:0:70:soft-hitwhistle.wav
448,192,148555,1,0,0:0:0:0:
192,192,148636,1,0,0:0:0:0:
64,192,148717,1,0,0:0:0:70:kick2.wav
448,192,148717,1,0,0:0:0:0:
320,192,148798,1,0,0:0:0:0:
64,192,148880,1,0,0:0:0:0:
192,192,148880,1,0,0:0:0:70:soft-hitwhistle.wav
448,192,148961,1,0,0:0:0:0:
64,192,149042,1,0,0:0:0:0:
192,192,149042,1,0,0:0:0:0:
320,192,149042,1,0,0:0:0:70:soft-hitclap.wav
448,192,149123,1,0,0:0:0:0:
192,192,149204,1,0,0:0:0:70:soft-hitwhistle.wav
64,192,149204,1,0,0:0:0:0:
320,192,149285,1,0,0:0:0:0:
192,192,149366,1,0,0:0:0:0:
448,192,149366,1,0,0:0:0:70:kick2.wav
64,192,149447,1,0,0:0:0:0:
320,192,149528,1,0,0:0:0:70:soft-hitwhistle.wav
448,192,149528,1,0,0:0:0:0:
192,192,149609,1,0,0:0:0:0:
64,192,149690,1,0,0:0:0:70:soft-hitclap.wav
320,192,149690,1,0,0:0:0:0:
448,192,149690,1,0,0:0:0:0:
192,192,149771,1,0,0:0:0:0:
320,192,149853,1,0,0:0:0:70:soft-hitwhistle.wav
64,192,149853,1,0,0:0:0:0:
448,192,149934,1,0,0:0:0:0:
64,192,150015,1,0,0:0:0:70:kick2.wav
192,192,150015,1,0,0:0:0:0:
320,192,150096,1,0,0:0:0:0:
448,192,150177,1,0,0:0:0:0:
192,192,150177,1,0,0:0:0:70:soft-hitwhistle.wav
64,192,150258,1,0,0:0:0:0:
192,192,150339,1,0,0:0:0:0:
320,192,150339,1,0,0:0:0:70:soft-hitclap.wav
448,192,150339,1,0,0:0:0:0:
64,192,150420,1,0,0:0:0:0:
448,192,150501,1,0,0:0:0:0:
192,192,150501,1,0,0:0:0:70:soft-hitwhistle.wav
320,192,150582,1,0,0:0:0:0:
192,192,150663,1,0,0:0:0:0:
448,192,150663,1,0,0:0:0:70:kick2.wav
64,192,150744,1,0,0:0:0:0:
320,192,150825,1,0,0:0:0:70:soft-hitclap.wav
448,192,150825,1,0,0:0:0:0:
64,192,150907,1,0,0:0:0:0:
192,192,150907,1,0,0:0:0:70:soft-hitclap.wav
320,192,150988,1,0,0:0:0:70:soft-hitclap.wav
448,192,150988,1,0,0:0:0:0:
64,192,151069,1,0,0:0:0:0:
192,192,151069,1,0,0:0:0:70:soft-hitclap.wav
64,192,151150,1,4,0:0:0:70:
320,192,151150,1,0,0:0:0:70:soft-hitclap.wav
448,192,151150,1,0,0:0:0:0:
192,192,151231,1,0,0:0:0:0:
320,192,151312,1,0,0:0:0:0:
64,192,151393,1,0,0:0:0:0:
320,192,151474,1,0,0:0:0:0:
448,192,151474,1,0,0:0:0:70:soft-hitclap.wav
192,192,151555,1,0,0:0:0:0:
64,192,151636,1,0,0:0:0:0:
320,192,151636,1,0,0:0:0:0:
448,192,151636,1,0,0:0:0:70:soft-hitclap.wav
192,192,151717,1,0,0:0:0:0:
64,192,151798,1,0,0:0:0:70:soft-hitwhistle.wav
320,192,151880,1,0,0:0:0:0:
192,192,151961,1,0,0:0:0:0:
448,192,151961,1,0,0:0:0:70:kick2.wav
64,192,152042,1,0,0:0:0:0:
448,192,152123,1,0,0:0:0:70:soft-hitwhistle.wav
320,192,152204,1,0,0:0:0:0:
64,192,152285,1,0,0:0:0:70:soft-hitclap.wav
192,192,152285,1,0,0:0:0:0:
448,192,152285,1,0,0:0:0:0:
320,192,152366,1,0,0:0:0:0:
448,192,152447,1,0,0:0:0:70:soft-hitwhistle.wav
64,192,152528,1,0,0:0:0:0:
320,192,152609,1,0,0:0:0:0:
448,192,152609,1,0,0:0:0:70:kick2.wav
64,192,152690,1,0,0:0:0:0:
192,192,152771,1,0,0:0:0:70:soft-hitwhistle.wav
448,192,152853,1,0,0:0:0:0:
64,192,152934,1,0,0:0:0:70:soft-hitclap.wav
192,192,152934,1,0,0:0:0:0:
320,192,152934,1,0,0:0:0:0:
448,192,153015,1,0,0:0:0:0:
192,192,153096,1,0,0:0:0:70:soft-hitwhistle.wav
320,192,153177,1,0,0:0:0:0:
64,192,153258,1,0,0:0:0:70:kick2.wav
448,192,153258,1,0,0:0:0:0:
192,192,153339,1,0,0:0:0:0:
448,192,153420,1,0,0:0:0:70:soft-hitwhistle.wav
320,192,153501,1,0,0:0:0:0:
64,192,153582,1,0,0:0:0:0:
192,192,153582,1,0,0:0:0:70:soft-hitclap.wav
448,192,153582,1,0,0:0:0:0:
320,192,153663,1,0,0:0:0:0:
64,192,153744,1,0,0:0:0:70:soft-hitwhistle.wav
192,192,153825,1,0,0:0:0:0:
320,192,153907,1,0,0:0:0:0:
448,192,153907,1,0,0:0:0:70:kick2.wav
64,192,153988,1,0,0:0:0:0:
320,192,154069,1,0,0:0:0:70:soft-hitwhistle.wav
192,192,154150,1,0,0:0:0:0:
64,192,154231,1,0,0:0:0:0:
320,192,154231,1,0,0:0:0:70:soft-hitclap.wav
448,192,154231,1,0,0:0:0:0:
192,192,154312,1,0,0:0:0:0:
64,192,154393,1,0,0:0:0:70:soft-hitwhistle.wav
320,192,154474,1,0,0:0:0:0:
192,192,154555,1,0,0:0:0:0:
448,192,154555,1,0,0:0:0:70:kick2.wav
320,192,154636,1,0,0:0:0:0:
64,192,154717,1,0,0:0:0:70:soft-hitwhistle.wav
192,192,154798,1,0,0:0:0:0:
64,192,154880,1,0,0:0:0:0:
320,192,154880,1,0,0:0:0:0:
448,192,154880,1,0,0:0:0:70:soft-hitclap.wav
192,192,154961,1,0,0:0:0:0:
320,192,155042,1,0,0:0:0:70:soft-hitwhistle.wav
448,192,155123,1,0,0:0:0:0:
64,192,155204,1,0,0:0:0:70:kick2.wav
192,192,155204,1,0,0:0:0:0:
320,192,155285,1,0,0:0:0:0:
448,192,155366,1,0,0:0:0:70:soft-hitwhistle.wav
64,192,155447,1,0,0:0:0:0:
192,192,155528,1,0,0:0:0:0:
320,192,155528,1,0,0:0:0:0:
448,192,155528,1,0,0:0:0:70:soft-hitclap.wav
64,192,155609,1,0,0:0:0:0:
320,192,155690,1,0,0:0:0:70:soft-hitwhistle.wav
192,192,155771,1,0,0:0:0:0:
64,192,155853,1,0,0:0:0:0:
448,192,155853,1,0,0:0:0:70:kick2.wav
320,192,155934,1,0,0:0:0:0:
192,192,156015,1,0,0:0:0:70:soft-hitwhistle.wav
448,192,156096,1,0,0:0:0:0:
64,192,156177,1,0,0:0:0:70:soft-hitclap.wav
320,192,156177,1,0,0:0:0:0:
192,192,156258,1,0,0:0:0:0:
64,192,156339,1,4,0:0:0:70:
448,192,156339,1,0,0:0:0:0:
320,192,156339,1,0,0:0:0:0:
192,192,156420,1,0,0:0:0:0:
320,192,156501,1,0,0:0:0:0:
64,192,156582,1,0,0:0:0:0:
320,192,156663,1,0,0:0:0:0:
448,192,156663,1,0,0:0:0:70:soft-hitclap.wav
192,192,156744,1,0,0:0:0:0:
64,192,156825,1,0,0:0:0:0:
320,192,156825,1,0,0:0:0:0:
448,192,156825,1,0,0:0:0:70:soft-hitclap.wav
192,192,156907,1,0,0:0:0:0:
448,192,156988,1,0,0:0:0:70:soft-hitwhistle.wav
320,192,157069,1,0,0:0:0:0:
64,192,157150,1,0,0:0:0:70:kick2.wav
448,192,157150,1,0,0:0:0:0:
192,192,157231,1,0,0:0:0:0:
320,192,157312,1,0,0:0:0:70:soft-hitwhistle.wav
64,192,157393,1,0,0:0:0:0:
192,192,157474,1,0,0:0:0:0:
320,192,157474,1,0,0:0:0:70:soft-hitclap.wav
448,192,157474,1,0,0:0:0:0:
64,192,157555,1,0,0:0:0:0:
320,192,157636,1,0,0:0:0:70:soft-hitwhistle.wav
192,192,157717,1,0,0:0:0:0:
64,192,157798,1,0,0:0:0:0:
448,192,157798,1,0,0:0:0:70:kick2.wav
320,192,157880,1,0,0:0:0:0:
64,192,157961,1,0,0:0:0:70:soft-hitwhistle.wav
192,192,158042,1,0,0:0:0:0:
64,192,158123,1,0,0:0:0:0:
320,192,158123,1,0,0:0:0:70:soft-hitclap.wav
448,192,158123,1,0,0:0:0:0:
192,192,158204,1,0,0:0:0:0:
448,192,158285,1,0,0:0:0:70:soft-hitwhistle.wav
320,192,158366,1,0,0:0:0:0:
64,192,158447,1,0,0:0:0:70:kick2.wav
192,192,158447,1,0,0:0:0:0:
320,192,158528,1,0,0:0:0:0:
448,192,158609,1,0,0:0:0:70:soft-hitwhistle.wav
192,192,158690,1,0,0:0:0:0:
64,192,158771,1,0,0:0:0:70:soft-hitclap.wav
320,192,158771,1,0,0:0:0:0:
448,192,158771,1,0,0:0:0:0:
192,192,158853,1,0,0:0:0:0:
320,192,158934,1,0,0:0:0:70:soft-hitwhistle.wav
64,192,159015,1,0,0:0:0:0:
192,192,159096,1,0,0:0:0:70:kick2.wav
320,192,159096,1,0,0:0:0:0:
448,192,159177,1,0,0:0:0:0:
64,192,159258,1,0,0:0:0:70:soft-hitwhistle.wav
320,192,159339,1,0,0:0:0:0:
64,192,159420,1,0,0:0:0:70:soft-hitclap.wav
192,192,159420,1,0,0:0:0:0:
448,192,159420,1,0,0:0:0:0:
320,192,159501,1,0,0:0:0:0:
192,192,159582,1,0,0:0:0:70:soft-hitwhistle.wav
448,192,159663,1,0,0:0:0:0:
64,192,159744,1,0,0:0:0:70:kick2.wav
320,192,159744,1,0,0:0:0:0:
192,192,159825,1,0,0:0:0:0:
448,192,159907,1,0,0:0:0:70:soft-hitwhistle.wav
64,192,159988,1,0,0:0:0:0:
192,192,160069,1,0,0:0:0:70:soft-hitclap.wav
320,192,160069,1,0,0:0:0:0:
448,192,160069,1,0,0:0:0:0:
64,192,160150,1,0,0:0:0:0:
320,192,160231,1,0,0:0:0:70:soft-hitwhistle.wav
448,192,160312,1,0,0:0:0:0:
64,192,160393,1,0,0:0:0:70:kick2.wav
192,192,160393,1,0,0:0:0:0:
320,192,160474,1,0,0:0:0:0:
448,192,160555,1,0,0:0:0:70:soft-hitwhistle.wav
64,192,160636,1,0,0:0:0:0:
192,192,160717,1,0,0:0:0:70:soft-hitclap.wav
320,192,160717,1,0,0:0:0:0:
448,192,160717,1,0,0:0:0:0:
64,192,160798,1,0,0:0:0:0:
448,192,160880,1,0,0:0:0:70:soft-hitwhistle.wav
320,192,160961,1,0,0:0:0:0:
192,192,161042,1,0,0:0:0:0:
448,192,161042,1,0,0:0:0:70:kick2.wav
64,192,161123,1,0,0:0:0:0:
320,192,161204,1,0,0:0:0:70:soft-hitclap.wav
448,192,161204,1,0,0:0:0:0:
64,192,161285,1,0,0:0:0:0:
192,192,161285,1,0,0:0:0:70:soft-hitclap.wav
320,192,161366,1,0,0:0:0:70:soft-hitclap.wav
448,192,161366,1,0,0:0:0:0:
64,192,161447,1,0,0:0:0:0:
192,192,161447,1,0,0:0:0:70:soft-hitclap.wav
64,192,161528,1,4,0:0:0:70:
320,192,161528,1,0,0:0:0:70:soft-hitclap.wav
448,192,161528,1,0,0:0:0:0:
192,192,161609,1,0,0:0:0:0:
448,192,161690,1,0,0:0:0:0:
320,192,161771,1,0,0:0:0:0:
64,192,161853,1,0,0:0:0:70:soft-hitclap.wav
192,192,161853,1,0,0:0:0:0:
320,192,161934,1,0,0:0:0:0:
64,192,162015,1,0,0:0:0:70:soft-hitclap.wav
192,192,162015,1,0,0:0:0:0:
448,192,162015,1,0,0:0:0:0:
320,192,162096,1,0,0:0:0:0:
448,192,162177,1,0,0:0:0:70:soft-hitwhistle.wav
64,192,162258,1,0,0:0:0:0:
192,192,162339,1,0,0:0:0:70:kick2.wav
320,192,162339,1,0,0:0:0:0:
448,192,162420,1,0,0:0:0:0:
64,192,162501,1,0,0:0:0:70:soft-hitwhistle.wav
320,192,162582,1,0,0:0:0:0:
64,192,162663,1,0,0:0:0:0:
448,192,162663,1,0,0:0:0:70:soft-hitclap.wav
192,192,162663,1,0,0:0:0:0:
320,192,162744,1,0,0:0:0:0:
64,192,162825,1,0,0:0:0:70:soft-hitwhistle.wav
192,192,162907,1,0,0:0:0:0:
320,192,162988,1,0,0:0:0:0:
448,192,162988,1,0,0:0:0:70:kick2.wav
64,192,163069,1,0,0:0:0:0:
448,192,163150,1,0,0:0:0:70:soft-hitwhistle.wav
320,192,163231,1,0,0:0:0:0:
64,192,163312,1,0,0:0:0:0:
192,192,163312,1,0,0:0:0:0:
448,192,163312,1,0,0:0:0:70:soft-hitclap.wav
320,192,163393,1,0,0:0:0:0:
448,192,163474,1,0,0:0:0:70:soft-hitwhistle.wav
192,192,163555,1,0,0:0:0:0:
64,192,163636,1,0,0:0:0:70:kick2.wav
320,192,163636,1,0,0:0:0:0:
448,192,163717,1,0,0:0:0:0:
192,192,163798,1,0,0:0:0:70:soft-hitwhistle.wav
320,192,163880,1,0,0:0:0:0:
64,192,163961,1,0,0:0:0:0:
192,192,163961,1,0,0:0:0:70:soft-hitclap.wav
448,192,163961,1,0,0:0:0:0:
320,192,164042,1,0,0:0:0:0:
192,192,164123,1,0,0:0:0:70:soft-hitwhistle.wav
448,192,164204,1,0,0:0:0:0:
64,192,164285,1,0,0:0:0:70:kick2.wav
320,192,164285,1,0,0:0:0:0:
192,192,164366,1,0,0:0:0:0:
448,192,164447,1,0,0:0:0:70:soft-hitwhistle.wav
320,192,164528,1,0,0:0:0:0:
64,192,164609,1,0,0:0:0:0:
192,192,164609,1,0,0:0:0:70:soft-hitclap.wav
448,192,164609,1,0,0:0:0:0:
320,192,164690,1,0,0:0:0:0:
64,192,164771,1,0,0:0:0:70:soft-hitwhistle.wav
192,192,164853,1,0,0:0:0:0:
320,192,164934,1,0,0:0:0:0:
448,192,164934,1,0,0:0:0:70:kick2.wav
192,192,165015,1,0,0:0:0:0:
448,192,165096,1,0,0:0:0:70:soft-hitwhistle.wav
320,192,165177,1,0,0:0:0:0:
64,192,165258,1,0,0:0:0:70:soft-hitclap.wav
192,192,165258,1,0,0:0:0:0:
448,192,165258,1,0,0:0:0:0:
320,192,165339,1,0,0:0:0:0:
64,192,165420,1,0,0:0:0:70:soft-hitwhistle.wav
192,192,165501,1,0,0:0:0:0:
320,192,165582,1,0,0:0:0:0:
448,192,165582,1,0,0:0:0:70:kick2.wav
64,192,165663,1,0,0:0:0:0:
320,192,165744,1,0,0:0:0:70:soft-hitwhistle.wav
192,192,165825,1,0,0:0:0:0:
64,192,165907,1,0,0:0:0:70:soft-hitclap.wav
320,192,165907,1,0,0:0:0:0:
448,192,165907,1,0,0:0:0:0:
192,192,165988,1,0,0:0:0:0:
448,192,166069,1,0,0:0:0:70:soft-hitwhistle.wav
64,192,166150,1,0,0:0:0:0:
192,192,166231,1,0,0:0:0:0:
448,192,166231,1,0,0:0:0:70:kick2.wav
320,192,166312,1,0,0:0:0:0:
192,192,166393,1,0,0:0:0:70:soft-hitwhistle.wav
64,192,166474,1,0,0:0:0:0:
320,192,166555,1,0,0:0:0:70:soft-hitclap.wav
448,192,166555,1,0,0:0:0:0:
64,192,166636,1,0,0:0:0:0:
192,192,166636,1,0,0:0:0:70:soft-hitclap.wav
64,192,166717,1,4,0:0:0:70:
320,192,166717,1,0,0:0:0:70:soft-hitclap.wav
448,192,166717,1,0,0:0:0:0:
192,192,166798,1,0,0:0:0:0:
320,192,166880,1,0,0:0:0:0:
64,192,166961,1,0,0:0:0:0:
448,192,167042,1,0,0:0:0:70:soft-hitclap.wav
192,192,167042,1,0,0:0:0:0:
320,192,167123,1,0,0:0:0:0:
64,192,167204,1,0,0:0:0:0:
192,192,167204,1,0,0:0:0:0:
448,192,167204,1,0,0:0:0:70:soft-hitclap.wav
320,192,167285,1,0,0:0:0:0:
64,192,167366,1,0,0:0:0:70:soft-hitwhistle.wav
192,192,167447,1,0,0:0:0:0:
320,192,167528,1,0,0:0:0:0:
448,192,167528,1,0,0:0:0:70:kick2.wav
192,192,167609,1,0,0:0:0:0:
64,192,167690,1,0,0:0:0:70:soft-hitwhistle.wav
448,192,167771,1,0,0:0:0:0:
64,192,167853,1,0,0:0:0:70:soft-hitclap.wav
192,192,167853,1,0,0:0:0:0:
320,192,167853,1,0,0:0:0:0:
448,192,167934,1,0,0:0:0:0:
64,192,168015,1,0,0:0:0:70:soft-hitwhistle.wav
192,192,168096,1,0,0:0:0:0:
320,192,168177,1,0,0:0:0:0:
448,192,168177,1,0,0:0:0:70:kick2.wav
64,192,168258,1,0,0:0:0:0:
320,192,168339,1,0,0:0:0:70:soft-hitwhistle.wav
192,192,168420,1,0,0:0:0:0:
64,192,168501,1,0,0:0:0:70:soft-hitclap.wav
320,192,168501,1,0,0:0:0:0:
448,192,168501,1,0,0:0:0:0:
192,192,168582,1,0,0:0:0:0:
320,192,168663,1,0,0:0:0:70:soft-hitwhistle.wav
64,192,168744,1,0,0:0:0:0:
192,192,168825,1,0,0:0:0:0:
448,192,168825,1,0,0:0:0:70:kick2.wav
320,192,168907,1,0,0:0:0:0:
448,192,168988,1,0,0:0:0:70:soft-hitwhistle.wav
64,192,169069,1,0,0:0:0:0:
192,192,169150,1,0,0:0:0:0:
320,192,169150,1,0,0:0:0:70:soft-hitclap.wav
448,192,169150,1,0,0:0:0:0:
64,192,169231,1,0,0:0:0:0:
320,192,169312,1,0,0:0:0:70:soft-hitwhistle.wav
192,192,169393,1,0,0:0:0:0:
64,192,169474,1,0,0:0:0:70:kick2.wav
448,192,169474,1,0,0:0:0:0:
320,192,169555,1,0,0:0:0:0:
64,192,169636,1,0,0:0:0:70:soft-hitwhistle.wav
192,192,169717,1,0,0:0:0:0:
64,192,169798,1,0,0:0:0:0:
320,192,169798,1,0,0:0:0:70:soft-hitclap.wav
448,192,169798,1,0,0:0:0:0:
192,192,169880,1,0,0:0:0:0:
448,192,169961,1,0,0:0:0:70:soft-hitwhistle.wav
320,192,170042,1,0,0:0:0:0:
64,192,170123,1,0,0:0:0:70:kick2.wav
192,192,170123,1,0,0:0:0:0:
448,192,170204,1,0,0:0:0:0:
192,192,170285,1,0,0:0:0:70:soft-hitwhistle.wav
320,192,170366,1,0,0:0:0:0:
64,192,170447,1,0,0:0:0:0:
192,192,170447,1,0,0:0:0:0:
448,192,170447,1,0,0:0:0:70:soft-hitclap.wav
320,192,170528,1,0,0:0:0:0:
192,192,170609,1,0,0:0:0:70:soft-hitwhistle.wav
64,192,170690,1,0,0:0:0:0:
320,192,170771,1,0,0:0:0:0:
448,192,170771,1,0,0:0:0:70:kick2.wav
64,192,170853,1,0,0:0:0:0:
448,192,170934,1,0,0:0:0:70:soft-hitwhistle.wav
192,192,171015,1,0,0:0:0:0:
64,192,171096,1,0,0:0:0:0:
320,192,171096,1,0,0:0:0:0:
448,192,171096,1,0,0:0:0:70:soft-hitclap.wav
192,192,171177,1,0,0:0:0:0:
320,192,171258,1,0,0:0:0:70:soft-hitwhistle.wav
64,192,171339,1,0,0:0:0:0:
192,192,171420,1,0,0:0:0:0:
448,192,171420,1,0,0:0:0:70:kick2.wav
64,192,171501,1,0,0:0:0:0:
320,192,171582,1,0,0:0:0:70:soft-hitclap.wav
448,192,171582,1,0,0:0:0:0:
64,192,171663,1,0,0:0:0:0:
192,192,171663,1,0,0:0:0:70:soft-hitclap.wav
320,192,171744,1,0,0:0:0:70:soft-hitclap.wav
448,192,171744,1,0,0:0:0:0:
64,192,171825,1,0,0:0:0:0:
192,192,171825,1,0,0:0:0:70:soft-hitclap.wav
320,192,171907,1,0,0:0:0:0:
64,0,171907,128,4,172393:0:0:0:70:
448,0,171907,128,0,172393:0:0:0:0:
